  0
SECTION
  2
HEADER
  9
$ACADVER
  1
AC1024
  9
$ACADMAINTVER
 70
    63
  9
$DWGCODEPAGE
  3
ANSI_1252
  9
$LASTSAVEDBY
  1
reception
  9
$INSBASE
 10
0.0
 20
0.0
 30
0.0
  9
$EXTMIN
 10
3.121702744219206
 20
84.10773367874297
 30
0.0
  9
$EXTMAX
 10
33.54958750528054
 20
101.2000086136811
 30
0.0
  9
$LIMMIN
 10
0.0
 20
0.0
  9
$LIMMAX
 10
420.0
 20
297.0
  9
$ORTHOMODE
 70
     0
  9
$REGENMODE
 70
     1
  9
$FILLMODE
 70
     1
  9
$QTEXTMODE
 70
     0
  9
$MIRRTEXT
 70
     1
  9
$LTSCALE
 40
0.04
  9
$ATTMODE
 70
     1
  9
$TEXTSIZE
 40
0.09375
  9
$TRACEWID
 40
1.0
  9
$TEXTSTYLE
  7
STYLE1
  9
$CLAYER
  8
0
  9
$CELTYPE
  6
BYLAYER
  9
$CECOLOR
 62
   256
  9
$CELTSCALE
 40
1.0
  9
$DISPSILH
 70
     0
  9
$DIMSCALE
 40
1.0
  9
$DIMASZ
 40
0.18
  9
$DIMEXO
 40
0.0625
  9
$DIMDLI
 40
0.38
  9
$DIMRND
 40
0.0
  9
$DIMDLE
 40
0.0
  9
$DIMEXE
 40
0.18
  9
$DIMTP
 40
0.0
  9
$DIMTM
 40
0.0
  9
$DIMTXT
 40
0.5
  9
$DIMCEN
 40
0.09
  9
$DIMTSZ
 40
0.0
  9
$DIMTOL
 70
     0
  9
$DIMLIM
 70
     0
  9
$DIMTIH
 70
     0
  9
$DIMTOH
 70
     0
  9
$DIMSE1
 70
     0
  9
$DIMSE2
 70
     0
  9
$DIMTAD
 70
     0
  9
$DIMZIN
 70
     0
  9
$DIMBLK
  1
ArchTick
  9
$DIMASO
 70
     1
  9
$DIMSHO
 70
     1
  9
$DIMPOST
  1
"
  9
$DIMAPOST
  1

  9
$DIMALT
 70
     0
  9
$DIMALTD
 70
     2
  9
$DIMALTF
 40
25.4
  9
$DIMLFAC
 40
1.0
  9
$DIMTOFL
 70
     0
  9
$DIMTVP
 40
0.0
  9
$DIMTIX
 70
     0
  9
$DIMSOXD
 70
     0
  9
$DIMSAH
 70
     0
  9
$DIMBLK1
  1

  9
$DIMBLK2
  1

  9
$DIMSTYLE
  2
STANDARD
  9
$DIMCLRD
 70
     3
  9
$DIMCLRE
 70
     3
  9
$DIMCLRT
 70
     0
  9
$DIMTFAC
 40
1.0
  9
$DIMGAP
 40
0.09
  9
$DIMJUST
 70
     0
  9
$DIMSD1
 70
     0
  9
$DIMSD2
 70
     0
  9
$DIMTOLJ
 70
     1
  9
$DIMTZIN
 70
     0
  9
$DIMALTZ
 70
     0
  9
$DIMALTTZ
 70
     0
  9
$DIMUPT
 70
     0
  9
$DIMDEC
 70
     4
  9
$DIMTDEC
 70
     4
  9
$DIMALTU
 70
     2
  9
$DIMALTTD
 70
     2
  9
$DIMTXSTY
  7
STANDARD
  9
$DIMAUNIT
 70
     0
  9
$DIMADEC
 70
     0
  9
$DIMALTRND
 40
0.0
  9
$DIMAZIN
 70
     0
  9
$DIMDSEP
 70
    46
  9
$DIMATFIT
 70
     3
  9
$DIMFRAC
 70
     2
  9
$DIMLDRBLK
  1

  9
$DIMLUNIT
 70
     5
  9
$DIMLWD
 70
    -2
  9
$DIMLWE
 70
    -2
  9
$DIMTMOVE
 70
     0
  9
$DIMFXL
 40
1.0
  9
$DIMFXLON
 70
     0
  9
$DIMJOGANG
 40
0.7853981633974483
  9
$DIMTFILL
 70
     0
  9
$DIMTFILLCLR
 70
     0
  9
$DIMARCSYM
 70
     0
  9
$DIMLTYPE
  6

  9
$DIMLTEX1
  6

  9
$DIMLTEX2
  6

  9
$DIMTXTDIRECTION
 70
     0
  9
$LUNITS
 70
     4
  9
$LUPREC
 70
     4
  9
$SKETCHINC
 40
1.0
  9
$FILLETRAD
 40
0.0625
  9
$AUNITS
 70
     0
  9
$AUPREC
 70
     0
  9
$MENU
  1
.
  9
$ELEVATION
 40
0.0
  9
$PELEVATION
 40
0.0
  9
$THICKNESS
 40
0.0
  9
$LIMCHECK
 70
     0
  9
$CHAMFERA
 40
10.0
  9
$CHAMFERB
 40
10.0
  9
$CHAMFERC
 40
20.0
  9
$CHAMFERD
 40
0.0
  9
$SKPOLY
 70
     0
  9
$TDCREATE
 40
2451158.474098033
  9
$TDUCREATE
 40
2451158.640764699
  9
$TDUPDATE
 40
2457219.379139213
  9
$TDUUPDATE
 40
2457219.545805879
  9
$TDINDWG
 40
0.8014197454
  9
$TDUSRTIMER
 40
0.8014197454
  9
$USRTIMER
 70
     1
  9
$ANGBASE
 50
0.0
  9
$ANGDIR
 70
     0
  9
$PDMODE
 70
     3
  9
$PDSIZE
 40
0.25
  9
$PLINEWID
 40
0.0
  9
$SPLFRAME
 70
     0
  9
$SPLINETYPE
 70
     6
  9
$SPLINESEGS
 70
     8
  9
$HANDSEED
  5
43F4
  9
$SURFTAB1
 70
     6
  9
$SURFTAB2
 70
     6
  9
$SURFTYPE
 70
     6
  9
$SURFU
 70
     6
  9
$SURFV
 70
     6
  9
$UCSBASE
  2

  9
$UCSNAME
  2

  9
$UCSORG
 10
0.0
 20
0.0
 30
0.0
  9
$UCSXDIR
 10
1.0
 20
0.0
 30
0.0
  9
$UCSYDIR
 10
0.0
 20
1.0
 30
0.0
  9
$UCSORTHOREF
  2

  9
$UCSORTHOVIEW
 70
     0
  9
$UCSORGTOP
 10
0.0
 20
0.0
 30
0.0
  9
$UCSORGBOTTOM
 10
0.0
 20
0.0
 30
0.0
  9
$UCSORGLEFT
 10
0.0
 20
0.0
 30
0.0
  9
$UCSORGRIGHT
 10
0.0
 20
0.0
 30
0.0
  9
$UCSORGFRONT
 10
0.0
 20
0.0
 30
0.0
  9
$UCSORGBACK
 10
0.0
 20
0.0
 30
0.0
  9
$PUCSBASE
  2

  9
$PUCSNAME
  2

  9
$PUCSORG
 10
0.0
 20
0.0
 30
0.0
  9
$PUCSXDIR
 10
1.0
 20
0.0
 30
0.0
  9
$PUCSYDIR
 10
0.0
 20
1.0
 30
0.0
  9
$PUCSORTHOREF
  2

  9
$PUCSORTHOVIEW
 70
     0
  9
$PUCSORGTOP
 10
0.0
 20
0.0
 30
0.0
  9
$PUCSORGBOTTOM
 10
0.0
 20
0.0
 30
0.0
  9
$PUCSORGLEFT
 10
0.0
 20
0.0
 30
0.0
  9
$PUCSORGRIGHT
 10
0.0
 20
0.0
 30
0.0
  9
$PUCSORGFRONT
 10
0.0
 20
0.0
 30
0.0
  9
$PUCSORGBACK
 10
0.0
 20
0.0
 30
0.0
  9
$USERI1
 70
     0
  9
$USERI2
 70
     0
  9
$USERI3
 70
     0
  9
$USERI4
 70
     0
  9
$USERI5
 70
     0
  9
$USERR1
 40
0.0
  9
$USERR2
 40
0.0
  9
$USERR3
 40
0.0
  9
$USERR4
 40
0.0
  9
$USERR5
 40
0.0
  9
$WORLDVIEW
 70
     1
  9
$SHADEDGE
 70
     3
  9
$SHADEDIF
 70
    70
  9
$TILEMODE
 70
     1
  9
$MAXACTVP
 70
    48
  9
$PINSBASE
 10
0.0
 20
0.0
 30
0.0
  9
$PLIMCHECK
 70
     0
  9
$PEXTMIN
 10
26.66999878883363
 20
20.31999878883363
 30
0.0
  9
$PEXTMAX
 10
240.0299890995026
 20
182.8799890995025
 30
0.0
  9
$PLIMMIN
 10
-6.350006103515625
 20
-6.349999904632568
  9
$PLIMMAX
 10
273.0499877929688
 20
209.5499939918518
  9
$UNITMODE
 70
     0
  9
$VISRETAIN
 70
     1
  9
$PLINEGEN
 70
     0
  9
$PSLTSCALE
 70
     1
  9
$TREEDEPTH
 70
  3020
  9
$CMLSTYLE
  2
STANDARD
  9
$CMLJUST
 70
     0
  9
$CMLSCALE
 40
20.0
  9
$PROXYGRAPHICS
 70
     1
  9
$MEASUREMENT
 70
     1
  9
$CELWEIGHT
370
    -1
  9
$ENDCAPS
280
     0
  9
$JOINSTYLE
280
     0
  9
$LWDISPLAY
290
     0
  9
$INSUNITS
 70
     0
  9
$HYPERLINKBASE
  1

  9
$STYLESHEET
  1

  9
$XEDIT
290
     1
  9
$CEPSNTYPE
380
     0
  9
$PSTYLEMODE
290
     1
  9
$FINGERPRINTGUID
  2
{D9A0EA57-ACFE-4C24-92E0-F27F11621814}
  9
$VERSIONGUID
  2
{FD8C4554-A504-46EA-BF1C-9A4E26EAC24C}
  9
$EXTNAMES
290
     1
  9
$PSVPSCALE
 40
0.0
  9
$OLESTARTUP
290
     0
  9
$SORTENTS
280
    96
  9
$INDEXCTL
280
     0
  9
$HIDETEXT
280
     0
  9
$XCLIPFRAME
280
     0
  9
$HALOGAP
280
     0
  9
$OBSCOLOR
 70
   257
  9
$OBSLTYPE
280
     0
  9
$INTERSECTIONDISPLAY
280
     0
  9
$INTERSECTIONCOLOR
 70
   257
  9
$DIMASSOC
280
     1
  9
$PROJECTNAME
  1

  9
$CAMERADISPLAY
290
     0
  9
$LENSLENGTH
 40
50.0
  9
$CAMERAHEIGHT
 40
0.0
  9
$STEPSPERSEC
 40
2.0
  9
$STEPSIZE
 40
6.0
  9
$3DDWFPREC
 40
2.0
  9
$PSOLWIDTH
 40
0.25
  9
$PSOLHEIGHT
 40
4.0
  9
$LOFTANG1
 40
1.570796326794896
  9
$LOFTANG2
 40
1.570796326794896
  9
$LOFTMAG1
 40
0.0
  9
$LOFTMAG2
 40
0.0
  9
$LOFTPARAM
 70
     7
  9
$LOFTNORMALS
280
     1
  9
$LATITUDE
 40
37.795
  9
$LONGITUDE
 40
-122.394
  9
$NORTHDIRECTION
 40
0.0
  9
$TIMEZONE
 70
 -8000
  9
$LIGHTGLYPHDISPLAY
280
     1
  9
$TILEMODELIGHTSYNCH
280
     1
  9
$CMATERIAL
347
42EA
  9
$SOLIDHIST
280
     0
  9
$SHOWHIST
280
     1
  9
$DWFFRAME
280
     2
  9
$DGNFRAME
280
     0
  9
$REALWORLDSCALE
290
     1
  9
$INTERFERECOLOR
 62
     1
  9
$INTERFEREOBJVS
345
430C
  9
$INTERFEREVPVS
346
4309
  9
$CSHADOW
280
     0
  9
$SHADOWPLANELOCATION
 40
0.0
  0
ENDSEC
  0
SECTION
  2
CLASSES
  0
CLASS
  1
RASTERVARIABLES
  2
AcDbRasterVariables
  3
ISM
 90
        0
 91
        1
280
     0
281
     0
  0
CLASS
  1
IMAGEDEF
  2
AcDbRasterImageDef
  3
ISM
 90
        0
 91
        6
280
     0
281
     0
  0
CLASS
  1
IMAGEDEF_REACTOR
  2
AcDbRasterImageDefReactor
  3
ISM
 90
        1
 91
        0
280
     0
281
     0
  0
CLASS
  1
IMAGE
  2
AcDbRasterImage
  3
ISM
 90
     2175
 91
        0
280
     0
281
     1
  0
CLASS
  1
DICTIONARYVAR
  2
AcDbDictionaryVar
  3
ObjectDBX Classes
 90
        0
 91
       15
280
     0
281
     0
  0
CLASS
  1
ACDBDICTIONARYWDFLT
  2
AcDbDictionaryWithDefault
  3
ObjectDBX Classes
 90
        0
 91
        1
280
     0
281
     0
  0
CLASS
  1
MATERIAL
  2
AcDbMaterial
  3
ObjectDBX Classes
 90
     1153
 91
        3
280
     0
281
     0
  0
CLASS
  1
VISUALSTYLE
  2
AcDbVisualStyle
  3
ObjectDBX Classes
 90
     4095
 91
       24
280
     0
281
     0
  0
CLASS
  1
TABLESTYLE
  2
AcDbTableStyle
  3
ObjectDBX Classes
 90
     4095
 91
        1
280
     0
281
     0
  0
CLASS
  1
SCALE
  2
AcDbScale
  3
ObjectDBX Classes
 90
     1153
 91
       17
280
     0
281
     0
  0
CLASS
  1
MLEADERSTYLE
  2
AcDbMLeaderStyle
  3
ACDB_MLEADERSTYLE_CLASS
 90
     4095
 91
        1
280
     0
281
     0
  0
CLASS
  1
CELLSTYLEMAP
  2
AcDbCellStyleMap
  3
ObjectDBX Classes
 90
     1152
 91
        1
280
     0
281
     0
  0
ENDSEC
  0
SECTION
  2
TABLES
  0
TABLE
  2
VPORT
  5
8
330
0
100
AcDbSymbolTable
 70
     1
  0
VPORT
  5
42E8
330
8
100
AcDbSymbolTableRecord
100
AcDbViewportTableRecord
  2
*Active
 70
     0
 10
0.0
 20
0.0
 11
1.0
 21
1.0
 12
19.70245401630739
 22
93.54840214489616
 13
0.0
 23
0.0
 14
10.0
 24
10.0
 15
10.0
 25
10.0
 16
0.0
 26
0.0
 36
1.0
 17
0.0
 27
0.0
 37
0.0
 40
22.34929161113094
 41
1.536585365853658
 42
50.0
 43
0.0
 44
0.0
 50
0.0
 51
0.0
 71
     0
 72
   100
 73
     1
 74
     1
 75
     0
 76
     0
 77
     0
 78
     0
281
     0
 65
     1
110
0.0
120
0.0
130
0.0
111
1.0
121
0.0
131
0.0
112
0.0
122
1.0
132
0.0
 79
     0
146
0.0
348
4308
 60
     3
 61
     5
292
     1
282
     1
141
0.0
142
0.0
 63
   250
421
  3355443
1001
ACAD_NAV_VCDISPLAY
1070
     3
  0
ENDTAB
  0
TABLE
  2
LTYPE
  5
5
330
0
100
AcDbSymbolTable
 70
     3
  0
LTYPE
  5
12
330
5
100
AcDbSymbolTableRecord
100
AcDbLinetypeTableRecord
  2
BYBLOCK
 70
     0
  3

 72
    65
 73
     0
 40
0.0
  0
LTYPE
  5
13
330
5
100
AcDbSymbolTableRecord
100
AcDbLinetypeTableRecord
  2
BYLAYER
 70
     0
  3

 72
    65
 73
     0
 40
0.0
  0
LTYPE
  5
14
330
5
100
AcDbSymbolTableRecord
100
AcDbLinetypeTableRecord
  2
CONTINUOUS
 70
     0
  3
Solid line
 72
    65
 73
     0
 40
0.0
  0
LTYPE
  5
3F94
330
5
100
AcDbSymbolTableRecord
100
AcDbLinetypeTableRecord
  2
DASHED
 70
     0
  3
Dashed __ __ __ __ __ __ __ __ __ __ __ __ __ _
 72
    65
 73
     2
 40
19.05
 49
12.7
 74
     0
 49
-6.349999999999999
 74
     0
  0
ENDTAB
  0
TABLE
  2
LAYER
  5
2
330
0
100
AcDbSymbolTable
 70
     3
  0
LAYER
  5
E
102
{ACAD_XDICTIONARY
360
43DA
102
}
330
2
100
AcDbSymbolTableRecord
100
AcDbLayerTableRecord
  2
0
 70
     0
 62
     7
  6
CONTINUOUS
370
    -3
390
3BB6
347
42FA
  0
LAYER
  5
3BC1
330
2
100
AcDbSymbolTableRecord
100
AcDbLayerTableRecord
  2
Defpoints
 70
     0
 62
     7
  6
CONTINUOUS
290
     0
370
    -3
390
3BB6
347
42FA
  0
LAYER
  5
42B5
102
{ACAD_XDICTIONARY
360
43DC
102
}
330
2
100
AcDbSymbolTableRecord
100
AcDbLayerTableRecord
  2
dimensions
 70
     0
 62
    -3
  6
CONTINUOUS
370
    -3
390
3BB6
347
42FA
  0
ENDTAB
  0
TABLE
  2
STYLE
  5
3
330
0
100
AcDbSymbolTable
 70
     3
  0
STYLE
  5
F
330
3
100
AcDbSymbolTableRecord
100
AcDbTextStyleTableRecord
  2
STANDARD
 70
     0
 40
0.5
 41
1.0
 50
0.0
 71
     0
 42
2.5
  3
stylu.ttf
  4

1001
ACAD
1000
Stylus BT
1071
       34
  0
STYLE
  5
36AA
330
3
100
AcDbSymbolTableRecord
100
AcDbTextStyleTableRecord
  2
STYLE1
 70
     0
 40
0.09375
 41
1.0
 50
0.0
 71
     0
 42
0.09375
  3
simplex.shx
  4

  0
STYLE
  5
3F93
330
3
100
AcDbSymbolTableRecord
100
AcDbTextStyleTableRecord
  2

 70
     1
 40
0.0
 41
1.0
 50
0.0
 71
     0
 42
0.09375
  3
ltypeshp.shx
  4

  0
ENDTAB
  0
TABLE
  2
VIEW
  5
6
330
0
100
AcDbSymbolTable
 70
     0
  0
ENDTAB
  0
TABLE
  2
UCS
  5
7
330
0
100
AcDbSymbolTable
 70
     0
  0
ENDTAB
  0
TABLE
  2
APPID
  5
9
330
0
100
AcDbSymbolTable
 70
     6
  0
APPID
  5
10
330
9
100
AcDbSymbolTableRecord
100
AcDbRegAppTableRecord
  2
ACAD
 70
     0
  0
APPID
  5
433B
330
9
100
AcDbSymbolTableRecord
100
AcDbRegAppTableRecord
  2
AcadAnnoPO
 70
     0
  0
APPID
  5
4341
330
9
100
AcDbSymbolTableRecord
100
AcDbRegAppTableRecord
  2
ACAD_DSTYLE_DIMJAG
 70
     0
  0
APPID
  5
4342
330
9
100
AcDbSymbolTableRecord
100
AcDbRegAppTableRecord
  2
ACAD_DSTYLE_DIMTALN
 70
     0
  0
APPID
  5
4387
330
9
100
AcDbSymbolTableRecord
100
AcDbRegAppTableRecord
  2
ACAD_EXEMPT_FROM_CAD_STANDARDS
 70
     0
  0
APPID
  5
43DE
330
9
100
AcDbSymbolTableRecord
100
AcDbRegAppTableRecord
  2
ACAD_NAV_VCDISPLAY
 70
     0
  0
ENDTAB
  0
TABLE
  2
DIMSTYLE
  5
A
330
0
100
AcDbSymbolTable
 70
     2
100
AcDbDimStyleTable
 71
     1
340
1D
  0
DIMSTYLE
105
1D
102
{ACAD_REACTORS
330
4268
330
4276
330
4284
330
4292
330
436B
330
43A2
330
43B0
330
43BE
330
43CC
102
}
330
A
100
AcDbSymbolTableRecord
100
AcDbDimStyleTableRecord
  2
STANDARD
 70
     0
  3
"
 73
     0
 74
     0
140
0.5
176
     3
177
     3
276
     2
277
     5
340
F
342
433D
1001
ACAD_DSTYLE_DIMJAG
1070
   388
1040
1.5
1001
ACAD_DSTYLE_DIMTALN
1070
   392
1070
     0
  0
ENDTAB
  0
TABLE
  2
BLOCK_RECORD
  5
1
330
0
100
AcDbSymbolTable
 70
    13
  0
BLOCK_RECORD
  5
18
330
1
100
AcDbSymbolTableRecord
100
AcDbBlockTableRecord
  2
*MODEL_SPACE
340
3BBB
 70
     0
280
     1
281
     0
  0
BLOCK_RECORD
  5
42A1
330
1
100
AcDbSymbolTableRecord
100
AcDbBlockTableRecord
  2
*Paper_Space
340
42A2
 70
     0
280
     1
281
     0
  0
BLOCK_RECORD
  5
3B56
330
1
100
AcDbSymbolTableRecord
100
AcDbBlockTableRecord
  2
1097-7_E
340
0
 70
     0
280
     1
281
     0
  0
BLOCK_RECORD
  5
4269
330
1
100
AcDbSymbolTableRecord
100
AcDbBlockTableRecord
  2
*D1
340
0
 70
     0
280
     1
281
     0
  0
BLOCK_RECORD
  5
4277
330
1
100
AcDbSymbolTableRecord
100
AcDbBlockTableRecord
  2
*D2
340
0
 70
     0
280
     1
281
     0
  0
BLOCK_RECORD
  5
4285
330
1
100
AcDbSymbolTableRecord
100
AcDbBlockTableRecord
  2
*D3
340
0
 70
     0
280
     1
281
     0
  0
BLOCK_RECORD
  5
4293
330
1
100
AcDbSymbolTableRecord
100
AcDbBlockTableRecord
  2
*D4
340
0
 70
     0
280
     1
281
     0
  0
BLOCK_RECORD
  5
433D
330
1
100
AcDbSymbolTableRecord
100
AcDbBlockTableRecord
  2
_ArchTick
340
0
102
{BLKREFS
331
4347
331
4348
331
4351
331
4352
331
435B
331
435C
331
4365
331
4366
331
4373
331
4374
331
439C
331
439D
331
43AA
331
43AB
331
43B8
331
43B9
331
43C6
331
43C7
331
43D4
331
43D5
102
}
 70
     0
280
     1
281
     0
  0
BLOCK_RECORD
  5
436C
330
1
100
AcDbSymbolTableRecord
100
AcDbBlockTableRecord
  2
*D6
340
0
 70
     0
280
     1
281
     0
  0
BLOCK_RECORD
  5
437A
330
1
100
AcDbSymbolTableRecord
100
AcDbBlockTableRecord
  2
*D7
340
0
 70
     0
280
     1
281
     0
  0
BLOCK_RECORD
  5
43A3
330
1
100
AcDbSymbolTableRecord
100
AcDbBlockTableRecord
  2
*D9
340
0
 70
     0
280
     1
281
     0
  0
BLOCK_RECORD
  5
43B1
330
1
100
AcDbSymbolTableRecord
100
AcDbBlockTableRecord
  2
*D10
340
0
 70
     0
280
     1
281
     0
  0
BLOCK_RECORD
  5
43BF
330
1
100
AcDbSymbolTableRecord
100
AcDbBlockTableRecord
  2
*D11
340
0
 70
     0
280
     1
281
     0
  0
BLOCK_RECORD
  5
43CD
330
1
100
AcDbSymbolTableRecord
100
AcDbBlockTableRecord
  2
*D12
340
0
 70
     0
280
     1
281
     0
  0
ENDTAB
  0
ENDSEC
  0
SECTION
  2
BLOCKS
  0
BLOCK
  5
19
330
18
100
AcDbEntity
  8
0
100
AcDbBlockBegin
  2
*MODEL_SPACE
 70
     0
 10
0.0
 20
0.0
 30
0.0
  3
*MODEL_SPACE
  1

  0
ENDBLK
  5
1A
330
18
100
AcDbEntity
  8
0
100
AcDbBlockEnd
  0
BLOCK
  5
42A3
330
42A1
100
AcDbEntity
 67
     1
  8
0
100
AcDbBlockBegin
  2
*Paper_Space
 70
     0
 10
0.0
 20
0.0
 30
0.0
  3
*Paper_Space
  1

  0
ENDBLK
  5
42A4
330
42A1
100
AcDbEntity
 67
     1
  8
0
100
AcDbBlockEnd
  0
BLOCK
  5
3B57
330
3B56
100
AcDbEntity
  8
0
100
AcDbBlockBegin
  2
1097-7_E
 70
     0
 10
0.0
 20
0.0
 30
0.0
  3
1097-7_E
  1

  0
LINE
  5
3B58
330
3B56
100
AcDbEntity
  8
0
100
AcDbLine
 10
3.5
 20
0.0000000000000053
 30
0.0
 11
3.499999999999998
 21
89.43749999999999
 31
0.0
  0
LINE
  5
3B59
330
3B56
100
AcDbEntity
  8
0
100
AcDbLine
 10
-3.5
 20
-0.0000000000000053
 30
0.0
 11
-3.5
 21
89.43749999999999
 31
0.0
  0
LINE
  5
3B5A
330
3B56
100
AcDbEntity
  8
0
100
AcDbLine
 10
-2.500000000000001
 20
14.125
 30
0.0
 11
-2.5
 21
82.62500000000001
 31
0.0
  0
LINE
  5
3B5B
330
3B56
100
AcDbEntity
  8
0
100
AcDbLine
 10
2.499999999999996
 20
14.12500000000001
 30
0.0
 11
2.500000000000001
 21
82.62500000000001
 31
0.0
  0
LINE
  5
3B5C
330
3B56
100
AcDbEntity
  8
0
100
AcDbLine
 10
1.499999999999998
 20
15.12500000000001
 30
0.0
 11
1.5
 21
81.62500000000001
 31
0.0
  0
LINE
  5
3B5D
330
3B56
100
AcDbEntity
  8
0
100
AcDbLine
 10
0.5
 20
15.125
 30
0.0
 11
0.5000000000000018
 21
81.62500000000001
 31
0.0
  0
LINE
  5
3B5E
330
3B56
100
AcDbEntity
  8
0
100
AcDbLine
 10
-0.5000000000000018
 20
15.125
 30
0.0
 11
-0.5
 21
81.62500000000001
 31
0.0
  0
LINE
  5
3B5F
330
3B56
100
AcDbEntity
  8
0
100
AcDbLine
 10
-1.500000000000001
 20
15.125
 30
0.0
 11
-1.5
 21
81.62500000000001
 31
0.0
  0
LINE
  5
3B60
330
3B56
100
AcDbEntity
  8
0
100
AcDbLine
 10
-3.5
 20
-0.0000000000000053
 30
0.0
 11
3.5
 21
0.0000000000000053
 31
0.0
  0
LINE
  5
3B61
330
3B56
100
AcDbEntity
  8
0
100
AcDbLine
 10
-2.937500000000005
 20
13.24999999999999
 30
0.0
 11
2.9375
 21
13.25
 31
0.0
  0
LINE
  5
3B62
330
3B56
100
AcDbEntity
  8
0
100
AcDbLine
 10
-2.500000000000001
 20
14.125
 30
0.0
 11
2.499999999999996
 21
14.12500000000001
 31
0.0
  0
LINE
  5
3B63
330
3B56
100
AcDbEntity
  8
0
100
AcDbLine
 10
-3.187500000000003
 20
12.99999999999999
 30
0.0
 11
3.1875
 21
13.00000000000001
 31
0.0
  0
LINE
  5
3B64
330
3B56
100
AcDbEntity
  8
0
100
AcDbLine
 10
-3.187500000000001
 20
-0.0000000000000053
 30
0.0
 11
-3.187500000000003
 21
12.99999999999999
 31
0.0
  0
ARC
  5
3B65
330
3B56
100
AcDbEntity
  8
0
100
AcDbCircle
 10
-3.778028086576522
 20
14.21713904328827
 30
0.0
 40
1.281345149979709
100
AcDbArc
 50
310.9934848747234
 51
355.8764127711199
  0
LINE
  5
3B66
330
3B56
100
AcDbEntity
  8
0
100
AcDbLine
 10
-2.937500000000005
 20
13.0
 30
0.0
 11
-2.937500000000005
 21
13.24999999999999
 31
0.0
  0
LINE
  5
3B67
330
3B56
100
AcDbEntity
  8
0
100
AcDbLine
 10
3.187500000000001
 20
0.0000000000000053
 30
0.0
 11
3.1875
 21
13.00000000000001
 31
0.0
  0
ARC
  5
3B68
330
3B56
100
AcDbEntity
  8
0
100
AcDbCircle
 10
3.778028086576519
 20
14.21713904328827
 30
0.0
 40
1.281345149979709
100
AcDbArc
 50
184.12358722888
 51
229.0065151252766
  0
LINE
  5
3B69
330
3B56
100
AcDbEntity
  8
0
100
AcDbLine
 10
2.937500000000001
 20
13.0
 30
0.0
 11
2.9375
 21
13.25
 31
0.0
  0
LINE
  5
3B6A
330
3B56
100
AcDbEntity
  8
0
100
AcDbLine
 10
-3.5
 20
89.43749999999999
 30
0.0
 11
3.499999999999998
 21
89.43749999999999
 31
0.0
  0
LINE
  5
3B6B
330
3B56
100
AcDbEntity
  8
0
100
AcDbLine
 10
-2.500000000000001
 20
83.68750000000002
 30
0.0
 11
2.499999999999998
 21
83.6875
 31
0.0
  0
LINE
  5
3B6C
330
3B56
100
AcDbEntity
  8
0
100
AcDbLine
 10
2.733133811154942
 20
82.81419568654792
 30
0.0
 11
-2.733133811154946
 21
82.8141956865479
 31
0.0
  0
LINE
  5
3B6D
330
3B56
100
AcDbEntity
  8
0
100
AcDbLine
 10
-3.062500000000001
 20
83.375
 30
0.0
 11
3.062499999999996
 21
83.375
 31
0.0
  0
LINE
  5
3B6E
330
3B56
100
AcDbEntity
  8
0
100
AcDbLine
 10
-2.75
 20
82.62500000000001
 30
0.0
 11
2.733133811154942
 21
82.62500000000001
 31
0.0
  0
LINE
  5
3B6F
330
3B56
100
AcDbEntity
  8
0
100
AcDbLine
 10
-3.500000000000001
 20
89.18750000000001
 30
0.0
 11
3.499999999999992
 21
89.18750000000001
 31
0.0
  0
LINE
  5
3B70
330
3B56
100
AcDbEntity
  8
0
100
AcDbLine
 10
-2.75
 20
87.8125
 30
0.0
 11
2.749999999999994
 21
87.8125
 31
0.0
  0
LINE
  5
3B71
330
3B56
100
AcDbEntity
  8
0
100
AcDbLine
 10
-2.75
 20
88.3125
 30
0.0
 11
2.749999999999994
 21
88.3125
 31
0.0
  0
ARC
  5
3B72
330
3B56
100
AcDbEntity
  8
0
100
AcDbCircle
 10
-2.75
 20
88.0625
 30
0.0
 40
0.25
100
AcDbArc
 50
90.0
 51
270.0
  0
ARC
  5
3B73
330
3B56
100
AcDbEntity
  8
0
100
AcDbCircle
 10
-2.501273046897312
 20
83.37542135397564
 30
0.0
 40
0.5612271112732353
100
AcDbArc
 50
180.0430161092873
 51
270.1299657044769
  0
LINE
  5
3B74
330
3B56
100
AcDbEntity
  8
0
100
AcDbLine
 10
-2.500000000000001
 20
83.6875
 30
0.0
 11
-2.500000000000001
 21
87.8125
 31
0.0
  0
ARC
  5
3B75
330
3B56
100
AcDbEntity
  8
0
100
AcDbCircle
 10
-2.500000000000001
 20
83.375
 30
0.0
 40
0.3125000000000071
100
AcDbArc
 50
90.0
 51
180.0
  0
ARC
  5
3B76
330
3B56
100
AcDbEntity
  8
0
100
AcDbCircle
 10
-2.733133811154946
 20
82.71959784327396
 30
0.0
 40
0.0945978432739558
100
AcDbArc
 50
90.0
 51
270.0
  0
POLYLINE
  5
3B77
330
3B56
100
AcDbEntity
  8
0
100
AcDb2dPolyline
 66
     1
 10
0.0
 20
0.0
 30
0.0
 70
     4
 75
     6
  0
VERTEX
  5
3B78
330
3B77
100
AcDbEntity
  8
0
100
AcDbVertex
100
AcDb2dVertex
 10
-2.749999999999998
 20
88.3125
 30
0.0
 70
    16
  0
VERTEX
  5
3B79
330
3B77
100
AcDbEntity
  8
0
100
AcDbVertex
100
AcDb2dVertex
 10
-2.749999999999998
 20
88.3125
 30
0.0
 70
     8
  0
VERTEX
  5
3B7A
330
3B77
100
AcDbEntity
  8
0
100
AcDbVertex
100
AcDb2dVertex
 10
-2.807897507381591
 20
88.3419806704442
 30
0.0
 70
     8
  0
VERTEX
  5
3B7B
330
3B77
100
AcDbEntity
  8
0
100
AcDbVertex
100
AcDb2dVertex
 10
-2.865894388711843
 20
88.37263457936595
 30
0.0
 70
     8
  0
VERTEX
  5
3B7C
330
3B77
100
AcDbEntity
  8
0
100
AcDbVertex
100
AcDb2dVertex
 10
-2.92367334149632
 20
88.40502979354431
 30
0.0
 70
     8
  0
VERTEX
  5
3B7D
330
3B77
100
AcDbEntity
  8
0
100
AcDbVertex
100
AcDb2dVertex
 10
-2.980917063240591
 20
88.43973437975842
 30
0.0
 70
     8
  0
VERTEX
  5
3B7E
330
3B77
100
AcDbEntity
  8
0
100
AcDbVertex
100
AcDb2dVertex
 10
-3.037308251450225
 20
88.47731640478732
 30
0.0
 70
     8
  0
VERTEX
  5
3B7F
330
3B77
100
AcDbEntity
  8
0
100
AcDbVertex
100
AcDb2dVertex
 10
-3.09252960363079
 20
88.5183439354102
 30
0.0
 70
     8
  0
VERTEX
  5
3B80
330
3B77
100
AcDbEntity
  8
0
100
AcDbVertex
100
AcDb2dVertex
 10
-3.146263817287856
 20
88.56338503840607
 30
0.0
 70
     8
  0
VERTEX
  5
3B81
330
3B77
100
AcDbEntity
  8
0
100
AcDbVertex
100
AcDb2dVertex
 10
-3.198193589926988
 20
88.61300778055399
 30
0.0
 70
     8
  0
VERTEX
  5
3B82
330
3B77
100
AcDbEntity
  8
0
100
AcDbVertex
100
AcDb2dVertex
 10
-3.247980924532152
 20
88.66767164124899
 30
0.0
 70
     8
  0
VERTEX
  5
3B83
330
3B77
100
AcDbEntity
  8
0
100
AcDbVertex
100
AcDb2dVertex
 10
-3.29520504600088
 20
88.72740175034918
 30
0.0
 70
     8
  0
VERTEX
  5
3B84
330
3B77
100
AcDbEntity
  8
0
100
AcDbVertex
100
AcDb2dVertex
 10
-3.339424484709098
 20
88.79211465032847
 30
0.0
 70
     8
  0
VERTEX
  5
3B85
330
3B77
100
AcDbEntity
  8
0
100
AcDbVertex
100
AcDb2dVertex
 10
-3.380197771032735
 20
88.86172688366084
 30
0.0
 70
     8
  0
VERTEX
  5
3B86
330
3B77
100
AcDbEntity
  8
0
100
AcDbVertex
100
AcDb2dVertex
 10
-3.417083435347716
 20
88.93615499282022
 30
0.0
 70
     8
  0
VERTEX
  5
3B87
330
3B77
100
AcDbEntity
  8
0
100
AcDbVertex
100
AcDb2dVertex
 10
-3.44964000802997
 20
89.01531552028059
 30
0.0
 70
     8
  0
VERTEX
  5
3B88
330
3B77
100
AcDbEntity
  8
0
100
AcDbVertex
100
AcDb2dVertex
 10
-3.477426019455421
 20
89.09912500851584
 30
0.0
 70
     8
  0
VERTEX
  5
3B89
330
3B77
100
AcDbEntity
  8
0
100
AcDbVertex
100
AcDb2dVertex
 10
-3.5
 20
89.18750000000001
 30
0.0
 70
     8
  0
VERTEX
  5
3B8A
330
3B77
100
AcDbEntity
  8
0
100
AcDbVertex
100
AcDb2dVertex
 10
-2.903978807757654
 20
88.39005575146257
 30
0.0
 70
    16
  0
VERTEX
  5
3B8B
330
3B77
100
AcDbEntity
  8
0
100
AcDbVertex
100
AcDb2dVertex
 10
-3.220825520725528
 20
88.55807758395435
 30
0.0
 70
    16
  0
VERTEX
  5
3B8C
330
3B77
100
AcDbEntity
  8
0
100
AcDbVertex
100
AcDb2dVertex
 10
-3.447144510499244
 20
88.9458202028447
 30
0.0
 70
    16
  0
VERTEX
  5
3B8D
330
3B77
100
AcDbEntity
  8
0
100
AcDbVertex
100
AcDb2dVertex
 10
-3.5
 20
89.18750000000001
 30
0.0
 70
    16
  0
SEQEND
  5
3B8E
330
3B77
100
AcDbEntity
  8
0
  0
LINE
  5
3B8F
330
3B56
100
AcDbEntity
  8
0
100
AcDbLine
 10
-3.500000000000001
 20
89.43749999999999
 30
0.0
 11
-3.500000000000001
 21
89.18750000000001
 31
0.0
  0
ARC
  5
3B90
330
3B56
100
AcDbEntity
  8
0
100
AcDbCircle
 10
2.749999999999994
 20
88.0625
 30
0.0
 40
0.25
100
AcDbArc
 50
270.0
 51
90.0
  0
LINE
  5
3B91
330
3B56
100
AcDbEntity
  8
0
100
AcDbLine
 10
2.5
 20
83.6875
 30
0.0
 11
2.499999999999998
 21
87.8125
 31
0.0
  0
ARC
  5
3B92
330
3B56
100
AcDbEntity
  8
0
100
AcDbCircle
 10
2.733133811154942
 20
82.71959784327396
 30
0.0
 40
0.0945978432739558
100
AcDbArc
 50
270.0
 51
90.0
  0
ARC
  5
3B93
330
3B56
100
AcDbEntity
  8
0
100
AcDbCircle
 10
2.501273046897308
 20
83.37542135397564
 30
0.0
 40
0.5612271112732353
100
AcDbArc
 50
269.8700342955231
 51
359.9569838907127
  0
ARC
  5
3B94
330
3B56
100
AcDbEntity
  8
0
100
AcDbCircle
 10
2.499999999999998
 20
83.375
 30
0.0
 40
0.3125000000000071
100
AcDbArc
 50
0.0
 51
90.0
  0
LINE
  5
3B95
330
3B56
100
AcDbEntity
  8
0
100
AcDbLine
 10
3.499999999999996
 20
89.43749999999999
 30
0.0
 11
3.499999999999992
 21
89.18750000000001
 31
0.0
  0
POLYLINE
  5
3B96
330
3B56
100
AcDbEntity
  8
0
100
AcDb2dPolyline
 66
     1
 10
0.0
 20
0.0
 30
0.0
 70
     4
 75
     6
  0
VERTEX
  5
3B97
330
3B96
100
AcDbEntity
  8
0
100
AcDbVertex
100
AcDb2dVertex
 10
2.749999999999994
 20
88.3125
 30
0.0
 70
    16
  0
VERTEX
  5
3B98
330
3B96
100
AcDbEntity
  8
0
100
AcDbVertex
100
AcDb2dVertex
 10
2.749999999999994
 20
88.3125
 30
0.0
 70
     8
  0
VERTEX
  5
3B99
330
3B96
100
AcDbEntity
  8
0
100
AcDbVertex
100
AcDb2dVertex
 10
2.807897507381587
 20
88.3419806704442
 30
0.0
 70
     8
  0
VERTEX
  5
3B9A
330
3B96
100
AcDbEntity
  8
0
100
AcDbVertex
100
AcDb2dVertex
 10
2.86589438871184
 20
88.37263457936595
 30
0.0
 70
     8
  0
VERTEX
  5
3B9B
330
3B96
100
AcDbEntity
  8
0
100
AcDbVertex
100
AcDb2dVertex
 10
2.923673341496316
 20
88.40502979354431
 30
0.0
 70
     8
  0
VERTEX
  5
3B9C
330
3B96
100
AcDbEntity
  8
0
100
AcDbVertex
100
AcDb2dVertex
 10
2.980917063240587
 20
88.43973437975842
 30
0.0
 70
     8
  0
VERTEX
  5
3B9D
330
3B96
100
AcDbEntity
  8
0
100
AcDbVertex
100
AcDb2dVertex
 10
3.037308251450221
 20
88.47731640478732
 30
0.0
 70
     8
  0
VERTEX
  5
3B9E
330
3B96
100
AcDbEntity
  8
0
100
AcDbVertex
100
AcDb2dVertex
 10
3.092529603630786
 20
88.5183439354102
 30
0.0
 70
     8
  0
VERTEX
  5
3B9F
330
3B96
100
AcDbEntity
  8
0
100
AcDbVertex
100
AcDb2dVertex
 10
3.146263817287852
 20
88.56338503840607
 30
0.0
 70
     8
  0
VERTEX
  5
3BA0
330
3B96
100
AcDbEntity
  8
0
100
AcDbVertex
100
AcDb2dVertex
 10
3.198193589926985
 20
88.61300778055399
 30
0.0
 70
     8
  0
VERTEX
  5
3BA1
330
3B96
100
AcDbEntity
  8
0
100
AcDbVertex
100
AcDb2dVertex
 10
3.247980924532148
 20
88.66767164124899
 30
0.0
 70
     8
  0
VERTEX
  5
3BA2
330
3B96
100
AcDbEntity
  8
0
100
AcDbVertex
100
AcDb2dVertex
 10
3.295205046000877
 20
88.72740175034918
 30
0.0
 70
     8
  0
VERTEX
  5
3BA3
330
3B96
100
AcDbEntity
  8
0
100
AcDbVertex
100
AcDb2dVertex
 10
3.339424484709095
 20
88.79211465032847
 30
0.0
 70
     8
  0
VERTEX
  5
3BA4
330
3B96
100
AcDbEntity
  8
0
100
AcDbVertex
100
AcDb2dVertex
 10
3.380197771032731
 20
88.86172688366084
 30
0.0
 70
     8
  0
VERTEX
  5
3BA5
330
3B96
100
AcDbEntity
  8
0
100
AcDbVertex
100
AcDb2dVertex
 10
3.417083435347713
 20
88.93615499282022
 30
0.0
 70
     8
  0
VERTEX
  5
3BA6
330
3B96
100
AcDbEntity
  8
0
100
AcDbVertex
100
AcDb2dVertex
 10
3.449640008029966
 20
89.01531552028059
 30
0.0
 70
     8
  0
VERTEX
  5
3BA7
330
3B96
100
AcDbEntity
  8
0
100
AcDbVertex
100
AcDb2dVertex
 10
3.477426019455418
 20
89.09912500851584
 30
0.0
 70
     8
  0
VERTEX
  5
3BA8
330
3B96
100
AcDbEntity
  8
0
100
AcDbVertex
100
AcDb2dVertex
 10
3.499999999999996
 20
89.18750000000001
 30
0.0
 70
     8
  0
VERTEX
  5
3BA9
330
3B96
100
AcDbEntity
  8
0
100
AcDbVertex
100
AcDb2dVertex
 10
2.903978807757651
 20
88.39005575146257
 30
0.0
 70
    16
  0
VERTEX
  5
3BAA
330
3B96
100
AcDbEntity
  8
0
100
AcDbVertex
100
AcDb2dVertex
 10
3.220825520725524
 20
88.55807758395435
 30
0.0
 70
    16
  0
VERTEX
  5
3BAB
330
3B96
100
AcDbEntity
  8
0
100
AcDbVertex
100
AcDb2dVertex
 10
3.44714451049924
 20
88.9458202028447
 30
0.0
 70
    16
  0
VERTEX
  5
3BAC
330
3B96
100
AcDbEntity
  8
0
100
AcDbVertex
100
AcDb2dVertex
 10
3.499999999999996
 20
89.18750000000001
 30
0.0
 70
    16
  0
SEQEND
  5
3BAD
330
3B96
100
AcDbEntity
  8
0
  0
ENDBLK
  5
3BAE
330
3B56
100
AcDbEntity
  8
0
100
AcDbBlockEnd
  0
BLOCK
  5
4274
330
4269
100
AcDbEntity
  8
0
100
AcDbBlockBegin
  2
*D1
 70
     1
 10
0.0
 20
0.0
 30
0.0
  3
*D1
  1

  0
LINE
  5
4343
330
4269
100
AcDbEntity
  8
dimensions
 62
     3
440
 16777216
370
    -2
100
AcDbLine
 10
17.26128785540314
 20
97.66771735549255
 30
0.0
 11
17.26128785540314
 21
100.2839984331156
 31
0.0
  0
LINE
  5
4344
330
4269
100
AcDbEntity
  8
dimensions
 62
     3
440
 16777216
370
    -2
100
AcDbLine
 10
8.261287855403139
 20
97.66771735549255
 30
0.0
 11
8.261287855403139
 21
100.2839984331156
 31
0.0
  0
LINE
  5
4345
330
4269
100
AcDbEntity
  8
dimensions
 62
     3
440
 16777216
370
    -2
100
AcDbLine
 10
17.26128785540314
 20
100.1039984331156
 30
0.0
 11
13.15985300913667
 21
100.1039984331156
 31
0.0
  0
LINE
  5
4346
330
4269
100
AcDbEntity
  8
dimensions
 62
     3
440
 16777216
370
    -2
100
AcDbLine
 10
8.261287855403139
 20
100.1039984331156
 30
0.0
 11
12.36272270166961
 21
100.1039984331156
 31
0.0
  0
INSERT
  5
4347
330
4269
100
AcDbEntity
  8
dimensions
 62
     3
440
 16777216
370
    -2
100
AcDbBlockReference
  2
_ArchTick
 10
17.26128785540314
 20
100.1039984331156
 30
0.0
 41
0.18
 42
0.18
 43
0.18
  0
INSERT
  5
4348
330
4269
100
AcDbEntity
  8
dimensions
 62
     3
440
 16777216
370
    -2
100
AcDbBlockReference
  2
_ArchTick
 10
8.261287855403139
 20
100.1039984331156
 30
0.0
 41
0.18
 42
0.18
 43
0.18
 50
180.0
  0
MTEXT
  5
4349
330
4269
100
AcDbEntity
  8
dimensions
 62
     0
440
 16777216
100
AcDbMText
 10
12.76128785540314
 20
100.1039984331156
 30
0.0
 40
0.5
 41
0.0
 46
0.0
 71
     5
 72
     1
  1
\A1;9"
 73
     1
 44
1.0
  0
POINT
  5
434A
330
4269
100
AcDbEntity
  8
Defpoints
 62
     0
440
 16777216
100
AcDbPoint
 10
17.26128785540314
 20
97.60521735549255
 30
0.0
  0
POINT
  5
434B
330
4269
100
AcDbEntity
  8
Defpoints
 62
     0
440
 16777216
100
AcDbPoint
 10
8.261287855403139
 20
97.60521735549255
 30
0.0
  0
POINT
  5
434C
330
4269
100
AcDbEntity
  8
Defpoints
 62
     0
440
 16777216
100
AcDbPoint
 10
8.261287855403139
 20
100.1039984331156
 30
0.0
  0
ENDBLK
  5
4275
330
4269
100
AcDbEntity
  8
0
100
AcDbBlockEnd
  0
BLOCK
  5
4282
330
4277
100
AcDbEntity
  8
0
100
AcDbBlockBegin
  2
*D2
 70
     1
 10
0.0
 20
0.0
 30
0.0
  3
*D2
  1

  0
LINE
  5
434D
330
4277
100
AcDbEntity
  8
dimensions
 62
     3
440
 16777216
370
    -2
100
AcDbLine
 10
8.198787855403139
 20
97.60521735549255
 30
0.0
 11
3.441702744219222
 21
97.60521735549255
 31
0.0
  0
LINE
  5
434E
330
4277
100
AcDbEntity
  8
dimensions
 62
     3
440
 16777216
370
    -2
100
AcDbLine
 10
8.19878785540312
 20
86.60521735549256
 30
0.0
 11
3.44170274421922
 21
86.60521735549256
 31
0.0
  0
LINE
  5
434F
330
4277
100
AcDbEntity
  8
dimensions
 62
     3
440
 16777216
370
    -2
100
AcDbLine
 10
3.621702744219222
 20
97.60521735549255
 30
0.0
 11
3.621702744219221
 21
92.66538573030954
 31
0.0
  0
LINE
  5
4350
330
4277
100
AcDbEntity
  8
dimensions
 62
     3
440
 16777216
370
    -2
100
AcDbLine
 10
3.62170274421922
 20
86.60521735549256
 30
0.0
 11
3.621702744219221
 21
91.54504898067557
 31
0.0
  0
INSERT
  5
4351
330
4277
100
AcDbEntity
  8
dimensions
 62
     3
440
 16777216
370
    -2
100
AcDbBlockReference
  2
_ArchTick
 10
3.621702744219222
 20
97.60521735549255
 30
0.0
 41
0.18
 42
0.18
 43
0.18
 50
90.0
  0
INSERT
  5
4352
330
4277
100
AcDbEntity
  8
dimensions
 62
     3
440
 16777216
370
    -2
100
AcDbBlockReference
  2
_ArchTick
 10
3.62170274421922
 20
86.60521735549256
 30
0.0
 41
0.18
 42
0.18
 43
0.18
 50
270.0
  0
MTEXT
  5
4353
330
4277
100
AcDbEntity
  8
dimensions
 62
     0
440
 16777216
100
AcDbMText
 10
3.621702744219206
 20
92.10521735549255
 30
0.0
 40
0.5
 41
0.0
 46
0.0
 71
     5
 72
     1
  1
\A1;11"
 11
0.0000000000000001
 21
1.0
 31
0.0
 73
     1
 44
1.0
  0
POINT
  5
4354
330
4277
100
AcDbEntity
  8
Defpoints
 62
     0
440
 16777216
100
AcDbPoint
 10
8.261287855403139
 20
97.60521735549255
 30
0.0
  0
POINT
  5
4355
330
4277
100
AcDbEntity
  8
Defpoints
 62
     0
440
 16777216
100
AcDbPoint
 10
8.26128785540312
 20
86.60521735549256
 30
0.0
  0
POINT
  5
4356
330
4277
100
AcDbEntity
  8
Defpoints
 62
     0
440
 16777216
100
AcDbPoint
 10
3.62170274421922
 20
86.60521735549256
 30
0.0
  0
ENDBLK
  5
4283
330
4277
100
AcDbEntity
  8
0
100
AcDbBlockEnd
  0
BLOCK
  5
4290
330
4285
100
AcDbEntity
  8
0
100
AcDbBlockBegin
  2
*D3
 70
     1
 10
0.0
 20
0.0
 30
0.0
  3
*D3
  1

  0
LINE
  5
4357
330
4285
100
AcDbEntity
  8
dimensions
 62
     3
440
 16777216
370
    -2
100
AcDbLine
 10
25.86292083861389
 20
97.66771735549246
 30
0.0
 11
25.86292083861389
 21
100.8800086136811
 31
0.0
  0
LINE
  5
4358
330
4285
100
AcDbEntity
  8
dimensions
 62
     3
440
 16777216
370
    -2
100
AcDbLine
 10
28.61292083861389
 20
97.66771735549246
 30
0.0
 11
28.61292083861389
 21
100.8800086136811
 31
0.0
  0
LINE
  5
4359
330
4285
100
AcDbEntity
  8
dimensions
 62
     3
440
 16777216
370
    -2
100
AcDbLine
 10
25.86292083861389
 20
100.7000086136811
 30
0.0
 11
26.14554162924346
 21
100.7000086136811
 31
0.0
  0
LINE
  5
435A
330
4285
100
AcDbEntity
  8
dimensions
 62
     3
440
 16777216
370
    -2
100
AcDbLine
 10
28.61292083861389
 20
100.7000086136811
 30
0.0
 11
28.33030004798431
 21
100.7000086136811
 31
0.0
  0
INSERT
  5
435B
330
4285
100
AcDbEntity
  8
dimensions
 62
     3
440
 16777216
370
    -2
100
AcDbBlockReference
  2
_ArchTick
 10
25.86292083861389
 20
100.7000086136811
 30
0.0
 41
0.18
 42
0.18
 43
0.18
 50
180.0
  0
INSERT
  5
435C
330
4285
100
AcDbEntity
  8
dimensions
 62
     3
440
 16777216
370
    -2
100
AcDbBlockReference
  2
_ArchTick
 10
28.61292083861389
 20
100.7000086136811
 30
0.0
 41
0.18
 42
0.18
 43
0.18
  0
MTEXT
  5
435D
330
4285
100
AcDbEntity
  8
dimensions
 62
     0
440
 16777216
100
AcDbMText
 10
27.23792083861389
 20
100.7000086136811
 30
0.0
 40
0.5
 41
0.0
 46
0.0
 71
     5
 72
     1
  1
\A1;2 3/4"
 73
     1
 44
1.0
  0
POINT
  5
435E
330
4285
100
AcDbEntity
  8
Defpoints
 62
     0
440
 16777216
100
AcDbPoint
 10
25.86292083861389
 20
97.60521735549247
 30
0.0
  0
POINT
  5
435F
330
4285
100
AcDbEntity
  8
Defpoints
 62
     0
440
 16777216
100
AcDbPoint
 10
28.61292083861389
 20
97.60521735549247
 30
0.0
  0
POINT
  5
4360
330
4285
100
AcDbEntity
  8
Defpoints
 62
     0
440
 16777216
100
AcDbPoint
 10
28.61292083861389
 20
100.7000086136811
 30
0.0
  0
ENDBLK
  5
4291
330
4285
100
AcDbEntity
  8
0
100
AcDbBlockEnd
  0
BLOCK
  5
429E
330
4293
100
AcDbEntity
  8
0
100
AcDbBlockBegin
  2
*D4
 70
     1
 10
0.0
 20
0.0
 30
0.0
  3
*D4
  1

  0
LINE
  5
4361
330
4293
100
AcDbEntity
  8
dimensions
 62
     3
440
 16777216
370
    -2
100
AcDbLine
 10
26.86292083861386
 20
86.54271735549256
 30
0.0
 11
26.86292083861386
 21
84.42773367874295
 31
0.0
  0
LINE
  5
4362
330
4293
100
AcDbEntity
  8
dimensions
 62
     3
440
 16777216
370
    -2
100
AcDbLine
 10
28.61292083861389
 20
86.54271735549256
 30
0.0
 11
28.61292083861389
 21
84.42773367874295
 31
0.0
  0
LINE
  5
4363
330
4293
100
AcDbEntity
  8
dimensions
 62
     3
440
 16777216
370
    -2
100
AcDbLine
 10
26.86292083861386
 20
84.60773367874296
 30
0.0
 11
28.61292083861389
 21
84.60773367874296
 31
0.0
  0
LINE
  5
4364
330
4293
100
AcDbEntity
  8
dimensions
 62
     3
440
 16777216
370
    -2
100
AcDbLine
 10
28.61292083861389
 20
84.60773367874296
 30
0.0
 11
28.79292083861389
 21
84.60773367874296
 31
0.0
  0
INSERT
  5
4365
330
4293
100
AcDbEntity
  8
dimensions
 62
     3
440
 16777216
370
    -2
100
AcDbBlockReference
  2
_ArchTick
 10
26.86292083861386
 20
84.60773367874296
 30
0.0
 41
0.18
 42
0.18
 43
0.18
 50
180.0
  0
INSERT
  5
4366
330
4293
100
AcDbEntity
  8
dimensions
 62
     3
440
 16777216
370
    -2
100
AcDbBlockReference
  2
_ArchTick
 10
28.61292083861389
 20
84.60773367874296
 30
0.0
 41
0.18
 42
0.18
 43
0.18
  0
MTEXT
  5
4367
330
4293
100
AcDbEntity
  8
dimensions
 62
     0
440
 16777216
100
AcDbMText
 10
29.81191058971198
 20
84.60773367874296
 30
0.0
 40
0.5
 41
0.0
 46
0.0
 71
     5
 72
     1
  1
\A1;1 3/4"
 73
     1
 44
1.0
  0
POINT
  5
4368
330
4293
100
AcDbEntity
  8
Defpoints
 62
     0
440
 16777216
100
AcDbPoint
 10
26.86292083861386
 20
86.60521735549256
 30
0.0
  0
POINT
  5
4369
330
4293
100
AcDbEntity
  8
Defpoints
 62
     0
440
 16777216
100
AcDbPoint
 10
28.61292083861389
 20
86.60521735549256
 30
0.0
  0
POINT
  5
436A
330
4293
100
AcDbEntity
  8
Defpoints
 62
     0
440
 16777216
100
AcDbPoint
 10
28.61292083861389
 20
84.60773367874296
 30
0.0
  0
ENDBLK
  5
429F
330
4293
100
AcDbEntity
  8
0
100
AcDbBlockEnd
  0
BLOCK
  5
433F
330
433D
100
AcDbEntity
  8
0
100
AcDbBlockBegin
  2
_ArchTick
 70
     0
 10
0.0
 20
0.0
 30
0.0
  3
_ArchTick
  1

  0
LWPOLYLINE
  5
433E
330
433D
100
AcDbEntity
  8
0
  6
ByBlock
 62
     0
100
AcDbPolyline
 90
        2
 70
     0
 43
0.15
 10
-0.5
 20
-0.5
 10
0.5
 20
0.5
  0
ENDBLK
  5
4340
330
433D
100
AcDbEntity
  8
0
100
AcDbBlockEnd
  0
BLOCK
  5
436D
330
436C
100
AcDbEntity
  8
0
100
AcDbBlockBegin
  2
*D6
 70
     1
 10
0.0
 20
0.0
 30
0.0
  3
*D6
  1

  0
LINE
  5
436F
330
436C
100
AcDbEntity
  8
0
 62
     3
440
 16777216
370
    -2
100
AcDbLine
 10
8.261287855403139
 20
97.66771735549255
 30
0.0
 11
8.261287855403139
 21
99.70667805059116
 31
0.0
  0
LINE
  5
4370
330
436C
100
AcDbEntity
  8
0
 62
     3
440
 16777216
370
    -2
100
AcDbLine
 10
17.26128785540314
 20
97.66771735549255
 30
0.0
 11
17.26128785540314
 21
99.70667805059116
 31
0.0
  0
LINE
  5
4371
330
436C
100
AcDbEntity
  8
0
 62
     3
440
 16777216
370
    -2
100
AcDbLine
 10
8.261287855403139
 20
99.52667805059116
 30
0.0
 11
12.36272270166961
 21
99.52667805059116
 31
0.0
  0
LINE
  5
4372
330
436C
100
AcDbEntity
  8
0
 62
     3
440
 16777216
370
    -2
100
AcDbLine
 10
17.26128785540314
 20
99.52667805059116
 30
0.0
 11
13.15985300913667
 21
99.52667805059116
 31
0.0
  0
INSERT
  5
4373
330
436C
100
AcDbEntity
  8
0
 62
     3
440
 16777216
370
    -2
100
AcDbBlockReference
  2
_ArchTick
 10
8.261287855403139
 20
99.52667805059116
 30
0.0
 41
0.18
 42
0.18
 43
0.18
 50
180.0
  0
INSERT
  5
4374
330
436C
100
AcDbEntity
  8
0
 62
     3
440
 16777216
370
    -2
100
AcDbBlockReference
  2
_ArchTick
 10
17.26128785540314
 20
99.52667805059116
 30
0.0
 41
0.18
 42
0.18
 43
0.18
  0
MTEXT
  5
4375
330
436C
100
AcDbEntity
  8
0
 62
     0
440
 16777216
100
AcDbMText
 10
12.76128785540314
 20
99.52667805059116
 30
0.0
 40
0.5
 41
0.0
 46
0.0
 71
     5
 72
     1
  1
\A1;9"
 73
     1
 44
1.0
  0
POINT
  5
4376
330
436C
100
AcDbEntity
  8
Defpoints
 62
     0
440
 16777216
100
AcDbPoint
 10
8.261287855403139
 20
97.60521735549255
 30
0.0
  0
POINT
  5
4377
330
436C
100
AcDbEntity
  8
Defpoints
 62
     0
440
 16777216
100
AcDbPoint
 10
17.26128785540314
 20
97.60521735549255
 30
0.0
  0
POINT
  5
4378
330
436C
100
AcDbEntity
  8
Defpoints
 62
     0
440
 16777216
100
AcDbPoint
 10
17.26128785540314
 20
99.52667805059116
 30
0.0
  0
ENDBLK
  5
436E
330
436C
100
AcDbEntity
  8
0
100
AcDbBlockEnd
  0
BLOCK
  5
437B
330
437A
100
AcDbEntity
  8
0
100
AcDbBlockBegin
  2
*D7
 70
     1
 10
0.0
 20
0.0
 30
0.0
  3
*D7
  1

  0
LINE
  5
4398
330
437A
100
AcDbEntity
  8
0
 62
     3
440
 16777216
370
    -2
100
AcDbLine
 10
8.198787855403139
 20
97.60521735549255
 30
0.0
 11
6.949764651655948
 21
97.60521735549255
 31
0.0
  0
LINE
  5
4399
330
437A
100
AcDbEntity
  8
0
 62
     3
440
 16777216
370
    -2
100
AcDbLine
 10
7.192264651655943
 20
86.60521735549256
 30
0.0
 11
7.309764651655946
 21
86.60521735549256
 31
0.0
  0
LINE
  5
439A
330
437A
100
AcDbEntity
  8
0
 62
     3
440
 16777216
370
    -2
100
AcDbLine
 10
7.129764651655948
 20
97.60521735549255
 30
0.0
 11
7.129764651655947
 21
92.66538573030954
 31
0.0
  0
LINE
  5
439B
330
437A
100
AcDbEntity
  8
0
 62
     3
440
 16777216
370
    -2
100
AcDbLine
 10
7.129764651655946
 20
86.60521735549256
 30
0.0
 11
7.129764651655947
 21
91.54504898067557
 31
0.0
  0
INSERT
  5
439C
330
437A
100
AcDbEntity
  8
0
 62
     3
440
 16777216
370
    -2
100
AcDbBlockReference
  2
_ArchTick
 10
7.129764651655948
 20
97.60521735549255
 30
0.0
 41
0.18
 42
0.18
 43
0.18
 50
90.0
  0
INSERT
  5
439D
330
437A
100
AcDbEntity
  8
0
 62
     3
440
 16777216
370
    -2
100
AcDbBlockReference
  2
_ArchTick
 10
7.129764651655946
 20
86.60521735549256
 30
0.0
 41
0.18
 42
0.18
 43
0.18
 50
270.0
  0
MTEXT
  5
439E
330
437A
100
AcDbEntity
  8
0
 62
     0
440
 16777216
100
AcDbMText
 10
7.129764651655932
 20
92.10521735549255
 30
0.0
 40
0.5
 41
0.0
 46
0.0
 71
     5
 72
     1
  1
\A1;11"
 11
0.0000000000000001
 21
1.0
 31
0.0
 73
     1
 44
1.0
  0
POINT
  5
439F
330
437A
100
AcDbEntity
  8
Defpoints
 62
     0
440
 16777216
100
AcDbPoint
 10
8.261287855403139
 20
97.60521735549255
 30
0.0
  0
POINT
  5
43A0
330
437A
100
AcDbEntity
  8
Defpoints
 62
     0
440
 16777216
100
AcDbPoint
 10
7.129764651655943
 20
86.60521735549256
 30
0.0
  0
POINT
  5
43A1
330
437A
100
AcDbEntity
  8
Defpoints
 62
     0
440
 16777216
100
AcDbPoint
 10
7.129764651655946
 20
86.60521735549256
 30
0.0
  0
ENDBLK
  5
437C
330
437A
100
AcDbEntity
  8
0
100
AcDbBlockEnd
  0
BLOCK
  5
43A4
330
43A3
100
AcDbEntity
  8
0
100
AcDbBlockBegin
  2
*D9
 70
     1
 10
0.0
 20
0.0
 30
0.0
  3
*D9
  1

  0
LINE
  5
43A6
330
43A3
100
AcDbEntity
  8
0
 62
     3
440
 16777216
370
    -2
100
AcDbLine
 10
8.198787855403141
 20
86.60521735549256
 30
0.0
 11
6.217112559089363
 21
86.60521735549256
 31
0.0
  0
LINE
  5
43A7
330
43A3
100
AcDbEntity
  8
0
 62
     3
440
 16777216
370
    -2
100
AcDbLine
 10
8.198787855403157
 20
97.60521735549255
 30
0.0
 11
6.217112559089365
 21
97.60521735549255
 31
0.0
  0
LINE
  5
43A8
330
43A3
100
AcDbEntity
  8
0
 62
     3
440
 16777216
370
    -2
100
AcDbLine
 10
6.397112559089363
 20
86.60521735549256
 30
0.0
 11
6.397112559089364
 21
91.54504898067557
 31
0.0
  0
LINE
  5
43A9
330
43A3
100
AcDbEntity
  8
0
 62
     3
440
 16777216
370
    -2
100
AcDbLine
 10
6.397112559089364
 20
97.60521735549255
 30
0.0
 11
6.397112559089364
 21
92.66538573030954
 31
0.0
  0
INSERT
  5
43AA
330
43A3
100
AcDbEntity
  8
0
 62
     3
440
 16777216
370
    -2
100
AcDbBlockReference
  2
_ArchTick
 10
6.397112559089363
 20
86.60521735549256
 30
0.0
 41
0.18
 42
0.18
 43
0.18
 50
270.0
  0
INSERT
  5
43AB
330
43A3
100
AcDbEntity
  8
0
 62
     3
440
 16777216
370
    -2
100
AcDbBlockReference
  2
_ArchTick
 10
6.397112559089364
 20
97.60521735549255
 30
0.0
 41
0.18
 42
0.18
 43
0.18
 50
90.0
  0
MTEXT
  5
43AC
330
43A3
100
AcDbEntity
  8
0
 62
     0
440
 16777216
100
AcDbMText
 10
6.397112559089348
 20
92.10521735549255
 30
0.0
 40
0.5
 41
0.0
 46
0.0
 71
     5
 72
     1
  1
\A1;11"
 11
0.0000000000000001
 21
1.0
 31
0.0
 73
     1
 44
1.0
  0
POINT
  5
43AD
330
43A3
100
AcDbEntity
  8
Defpoints
 62
     0
440
 16777216
100
AcDbPoint
 10
8.261287855403141
 20
86.60521735549256
 30
0.0
  0
POINT
  5
43AE
330
43A3
100
AcDbEntity
  8
Defpoints
 62
     0
440
 16777216
100
AcDbPoint
 10
8.261287855403157
 20
97.60521735549255
 30
0.0
  0
POINT
  5
43AF
330
43A3
100
AcDbEntity
  8
Defpoints
 62
     0
440
 16777216
100
AcDbPoint
 10
6.397112559089364
 20
97.60521735549255
 30
0.0
  0
ENDBLK
  5
43A5
330
43A3
100
AcDbEntity
  8
0
100
AcDbBlockEnd
  0
BLOCK
  5
43B2
330
43B1
100
AcDbEntity
  8
0
100
AcDbBlockBegin
  2
*D10
 70
     1
 10
0.0
 20
0.0
 30
0.0
  3
*D10
  1

  0
LINE
  5
43B4
330
43B1
100
AcDbEntity
  8
0
 62
     3
440
 16777216
370
    -2
100
AcDbLine
 10
25.86292083861389
 20
97.66771735549246
 30
0.0
 11
25.86292083861389
 21
98.89449051831981
 31
0.0
  0
LINE
  5
43B5
330
43B1
100
AcDbEntity
  8
0
 62
     3
440
 16777216
370
    -2
100
AcDbLine
 10
28.61292083861389
 20
97.66771735549246
 30
0.0
 11
28.61292083861389
 21
98.89449051831981
 31
0.0
  0
LINE
  5
43B6
330
43B1
100
AcDbEntity
  8
0
 62
     3
440
 16777216
370
    -2
100
AcDbLine
 10
25.86292083861389
 20
98.7144905183198
 30
0.0
 11
26.14554162924346
 21
98.7144905183198
 31
0.0
  0
LINE
  5
43B7
330
43B1
100
AcDbEntity
  8
0
 62
     3
440
 16777216
370
    -2
100
AcDbLine
 10
28.61292083861389
 20
98.7144905183198
 30
0.0
 11
28.33030004798431
 21
98.7144905183198
 31
0.0
  0
INSERT
  5
43B8
330
43B1
100
AcDbEntity
  8
0
 62
     3
440
 16777216
370
    -2
100
AcDbBlockReference
  2
_ArchTick
 10
25.86292083861389
 20
98.7144905183198
 30
0.0
 41
0.18
 42
0.18
 43
0.18
 50
180.0
  0
INSERT
  5
43B9
330
43B1
100
AcDbEntity
  8
0
 62
     3
440
 16777216
370
    -2
100
AcDbBlockReference
  2
_ArchTick
 10
28.61292083861389
 20
98.7144905183198
 30
0.0
 41
0.18
 42
0.18
 43
0.18
  0
MTEXT
  5
43BA
330
43B1
100
AcDbEntity
  8
0
 62
     0
440
 16777216
100
AcDbMText
 10
27.23792083861389
 20
98.7144905183198
 30
0.0
 40
0.5
 41
0.0
 46
0.0
 71
     5
 72
     1
  1
\A1;2 3/4"
 73
     1
 44
1.0
  0
POINT
  5
43BB
330
43B1
100
AcDbEntity
  8
Defpoints
 62
     0
440
 16777216
100
AcDbPoint
 10
25.86292083861389
 20
97.60521735549247
 30
0.0
  0
POINT
  5
43BC
330
43B1
100
AcDbEntity
  8
Defpoints
 62
     0
440
 16777216
100
AcDbPoint
 10
28.61292083861389
 20
97.60521735549247
 30
0.0
  0
POINT
  5
43BD
330
43B1
100
AcDbEntity
  8
Defpoints
 62
     0
440
 16777216
100
AcDbPoint
 10
28.61292083861389
 20
98.7144905183198
 30
0.0
  0
ENDBLK
  5
43B3
330
43B1
100
AcDbEntity
  8
0
100
AcDbBlockEnd
  0
BLOCK
  5
43C0
330
43BF
100
AcDbEntity
  8
0
100
AcDbBlockBegin
  2
*D11
 70
     1
 10
0.0
 20
0.0
 30
0.0
  3
*D11
  1

  0
LINE
  5
43C2
330
43BF
100
AcDbEntity
  8
0
 62
     3
440
 16777216
370
    -2
100
AcDbLine
 10
25.80042083861389
 20
97.60521735549247
 30
0.0
 11
24.21776344881108
 21
97.60521735549247
 31
0.0
  0
LINE
  5
43C3
330
43BF
100
AcDbEntity
  8
0
 62
     3
440
 16777216
370
    -2
100
AcDbLine
 10
26.80042083861386
 20
90.73021735549245
 30
0.0
 11
24.21776344881108
 21
90.73021735549245
 31
0.0
  0
LINE
  5
43C4
330
43BF
100
AcDbEntity
  8
0
 62
     3
440
 16777216
370
    -2
100
AcDbLine
 10
24.39776344881108
 20
97.60521735549247
 30
0.0
 11
24.39776344881108
 21
95.26961340234455
 31
0.0
  0
LINE
  5
43C5
330
43BF
100
AcDbEntity
  8
0
 62
     3
440
 16777216
370
    -2
100
AcDbLine
 10
24.39776344881108
 20
90.73021735549245
 30
0.0
 11
24.39776344881108
 21
93.06582130864033
 31
0.0
  0
INSERT
  5
43C6
330
43BF
100
AcDbEntity
  8
0
 62
     3
440
 16777216
370
    -2
100
AcDbBlockReference
  2
_ArchTick
 10
24.39776344881108
 20
97.60521735549247
 30
0.0
 41
0.18
 42
0.18
 43
0.18
 50
90.0
  0
INSERT
  5
43C7
330
43BF
100
AcDbEntity
  8
0
 62
     3
440
 16777216
370
    -2
100
AcDbBlockReference
  2
_ArchTick
 10
24.39776344881108
 20
90.73021735549245
 30
0.0
 41
0.18
 42
0.18
 43
0.18
 50
270.0
  0
MTEXT
  5
43C8
330
43BF
100
AcDbEntity
  8
0
 62
     0
440
 16777216
100
AcDbMText
 10
24.39776344881106
 20
94.16771735549245
 30
0.0
 40
0.5
 41
0.0
 46
0.0
 71
     5
 72
     1
  1
\A1;6 7/8"
 11
0.0000000000000001
 21
1.0
 31
0.0
 73
     1
 44
1.0
  0
POINT
  5
43C9
330
43BF
100
AcDbEntity
  8
Defpoints
 62
     0
440
 16777216
100
AcDbPoint
 10
25.86292083861389
 20
97.60521735549247
 30
0.0
  0
POINT
  5
43CA
330
43BF
100
AcDbEntity
  8
Defpoints
 62
     0
440
 16777216
100
AcDbPoint
 10
26.86292083861386
 20
90.73021735549245
 30
0.0
  0
POINT
  5
43CB
330
43BF
100
AcDbEntity
  8
Defpoints
 62
     0
440
 16777216
100
AcDbPoint
 10
24.39776344881108
 20
90.73021735549245
 30
0.0
  0
ENDBLK
  5
43C1
330
43BF
100
AcDbEntity
  8
0
100
AcDbBlockEnd
  0
BLOCK
  5
43CE
330
43CD
100
AcDbEntity
  8
0
100
AcDbBlockBegin
  2
*D12
 70
     1
 10
0.0
 20
0.0
 30
0.0
  3
*D12
  1

  0
LINE
  5
43D0
330
43CD
100
AcDbEntity
  8
0
 62
     3
440
 16777216
370
    -2
100
AcDbLine
 10
26.86292083861386
 20
86.54271735549256
 30
0.0
 11
26.86292083861386
 21
85.1783731942543
 31
0.0
  0
LINE
  5
43D1
330
43CD
100
AcDbEntity
  8
0
 62
     3
440
 16777216
370
    -2
100
AcDbLine
 10
28.61292083861389
 20
86.54271735549256
 30
0.0
 11
28.61292083861389
 21
85.1783731942543
 31
0.0
  0
LINE
  5
43D2
330
43CD
100
AcDbEntity
  8
0
 62
     3
440
 16777216
370
    -2
100
AcDbLine
 10
26.86292083861386
 20
85.3583731942543
 30
0.0
 11
28.61292083861389
 21
85.3583731942543
 31
0.0
  0
LINE
  5
43D3
330
43CD
100
AcDbEntity
  8
0
 62
     3
440
 16777216
370
    -2
100
AcDbLine
 10
28.61292083861389
 20
85.3583731942543
 30
0.0
 11
28.79292083861389
 21
85.3583731942543
 31
0.0
  0
INSERT
  5
43D4
330
43CD
100
AcDbEntity
  8
0
 62
     3
440
 16777216
370
    -2
100
AcDbBlockReference
  2
_ArchTick
 10
26.86292083861386
 20
85.3583731942543
 30
0.0
 41
0.18
 42
0.18
 43
0.18
 50
180.0
  0
INSERT
  5
43D5
330
43CD
100
AcDbEntity
  8
0
 62
     3
440
 16777216
370
    -2
100
AcDbBlockReference
  2
_ArchTick
 10
28.61292083861389
 20
85.3583731942543
 30
0.0
 41
0.18
 42
0.18
 43
0.18
  0
MTEXT
  5
43D6
330
43CD
100
AcDbEntity
  8
0
 62
     0
440
 16777216
100
AcDbMText
 10
29.81191058971198
 20
85.3583731942543
 30
0.0
 40
0.5
 41
0.0
 46
0.0
 71
     5
 72
     1
  1
\A1;1 3/4"
 73
     1
 44
1.0
  0
POINT
  5
43D7
330
43CD
100
AcDbEntity
  8
Defpoints
 62
     0
440
 16777216
100
AcDbPoint
 10
26.86292083861386
 20
86.60521735549256
 30
0.0
  0
POINT
  5
43D8
330
43CD
100
AcDbEntity
  8
Defpoints
 62
     0
440
 16777216
100
AcDbPoint
 10
28.61292083861389
 20
86.60521735549256
 30
0.0
  0
POINT
  5
43D9
330
43CD
100
AcDbEntity
  8
Defpoints
 62
     0
440
 16777216
100
AcDbPoint
 10
28.61292083861389
 20
85.3583731942543
 30
0.0
  0
ENDBLK
  5
43CF
330
43CD
100
AcDbEntity
  8
0
100
AcDbBlockEnd
  0
ENDSEC
  0
SECTION
  2
ENTITIES
  0
LINE
  5
3A06
330
18
100
AcDbEntity
  8
0
100
AcDbLine
 10
8.261287855403141
 20
97.60521735549255
 30
0.0
 11
17.26128785540314
 21
97.60521735549254
 31
0.0
  0
LINE
  5
3A07
330
18
100
AcDbEntity
  8
0
100
AcDbLine
 10
9.011287855403141
 20
96.48021735549257
 30
0.0
 11
16.51128785540313
 21
96.48021735549257
 31
0.0
  0
LINE
  5
3A08
330
18
100
AcDbEntity
  8
0
100
AcDbLine
 10
9.011287855403109
 20
96.04271735549254
 30
0.0
 11
16.5112878554031
 21
96.04271735549254
 31
0.0
  0
LINE
  5
3A09
330
18
100
AcDbEntity
  8
0
100
AcDbLine
 10
8.261287855403139
 20
97.60521735549255
 30
0.0
 11
8.261287855403139
 21
97.35521735549255
 31
0.0
  0
LINE
  5
3A0A
330
18
100
AcDbEntity
  8
0
100
AcDbLine
 10
17.26128785540314
 20
97.60521735549255
 30
0.0
 11
17.26128785540313
 21
97.35521735549255
 31
0.0
  0
LINE
  5
3A9A
330
18
100
AcDbEntity
  8
0
100
AcDbLine
 10
8.261287855403139
 20
97.48021735549256
 30
0.0
 11
17.26128785540313
 21
97.48021735549256
 31
0.0
  0
LINE
  5
3B53
330
18
100
AcDbEntity
  8
0
100
AcDbLine
 10
8.261287855403141
 20
86.60521735549256
 30
0.0
 11
8.261287855403141
 21
97.60521735549255
 31
0.0
  0
LINE
  5
3B54
330
18
100
AcDbEntity
  8
0
100
AcDbLine
 10
17.26128785540314
 20
86.60521735549256
 30
0.0
 11
17.26128785540314
 21
97.60521735549254
 31
0.0
  0
LINE
  5
3BEA
330
18
100
AcDbEntity
  8
0
100
AcDbLine
 10
9.011287855403137
 20
96.48021735549257
 30
0.0
 11
16.51128785540314
 21
96.48021735549257
 31
0.0
  0
ARC
  5
3BF4
330
18
100
AcDbEntity
  8
0
100
AcDbCircle
 10
16.17314169392429
 20
97.38687120641687
 30
0.0
 40
0.9676590473502011
100
AcDbArc
 50
290.4535334732651
 51
5.535700110566074
  0
LINE
  5
3BF5
330
18
100
AcDbEntity
  8
0
100
AcDbLine
 10
9.011287855403189
 20
96.48021735549257
 30
0.0
 11
9.011287855403137
 21
96.35521735549255
 31
0.0
  0
LINE
  5
3BF6
330
18
100
AcDbEntity
  8
0
100
AcDbLine
 10
16.51128785540314
 20
96.48021735549257
 30
0.0
 11
16.5112878554031
 21
96.35521735549254
 31
0.0
  0
LINE
  5
3BF7
330
18
100
AcDbEntity
  8
0
100
AcDbLine
 10
9.011287855403137
 20
96.35521735549257
 30
0.0
 11
16.5112878554031
 21
96.35521735549259
 31
0.0
  0
ARC
  5
3C14
330
18
100
AcDbEntity
  8
0
100
AcDbCircle
 10
9.046091444553642
 20
96.26111052636957
 30
0.0
 40
0.2211489699353885
100
AcDbArc
 50
198.6705425385653
 51
260.9453646270341
  0
ARC
  5
3C16
330
18
100
AcDbEntity
  8
0
100
AcDbCircle
 10
9.044115423946658
 20
96.12280553341804
 30
0.0
 40
0.2347187770428125
100
AcDbArc
 50
98.03969592439454
 51
149.4576322672752
  0
LINE
  5
3C17
330
18
100
AcDbEntity
  8
0
100
AcDbLine
 10
9.011287855403109
 20
96.04271735549254
 30
0.0
 11
9.011287855403109
 21
95.85521735549255
 31
0.0
  0
LINE
  5
3C18
330
18
100
AcDbEntity
  8
0
100
AcDbLine
 10
16.5112878554031
 20
96.04271735549255
 30
0.0
 11
16.5112878554031
 21
95.85521735549255
 31
0.0
  0
LINE
  5
3C19
330
18
100
AcDbEntity
  8
0
100
AcDbLine
 10
9.011287855403109
 20
95.85521735549255
 30
0.0
 11
16.51128785540311
 21
95.85521735549255
 31
0.0
  0
LINE
  5
3C1A
330
18
100
AcDbEntity
  8
0
100
AcDbLine
 10
9.136287855403113
 20
95.85521735549255
 30
0.0
 11
16.38628785540311
 21
95.85521735549255
 31
0.0
  0
LINE
  5
3C22
330
18
100
AcDbEntity
  8
0
100
AcDbLine
 10
9.136287855403113
 20
91.73021735549253
 30
0.0
 11
16.38628785540311
 21
91.73021735549253
 31
0.0
  0
LINE
  5
3C23
330
18
100
AcDbEntity
  8
0
100
AcDbLine
 10
9.136287855403113
 20
95.85521735549255
 30
0.0
 11
9.136287855403113
 21
91.73021735549253
 31
0.0
  0
LINE
  5
3C24
330
18
100
AcDbEntity
  8
0
100
AcDbLine
 10
16.38628785540311
 20
91.73021735549253
 30
0.0
 11
16.38628785540311
 21
95.85521735549255
 31
0.0
  0
LINE
  5
3C25
330
18
100
AcDbEntity
  8
0
100
AcDbLine
 10
8.823787855403113
 20
91.48021735549255
 30
0.0
 11
16.69878785540311
 21
91.48021735549255
 31
0.0
  0
ARC
  5
3C28
330
18
100
AcDbEntity
  8
0
100
AcDbCircle
 10
9.178403321304976
 20
91.35726052311522
 30
0.0
 40
0.3753272056287157
100
AcDbArc
 50
96.44272814621192
 51
160.8768883619684
  0
ARC
  5
3C30
330
18
100
AcDbEntity
  8
0
100
AcDbCircle
 10
16.28015016036631
 20
91.2772327366965
 30
0.0
 40
0.4652529152767424
100
AcDbArc
 50
25.86732824384632
 51
76.81305524797913
  0
LINE
  5
3C33
330
18
100
AcDbEntity
  8
0
100
AcDbLine
 10
8.699877607344385
 20
91.48021735549255
 30
0.0
 11
16.82269810346184
 21
91.48021735549255
 31
0.0
  0
LINE
  5
3C43
330
18
100
AcDbEntity
  8
0
100
AcDbLine
 10
8.948787855403113
 20
91.10521735549253
 30
0.0
 11
16.57378785540311
 21
91.10521735549253
 31
0.0
  0
ARC
  5
3C46
330
18
100
AcDbEntity
  8
0
100
AcDbCircle
 10
8.984723491450624
 20
91.45287205219878
 30
0.0
 40
0.3495070215032334
100
AcDbArc
 50
187.0356698569576
 51
264.0985294852598
  0
ARC
  5
3C4E
330
18
100
AcDbEntity
  8
0
100
AcDbCircle
 10
16.5378522193556
 20
91.45287205219879
 30
0.0
 40
0.3495070215032294
100
AcDbArc
 50
275.9014705147402
 51
352.9643301430423
  0
LINE
  5
3C56
330
18
100
AcDbEntity
  8
0
100
AcDbLine
 10
8.948787855403113
 20
91.04271735549254
 30
0.0
 11
16.57378785540311
 21
91.04271735549254
 31
0.0
  0
LINE
  5
3C57
330
18
100
AcDbEntity
  8
0
100
AcDbLine
 10
8.948787855403113
 20
91.04271735549254
 30
0.0
 11
8.948787855403113
 21
91.10521735549253
 31
0.0
  0
LINE
  5
3C58
330
18
100
AcDbEntity
  8
0
100
AcDbLine
 10
16.57378785540311
 20
91.04271735549254
 30
0.0
 11
16.57378785540311
 21
91.10521735549253
 31
0.0
  0
LINE
  5
3C61
330
18
100
AcDbEntity
  8
0
100
AcDbLine
 10
8.948787855403113
 20
90.73021735549254
 30
0.0
 11
16.57378785540311
 21
90.73021735549254
 31
0.0
  0
LINE
  5
3C83
330
18
100
AcDbEntity
  8
0
100
AcDbLine
 10
9.136287855403113
 20
90.73021735549254
 30
0.0
 11
9.136287855403113
 21
86.60521735549256
 31
0.0
  0
LINE
  5
3C84
330
18
100
AcDbEntity
  8
0
100
AcDbLine
 10
16.38628785540311
 20
90.73021735549254
 30
0.0
 11
16.38628785540311
 21
86.60521735549256
 31
0.0
  0
LINE
  5
3C85
330
18
100
AcDbEntity
  8
0
100
AcDbLine
 10
16.38628785540311
 20
90.73021735549254
 30
0.0
 11
16.38628785540311
 21
86.60521735549256
 31
0.0
  0
LINE
  5
3C9A
330
18
100
AcDbEntity
  8
0
100
AcDbLine
 10
9.136287855403113
 20
90.73021735549254
 30
0.0
 11
9.136287855403111
 21
86.60521735549256
 31
0.0
  0
ARC
  5
3DFE
330
18
100
AcDbEntity
  8
0
100
AcDbCircle
 10
8.895791378373099
 20
96.21032287267613
 30
0.0
 40
0.0625
100
AcDbArc
 50
149.4576322672791
 51
198.6705425385618
  0
ARC
  5
3E0B
330
18
100
AcDbEntity
  8
0
100
AcDbCircle
 10
16.62678433243314
 20
96.21032287267611
 30
0.0
 40
0.0625
100
AcDbArc
 50
341.3294574614382
 51
30.54236773272048
  0
ARC
  5
3E0C
330
18
100
AcDbEntity
  8
0
100
AcDbCircle
 10
16.47648426625259
 20
96.26111052636955
 30
0.0
 40
0.2211489699353864
100
AcDbArc
 50
279.0546353729669
 51
341.3294574614351
  0
ARC
  5
3E0D
330
18
100
AcDbEntity
  8
0
100
AcDbCircle
 10
16.47846028685958
 20
96.12280553341804
 30
0.0
 40
0.2347187770428102
100
AcDbArc
 50
30.54236773272454
 51
81.96030407560547
  0
ARC
  5
3E0F
330
18
100
AcDbEntity
  8
0
100
AcDbCircle
 10
8.964353751436393
 20
90.93952143073247
 30
0.0
 40
0.209882093165092
100
AcDbArc
 50
202.6890921940229
 51
265.7467558669512
  0
ARC
  5
3E10
330
18
100
AcDbEntity
  8
0
100
AcDbCircle
 10
8.999819157093792
 20
90.79085479346375
 30
0.0
 40
0.2569804348660779
100
AcDbArc
 50
101.4539624496805
 51
151.8284092276559
  0
ARC
  5
3E12
330
18
100
AcDbEntity
  8
0
100
AcDbCircle
 10
8.828377331430726
 20
90.88267167621966
 30
0.0
 40
0.0625
100
AcDbArc
 50
151.8284092276592
 51
202.6890921940191
  0
ARC
  5
3E1E
330
18
100
AcDbEntity
  8
0
100
AcDbCircle
 10
16.52275655371242
 20
90.79085479346375
 30
0.0
 40
0.2569804348660779
100
AcDbArc
 50
28.17159077234453
 51
78.54603755031942
  0
ARC
  5
3E1F
330
18
100
AcDbEntity
  8
0
100
AcDbCircle
 10
16.69419837937549
 20
90.88267167621966
 30
0.0
 40
0.0625
100
AcDbArc
 50
337.3109078059811
 51
28.17159077234083
  0
ARC
  5
3E20
330
18
100
AcDbEntity
  8
0
100
AcDbCircle
 10
16.55822195936982
 20
90.93952143073247
 30
0.0
 40
0.209882093165092
100
AcDbArc
 50
274.2532441330488
 51
337.3109078059767
  0
ARC
  5
3E22
330
18
100
AcDbEntity
  8
0
100
AcDbCircle
 10
16.82269810346184
 20
91.41771735549255
 30
0.0
 40
0.0625
100
AcDbArc
 50
352.9643301430456
 51
90.0
  0
ARC
  5
3E23
330
18
100
AcDbEntity
  8
0
100
AcDbCircle
 10
8.699877607344385
 20
91.41771735549253
 30
0.0
 40
0.0625
100
AcDbArc
 50
90.0
 51
187.0356698569537
  0
LINE
  5
3E35
330
18
100
AcDbEntity
  8
0
100
AcDbLine
 10
28.61292083861389
 20
97.60521735549247
 30
0.0
 11
28.61292083861389
 21
86.60521735549256
 31
0.0
  0
LINE
  5
3E5D
330
18
100
AcDbEntity
  8
0
100
AcDbLine
 10
26.86292083861386
 20
90.73021735549245
 30
0.0
 11
26.86292083861386
 21
86.60521735549256
 31
0.0
  0
LINE
  5
3E65
330
18
100
AcDbEntity
  8
0
100
AcDbLine
 10
26.67542083861386
 20
91.04271735549245
 30
0.0
 11
27.73792083861389
 21
91.04271735549245
 31
0.0
  0
LINE
  5
3E68
330
18
100
AcDbEntity
  8
0
100
AcDbLine
 10
26.86292083861386
 20
91.73021735549244
 30
0.0
 11
27.73792083861389
 21
91.73021735549244
 31
0.0
  0
LINE
  5
3E6C
330
18
100
AcDbEntity
  8
0
100
AcDbLine
 10
26.86292083861386
 20
90.73021735549245
 30
0.0
 11
26.86292083861386
 21
86.60521735549256
 31
0.0
  0
ARC
  5
3E6E
330
18
100
AcDbEntity
  8
0
100
AcDbCircle
 10
26.90796176886592
 20
91.4351764252404
 30
0.0
 40
0.298459102595249
100
AcDbArc
 50
98.67975676618168
 51
171.3202432338208
  0
ARC
  5
3E6F
330
18
100
AcDbEntity
  8
0
100
AcDbCircle
 10
26.71135647466134
 20
91.45287205219863
 30
0.0
 40
0.349507021503173
100
AcDbArc
 50
187.0356698569494
 51
264.0985294852648
  0
LINE
  5
3E76
330
18
100
AcDbEntity
  8
0
100
AcDbLine
 10
26.67542083861386
 20
91.04271735549245
 30
0.0
 11
26.67542083861386
 21
91.10521735549244
 31
0.0
  0
LINE
  5
3E78
330
18
100
AcDbEntity
  8
0
100
AcDbLine
 10
26.86292083861386
 20
95.85521735549244
 30
0.0
 11
26.86292083861386
 21
91.73021735549244
 31
0.0
  0
ARC
  5
3E7A
330
18
100
AcDbEntity
  8
0
100
AcDbCircle
 10
26.97004298592638
 20
97.39873119756278
 30
0.0
 40
0.985496781413221
100
AcDbArc
 50
175.2570627615117
 51
248.7537036546572
  0
LINE
  5
3E7D
330
18
100
AcDbEntity
  8
0
100
AcDbLine
 10
25.86292083861389
 20
97.60521735549247
 30
0.0
 11
25.86292083861389
 21
97.48021735549249
 31
0.0
  0
LINE
  5
3E8F
330
18
100
AcDbEntity
  8
0
100
AcDbLine
 10
27.73792083861389
 20
97.48021735549246
 30
0.0
 11
27.73792083861389
 21
86.60521735549256
 31
0.0
  0
LINE
  5
3E93
330
18
100
AcDbEntity
  8
0
100
AcDbLine
 10
27.73792083861389
 20
96.48021735549246
 30
0.0
 11
26.61292083861389
 21
96.48021735549246
 31
0.0
  0
LINE
  5
3E94
330
18
100
AcDbEntity
  8
0
100
AcDbLine
 10
27.73792083861389
 20
96.35521735549247
 30
0.0
 11
26.61292083861389
 21
96.35521735549247
 31
0.0
  0
LINE
  5
3E95
330
18
100
AcDbEntity
  8
0
100
AcDbLine
 10
26.61292083861389
 20
96.35521735549247
 30
0.0
 11
26.61292083861388
 21
96.48021735549244
 31
0.0
  0
LINE
  5
3ED1
330
18
100
AcDbEntity
  8
0
100
AcDbLine
 10
28.61292083861389
 20
97.60521735549247
 30
0.0
 11
25.86292083861389
 21
97.60521735549247
 31
0.0
  0
LINE
  5
3ED3
330
18
100
AcDbEntity
  8
0
100
AcDbLine
 10
27.73792083861389
 20
97.48021735549246
 30
0.0
 11
25.86292083861389
 21
97.48021735549249
 31
0.0
  0
LINE
  5
3ED5
330
18
100
AcDbEntity
  8
0
100
AcDbLine
 10
27.73792083861389
 20
96.04271735549245
 30
0.0
 11
26.61292083861389
 21
96.04271735549243
 31
0.0
  0
LINE
  5
3EE7
330
18
100
AcDbEntity
  8
0
100
AcDbLine
 10
27.73792083861389
 20
95.85521735549244
 30
0.0
 11
26.61292083861389
 21
95.85521735549244
 31
0.0
  0
LINE
  5
3EE8
330
18
100
AcDbEntity
  8
0
100
AcDbLine
 10
26.61292083861389
 20
95.85521735549244
 30
0.0
 11
26.61292083861414
 21
96.04271735549243
 31
0.0
  0
LINE
  5
3EF7
330
18
100
AcDbEntity
  8
0
100
AcDbLine
 10
27.73792083861389
 20
91.48021735549244
 30
0.0
 11
26.61292083861389
 21
91.48021735549244
 31
0.0
  0
LINE
  5
3EF9
330
18
100
AcDbEntity
  8
0
100
AcDbLine
 10
27.73792083861389
 20
91.10521735549243
 30
0.0
 11
26.67542083861389
 21
91.10521735549243
 31
0.0
  0
LINE
  5
3EFA
330
18
100
AcDbEntity
  8
0
100
AcDbLine
 10
27.73792083861389
 20
91.48021735549244
 30
0.0
 11
26.4265105905551
 21
91.48021735549244
 31
0.0
  0
ARC
  5
3EFD
330
18
100
AcDbEntity
  8
0
100
AcDbCircle
 10
26.4265105905551
 20
91.41771735549244
 30
0.0
 40
0.0625
100
AcDbArc
 50
90.0
 51
187.0356698569474
  0
LINE
  5
3F1C
330
18
100
AcDbEntity
  8
0
100
AcDbLine
 10
27.73792083861389
 20
90.73021735549245
 30
0.0
 11
26.67542083861389
 21
90.73021735549245
 31
0.0
  0
ARC
  5
3F26
330
18
100
AcDbEntity
  8
0
100
AcDbCircle
 10
26.55501031464151
 20
90.88267167621955
 30
0.0
 40
0.0625
100
AcDbArc
 50
151.8284092276591
 51
202.6890921940189
  0
ARC
  5
3F27
330
18
100
AcDbEntity
  8
0
100
AcDbCircle
 10
26.69098673464718
 20
90.93952143073236
 30
0.0
 40
0.209882093165092
100
AcDbArc
 50
202.6890921940233
 51
265.7467558669512
  0
ARC
  5
3F28
330
18
100
AcDbEntity
  8
0
100
AcDbCircle
 10
26.72645214030458
 20
90.79085479346366
 30
0.0
 40
0.2569804348660779
100
AcDbArc
 50
101.4539624496805
 51
151.8284092276555
  0
LINE
  5
407F
330
18
100
AcDbEntity
  8
0
100
AcDbLine
 10
8.261287855403139
 20
97.48021735549256
 30
0.0
 11
8.386287855403139
 21
97.48021735549256
 31
0.0
  0
LINE
  5
4081
330
18
100
AcDbEntity
  8
0
100
AcDbLine
 10
17.26128785540313
 20
97.48021735549256
 30
0.0
 11
17.13628785540313
 21
97.48021735549256
 31
0.0
  0
ARC
  5
408B
330
18
100
AcDbEntity
  8
0
100
AcDbCircle
 10
9.392061451739504
 20
97.41351335320281
 30
0.0
 40
1.007983110477971
100
AcDbArc
 50
176.2056380289017
 51
247.8051283872698
  0
ARC
  5
40AC
330
18
100
AcDbEntity
  8
0
100
AcDbCircle
 10
26.58043544599529
 20
96.13281820750135
 30
0.0
 40
0.2247591639083115
100
AcDbArc
 50
81.6896916019091
 51
157.6870331128481
  0
ARC
  5
40AD
330
18
100
AcDbEntity
  8
0
100
AcDbCircle
 10
26.58464149259267
 20
96.27998949620389
 30
0.0
 40
0.2389514389351573
100
AcDbArc
 50
209.0080643617723
 51
276.7967514992269
  0
ARC
  5
40B0
330
18
100
AcDbEntity
  8
0
100
AcDbCircle
 10
26.43032562875556
 20
96.19442242034818
 30
0.0
 40
0.0625
100
AcDbArc
 50
157.6870331128438
 51
209.008064361769
  0
LINE
  5
413C
330
18
100
AcDbEntity
  8
0
100
AcDbLine
 10
9.136287855403113
 20
90.73021735549254
 30
0.0
 11
10.04253785540311
 21
90.73021735549254
 31
0.0
  0
LINE
  5
419A
330
18
100
AcDbEntity
  8
0
100
AcDbLine
 10
9.136287855403113
 20
90.73021735549254
 30
0.0
 11
9.136287855403113
 21
89.73021735549254
 31
0.0
  0
LINE
  5
4261
330
18
100
AcDbEntity
  8
0
100
AcDbLine
 10
17.26128785540314
 20
86.60521735549256
 30
0.0
 11
8.261287855403141
 21
86.60521735549256
 31
0.0
  0
LINE
  5
4262
330
18
100
AcDbEntity
  8
0
100
AcDbLine
 10
26.86292083861386
 20
86.60521735549256
 30
0.0
 11
28.61292083861389
 21
86.60521735549256
 31
0.0
  0
DIMENSION
  5
4268
330
18
100
AcDbEntity
  8
dimensions
100
AcDbDimension
280
     0
  2
*D1
 10
8.261287855403139
 20
100.1039984331156
 30
0.0
 11
12.76128785540314
 21
100.1039984331156
 31
0.0
 70
    32
 71
     5
 42
9.0
 73
     0
 74
     0
 75
     0
  3
STANDARD
100
AcDbAlignedDimension
 13
17.26128785540314
 23
97.60521735549255
 33
0.0
 14
8.261287855403139
 24
97.60521735549255
 34
0.0
100
AcDbRotatedDimension
  0
DIMENSION
  5
4276
330
18
100
AcDbEntity
  8
dimensions
100
AcDbDimension
280
     0
  2
*D2
 10
3.62170274421922
 20
86.60521735549256
 30
0.0
 11
3.621702744219206
 21
92.10521735549255
 31
0.0
 70
    32
 71
     5
 42
11.0
 73
     0
 74
     0
 75
     0
  3
STANDARD
100
AcDbAlignedDimension
 13
8.261287855403139
 23
97.60521735549255
 33
0.0
 14
8.26128785540312
 24
86.60521735549256
 34
0.0
 50
90.0
100
AcDbRotatedDimension
  0
DIMENSION
  5
4284
330
18
100
AcDbEntity
  8
dimensions
100
AcDbDimension
280
     0
  2
*D3
 10
28.61292083861389
 20
100.7000086136811
 30
0.0
 11
27.23792083861389
 21
100.7000086136811
 31
0.0
 70
    32
 71
     5
 42
2.75
 73
     0
 74
     0
 75
     0
  3
STANDARD
100
AcDbAlignedDimension
 13
25.86292083861389
 23
97.60521735549247
 33
0.0
 14
28.61292083861389
 24
97.60521735549247
 34
0.0
100
AcDbRotatedDimension
  0
DIMENSION
  5
4292
330
18
100
AcDbEntity
  8
dimensions
100
AcDbDimension
280
     0
  2
*D4
 10
28.61292083861389
 20
84.60773367874296
 30
0.0
 11
29.81191058971198
 21
84.60773367874296
 31
0.0
 70
    32
 71
     5
 42
1.750000000000028
 73
     0
 74
     0
 75
     0
  3
STANDARD
100
AcDbAlignedDimension
 13
26.86292083861386
 23
86.60521735549256
 33
0.0
 14
28.61292083861389
 24
86.60521735549256
 34
0.0
100
AcDbRotatedDimension
  0
DIMENSION
  5
436B
330
18
100
AcDbEntity
  8
0
100
AcDbDimension
280
     0
  2
*D6
 10
17.26128785540314
 20
99.52667805059116
 30
0.0
 11
12.76128785540314
 21
99.52667805059116
 31
0.0
 70
    32
 71
     5
 42
9.0
 73
     0
 74
     0
 75
     0
  3
STANDARD
100
AcDbAlignedDimension
 13
8.261287855403139
 23
97.60521735549255
 33
0.0
 14
17.26128785540314
 24
97.60521735549255
 34
0.0
100
AcDbRotatedDimension
  0
DIMENSION
  5
43A2
330
18
100
AcDbEntity
  8
0
100
AcDbDimension
280
     0
  2
*D9
 10
6.397112559089364
 20
97.60521735549255
 30
0.0
 11
6.397112559089348
 21
92.10521735549255
 31
0.0
 70
    32
 71
     5
 42
11.0
 73
     0
 74
     0
 75
     0
  3
STANDARD
100
AcDbAlignedDimension
 13
8.261287855403141
 23
86.60521735549256
 33
0.0
 14
8.261287855403157
 24
97.60521735549255
 34
0.0
 50
90.0
100
AcDbRotatedDimension
  0
DIMENSION
  5
43B0
330
18
100
AcDbEntity
  8
0
100
AcDbDimension
280
     0
  2
*D10
 10
28.61292083861389
 20
98.7144905183198
 30
0.0
 11
27.23792083861389
 21
98.7144905183198
 31
0.0
 70
    32
 71
     5
 42
2.75
 73
     0
 74
     0
 75
     0
  3
STANDARD
100
AcDbAlignedDimension
 13
25.86292083861389
 23
97.60521735549247
 33
0.0
 14
28.61292083861389
 24
97.60521735549247
 34
0.0
100
AcDbRotatedDimension
  0
DIMENSION
  5
43BE
330
18
100
AcDbEntity
  8
0
100
AcDbDimension
280
     0
  2
*D11
 10
24.39776344881108
 20
90.73021735549245
 30
0.0
 11
24.39776344881106
 21
94.16771735549245
 31
0.0
 70
    32
 71
     5
 42
6.875000000000014
 73
     0
 74
     0
 75
     0
  3
STANDARD
100
AcDbAlignedDimension
 13
25.86292083861389
 23
97.60521735549247
 33
0.0
 14
26.86292083861386
 24
90.73021735549245
 34
0.0
 50
90.0
100
AcDbRotatedDimension
  0
DIMENSION
  5
43CC
330
18
100
AcDbEntity
  8
0
100
AcDbDimension
280
     0
  2
*D12
 10
28.61292083861389
 20
85.3583731942543
 30
0.0
 11
29.81191058971198
 21
85.3583731942543
 31
0.0
 70
    32
 71
     5
 42
1.750000000000028
 73
     0
 74
     0
 75
     0
  3
STANDARD
100
AcDbAlignedDimension
 13
26.86292083861386
 23
86.60521735549256
 33
0.0
 14
28.61292083861389
 24
86.60521735549256
 34
0.0
100
AcDbRotatedDimension
  0
VIEWPORT
  5
42A8
330
42A1
100
AcDbEntity
 67
     1
  8
0
100
AcDbViewport
 10
133.3499908447265
 20
101.5999970436096
 30
0.0
 40
414.2371385485397
 41
228.4221935424805
 68
     1
 69
     1
 12
133.3499908447265
 22
101.5999970436096
 13
0.0
 23
0.0
 14
10.0
 24
10.0
 15
10.0
 25
10.0
 16
0.0
 26
0.0
 36
1.0
 17
0.0
 27
0.0
 37
0.0
 42
50.0
 43
0.0
 44
0.0
 45
228.4221935424805
 50
0.0
 51
0.0
 72
   100
 90
    32800
  1

281
     0
 71
     1
 74
     0
110
0.0
120
0.0
130
0.0
111
1.0
121
0.0
131
0.0
112
0.0
122
1.0
132
0.0
 79
     0
146
0.0
170
     0
 61
     5
348
4308
292
     1
282
     1
141
0.0
142
0.0
 63
   250
421
  3355443
  0
VIEWPORT
  5
42AA
330
42A1
100
AcDbEntity
 67
     1
  8
0
100
AcDbViewport
 10
133.3499939441681
 20
101.5999939441681
 30
0.0
 40
213.3599903106689
 41
162.5599903106689
 68
     2
 69
     2
 12
18.33564512474987
 22
92.65387114621203
 13
0.0
 23
0.0
 14
10.0
 24
10.0
 15
10.0
 25
10.0
 16
0.0
 26
0.0
 36
1.0
 17
0.0
 27
0.0
 37
0.0
 42
50.0
 43
0.0
 44
0.0
 45
23.57061208154533
 50
0.0
 51
0.0
 72
   100
 90
    32800
  1

281
     0
 71
     1
 74
     0
110
0.0
120
0.0
130
0.0
111
1.0
121
0.0
131
0.0
112
0.0
122
1.0
132
0.0
 79
     0
146
0.0
170
     0
 61
     5
348
4308
292
     1
282
     1
141
0.0
142
0.0
 63
   250
421
  3355443
  0
ENDSEC
  0
SECTION
  2
OBJECTS
  0
DICTIONARY
  5
C
330
0
100
AcDbDictionary
281
     1
  3
ACAD_CIP_PREVIOUS_PRODUCT_INFO
350
4338
  3
ACAD_COLOR
350
3BB8
  3
ACAD_GROUP
350
D
  3
ACAD_IMAGE_DICT
350
21
  3
ACAD_IMAGE_VARS
350
20
  3
ACAD_LAYOUT
350
3BB9
  3
ACAD_MATERIAL
350
3BB7
  3
ACAD_MLEADERSTYLE
350
432F
  3
ACAD_MLINESTYLE
350
1B
  3
ACAD_PLOTSETTINGS
350
3BBA
  3
ACAD_PLOTSTYLENAME
350
3BB5
  3
ACAD_SCALELIST
350
431D
  3
ACAD_TABLESTYLE
350
431B
  3
ACAD_VISUALSTYLE
350
4302
  3
ACDB_RECOMPOSE_DATA
350
43F3
  3
ACDBVARIABLEDICTIONARY
350
34D4
  0
DICTIONARY
  5
43DA
330
E
100
AcDbDictionary
280
     1
281
     1
  3
ADSK_XREC_LAYER_RECONCILED
360
43DB
  0
DICTIONARY
  5
43DC
330
42B5
100
AcDbDictionary
280
     1
281
     1
  3
ADSK_XREC_LAYER_RECONCILED
360
43DD
  0
XRECORD
  5
4338
102
{ACAD_REACTORS
330
C
102
}
330
C
100
AcDbXrecord
280
     1
300
ACD
300
2012
300
ACD_F_S
  0
DICTIONARY
  5
3BB8
102
{ACAD_REACTORS
330
C
102
}
330
C
100
AcDbDictionary
281
     1
  0
DICTIONARY
  5
D
102
{ACAD_REACTORS
330
C
102
}
330
C
100
AcDbDictionary
281
     1
  0
DICTIONARY
  5
21
102
{ACAD_REACTORS
330
C
102
}
330
C
100
AcDbDictionary
281
     1
  3
3304-1
350
22
  3
3304-1B
350
1C41
  3
3304-2
350
25
  3
3304-2B
350
1C44
  3
3304-3
350
28
  3
3304-3B
350
1C47
  0
RASTERVARIABLES
  5
20
102
{ACAD_REACTORS
330
C
102
}
330
C
100
AcDbRasterVariables
 90
        0
 70
     1
 71
     1
 72
     0
  0
DICTIONARY
  5
3BB9
102
{ACAD_REACTORS
330
C
102
}
330
C
100
AcDbDictionary
281
     1
  3
Layout1
350
42A2
  3
Model
350
3BBB
  0
DICTIONARY
  5
3BB7
102
{ACAD_REACTORS
330
C
102
}
330
C
100
AcDbDictionary
281
     1
  3
ByBlock
350
42F2
  3
ByLayer
350
42EA
  3
Global
350
42FA
  0
DICTIONARY
  5
432F
102
{ACAD_REACTORS
330
C
102
}
330
C
100
AcDbDictionary
281
     1
  3
Standard
350
4330
  0
DICTIONARY
  5
1B
102
{ACAD_REACTORS
330
C
102
}
330
C
100
AcDbDictionary
281
     1
  3
STANDARD
350
1C
  0
DICTIONARY
  5
3BBA
102
{ACAD_REACTORS
330
C
102
}
330
C
100
AcDbDictionary
281
     1
  0
ACDBDICTIONARYWDFLT
  5
3BB5
102
{ACAD_REACTORS
330
C
102
}
330
C
100
AcDbDictionary
281
     1
  3
Normal
350
3BB6
100
AcDbDictionaryWithDefault
340
3BB6
  0
DICTIONARY
  5
431D
102
{ACAD_REACTORS
330
C
102
}
330
C
100
AcDbDictionary
281
     1
  3
A0
350
431E
  3
A1
350
431F
  3
A2
350
4320
  3
A3
350
4321
  3
A4
350
4322
  3
A5
350
4323
  3
A6
350
4324
  3
A7
350
4325
  3
A8
350
4326
  3
A9
350
4327
  3
B0
350
4328
  3
B1
350
4329
  3
B2
350
432A
  3
B3
350
432B
  3
B4
350
432C
  3
B5
350
432D
  3
B6
350
432E
  0
DICTIONARY
  5
431B
102
{ACAD_REACTORS
330
C
102
}
330
C
100
AcDbDictionary
281
     1
  3
Standard
350
431C
  0
DICTIONARY
  5
4302
102
{ACAD_REACTORS
330
C
102
}
330
C
100
AcDbDictionary
281
     1
  3
2dWireframe
350
4308
  3
Basic
350
4307
  3
Brighten
350
430E
  3
ColorChange
350
4312
  3
Conceptual
350
430B
  3
Dim
350
430D
  3
EdgeColorOff
350
431A
  3
Facepattern
350
4311
  3
Flat
350
4303
  3
FlatWithEdges
350
4304
  3
Gouraud
350
4305
  3
GouraudWithEdges
350
4306
  3
Hidden
350
430A
  3
JitterOff
350
4318
  3
Linepattern
350
4310
  3
OverhangOff
350
4319
  3
Realistic
350
430C
  3
Shaded
350
4317
  3
Shaded with edges
350
4316
  3
Shades of Gray
350
4313
  3
Sketchy
350
4314
  3
Thicken
350
430F
  3
Wireframe
350
4309
  3
X-Ray
350
4315
  0
XRECORD
  5
43F3
102
{ACAD_REACTORS
330
C
102
}
330
C
100
AcDbXrecord
280
     1
 90
        1
330
431C
  0
DICTIONARY
  5
34D4
102
{ACAD_REACTORS
330
C
102
}
330
C
100
AcDbDictionary
281
     1
  3
CANNOSCALE
350
43EB
  3
CMLEADERSTYLE
350
43E9
  3
CTABLESTYLE
350
43E8
  3
LAYEREVAL
350
43ED
  3
LAYERNOTIFY
350
43EE
  3
LIGHTINGUNITS
350
43EC
  3
MSLTSCALE
350
43EA
  3
SORTENTS
350
34D5
  0
XRECORD
  5
43DB
102
{ACAD_REACTORS
330
43DA
102
}
330
43DA
100
AcDbXrecord
280
     1
290
     1
  0
XRECORD
  5
43DD
102
{ACAD_REACTORS
330
43DC
102
}
330
43DC
100
AcDbXrecord
280
     1
290
     1
  0
IMAGEDEF
  5
22
102
{ACAD_REACTORS
330
21
102
}
330
21
100
AcDbRasterImageDef
 90
        0
  1
U:\TPDWG\MichelQ\3304-1.tif
 10
2243.0
 20
3009.0
 11
0.0705555555555556
 21
0.0705555555555556
280
     1
281
     5
  0
IMAGEDEF
  5
1C41
102
{ACAD_REACTORS
330
21
102
}
330
21
100
AcDbRasterImageDef
 90
        0
  1
U:\TPDWG\MichelQ\3304-1b.TIF
 10
2202.0
 20
2931.0
 11
0.0705555555555556
 21
0.0705555555555556
280
     1
281
     5
  0
IMAGEDEF
  5
25
102
{ACAD_REACTORS
330
21
102
}
330
21
100
AcDbRasterImageDef
 90
        0
  1
U:\TPDWG\MichelQ\3304-2.tif
 10
2243.0
 20
3009.0
 11
0.0705555555555556
 21
0.0705555555555556
280
     1
281
     5
  0
IMAGEDEF
  5
1C44
102
{ACAD_REACTORS
330
21
102
}
330
21
100
AcDbRasterImageDef
 90
        0
  1
U:\TPDWG\MichelQ\3304-2b.TIF
 10
2202.0
 20
2931.0
 11
0.0705555555555556
 21
0.0705555555555556
280
     1
281
     5
  0
IMAGEDEF
  5
28
102
{ACAD_REACTORS
330
21
102
}
330
21
100
AcDbRasterImageDef
 90
        0
  1
U:\TPDWG\MichelQ\3304-3.tif
 10
2243.0
 20
3009.0
 11
0.0705555555555556
 21
0.0705555555555556
280
     1
281
     5
  0
IMAGEDEF
  5
1C47
102
{ACAD_REACTORS
330
21
102
}
330
21
100
AcDbRasterImageDef
 90
        0
  1
U:\TPDWG\MichelQ\3304-3b.TIF
 10
2202.0
 20
2931.0
 11
0.0705555555555556
 21
0.0705555555555556
280
     1
281
     5
  0
LAYOUT
  5
42A2
102
{ACAD_REACTORS
330
3BB9
102
}
330
3BB9
100
AcDbPlotSettings
  1

  2
none_device
  4
Letter_(8.50_x_11.00_Inches)
  6

 40
6.349999904632568
 41
6.349999904632568
 42
6.350006103515625
 43
6.350006103515625
 44
215.8999938964844
 45
279.3999938964844
 46
0.0
 47
0.0
 48
0.0
 49
0.0
140
0.0
141
0.0
142
1.0
143
1.0
 70
   688
 72
     1
 73
     1
 74
     5
  7

 75
    16
147
1.0
 76
     1
 77
     2
 78
   300
148
0.0
149
0.0
100
AcDbLayout
  1
Layout1
 70
     1
 71
     1
 10
-6.350006103515625
 20
-6.349999904632568
 11
273.0499877929688
 21
209.5499939918518
 12
0.0
 22
0.0
 32
0.0
 14
26.66999878883363
 24
20.31999878883363
 34
0.0
 15
240.0299890995026
 25
182.8799890995025
 35
0.0
146
0.0
 13
0.0
 23
0.0
 33
0.0
 16
1.0
 26
0.0
 36
0.0
 17
0.0
 27
1.0
 37
0.0
 76
     0
330
42A1
331
42A8
  0
LAYOUT
  5
3BBB
102
{ACAD_REACTORS
330
3BB9
102
}
330
3BB9
100
AcDbPlotSettings
  1

  2
None
  4

  6

 40
0.0
 41
0.0
 42
0.0
 43
0.0
 44
0.0
 45
0.0
 46
0.0
 47
0.0
 48
0.0
 49
0.0
140
0.0
141
0.0
142
1.0
143
1.0
 70
  1712
 72
     0
 73
     0
 74
     0
  7

 75
     0
147
1.0
 76
     0
 77
     2
 78
   300
148
0.0
149
0.0
100
AcDbLayout
  1
Model
 70
     1
 71
     0
 10
0.0
 20
0.0
 11
12.0
 21
9.0
 12
0.0
 22
0.0
 32
0.0
 14
0.0
 24
0.0
 34
0.0
 15
0.0
 25
0.0
 35
0.0
146
0.0
 13
0.0
 23
0.0
 33
0.0
 16
1.0
 26
0.0
 36
0.0
 17
0.0
 27
1.0
 37
0.0
 76
     0
330
18
331
42E8
  0
MATERIAL
  5
42F2
102
{ACAD_XDICTIONARY
360
42F3
102
}
102
{ACAD_REACTORS
330
3BB7
102
}
330
3BB7
100
AcDbMaterial
  1
ByBlock
 72
     0
 43
0.0208333333333333
 43
0.0
 43
0.0
 43
0.0
 43
0.0
 43
0.0208333333333333
 43
0.0
 43
0.0
 43
0.0
 43
0.0
 43
1.0
 43
0.0
 43
0.0
 43
0.0
 43
0.0
 43
1.0
 77
     0
 47
0.0208333333333333
 47
0.0
 47
0.0
 47
0.0
 47
0.0
 47
0.0208333333333333
 47
0.0
 47
0.0
 47
0.0
 47
0.0
 47
1.0
 47
0.0
 47
0.0
 47
0.0
 47
0.0
 47
1.0
171
     0
 49
0.0208333333333333
 49
0.0
 49
0.0
 49
0.0
 49
0.0
 49
0.0208333333333333
 49
0.0
 49
0.0
 49
0.0
 49
0.0
 49
1.0
 49
0.0
 49
0.0
 49
0.0
 49
0.0
 49
1.0
175
     0
142
0.0208333333333333
142
0.0
142
0.0
142
0.0
142
0.0
142
0.0208333333333333
142
0.0
142
0.0
142
0.0
142
0.0
142
1.0
142
0.0
142
0.0
142
0.0
142
0.0
142
1.0
179
     0
144
0.0208333333333333
144
0.0
144
0.0
144
0.0
144
0.0
144
0.0208333333333333
144
0.0
144
0.0
144
0.0
144
0.0
144
1.0
144
0.0
144
0.0
144
0.0
144
0.0
144
1.0
147
0.0208333333333333
147
0.0
147
0.0
147
0.0
147
0.0
147
0.0208333333333333
147
0.0
147
0.0
147
0.0
147
0.0
147
1.0
147
0.0
147
0.0
147
0.0
147
0.0
147
1.0
  0
MATERIAL
  5
42EA
102
{ACAD_XDICTIONARY
360
42EB
102
}
102
{ACAD_REACTORS
330
3BB7
102
}
330
3BB7
100
AcDbMaterial
  1
ByLayer
 72
     0
 43
0.0208333333333333
 43
0.0
 43
0.0
 43
0.0
 43
0.0
 43
0.0208333333333333
 43
0.0
 43
0.0
 43
0.0
 43
0.0
 43
1.0
 43
0.0
 43
0.0
 43
0.0
 43
0.0
 43
1.0
 77
     0
 47
0.0208333333333333
 47
0.0
 47
0.0
 47
0.0
 47
0.0
 47
0.0208333333333333
 47
0.0
 47
0.0
 47
0.0
 47
0.0
 47
1.0
 47
0.0
 47
0.0
 47
0.0
 47
0.0
 47
1.0
171
     0
 49
0.0208333333333333
 49
0.0
 49
0.0
 49
0.0
 49
0.0
 49
0.0208333333333333
 49
0.0
 49
0.0
 49
0.0
 49
0.0
 49
1.0
 49
0.0
 49
0.0
 49
0.0
 49
0.0
 49
1.0
175
     0
142
0.0208333333333333
142
0.0
142
0.0
142
0.0
142
0.0
142
0.0208333333333333
142
0.0
142
0.0
142
0.0
142
0.0
142
1.0
142
0.0
142
0.0
142
0.0
142
0.0
142
1.0
179
     0
144
0.0208333333333333
144
0.0
144
0.0
144
0.0
144
0.0
144
0.0208333333333333
144
0.0
144
0.0
144
0.0
144
0.0
144
1.0
144
0.0
144
0.0
144
0.0
144
0.0
144
1.0
147
0.0208333333333333
147
0.0
147
0.0
147
0.0
147
0.0
147
0.0208333333333333
147
0.0
147
0.0
147
0.0
147
0.0
147
1.0
147
0.0
147
0.0
147
0.0
147
0.0
147
1.0
  0
MATERIAL
  5
42FA
102
{ACAD_XDICTIONARY
360
42FB
102
}
102
{ACAD_REACTORS
330
3BB7
102
}
330
3BB7
100
AcDbMaterial
  1
Global
 72
     0
 43
0.0208333333333333
 43
0.0
 43
0.0
 43
0.0
 43
0.0
 43
0.0208333333333333
 43
0.0
 43
0.0
 43
0.0
 43
0.0
 43
1.0
 43
0.0
 43
0.0
 43
0.0
 43
0.0
 43
1.0
 77
     0
 47
0.0208333333333333
 47
0.0
 47
0.0
 47
0.0
 47
0.0
 47
0.0208333333333333
 47
0.0
 47
0.0
 47
0.0
 47
0.0
 47
1.0
 47
0.0
 47
0.0
 47
0.0
 47
0.0
 47
1.0
171
     0
 49
0.0208333333333333
 49
0.0
 49
0.0
 49
0.0
 49
0.0
 49
0.0208333333333333
 49
0.0
 49
0.0
 49
0.0
 49
0.0
 49
1.0
 49
0.0
 49
0.0
 49
0.0
 49
0.0
 49
1.0
175
     0
142
0.0208333333333333
142
0.0
142
0.0
142
0.0
142
0.0
142
0.0208333333333333
142
0.0
142
0.0
142
0.0
142
0.0
142
1.0
142
0.0
142
0.0
142
0.0
142
0.0
142
1.0
179
     0
144
0.0208333333333333
144
0.0
144
0.0
144
0.0
144
0.0
144
0.0208333333333333
144
0.0
144
0.0
144
0.0
144
0.0
144
1.0
144
0.0
144
0.0
144
0.0
144
0.0
144
1.0
147
0.0208333333333333
147
0.0
147
0.0
147
0.0
147
0.0
147
0.0208333333333333
147
0.0
147
0.0
147
0.0
147
0.0
147
1.0
147
0.0
147
0.0
147
0.0
147
0.0
147
1.0
  0
MLEADERSTYLE
  5
4330
102
{ACAD_XDICTIONARY
360
43F1
102
}
102
{ACAD_REACTORS
330
432F
102
}
330
432F
100
AcDbMLeaderStyle
179
     2
170
     2
171
     1
172
     0
 90
        2
 40
0.0
 41
0.0
173
     1
 91
-1056964608
340
12
 92
       -2
290
     1
 42
2.0
291
     1
 43
0.36
  3
Standard
 44
4.0
300

342
F
174
     1
178
     6
175
     1
176
     0
 93
-1056964608
 45
4.0
292
     0
297
     0
 46
4.0
 94
-1056964608
 47
1.0
 49
1.0
140
1.0
293
     1
141
0.0
294
     1
177
     0
142
1.0
295
     0
296
     0
143
0.125
271
     0
272
     9
273
     9
  0
MLINESTYLE
  5
1C
102
{ACAD_REACTORS
330
1B
102
}
330
1B
100
AcDbMlineStyle
  2
STANDARD
 70
     0
  3

 62
   256
 51
90.0
 52
90.0
 71
     2
 49
0.5
 62
   256
  6
BYLAYER
 49
-0.5
 62
   256
  6
BYLAYER
  0
ACDBPLACEHOLDER
  5
3BB6
102
{ACAD_REACTORS
330
3BB5
102
}
330
3BB5
  0
SCALE
  5
431E
102
{ACAD_REACTORS
330
431D
102
}
330
431D
100
AcDbScale
 70
     0
300
1:1
140
1.0
141
1.0
290
     1
  0
SCALE
  5
431F
102
{ACAD_REACTORS
330
431D
102
}
330
431D
100
AcDbScale
 70
     0
300
1:2
140
1.0
141
2.0
290
     0
  0
SCALE
  5
4320
102
{ACAD_REACTORS
330
431D
102
}
330
431D
100
AcDbScale
 70
     0
300
1:4
140
1.0
141
4.0
290
     0
  0
SCALE
  5
4321
102
{ACAD_REACTORS
330
431D
102
}
330
431D
100
AcDbScale
 70
     0
300
1:5
140
1.0
141
5.0
290
     0
  0
SCALE
  5
4322
102
{ACAD_REACTORS
330
431D
102
}
330
431D
100
AcDbScale
 70
     0
300
1:8
140
1.0
141
8.0
290
     0
  0
SCALE
  5
4323
102
{ACAD_REACTORS
330
431D
102
}
330
431D
100
AcDbScale
 70
     0
300
1:10
140
1.0
141
10.0
290
     0
  0
SCALE
  5
4324
102
{ACAD_REACTORS
330
431D
102
}
330
431D
100
AcDbScale
 70
     0
300
1:16
140
1.0
141
16.0
290
     0
  0
SCALE
  5
4325
102
{ACAD_REACTORS
330
431D
102
}
330
431D
100
AcDbScale
 70
     0
300
1:20
140
1.0
141
20.0
290
     0
  0
SCALE
  5
4326
102
{ACAD_REACTORS
330
431D
102
}
330
431D
100
AcDbScale
 70
     0
300
1:30
140
1.0
141
30.0
290
     0
  0
SCALE
  5
4327
102
{ACAD_REACTORS
330
431D
102
}
330
431D
100
AcDbScale
 70
     0
300
1:40
140
1.0
141
40.0
290
     0
  0
SCALE
  5
4328
102
{ACAD_REACTORS
330
431D
102
}
330
431D
100
AcDbScale
 70
     0
300
1:50
140
1.0
141
50.0
290
     0
  0
SCALE
  5
4329
102
{ACAD_REACTORS
330
431D
102
}
330
431D
100
AcDbScale
 70
     0
300
1:100
140
1.0
141
100.0
290
     0
  0
SCALE
  5
432A
102
{ACAD_REACTORS
330
431D
102
}
330
431D
100
AcDbScale
 70
     0
300
2:1
140
2.0
141
1.0
290
     0
  0
SCALE
  5
432B
102
{ACAD_REACTORS
330
431D
102
}
330
431D
100
AcDbScale
 70
     0
300
4:1
140
4.0
141
1.0
290
     0
  0
SCALE
  5
432C
102
{ACAD_REACTORS
330
431D
102
}
330
431D
100
AcDbScale
 70
     0
300
8:1
140
8.0
141
1.0
290
     0
  0
SCALE
  5
432D
102
{ACAD_REACTORS
330
431D
102
}
330
431D
100
AcDbScale
 70
     0
300
10:1
140
10.0
141
1.0
290
     0
  0
SCALE
  5
432E
102
{ACAD_REACTORS
330
431D
102
}
330
431D
100
AcDbScale
 70
     0
300
100:1
140
100.0
141
1.0
290
     0
  0
TABLESTYLE
  5
431C
102
{ACAD_XDICTIONARY
360
43EF
102
}
102
{ACAD_REACTORS
330
431B
102
}
330
431B
100
AcDbTableStyle
280
     0
  3
Standard
 70
     0
 71
     0
 40
1.5
 41
1.5
280
     0
281
     0
  7
STANDARD
140
4.5
170
     2
 62
     0
 63
     7
283
     0
 90
      512
 91
        0
  1

274
    -2
284
     1
 64
     0
275
    -2
285
     1
 65
     0
276
    -2
286
     1
 66
     0
277
    -2
287
     1
 67
     0
278
    -2
288
     1
 68
     0
279
    -2
289
     1
 69
     0
  7
STANDARD
140
6.0
170
     5
 62
     0
 63
     7
283
     0
 90
      512
 91
        0
  1

274
    -2
284
     1
 64
     0
275
    -2
285
     1
 65
     0
276
    -2
286
     1
 66
     0
277
    -2
287
     1
 67
     0
278
    -2
288
     1
 68
     0
279
    -2
289
     1
 69
     0
  7
STANDARD
140
4.5
170
     5
 62
     0
 63
     7
283
     0
 90
      512
 91
        0
  1

274
    -2
284
     1
 64
     0
275
    -2
285
     1
 65
     0
276
    -2
286
     1
 66
     0
277
    -2
287
     1
 67
     0
278
    -2
288
     1
 68
     0
279
    -2
289
     1
 69
     0
  0
VISUALSTYLE
  5
4308
102
{ACAD_REACTORS
330
4302
102
}
330
4302
100
AcDbVisualStyle
  2
2dWireframe
 70
     4
177
     2
291
     0
 71
     0
176
     1
 72
     2
176
     1
 73
     0
176
     1
 90
        0
176
     1
 40
0.6
176
     1
 41
30.0
176
     1
 63
     7
421
 16777215
176
     1
 74
     1
176
     1
 91
        4
176
     1
 64
     7
176
     1
 65
   257
176
     1
 75
     1
176
     1
175
     1
176
     1
 42
1.0
176
     1
 92
        0
176
     1
 66
   257
176
     1
 43
1.0
176
     1
 76
     1
176
     1
 77
     6
176
     1
 78
     2
176
     1
 67
     7
176
     1
 79
     5
176
     1
170
     0
176
     1
171
     0
176
     1
290
     0
176
     1
 93
        1
176
     1
 44
0.0
176
     1
173
     0
176
     1
  0
VISUALSTYLE
  5
4307
102
{ACAD_REACTORS
330
4302
102
}
330
4302
100
AcDbVisualStyle
  2
Basic
 70
     7
177
     2
291
     1
 71
     1
176
     1
 72
     0
176
     1
 73
     1
176
     1
 90
        0
176
     1
 40
0.6
176
     1
 41
30.0
176
     1
 63
     7
421
 16777215
176
     1
 74
     0
176
     1
 91
        4
176
     1
 64
     7
176
     1
 65
   257
176
     1
 75
     1
176
     1
175
     1
176
     1
 42
1.0
176
     1
 92
        8
176
     1
 66
     7
176
     1
 43
1.0
176
     1
 76
     1
176
     1
 77
     6
176
     1
 78
     2
176
     1
 67
     7
176
     1
 79
     5
176
     1
170
     0
176
     1
171
     0
176
     1
290
     0
176
     1
 93
        1
176
     1
 44
0.0
176
     1
173
     0
176
     1
  0
VISUALSTYLE
  5
430E
102
{ACAD_REACTORS
330
4302
102
}
330
4302
100
AcDbVisualStyle
  2
Brighten
 70
    12
177
     2
291
     1
 71
     2
176
     1
 72
     2
176
     1
 73
     0
176
     1
 90
        0
176
     1
 40
0.6
176
     1
 41
30.0
176
     1
 63
     7
421
 16777215
176
     1
 74
     1
176
     1
 91
        4
176
     1
 64
     7
176
     1
 65
   257
176
     1
 75
     1
176
     1
175
     1
176
     1
 42
1.0
176
     1
 92
        8
176
     1
 66
     7
176
     1
 43
1.0
176
     1
 76
     1
176
     1
 77
     6
176
     1
 78
     2
176
     1
 67
     7
176
     1
 79
     5
176
     1
170
     0
176
     1
171
     0
176
     1
290
     0
176
     1
 93
        1
176
     1
 44
50.0
176
     1
173
     0
176
     1
  0
VISUALSTYLE
  5
4312
102
{ACAD_REACTORS
330
4302
102
}
330
4302
100
AcDbVisualStyle
  2
ColorChange
 70
    16
177
     2
291
     1
 71
     2
176
     1
 72
     2
176
     1
 73
     3
176
     1
 90
        0
176
     1
 40
0.6
176
     1
 41
30.0
176
     1
 63
     8
421
  8421504
176
     1
 74
     1
176
     1
 91
        4
176
     1
 64
     7
176
     1
 65
   257
176
     1
 75
     1
176
     1
175
     1
176
     1
 42
1.0
176
     1
 92
        8
176
     1
 66
     8
424
  8421504
176
     1
 43
1.0
176
     1
 76
     1
176
     1
 77
     6
176
     1
 78
     2
176
     1
 67
     7
176
     1
 79
     5
176
     1
170
     0
176
     1
171
     0
176
     1
290
     0
176
     1
 93
        1
176
     1
 44
0.0
176
     1
173
     0
176
     1
  0
VISUALSTYLE
  5
430B
102
{ACAD_REACTORS
330
4302
102
}
330
4302
100
AcDbVisualStyle
  2
Conceptual
 70
     9
177
     2
291
     0
 71
     3
176
     1
 72
     2
176
     1
 73
     0
176
     1
 90
        0
176
     1
 40
0.6
176
     1
 41
30.0
176
     1
 63
     7
421
 16777215
176
     1
 74
     2
176
     1
 91
        2
176
     1
 64
     7
176
     1
 65
   257
176
     1
 75
     1
176
     1
175
     1
176
     1
 42
179.0
176
     1
 92
        8
176
     1
 66
     7
176
     1
 43
1.0
176
     1
 76
     1
176
     1
 77
     6
176
     1
 78
     2
176
     1
 67
     7
176
     1
 79
     3
176
     1
170
     0
176
     1
171
     0
176
     1
290
     0
176
     1
 93
        1
176
     1
 44
0.0
176
     1
173
     0
176
     1
  0
VISUALSTYLE
  5
430D
102
{ACAD_REACTORS
330
4302
102
}
330
4302
100
AcDbVisualStyle
  2
Dim
 70
    11
177
     2
291
     1
 71
     2
176
     1
 72
     2
176
     1
 73
     0
176
     1
 90
        0
176
     1
 40
0.6
176
     1
 41
30.0
176
     1
 63
     7
421
 16777215
176
     1
 74
     1
176
     1
 91
        4
176
     1
 64
     7
176
     1
 65
   257
176
     1
 75
     1
176
     1
175
     1
176
     1
 42
1.0
176
     1
 92
        8
176
     1
 66
     7
176
     1
 43
1.0
176
     1
 76
     1
176
     1
 77
     6
176
     1
 78
     2
176
     1
 67
     7
176
     1
 79
     5
176
     1
170
     0
176
     1
171
     0
176
     1
290
     0
176
     1
 93
        1
176
     1
 44
-50.0
176
     1
173
     0
176
     1
  0
VISUALSTYLE
  5
431A
102
{ACAD_REACTORS
330
4302
102
}
330
4302
100
AcDbVisualStyle
  2
EdgeColorOff
 70
    22
177
     2
291
     1
 71
     2
176
     0
 72
     2
176
     0
 73
     0
176
     0
 90
        0
176
     0
 40
0.6
176
     0
 41
30.0
176
     0
 63
     7
421
 16777215
176
     0
 74
     1
176
     0
 91
        4
176
     0
 64
     7
176
     0
 65
   257
176
     0
 75
     1
176
     0
175
     1
176
     0
 42
1.0
176
     0
 92
        8
176
     2
 66
     7
176
     0
 43
1.0
176
     0
 76
     1
176
     0
 77
     6
176
     0
 78
     2
176
     0
 67
     7
176
     0
 79
     5
176
     0
170
     0
176
     0
171
     0
176
     0
290
     0
176
     0
 93
        1
176
     0
 44
0.0
176
     0
173
     0
176
     0
  0
VISUALSTYLE
  5
4311
102
{ACAD_REACTORS
330
4302
102
}
330
4302
100
AcDbVisualStyle
  2
Facepattern
 70
    15
177
     2
291
     1
 71
     2
176
     1
 72
     2
176
     1
 73
     0
176
     1
 90
        0
176
     1
 40
0.6
176
     1
 41
30.0
176
     1
 63
     7
421
 16777215
176
     1
 74
     1
176
     1
 91
        4
176
     1
 64
     7
176
     1
 65
   257
176
     1
 75
     1
176
     1
175
     1
176
     1
 42
1.0
176
     1
 92
        8
176
     1
 66
     7
176
     1
 43
1.0
176
     1
 76
     1
176
     1
 77
     6
176
     1
 78
     2
176
     1
 67
     7
176
     1
 79
     5
176
     1
170
     0
176
     1
171
     0
176
     1
290
     0
176
     1
 93
        1
176
     1
 44
0.0
176
     1
173
     0
176
     1
  0
VISUALSTYLE
  5
4303
102
{ACAD_REACTORS
330
4302
102
}
330
4302
100
AcDbVisualStyle
  2
Flat
 70
     0
177
     2
291
     1
 71
     2
176
     1
 72
     1
176
     1
 73
     1
176
     1
 90
        2
176
     1
 40
0.6
176
     1
 41
30.0
176
     1
 63
     7
421
 16777215
176
     1
 74
     0
176
     1
 91
        0
176
     1
 64
     7
176
     1
 65
   257
176
     1
 75
     1
176
     1
175
     1
176
     1
 42
1.0
176
     1
 92
        8
176
     1
 66
     7
176
     1
 43
1.0
176
     1
 76
     1
176
     1
 77
     6
176
     1
 78
     2
176
     1
 67
     7
176
     1
 79
     5
176
     1
170
     0
176
     1
171
     0
176
     1
290
     0
176
     1
 93
       13
176
     1
 44
0.0
176
     1
173
     0
176
     1
  0
VISUALSTYLE
  5
4304
102
{ACAD_REACTORS
330
4302
102
}
330
4302
100
AcDbVisualStyle
  2
FlatWithEdges
 70
     1
177
     2
291
     1
 71
     2
176
     1
 72
     1
176
     1
 73
     1
176
     1
 90
        2
176
     1
 40
0.6
176
     1
 41
30.0
176
     1
 63
     7
421
 16777215
176
     1
 74
     1
176
     1
 91
        0
176
     1
 64
     7
176
     1
 65
   257
176
     1
 75
     1
176
     1
175
     1
176
     1
 42
1.0
176
     1
 92
        0
176
     1
 66
   257
176
     1
 43
1.0
176
     1
 76
     1
176
     1
 77
     6
176
     1
 78
     2
176
     1
 67
     7
176
     1
 79
     5
176
     1
170
     0
176
     1
171
     0
176
     1
290
     0
176
     1
 93
       13
176
     1
 44
0.0
176
     1
173
     0
176
     1
  0
VISUALSTYLE
  5
4305
102
{ACAD_REACTORS
330
4302
102
}
330
4302
100
AcDbVisualStyle
  2
Gouraud
 70
     2
177
     2
291
     1
 71
     2
176
     1
 72
     2
176
     1
 73
     1
176
     1
 90
        2
176
     1
 40
0.6
176
     1
 41
30.0
176
     1
 63
     7
421
 16777215
176
     1
 74
     0
176
     1
 91
        0
176
     1
 64
     7
176
     1
 65
   257
176
     1
 75
     1
176
     1
175
     1
176
     1
 42
1.0
176
     1
 92
        0
176
     1
 66
     7
176
     1
 43
1.0
176
     1
 76
     1
176
     1
 77
     6
176
     1
 78
     2
176
     1
 67
     7
176
     1
 79
     5
176
     1
170
     0
176
     1
171
     0
176
     1
290
     0
176
     1
 93
       13
176
     1
 44
0.0
176
     1
173
     0
176
     1
  0
VISUALSTYLE
  5
4306
102
{ACAD_REACTORS
330
4302
102
}
330
4302
100
AcDbVisualStyle
  2
GouraudWithEdges
 70
     3
177
     2
291
     1
 71
     2
176
     1
 72
     2
176
     1
 73
     1
176
     1
 90
        2
176
     1
 40
0.6
176
     1
 41
30.0
176
     1
 63
     7
421
 16777215
176
     1
 74
     1
176
     1
 91
        0
176
     1
 64
     7
176
     1
 65
   257
176
     1
 75
     1
176
     1
175
     1
176
     1
 42
1.0
176
     1
 92
        0
176
     1
 66
   257
176
     1
 43
1.0
176
     1
 76
     1
176
     1
 77
     6
176
     1
 78
     2
176
     1
 67
     7
176
     1
 79
     5
176
     1
170
     0
176
     1
171
     0
176
     1
290
     0
176
     1
 93
       13
176
     1
 44
0.0
176
     1
173
     0
176
     1
  0
VISUALSTYLE
  5
430A
102
{ACAD_REACTORS
330
4302
102
}
330
4302
100
AcDbVisualStyle
  2
Hidden
 70
     6
177
     2
291
     0
 71
     1
176
     1
 72
     2
176
     1
 73
     2
176
     1
 90
        0
176
     1
 40
0.6
176
     1
 41
30.0
176
     1
 63
     7
421
 16777215
176
     1
 74
     2
176
     1
 91
        2
176
     1
 64
     7
176
     1
 65
   257
176
     1
 75
     2
176
     1
175
     1
176
     1
 42
40.0
176
     1
 92
        0
176
     1
 66
   257
176
     1
 43
1.0
176
     1
 76
     1
176
     1
 77
     6
176
     1
 78
     2
176
     1
 67
     7
176
     1
 79
     3
176
     1
170
     0
176
     1
171
     0
176
     1
290
     0
176
     1
 93
        1
176
     1
 44
0.0
176
     1
173
     0
176
     1
  0
VISUALSTYLE
  5
4318
102
{ACAD_REACTORS
330
4302
102
}
330
4302
100
AcDbVisualStyle
  2
JitterOff
 70
    20
177
     2
291
     1
 71
     2
176
     0
 72
     2
176
     0
 73
     0
176
     0
 90
        0
176
     0
 40
0.6
176
     0
 41
30.0
176
     0
 63
     7
421
 16777215
176
     0
 74
     1
176
     0
 91
        4
176
     0
 64
     7
176
     0
 65
   257
176
     0
 75
     1
176
     0
175
     1
176
     0
 42
1.0
176
     0
 92
       10
176
     2
 66
     7
176
     0
 43
1.0
176
     0
 76
     1
176
     0
 77
     6
176
     0
 78
     2
176
     0
 67
     7
176
     0
 79
     5
176
     0
170
     0
176
     0
171
     0
176
     0
290
     0
176
     0
 93
        1
176
     0
 44
0.0
176
     0
173
     0
176
     0
  0
VISUALSTYLE
  5
4310
102
{ACAD_REACTORS
330
4302
102
}
330
4302
100
AcDbVisualStyle
  2
Linepattern
 70
    14
177
     2
291
     1
 71
     2
176
     1
 72
     2
176
     1
 73
     0
176
     1
 90
        0
176
     1
 40
0.6
176
     1
 41
30.0
176
     1
 63
     7
421
 16777215
176
     1
 74
     1
176
     1
 91
        4
176
     1
 64
     7
176
     1
 65
   257
176
     1
 75
     7
176
     1
175
     7
176
     1
 42
1.0
176
     1
 92
        8
176
     1
 66
     7
176
     1
 43
1.0
176
     1
 76
     1
176
     1
 77
     6
176
     1
 78
     2
176
     1
 67
     7
176
     1
 79
     5
176
     1
170
     0
176
     1
171
     0
176
     1
290
     0
176
     1
 93
        1
176
     1
 44
0.0
176
     1
173
     0
176
     1
  0
VISUALSTYLE
  5
4319
102
{ACAD_REACTORS
330
4302
102
}
330
4302
100
AcDbVisualStyle
  2
OverhangOff
 70
    21
177
     2
291
     1
 71
     2
176
     0
 72
     2
176
     0
 73
     0
176
     0
 90
        0
176
     0
 40
0.6
176
     0
 41
30.0
176
     0
 63
     7
421
 16777215
176
     0
 74
     1
176
     0
 91
        4
176
     0
 64
     7
176
     0
 65
   257
176
     0
 75
     1
176
     0
175
     1
176
     0
 42
1.0
176
     0
 92
        9
176
     2
 66
     7
176
     0
 43
1.0
176
     0
 76
     1
176
     0
 77
     6
176
     0
 78
     2
176
     0
 67
     7
176
     0
 79
     5
176
     0
170
     0
176
     0
171
     0
176
     0
290
     0
176
     0
 93
        1
176
     0
 44
0.0
176
     0
173
     0
176
     0
  0
VISUALSTYLE
  5
430C
102
{ACAD_REACTORS
330
4302
102
}
330
4302
100
AcDbVisualStyle
  2
Realistic
 70
     8
177
     2
291
     0
 71
     2
176
     1
 72
     3
176
     1
 73
     0
176
     1
 90
        2
176
     1
 40
0.6
176
     1
 41
30.0
176
     1
 63
     7
421
 16777215
176
     1
 74
     0
176
     1
 91
        0
176
     1
 64
     7
176
     1
 65
   257
176
     1
 75
     1
176
     1
175
     1
176
     1
 42
1.0
176
     1
 92
        8
176
     1
 66
   257
176
     1
 43
1.0
176
     1
 76
     1
176
     1
 77
     6
176
     1
 78
     2
176
     1
 67
     7
176
     1
 79
     3
176
     1
170
     0
176
     1
171
     0
176
     1
290
     0
176
     1
 93
       13
176
     1
 44
0.0
176
     1
173
     0
176
     1
  0
VISUALSTYLE
  5
4317
102
{ACAD_REACTORS
330
4302
102
}
330
4302
100
AcDbVisualStyle
  2
Shaded
 70
    27
177
     2
291
     0
 71
     2
176
     1
 72
     2
176
     1
 73
     1
176
     1
 90
        2
176
     1
 40
0.6
176
     1
 41
30.0
176
     1
 63
     7
421
 16777215
176
     1
 74
     0
176
     1
 91
        4
176
     1
 64
     7
176
     1
 65
   257
176
     1
 75
     1
176
     1
175
     1
176
     1
 42
1.0
176
     1
 92
        8
176
     1
 66
   257
176
     1
 43
1.0
176
     1
 76
     1
176
     1
 77
     6
176
     1
 78
     2
176
     1
 67
     8
425
  7895160
176
     1
 79
     3
176
     1
170
     0
176
     1
171
     0
176
     1
290
     0
176
     1
 93
        5
176
     1
 44
0.0
176
     1
173
     0
176
     1
  0
VISUALSTYLE
  5
4316
102
{ACAD_REACTORS
330
4302
102
}
330
4302
100
AcDbVisualStyle
  2
Shaded with edges
 70
    26
177
     2
291
     0
 71
     2
176
     1
 72
     2
176
     1
 73
     1
176
     1
 90
        2
176
     1
 40
0.6
176
     1
 41
30.0
176
     1
 63
     7
421
 16777215
176
     1
 74
     1
176
     1
 91
       10
176
     1
 64
     7
176
     1
 65
   257
176
     1
 75
     2
176
     1
175
     1
176
     1
 42
1.0
176
     1
 92
        8
176
     1
 66
   257
176
     1
 43
1.0
176
     1
 76
     1
176
     1
 77
     6
176
     1
 78
     2
176
     1
 67
     7
176
     1
 79
     3
176
     1
170
     0
176
     1
171
     0
176
     1
290
     0
176
     1
 93
        5
176
     1
 44
0.0
176
     1
173
     0
176
     1
  0
VISUALSTYLE
  5
4313
102
{ACAD_REACTORS
330
4302
102
}
330
4302
100
AcDbVisualStyle
  2
Shades of Gray
 70
    23
177
     2
291
     0
 71
     2
176
     1
 72
     2
176
     1
 73
     3
176
     1
 90
        0
176
     1
 40
0.6
176
     1
 41
30.0
176
     1
 63
     7
421
 16777215
176
     1
 74
     2
176
     1
 91
        2
176
     1
 64
     7
176
     1
 65
     7
176
     1
 75
     1
176
     1
175
     1
176
     1
 42
40.0
176
     1
 92
        8
176
     1
 66
     7
176
     1
 43
1.0
176
     1
 76
     1
176
     1
 77
     6
176
     1
 78
     2
176
     1
 67
     7
176
     1
 79
     3
176
     1
170
     0
176
     1
171
     0
176
     1
290
     0
176
     1
 93
        1
176
     1
 44
0.0
176
     1
173
     0
176
     1
  0
VISUALSTYLE
  5
4314
102
{ACAD_REACTORS
330
4302
102
}
330
4302
100
AcDbVisualStyle
  2
Sketchy
 70
    24
177
     2
291
     0
 71
     1
176
     1
 72
     2
176
     1
 73
     2
176
     1
 90
        0
176
     1
 40
0.6
176
     1
 41
30.0
176
     1
 63
     7
421
 16777215
176
     1
 74
     2
176
     1
 91
        2
176
     1
 64
     7
176
     1
 65
     7
176
     1
 75
     1
176
     1
175
     1
176
     1
 42
40.0
176
     1
 92
       11
176
     1
 66
     7
176
     1
 43
1.0
176
     1
 76
     1
176
     1
 77
     6
176
     1
 78
     2
176
     1
 67
     7
176
     1
 79
     6
176
     1
170
     0
176
     1
171
     0
176
     1
290
     0
176
     1
 93
        1
176
     1
 44
0.0
176
     1
173
     0
176
     1
  0
VISUALSTYLE
  5
430F
102
{ACAD_REACTORS
330
4302
102
}
330
4302
100
AcDbVisualStyle
  2
Thicken
 70
    13
177
     2
291
     1
 71
     2
176
     1
 72
     2
176
     1
 73
     0
176
     1
 90
        0
176
     1
 40
0.6
176
     1
 41
30.0
176
     1
 63
     7
421
 16777215
176
     1
 74
     1
176
     1
 91
        4
176
     1
 64
     7
176
     1
 65
   257
176
     1
 75
     1
176
     1
175
     1
176
     1
 42
1.0
176
     1
 92
       12
176
     1
 66
     7
176
     1
 43
1.0
176
     1
 76
     1
176
     1
 77
     6
176
     1
 78
     2
176
     1
 67
     7
176
     1
 79
     5
176
     1
170
     0
176
     1
171
     0
176
     1
290
     0
176
     1
 93
        1
176
     1
 44
0.0
176
     1
173
     0
176
     1
  0
VISUALSTYLE
  5
4309
102
{ACAD_REACTORS
330
4302
102
}
330
4302
100
AcDbVisualStyle
  2
Wireframe
 70
     5
177
     2
291
     0
 71
     0
176
     1
 72
     2
176
     1
 73
     0
176
     1
 90
        0
176
     1
 40
0.6
176
     1
 41
30.0
176
     1
 63
     7
421
 16777215
176
     1
 74
     1
176
     1
 91
        4
176
     1
 64
     7
176
     1
 65
   257
176
     1
 75
     1
176
     1
175
     1
176
     1
 42
1.0
176
     1
 92
        0
176
     1
 66
   257
176
     1
 43
1.0
176
     1
 76
     1
176
     1
 77
     6
176
     1
 78
     2
176
     1
 67
     7
176
     1
 79
     3
176
     1
170
     0
176
     1
171
     0
176
     1
290
     0
176
     1
 93
        1
176
     1
 44
0.0
176
     1
173
     0
176
     1
  0
VISUALSTYLE
  5
4315
102
{ACAD_REACTORS
330
4302
102
}
330
4302
100
AcDbVisualStyle
  2
X-Ray
 70
    25
177
     2
291
     0
 71
     2
176
     1
 72
     2
176
     1
 73
     1
176
     1
 90
        1
176
     1
 40
0.5
176
     1
 41
30.0
176
     1
 63
     7
421
 16777215
176
     1
 74
     1
176
     1
 91
        0
176
     1
 64
     7
176
     1
 65
   257
176
     1
 75
     1
176
     1
175
     1
176
     1
 42
1.0
176
     1
 92
        8
176
     1
 66
     7
176
     1
 43
1.0
176
     1
 76
     1
176
     1
 77
     6
176
     1
 78
     2
176
     1
 67
     7
176
     1
 79
     3
176
     1
170
     0
176
     1
171
     0
176
     1
290
     0
176
     1
 93
       13
176
     1
 44
0.0
176
     1
173
     0
176
     1
  0
DICTIONARYVAR
  5
43EB
102
{ACAD_REACTORS
330
34D4
102
}
330
34D4
100
DictionaryVariables
280
     0
  1
1:1
  0
DICTIONARYVAR
  5
43E9
102
{ACAD_REACTORS
330
34D4
102
}
330
34D4
100
DictionaryVariables
280
     0
  1
STANDARD
  0
DICTIONARYVAR
  5
43E8
102
{ACAD_REACTORS
330
34D4
102
}
330
34D4
100
DictionaryVariables
280
     0
  1
STANDARD
  0
DICTIONARYVAR
  5
43ED
102
{ACAD_REACTORS
330
34D4
102
}
330
34D4
100
DictionaryVariables
280
     0
  1
1
  0
DICTIONARYVAR
  5
43EE
102
{ACAD_REACTORS
330
34D4
102
}
330
34D4
100
DictionaryVariables
280
     0
  1
15
  0
DICTIONARYVAR
  5
43EC
102
{ACAD_REACTORS
330
34D4
102
}
330
34D4
100
DictionaryVariables
280
     0
  1
0
  0
DICTIONARYVAR
  5
43EA
102
{ACAD_REACTORS
330
34D4
102
}
330
34D4
100
DictionaryVariables
280
     0
  1
0
  0
DICTIONARYVAR
  5
34D5
102
{ACAD_REACTORS
330
34D4
102
}
330
34D4
100
DictionaryVariables
280
     0
  1
96
  0
DICTIONARY
  5
42F3
330
42F2
100
AcDbDictionary
280
     1
281
     1
  3
BUMPTILE
360
42F5
  3
DIFFUSETILE
360
42F4
  3
OPACITYTILE
360
42F8
  3
REFLECTIONTILE
360
42F7
  3
REFRACTIONTILE
360
42F9
  3
SPECULARTILE
360
42F6
  0
DICTIONARY
  5
42EB
330
42EA
100
AcDbDictionary
280
     1
281
     1
  3
BUMPTILE
360
42ED
  3
DIFFUSETILE
360
42EC
  3
OPACITYTILE
360
42F0
  3
REFLECTIONTILE
360
42EF
  3
REFRACTIONTILE
360
42F1
  3
SPECULARTILE
360
42EE
  0
DICTIONARY
  5
42FB
330
42FA
100
AcDbDictionary
280
     1
281
     1
  3
BUMPTILE
360
42FD
  3
DIFFUSETILE
360
42FC
  3
OPACITYTILE
360
4300
  3
REFLECTIONTILE
360
42FF
  3
REFRACTIONTILE
360
4301
  3
SPECULARTILE
360
42FE
  0
DICTIONARY
  5
43F1
330
4330
100
AcDbDictionary
280
     1
281
     1
  3
ACAD_XREC_ROUNDTRIP
360
43F2
  0
DICTIONARY
  5
43EF
330
431C
100
AcDbDictionary
280
     1
281
     1
  3
ACAD_ROUNDTRIP_2008_TABLESTYLE_CELLSTYLEMAP
360
43F0
  0
XRECORD
  5
42F5
102
{ACAD_REACTORS
330
42F3
102
}
330
42F3
100
AcDbXrecord
280
     1
270
     1
271
     1
  0
XRECORD
  5
42F4
102
{ACAD_REACTORS
330
42F3
102
}
330
42F3
100
AcDbXrecord
280
     1
270
     1
271
     1
  0
XRECORD
  5
42F8
102
{ACAD_REACTORS
330
42F3
102
}
330
42F3
100
AcDbXrecord
280
     1
270
     1
271
     1
  0
XRECORD
  5
42F7
102
{ACAD_REACTORS
330
42F3
102
}
330
42F3
100
AcDbXrecord
280
     1
270
     1
271
     1
  0
XRECORD
  5
42F9
102
{ACAD_REACTORS
330
42F3
102
}
330
42F3
100
AcDbXrecord
280
     1
270
     1
271
     1
  0
XRECORD
  5
42F6
102
{ACAD_REACTORS
330
42F3
102
}
330
42F3
100
AcDbXrecord
280
     1
270
     1
271
     1
  0
XRECORD
  5
42ED
102
{ACAD_REACTORS
330
42EB
102
}
330
42EB
100
AcDbXrecord
280
     1
270
     1
271
     1
  0
XRECORD
  5
42EC
102
{ACAD_REACTORS
330
42EB
102
}
330
42EB
100
AcDbXrecord
280
     1
270
     1
271
     1
  0
XRECORD
  5
42F0
102
{ACAD_REACTORS
330
42EB
102
}
330
42EB
100
AcDbXrecord
280
     1
270
     1
271
     1
  0
XRECORD
  5
42EF
102
{ACAD_REACTORS
330
42EB
102
}
330
42EB
100
AcDbXrecord
280
     1
270
     1
271
     1
  0
XRECORD
  5
42F1
102
{ACAD_REACTORS
330
42EB
102
}
330
42EB
100
AcDbXrecord
280
     1
270
     1
271
     1
  0
XRECORD
  5
42EE
102
{ACAD_REACTORS
330
42EB
102
}
330
42EB
100
AcDbXrecord
280
     1
270
     1
271
     1
  0
XRECORD
  5
42FD
102
{ACAD_REACTORS
330
42FB
102
}
330
42FB
100
AcDbXrecord
280
     1
270
     1
271
     1
  0
XRECORD
  5
42FC
102
{ACAD_REACTORS
330
42FB
102
}
330
42FB
100
AcDbXrecord
280
     1
270
     1
271
     1
  0
XRECORD
  5
4300
102
{ACAD_REACTORS
330
42FB
102
}
330
42FB
100
AcDbXrecord
280
     1
270
     1
271
     1
  0
XRECORD
  5
42FF
102
{ACAD_REACTORS
330
42FB
102
}
330
42FB
100
AcDbXrecord
280
     1
270
     1
271
     1
  0
XRECORD
  5
4301
102
{ACAD_REACTORS
330
42FB
102
}
330
42FB
100
AcDbXrecord
280
     1
270
     1
271
     1
  0
XRECORD
  5
42FE
102
{ACAD_REACTORS
330
42FB
102
}
330
42FB
100
AcDbXrecord
280
     1
270
     1
271
     1
  0
XRECORD
  5
43F2
102
{ACAD_REACTORS
330
43F1
102
}
330
43F1
100
AcDbXrecord
280
     1
102
ACAD_ROUNDTRIP_2012_MLEADER_STYLE
298
     1
  0
CELLSTYLEMAP
  5
43F0
102
{ACAD_REACTORS
330
43EF
102
}
330
43EF
100
AcDbCellStyleMap
 90
        3
300
CELLSTYLE
  1
TABLEFORMAT_BEGIN
 90
        5
170
     1
 91
        0
 92
    32768
 62
   257
 93
        1
300
CONTENTFORMAT
  1
CONTENTFORMAT_BEGIN
 90
        0
 91
        0
 92
      512
 93
        0
300

 40
0.0
140
1.0
 94
        5
 62
     0
340
F
144
6.0
309
CONTENTFORMAT_END
171
     1
301
MARGIN
  1
CELLMARGIN_BEGIN
 40
1.5
 40
1.5
 40
1.5
 40
1.5
 40
4.5
 40
4.5
309
CELLMARGIN_END
 94
        6
 95
        1
302
GRIDFORMAT
  1
GRIDFORMAT_BEGIN
 90
        0
 91
        1
 62
     0
 92
       -2
340
0
 93
        0
 40
1.125
309
GRIDFORMAT_END
 95
        2
302
GRIDFORMAT
  1
GRIDFORMAT_BEGIN
 90
        0
 91
        1
 62
     0
 92
       -2
340
0
 93
        0
 40
1.125
309
GRIDFORMAT_END
 95
        4
302
GRIDFORMAT
  1
GRIDFORMAT_BEGIN
 90
        0
 91
        1
 62
     0
 92
       -2
340
0
 93
        0
 40
1.125
309
GRIDFORMAT_END
 95
        8
302
GRIDFORMAT
  1
GRIDFORMAT_BEGIN
 90
        0
 91
        1
 62
     0
 92
       -2
340
0
 93
        0
 40
1.125
309
GRIDFORMAT_END
 95
       16
302
GRIDFORMAT
  1
GRIDFORMAT_BEGIN
 90
        0
 91
        1
 62
     0
 92
       -2
340
0
 93
        0
 40
1.125
309
GRIDFORMAT_END
 95
       32
302
GRIDFORMAT
  1
GRIDFORMAT_BEGIN
 90
        0
 91
        1
 62
     0
 92
       -2
340
0
 93
        0
 40
1.125
309
GRIDFORMAT_END
309
TABLEFORMAT_END
  1
CELLSTYLE_BEGIN
 90
        1
 91
        1
300
_TITLE
309
CELLSTYLE_END
300
CELLSTYLE
  1
TABLEFORMAT_BEGIN
 90
        5
170
     1
 91
        0
 92
        0
 62
   257
 93
        1
300
CONTENTFORMAT
  1
CONTENTFORMAT_BEGIN
 90
        0
 91
        0
 92
      512
 93
        0
300

 40
0.0
140
1.0
 94
        5
 62
     0
340
F
144
4.5
309
CONTENTFORMAT_END
171
     1
301
MARGIN
  1
CELLMARGIN_BEGIN
 40
1.5
 40
1.5
 40
1.5
 40
1.5
 40
4.5
 40
4.5
309
CELLMARGIN_END
 94
        6
 95
        1
302
GRIDFORMAT
  1
GRIDFORMAT_BEGIN
 90
        0
 91
        1
 62
     0
 92
       -2
340
0
 93
        0
 40
1.125
309
GRIDFORMAT_END
 95
        2
302
GRIDFORMAT
  1
GRIDFORMAT_BEGIN
 90
        0
 91
        1
 62
     0
 92
       -2
340
0
 93
        0
 40
1.125
309
GRIDFORMAT_END
 95
        4
302
GRIDFORMAT
  1
GRIDFORMAT_BEGIN
 90
        0
 91
        1
 62
     0
 92
       -2
340
0
 93
        0
 40
1.125
309
GRIDFORMAT_END
 95
        8
302
GRIDFORMAT
  1
GRIDFORMAT_BEGIN
 90
        0
 91
        1
 62
     0
 92
       -2
340
0
 93
        0
 40
1.125
309
GRIDFORMAT_END
 95
       16
302
GRIDFORMAT
  1
GRIDFORMAT_BEGIN
 90
        0
 91
        1
 62
     0
 92
       -2
340
0
 93
        0
 40
1.125
309
GRIDFORMAT_END
 95
       32
302
GRIDFORMAT
  1
GRIDFORMAT_BEGIN
 90
        0
 91
        1
 62
     0
 92
       -2
340
0
 93
        0
 40
1.125
309
GRIDFORMAT_END
309
TABLEFORMAT_END
  1
CELLSTYLE_BEGIN
 90
        2
 91
        1
300
_HEADER
309
CELLSTYLE_END
300
CELLSTYLE
  1
TABLEFORMAT_BEGIN
 90
        5
170
     1
 91
        0
 92
        0
 62
   257
 93
        1
300
CONTENTFORMAT
  1
CONTENTFORMAT_BEGIN
 90
        0
 91
        0
 92
      512
 93
        0
300

 40
0.0
140
1.0
 94
        2
 62
     0
340
F
144
4.5
309
CONTENTFORMAT_END
171
     1
301
MARGIN
  1
CELLMARGIN_BEGIN
 40
1.5
 40
1.5
 40
1.5
 40
1.5
 40
4.5
 40
4.5
309
CELLMARGIN_END
 94
        6
 95
        1
302
GRIDFORMAT
  1
GRIDFORMAT_BEGIN
 90
        0
 91
        1
 62
     0
 92
       -2
340
0
 93
        0
 40
1.125
309
GRIDFORMAT_END
 95
        2
302
GRIDFORMAT
  1
GRIDFORMAT_BEGIN
 90
        0
 91
        1
 62
     0
 92
       -2
340
0
 93
        0
 40
1.125
309
GRIDFORMAT_END
 95
        4
302
GRIDFORMAT
  1
GRIDFORMAT_BEGIN
 90
        0
 91
        1
 62
     0
 92
       -2
340
0
 93
        0
 40
1.125
309
GRIDFORMAT_END
 95
        8
302
GRIDFORMAT
  1
GRIDFORMAT_BEGIN
 90
        0
 91
        1
 62
     0
 92
       -2
340
0
 93
        0
 40
1.125
309
GRIDFORMAT_END
 95
       16
302
GRIDFORMAT
  1
GRIDFORMAT_BEGIN
 90
        0
 91
        1
 62
     0
 92
       -2
340
0
 93
        0
 40
1.125
309
GRIDFORMAT_END
 95
       32
302
GRIDFORMAT
  1
GRIDFORMAT_BEGIN
 90
        0
 91
        1
 62
     0
 92
       -2
340
0
 93
        0
 40
1.125
309
GRIDFORMAT_END
309
TABLEFORMAT_END
  1
CELLSTYLE_BEGIN
 90
        3
 91
        2
300
_DATA
309
CELLSTYLE_END
  0
ENDSEC
  0
EOF
