  0
SECTION
  2
HEADER
  9
$ACADVER
  1
AC1018
  9
$ACADMAINTVER
 70
     0
  9
$DWGCODEPAGE
  3
ANSI_1252
  9
$INSBASE
 10
0.0
 20
0.0
 30
0.0
  9
$EXTMIN
 10
6.65307328937769
 20
4.369579491245701
 30
0.0
  9
$EXTMAX
 10
51.70648405417701
 20
32.39103407141526
 30
0.0
  9
$LIMMIN
 10
0.0
 20
0.0
  9
$LIMMAX
 10
12.0
 20
9.0
  9
$ORTHOMODE
 70
     0
  9
$REGENMODE
 70
     1
  9
$FILLMODE
 70
     1
  9
$QTEXTMODE
 70
     0
  9
$MIRRTEXT
 70
     1
  9
$LTSCALE
 40
1.0
  9
$ATTMODE
 70
     1
  9
$TEXTSIZE
 40
0.2
  9
$TRACEWID
 40
0.05
  9
$TEXTSTYLE
  7
STANDARD
  9
$CLAYER
  8
0
  9
$CELTYPE
  6
BYLAYER
  9
$CECOLOR
 62
   256
  9
$CELTSCALE
 40
1.0
  9
$DISPSILH
 70
     0
  9
$DIMSCALE
 40
1.0
  9
$DIMASZ
 40
0.18
  9
$DIMEXO
 40
0.0625
  9
$DIMDLI
 40
0.38
  9
$DIMRND
 40
0.0
  9
$DIMDLE
 40
0.0
  9
$DIMEXE
 40
0.18
  9
$DIMTP
 40
0.0
  9
$DIMTM
 40
0.0
  9
$DIMTXT
 40
1.5
  9
$DIMCEN
 40
0.09
  9
$DIMTSZ
 40
0.0
  9
$DIMTOL
 70
     0
  9
$DIMLIM
 70
     0
  9
$DIMTIH
 70
     0
  9
$DIMTOH
 70
     0
  9
$DIMSE1
 70
     0
  9
$DIMSE2
 70
     0
  9
$DIMTAD
 70
     0
  9
$DIMZIN
 70
     0
  9
$DIMBLK
  1

  9
$DIMASO
 70
     1
  9
$DIMSHO
 70
     1
  9
$DIMPOST
  1

  9
$DIMAPOST
  1

  9
$DIMALT
 70
     0
  9
$DIMALTD
 70
     2
  9
$DIMALTF
 40
25.4
  9
$DIMLFAC
 40
1.0
  9
$DIMTOFL
 70
     0
  9
$DIMTVP
 40
0.0
  9
$DIMTIX
 70
     0
  9
$DIMSOXD
 70
     0
  9
$DIMSAH
 70
     0
  9
$DIMBLK1
  1

  9
$DIMBLK2
  1

  9
$DIMSTYLE
  2
STANDARD
  9
$DIMCLRD
 70
     0
  9
$DIMCLRE
 70
     0
  9
$DIMCLRT
 70
     0
  9
$DIMTFAC
 40
1.0
  9
$DIMGAP
 40
0.09
  9
$DIMJUST
 70
     0
  9
$DIMSD1
 70
     0
  9
$DIMSD2
 70
     0
  9
$DIMTOLJ
 70
     1
  9
$DIMTZIN
 70
     0
  9
$DIMALTZ
 70
     0
  9
$DIMALTTZ
 70
     0
  9
$DIMUPT
 70
     0
  9
$DIMDEC
 70
     4
  9
$DIMTDEC
 70
     4
  9
$DIMALTU
 70
     2
  9
$DIMALTTD
 70
     2
  9
$DIMTXSTY
  7
STANDARD
  9
$DIMAUNIT
 70
     0
  9
$DIMADEC
 70
     0
  9
$DIMALTRND
 40
0.0
  9
$DIMAZIN
 70
     0
  9
$DIMDSEP
 70
    46
  9
$DIMATFIT
 70
     3
  9
$DIMFRAC
 70
     0
  9
$DIMLDRBLK
  1

  9
$DIMLUNIT
 70
     2
  9
$DIMLWD
 70
    -2
  9
$DIMLWE
 70
    -2
  9
$DIMTMOVE
 70
     0
  9
$LUNITS
 70
     4
  9
$LUPREC
 70
     4
  9
$SKETCHINC
 40
0.1
  9
$FILLETRAD
 40
0.0
  9
$AUNITS
 70
     0
  9
$AUPREC
 70
     0
  9
$MENU
  1
.
  9
$ELEVATION
 40
0.0
  9
$PELEVATION
 40
0.0
  9
$THICKNESS
 40
0.0
  9
$LIMCHECK
 70
     0
  9
$CHAMFERA
 40
0.5
  9
$CHAMFERB
 40
0.5
  9
$CHAMFERC
 40
1.0
  9
$CHAMFERD
 40
0.0
  9
$SKPOLY
 70
     0
  9
$TDCREATE
 40
2451160.360457639
  9
$TDUCREATE
 40
2451160.527124306
  9
$TDUPDATE
 40
2453524.501474074
  9
$TDUUPDATE
 40
2453524.668140741
  9
$TDINDWG
 40
0.4764359606
  9
$TDUSRTIMER
 40
0.4764359606
  9
$USRTIMER
 70
     1
  9
$ANGBASE
 50
0.0
  9
$ANGDIR
 70
     0
  9
$PDMODE
 70
     3
  9
$PDSIZE
 40
1.0
  9
$PLINEWID
 40
0.0
  9
$SPLFRAME
 70
     0
  9
$SPLINETYPE
 70
     6
  9
$SPLINESEGS
 70
     8
  9
$HANDSEED
  5
F34B
  9
$SURFTAB1
 70
     6
  9
$SURFTAB2
 70
     6
  9
$SURFTYPE
 70
     6
  9
$SURFU
 70
     6
  9
$SURFV
 70
     6
  9
$UCSBASE
  2

  9
$UCSNAME
  2

  9
$UCSORG
 10
0.0
 20
0.0
 30
0.0
  9
$UCSXDIR
 10
1.0
 20
0.0
 30
0.0
  9
$UCSYDIR
 10
0.0
 20
1.0
 30
0.0
  9
$UCSORTHOREF
  2

  9
$UCSORTHOVIEW
 70
     0
  9
$UCSORGTOP
 10
0.0
 20
0.0
 30
0.0
  9
$UCSORGBOTTOM
 10
0.0
 20
0.0
 30
0.0
  9
$UCSORGLEFT
 10
0.0
 20
0.0
 30
0.0
  9
$UCSORGRIGHT
 10
0.0
 20
0.0
 30
0.0
  9
$UCSORGFRONT
 10
0.0
 20
0.0
 30
0.0
  9
$UCSORGBACK
 10
0.0
 20
0.0
 30
0.0
  9
$PUCSBASE
  2

  9
$PUCSNAME
  2

  9
$PUCSORG
 10
0.0
 20
0.0
 30
0.0
  9
$PUCSXDIR
 10
1.0
 20
0.0
 30
0.0
  9
$PUCSYDIR
 10
0.0
 20
1.0
 30
0.0
  9
$PUCSORTHOREF
  2

  9
$PUCSORTHOVIEW
 70
     0
  9
$PUCSORGTOP
 10
0.0
 20
0.0
 30
0.0
  9
$PUCSORGBOTTOM
 10
0.0
 20
0.0
 30
0.0
  9
$PUCSORGLEFT
 10
0.0
 20
0.0
 30
0.0
  9
$PUCSORGRIGHT
 10
0.0
 20
0.0
 30
0.0
  9
$PUCSORGFRONT
 10
0.0
 20
0.0
 30
0.0
  9
$PUCSORGBACK
 10
0.0
 20
0.0
 30
0.0
  9
$USERI1
 70
     0
  9
$USERI2
 70
     0
  9
$USERI3
 70
     0
  9
$USERI4
 70
     0
  9
$USERI5
 70
     0
  9
$USERR1
 40
0.0
  9
$USERR2
 40
0.0
  9
$USERR3
 40
0.0
  9
$USERR4
 40
0.0
  9
$USERR5
 40
0.0
  9
$WORLDVIEW
 70
     1
  9
$SHADEDGE
 70
     3
  9
$SHADEDIF
 70
    70
  9
$TILEMODE
 70
     1
  9
$MAXACTVP
 70
    48
  9
$PINSBASE
 10
0.0
 20
0.0
 30
0.0
  9
$PLIMCHECK
 70
     0
  9
$PEXTMIN
 10
1.049636599258096
 20
0.7996597240971113
 30
-0.0015258207003583
  9
$PEXTMAX
 10
9.450362731076971
 20
7.200340082697458
 30
0.0000000349246037
  9
$PLIMMIN
 10
-0.2500002402958907
 20
-0.2499999962453767
  9
$PLIMMAX
 10
10.74999951940821
 20
8.249999763458731
  9
$UNITMODE
 70
     0
  9
$VISRETAIN
 70
     1
  9
$PLINEGEN
 70
     0
  9
$PSLTSCALE
 70
     1
  9
$TREEDEPTH
 70
  3020
  9
$CMLSTYLE
  2
STANDARD
  9
$CMLJUST
 70
     0
  9
$CMLSCALE
 40
1.0
  9
$PROXYGRAPHICS
 70
     1
  9
$MEASUREMENT
 70
     0
  9
$CELWEIGHT
370
    -1
  9
$ENDCAPS
280
     0
  9
$JOINSTYLE
280
     0
  9
$LWDISPLAY
290
     0
  9
$INSUNITS
 70
     0
  9
$HYPERLINKBASE
  1

  9
$STYLESHEET
  1

  9
$XEDIT
290
     1
  9
$CEPSNTYPE
380
     0
  9
$PSTYLEMODE
290
     1
  9
$FINGERPRINTGUID
  2
{69D13D53-86F9-4F44-A1AE-477F4D3BB25D}
  9
$VERSIONGUID
  2
{BBC2F141-7359-4315-8CC0-B9C2D5707B65}
  9
$EXTNAMES
290
     1
  9
$PSVPSCALE
 40
0.0
  9
$OLESTARTUP
290
     0
  9
$SORTENTS
280
   127
  9
$INDEXCTL
280
     0
  9
$HIDETEXT
280
     0
  9
$XCLIPFRAME
290
     0
  9
$HALOGAP
280
     0
  9
$OBSCOLOR
 70
   257
  9
$OBSLTYPE
280
     0
  9
$INTERSECTIONDISPLAY
280
     0
  9
$INTERSECTIONCOLOR
 70
   257
  9
$DIMASSOC
280
     1
  9
$PROJECTNAME
  1

  0
ENDSEC
  0
SECTION
  2
CLASSES
  0
CLASS
  1
RASTERVARIABLES
  2
AcDbRasterVariables
  3
ISM
 90
        0
 91
        1
280
     0
281
     0
  0
CLASS
  1
IMAGEDEF
  2
AcDbRasterImageDef
  3
ISM
 90
        0
 91
       10
280
     0
281
     0
  0
CLASS
  1
IMAGEDEF_REACTOR
  2
AcDbRasterImageDefReactor
  3
ISM
 90
        1
 91
        0
280
     0
281
     0
  0
CLASS
  1
IMAGE
  2
AcDbRasterImage
  3
ISM
 90
      127
 91
        0
280
     0
281
     1
  0
CLASS
  1
ACDBDICTIONARYWDFLT
  2
AcDbDictionaryWithDefault
  3
ObjectDBX Classes
 90
        0
 91
        1
280
     0
281
     0
  0
ENDSEC
  0
SECTION
  2
TABLES
  0
TABLE
  2
VPORT
  5
8
330
0
100
AcDbSymbolTable
 70
     2
  0
VPORT
  5
F34A
330
8
100
AcDbSymbolTableRecord
100
AcDbViewportTableRecord
  2
*Active
 70
     0
 10
0.0
 20
0.0
 11
1.0
 21
1.0
 12
30.89654281983214
 22
14.01129154379476
 13
0.0
 23
0.0
 14
0.5
 24
0.5
 15
0.5
 25
0.5
 16
0.0
 26
0.0
 36
1.0
 17
0.0
 27
0.0
 37
0.0
 40
38.82938495298905
 41
1.955307262569832
 42
50.0
 43
0.0
 44
0.0
 50
0.0
 51
0.0
 71
     0
 72
   100
 73
     1
 74
     1
 75
     0
 76
     0
 77
     0
 78
     0
281
     0
 65
     1
110
0.0
120
0.0
130
0.0
111
1.0
121
0.0
131
0.0
112
0.0
122
1.0
132
0.0
 79
     0
146
0.0
  0
ENDTAB
  0
TABLE
  2
LTYPE
  5
5
330
0
100
AcDbSymbolTable
 70
     2
  0
LTYPE
  5
12
330
5
100
AcDbSymbolTableRecord
100
AcDbLinetypeTableRecord
  2
BYBLOCK
 70
     0
  3

 72
    65
 73
     0
 40
0.0
  0
LTYPE
  5
13
330
5
100
AcDbSymbolTableRecord
100
AcDbLinetypeTableRecord
  2
BYLAYER
 70
     0
  3

 72
    65
 73
     0
 40
0.0
  0
LTYPE
  5
14
330
5
100
AcDbSymbolTableRecord
100
AcDbLinetypeTableRecord
  2
CONTINUOUS
 70
     0
  3
Solid line
 72
    65
 73
     0
 40
0.0
  0
LTYPE
  5
F08D
330
5
100
AcDbSymbolTableRecord
100
AcDbLinetypeTableRecord
  2
DASHED
 70
     0
  3
Dashed __ __ __ __ __ __ __ __ __ __ __ __ __ _
 72
    65
 73
     2
 40
19.05
 49
12.7
 74
     0
 49
-6.349999999999999
 74
     0
  0
ENDTAB
  0
TABLE
  2
LAYER
  5
2
330
0
100
AcDbSymbolTable
 70
     4
  0
LAYER
  5
E
330
2
100
AcDbSymbolTableRecord
100
AcDbLayerTableRecord
  2
0
 70
     0
 62
     7
  6
CONTINUOUS
370
    -3
390
F03C
  0
LAYER
  5
F05E
330
2
100
AcDbSymbolTableRecord
100
AcDbLayerTableRecord
  2
Defpoints
 70
     0
 62
     7
  6
CONTINUOUS
290
     0
370
    -3
390
F03C
  0
LAYER
  5
F08E
330
2
100
AcDbSymbolTableRecord
100
AcDbLayerTableRecord
  2
languettes de ventilateur
 70
     0
 62
     3
  6
CONTINUOUS
370
    -3
390
F03C
  0
LAYER
  5
F2D4
330
2
100
AcDbSymbolTableRecord
100
AcDbLayerTableRecord
  2
DIM
 70
     0
 62
    -3
  6
CONTINUOUS
370
    -3
390
F03C
  0
ENDTAB
  0
TABLE
  2
STYLE
  5
3
330
0
100
AcDbSymbolTable
 70
     2
  0
STYLE
  5
F
330
3
100
AcDbSymbolTableRecord
100
AcDbTextStyleTableRecord
  2
STANDARD
 70
     0
 40
0.0
 41
1.0
 50
0.0
 71
     0
 42
0.2
  3
txt
  4

  0
STYLE
  5
F08F
330
3
100
AcDbSymbolTableRecord
100
AcDbTextStyleTableRecord
  2
STYLE1
 70
     0
 40
0.09375
 41
1.0
 50
0.0
 71
     0
 42
0.09375
  3
simplex.shx
  4

  0
ENDTAB
  0
TABLE
  2
VIEW
  5
6
330
0
100
AcDbSymbolTable
 70
     0
  0
ENDTAB
  0
TABLE
  2
UCS
  5
7
330
0
100
AcDbSymbolTable
 70
     0
  0
ENDTAB
  0
TABLE
  2
APPID
  5
9
330
0
100
AcDbSymbolTable
 70
     1
  0
APPID
  5
10
330
9
100
AcDbSymbolTableRecord
100
AcDbRegAppTableRecord
  2
ACAD
 70
     0
  0
ENDTAB
  0
TABLE
  2
DIMSTYLE
  5
A
330
0
100
AcDbSymbolTable
 70
     1
100
AcDbDimStyleTable
 71
     1
340
1D
  0
DIMSTYLE
105
1D
102
{ACAD_REACTORS
330
F16C
330
F222
330
F230
330
F2AF
330
F2BD
102
}
330
A
100
AcDbSymbolTableRecord
100
AcDbDimStyleTableRecord
  2
STANDARD
 70
     0
 73
     0
 74
     0
140
1.5
340
F
  0
ENDTAB
  0
TABLE
  2
BLOCK_RECORD
  5
1
330
0
100
AcDbSymbolTable
 70
     7
  0
BLOCK_RECORD
  5
18
330
1
100
AcDbSymbolTableRecord
100
AcDbBlockTableRecord
  2
*MODEL_SPACE
340
F041
  0
BLOCK_RECORD
  5
15
330
1
100
AcDbSymbolTableRecord
100
AcDbBlockTableRecord
  2
*PAPER_SPACE
340
F042
  0
BLOCK_RECORD
  5
F01B
330
1
100
AcDbSymbolTableRecord
100
AcDbBlockTableRecord
  2
9430E
340
0
  0
BLOCK_RECORD
  5
F032
330
1
100
AcDbSymbolTableRecord
100
AcDbBlockTableRecord
  2
9430C
340
0
  0
BLOCK_RECORD
  5
F16D
330
1
100
AcDbSymbolTableRecord
100
AcDbBlockTableRecord
  2
*D2
340
0
  0
BLOCK_RECORD
  5
F223
330
1
100
AcDbSymbolTableRecord
100
AcDbBlockTableRecord
  2
*D3
340
0
  0
BLOCK_RECORD
  5
F231
330
1
100
AcDbSymbolTableRecord
100
AcDbBlockTableRecord
  2
*D4
340
0
  0
BLOCK_RECORD
  5
F2B0
330
1
100
AcDbSymbolTableRecord
100
AcDbBlockTableRecord
  2
*D5
340
0
  0
BLOCK_RECORD
  5
F2BE
330
1
100
AcDbSymbolTableRecord
100
AcDbBlockTableRecord
  2
*D6
340
0
  0
ENDTAB
  0
ENDSEC
  0
SECTION
  2
BLOCKS
  0
BLOCK
  5
19
330
18
100
AcDbEntity
  8
0
100
AcDbBlockBegin
  2
*MODEL_SPACE
 70
     0
 10
0.0
 20
0.0
 30
0.0
  3
*MODEL_SPACE
  1

  0
ENDBLK
  5
1A
330
18
100
AcDbEntity
  8
0
100
AcDbBlockEnd
  0
BLOCK
  5
16
330
15
100
AcDbEntity
 67
     1
  8
0
100
AcDbBlockBegin
  2
*PAPER_SPACE
 70
     0
 10
0.0
 20
0.0
 30
0.0
  3
*PAPER_SPACE
  1

  0
ENDBLK
  5
17
330
15
100
AcDbEntity
 67
     1
  8
0
100
AcDbBlockEnd
  0
BLOCK
  5
F01C
330
F01B
100
AcDbEntity
  8
0
100
AcDbBlockBegin
  2
9430E
 70
     0
 10
0.0
 20
0.0
 30
0.0
  3
9430E
  1

  0
LINE
  5
F01D
330
F01B
100
AcDbEntity
  8
0
100
AcDbLine
 10
-2.925
 20
-6.5
 30
0.0
 11
2.924999999999997
 21
-6.499999999999996
 31
0.0
  0
LINE
  5
F01E
330
F01B
100
AcDbEntity
  8
0
100
AcDbLine
 10
-3.916666666666664
 20
-7.5
 30
0.0
 11
3.91666666666666
 21
-7.5
 31
0.0
  0
LINE
  5
F01F
330
F01B
100
AcDbEntity
  8
0
100
AcDbLine
 10
-4.908333333333331
 20
-8.5
 30
0.0
 11
4.908333333333334
 21
-8.5
 31
0.0
  0
LINE
  5
F020
330
F01B
100
AcDbEntity
  8
0
100
AcDbLine
 10
-5.899999999999998
 20
-9.5
 30
0.0
 11
5.899999999999995
 21
-9.5
 31
0.0
  0
LINE
  5
F021
330
F01B
100
AcDbEntity
  8
0
100
AcDbLine
 10
-6.891666666666665
 20
-10.5
 30
0.0
 11
6.891666666666655
 21
-10.5
 31
0.0
  0
LINE
  5
F022
330
F01B
100
AcDbEntity
  8
0
100
AcDbLine
 10
-7.883333333333331
 20
-11.5
 30
0.0
 11
7.883333333333329
 21
-11.5
 31
0.0
  0
LINE
  5
F023
330
F01B
100
AcDbEntity
  8
0
100
AcDbLine
 10
-8.875
 20
-12.5
 30
0.0
 11
8.874999999999985
 21
-12.5
 31
0.0
  0
LINE
  5
F024
330
F01B
100
AcDbEntity
  8
0
100
AcDbLine
 10
-9.866666666666667
 20
-13.5
 30
0.0
 11
0.0
 21
-3.550420168067226
 31
0.0
  0
LINE
  5
F025
330
F01B
100
AcDbEntity
  8
0
100
AcDbLine
 10
-9.866666666666667
 20
-13.5
 30
0.0
 11
9.866666666666652
 21
-13.5
 31
0.0
  0
LINE
  5
F026
330
F01B
100
AcDbEntity
  8
0
100
AcDbLine
 10
-11.66666666666667
 20
-14.25
 30
0.0
 11
0.0000000000000036
 21
-2.485294117647054
 31
0.0
  0
LINE
  5
F027
330
F01B
100
AcDbEntity
  8
0
100
AcDbLine
 10
-13.075
 20
-14.25
 30
0.0
 11
13.07499999999999
 21
-14.25
 31
0.0
  0
LINE
  5
F028
330
F01B
100
AcDbEntity
  8
0
100
AcDbLine
 10
-13.075
 20
-14.25
 30
0.0
 11
0.0000000000000036
 21
-1.065126050420165
 31
0.0
  0
LINE
  5
F029
330
F01B
100
AcDbEntity
  8
0
100
AcDbLine
 10
-14.875
 20
-15.0
 30
0.0
 11
0.0
 21
0.0
 31
0.0
  0
LINE
  5
F02A
330
F01B
100
AcDbEntity
  8
0
100
AcDbLine
 10
-14.875
 20
-15.0
 30
0.0
 11
14.875
 21
-15.0
 31
0.0
  0
LINE
  5
F02B
330
F01B
100
AcDbEntity
  8
0
100
AcDbLine
 10
0.0
 20
-3.550420168067226
 30
0.0
 11
9.866666666666652
 21
-13.5
 31
0.0
  0
LINE
  5
F02C
330
F01B
100
AcDbEntity
  8
0
100
AcDbLine
 10
0.0000000000000036
 20
-2.485294117647054
 30
0.0
 11
11.66666666666666
 21
-14.25
 31
0.0
  0
LINE
  5
F02D
330
F01B
100
AcDbEntity
  8
0
100
AcDbLine
 10
0.0000000000000036
 20
-1.065126050420165
 30
0.0
 11
13.07499999999999
 21
-14.25
 31
0.0
  0
LINE
  5
F02E
330
F01B
100
AcDbEntity
  8
0
100
AcDbLine
 10
0.0
 20
0.0
 30
0.0
 11
14.875
 21
-15.0
 31
0.0
  0
LINE
  5
F02F
330
F01B
100
AcDbEntity
  8
0
100
AcDbLine
 10
-0.9416666666666628
 20
-4.5
 30
0.0
 11
0.9416666666666664
 21
-4.5
 31
0.0
  0
LINE
  5
F030
330
F01B
100
AcDbEntity
  8
0
100
AcDbLine
 10
-1.93333333333333
 20
-5.499999999999996
 30
0.0
 11
1.93333333333333
 21
-5.5
 31
0.0
  0
ENDBLK
  5
F031
330
F01B
100
AcDbEntity
  8
0
100
AcDbBlockEnd
  0
BLOCK
  5
F033
330
F032
100
AcDbEntity
  8
0
100
AcDbBlockBegin
  2
9430C
 70
     0
 10
0.0
 20
0.0
 30
0.0
  3
9430C
  1

  0
LINE
  5
F034
330
F032
100
AcDbEntity
  8
0
100
AcDbLine
 10
-1.750000000000007
 20
7.5
 30
0.0
 11
-1.749999999999992
 21
-7.5
 31
0.0
  0
LINE
  5
F035
330
F032
100
AcDbEntity
  8
0
100
AcDbLine
 10
0.0
 20
7.5
 30
0.0
 11
0.0
 21
-7.5
 31
0.0
  0
LINE
  5
F036
330
F032
100
AcDbEntity
  8
0
100
AcDbLine
 10
-1.749999999999992
 20
-7.5
 30
0.0
 11
0.0
 21
-7.5
 31
0.0
  0
LINE
  5
F037
330
F032
100
AcDbEntity
  8
0
100
AcDbLine
 10
-1.750000000000007
 20
7.5
 30
0.0
 11
0.0
 21
7.5
 31
0.0
  0
ENDBLK
  5
F038
330
F032
100
AcDbEntity
  8
0
100
AcDbBlockEnd
  0
BLOCK
  5
F178
330
F16D
100
AcDbEntity
  8
0
100
AcDbBlockBegin
  2
*D2
 70
     1
 10
0.0
 20
0.0
 30
0.0
  3
*D2
  1

  0
LINE
  5
F307
330
F16D
100
AcDbEntity
  8
DIM
 62
     0
370
    -2
100
AcDbLine
 10
36.65307328937769
 20
9.545760015474041
 30
0.0
 11
36.65307328937769
 21
4.939579491245702
 31
0.0
  0
LINE
  5
F308
330
F16D
100
AcDbEntity
  8
DIM
 62
     0
370
    -2
100
AcDbLine
 10
6.65307328937769
 20
9.545760015474044
 30
0.0
 11
6.65307328937769
 21
4.939579491245702
 31
0.0
  0
LINE
  5
F309
330
F16D
100
AcDbEntity
  8
DIM
 62
     0
370
    -2
100
AcDbLine
 10
36.47307328937769
 20
5.119579491245701
 30
0.0
 11
25.61807328937769
 21
5.119579491245701
 31
0.0
  0
LINE
  5
F30A
330
F16D
100
AcDbEntity
  8
DIM
 62
     0
370
    -2
100
AcDbLine
 10
6.83307328937769
 20
5.119579491245701
 30
0.0
 11
17.68807328937769
 21
5.119579491245701
 31
0.0
  0
SOLID
  5
F30B
330
F16D
100
AcDbEntity
  8
DIM
 62
     0
100
AcDbTrace
 10
36.47307328937769
 20
5.149579491245702
 30
0.0
 11
36.47307328937769
 21
5.089579491245701
 31
0.0
 12
36.65307328937769
 22
5.119579491245701
 32
0.0
 13
36.65307328937769
 23
5.119579491245701
 33
0.0
  0
SOLID
  5
F30C
330
F16D
100
AcDbEntity
  8
DIM
 62
     0
100
AcDbTrace
 10
6.83307328937769
 20
5.149579491245702
 30
0.0
 11
6.83307328937769
 21
5.089579491245701
 31
0.0
 12
6.65307328937769
 22
5.119579491245701
 32
0.0
 13
6.65307328937769
 23
5.119579491245701
 33
0.0
  0
MTEXT
  5
F30D
330
F16D
100
AcDbEntity
  8
DIM
 62
     0
100
AcDbMText
 10
21.65307328937769
 20
5.119579491245701
 30
0.0
 40
1.5
 41
0.0
 71
     5
 72
     1
  1
\A1;30.0000
 73
     1
 44
1.0
  0
POINT
  5
F30E
330
F16D
100
AcDbEntity
  8
Defpoints
 62
     0
100
AcDbPoint
 10
36.65307328937769
 20
9.608260015474041
 30
0.0
  0
POINT
  5
F30F
330
F16D
100
AcDbEntity
  8
Defpoints
 62
     0
100
AcDbPoint
 10
6.65307328937769
 20
9.608260015474044
 30
0.0
  0
POINT
  5
F310
330
F16D
100
AcDbEntity
  8
Defpoints
 62
     0
100
AcDbPoint
 10
6.65307328937769
 20
5.119579491245701
 30
0.0
  0
ENDBLK
  5
F179
330
F16D
100
AcDbEntity
  8
0
100
AcDbBlockEnd
  0
BLOCK
  5
F22E
330
F223
100
AcDbEntity
  8
0
100
AcDbBlockBegin
  2
*D3
 70
     1
 10
0.0
 20
0.0
 30
0.0
  3
*D3
  1

  0
LINE
  5
F311
330
F223
100
AcDbEntity
  8
DIM
 62
     0
370
    -2
100
AcDbLine
 10
42.81148405417702
 20
9.545760015474044
 30
0.0
 11
42.81148405417702
 21
7.260056855256216
 31
0.0
  0
LINE
  5
F312
330
F223
100
AcDbEntity
  8
DIM
 62
     0
370
    -2
100
AcDbLine
 10
44.68648405417702
 20
9.545760015474044
 30
0.0
 11
44.68648405417702
 21
7.260056855256216
 31
0.0
  0
LINE
  5
F313
330
F223
100
AcDbEntity
  8
DIM
 62
     0
370
    -2
100
AcDbLine
 10
42.99148405417702
 20
7.440056855256216
 30
0.0
 11
44.50648405417701
 21
7.440056855256216
 31
0.0
  0
LINE
  5
F314
330
F223
100
AcDbEntity
  8
DIM
 62
     0
370
    -2
100
AcDbLine
 10
44.68648405417702
 20
7.440056855256216
 30
0.0
 11
44.86648405417701
 21
7.440056855256216
 31
0.0
  0
SOLID
  5
F315
330
F223
100
AcDbEntity
  8
DIM
 62
     0
100
AcDbTrace
 10
42.99148405417702
 20
7.470056855256216
 30
0.0
 11
42.99148405417702
 21
7.410056855256216
 31
0.0
 12
42.81148405417702
 22
7.440056855256216
 32
0.0
 13
42.81148405417702
 23
7.440056855256216
 33
0.0
  0
SOLID
  5
F316
330
F223
100
AcDbEntity
  8
DIM
 62
     0
100
AcDbTrace
 10
44.50648405417701
 20
7.470056855256216
 30
0.0
 11
44.50648405417701
 21
7.410056855256216
 31
0.0
 12
44.68648405417702
 22
7.440056855256216
 32
0.0
 13
44.68648405417702
 23
7.440056855256216
 33
0.0
  0
MTEXT
  5
F317
330
F223
100
AcDbEntity
  8
DIM
 62
     0
100
AcDbMText
 10
48.33148405417702
 20
7.440056855256216
 30
0.0
 40
1.5
 41
0.0
 71
     5
 72
     1
  1
\A1;1.8750
 73
     1
 44
1.0
  0
POINT
  5
F318
330
F223
100
AcDbEntity
  8
Defpoints
 62
     0
100
AcDbPoint
 10
42.81148405417702
 20
9.608260015474044
 30
0.0
  0
POINT
  5
F319
330
F223
100
AcDbEntity
  8
Defpoints
 62
     0
100
AcDbPoint
 10
44.68648405417702
 20
9.608260015474044
 30
0.0
  0
POINT
  5
F31A
330
F223
100
AcDbEntity
  8
Defpoints
 62
     0
100
AcDbPoint
 10
44.68648405417702
 20
7.440056855256216
 30
0.0
  0
ENDBLK
  5
F22F
330
F223
100
AcDbEntity
  8
0
100
AcDbBlockEnd
  0
BLOCK
  5
F23C
330
F231
100
AcDbEntity
  8
0
100
AcDbBlockBegin
  2
*D4
 70
     1
 10
0.0
 20
0.0
 30
0.0
  3
*D4
  1

  0
LINE
  5
F31B
330
F231
100
AcDbEntity
  8
DIM
 62
     0
370
    -2
100
AcDbLine
 10
43.81148405417701
 20
9.608260015474044
 30
0.0
 11
49.67318668486256
 21
9.608260015474042
 31
0.0
  0
LINE
  5
F31C
330
F231
100
AcDbEntity
  8
DIM
 62
     0
370
    -2
100
AcDbLine
 10
43.81148405417701
 20
24.60826001547405
 30
0.0
 11
49.67318668486257
 21
24.60826001547405
 31
0.0
  0
LINE
  5
F31D
330
F231
100
AcDbEntity
  8
DIM
 62
     0
370
    -2
100
AcDbLine
 10
49.49318668486256
 20
9.788260015474042
 30
0.0
 11
49.49318668486256
 21
13.26826001547404
 31
0.0
  0
LINE
  5
F31E
330
F231
100
AcDbEntity
  8
DIM
 62
     0
370
    -2
100
AcDbLine
 10
49.49318668486256
 20
24.42826001547405
 30
0.0
 11
49.49318668486256
 21
20.94826001547405
 31
0.0
  0
SOLID
  5
F31F
330
F231
100
AcDbEntity
  8
DIM
 62
     0
100
AcDbTrace
 10
49.46318668486256
 20
9.788260015474042
 30
0.0
 11
49.52318668486256
 21
9.788260015474042
 31
0.0
 12
49.49318668486256
 22
9.608260015474042
 32
0.0
 13
49.49318668486256
 23
9.608260015474042
 33
0.0
  0
SOLID
  5
F320
330
F231
100
AcDbEntity
  8
DIM
 62
     0
100
AcDbTrace
 10
49.46318668486256
 20
24.42826001547405
 30
0.0
 11
49.52318668486256
 21
24.42826001547405
 31
0.0
 12
49.49318668486256
 22
24.60826001547405
 32
0.0
 13
49.49318668486256
 23
24.60826001547405
 33
0.0
  0
MTEXT
  5
F321
330
F231
100
AcDbEntity
  8
DIM
 62
     0
100
AcDbMText
 10
49.49318668486256
 20
17.10826001547405
 30
0.0
 40
1.5
 41
0.0
 71
     5
 72
     1
  1
\A1;15.0000
 11
0.0000000000000001
 21
1.0
 31
0.0
 73
     1
 44
1.0
  0
POINT
  5
F322
330
F231
100
AcDbEntity
  8
Defpoints
 62
     0
100
AcDbPoint
 10
43.74898405417702
 20
9.608260015474044
 30
0.0
  0
POINT
  5
F323
330
F231
100
AcDbEntity
  8
Defpoints
 62
     0
100
AcDbPoint
 10
43.74898405417702
 20
24.60826001547405
 30
0.0
  0
POINT
  5
F324
330
F231
100
AcDbEntity
  8
Defpoints
 62
     0
100
AcDbPoint
 10
49.49318668486256
 20
24.60826001547405
 30
0.0
  0
ENDBLK
  5
F23D
330
F231
100
AcDbEntity
  8
0
100
AcDbBlockEnd
  0
BLOCK
  5
F2BB
330
F2B0
100
AcDbEntity
  8
0
100
AcDbBlockBegin
  2
*D5
 70
     1
 10
0.0
 20
0.0
 30
0.0
  3
*D5
  1

  0
LINE
  5
F325
330
F2B0
100
AcDbEntity
  8
DIM
 62
     0
370
    -2
100
AcDbLine
 10
43.99898405417701
 20
21.07272610954131
 30
0.0
 11
37.49656406118394
 21
21.07272610954131
 31
0.0
  0
LINE
  5
F326
330
F2B0
100
AcDbEntity
  8
DIM
 62
     0
370
    -2
100
AcDbLine
 10
43.99898405417701
 20
24.60826001547405
 30
0.0
 11
37.49656406118394
 21
24.60826001547405
 31
0.0
  0
LINE
  5
F327
330
F2B0
100
AcDbEntity
  8
DIM
 62
     0
370
    -2
100
AcDbLine
 10
37.67656406118394
 20
21.25272610954131
 30
0.0
 11
37.67656406118394
 21
24.42826001547405
 31
0.0
  0
LINE
  5
F328
330
F2B0
100
AcDbEntity
  8
DIM
 62
     0
370
    -2
100
AcDbLine
 10
37.67656406118394
 20
24.60826001547405
 30
0.0
 11
37.67656406118394
 21
24.78826001547405
 31
0.0
  0
SOLID
  5
F329
330
F2B0
100
AcDbEntity
  8
DIM
 62
     0
100
AcDbTrace
 10
37.64656406118394
 20
21.25272610954131
 30
0.0
 11
37.70656406118394
 21
21.25272610954131
 31
0.0
 12
37.67656406118394
 22
21.07272610954131
 32
0.0
 13
37.67656406118394
 23
21.07272610954131
 33
0.0
  0
SOLID
  5
F32A
330
F2B0
100
AcDbEntity
  8
DIM
 62
     0
100
AcDbTrace
 10
37.64656406118394
 20
24.42826001547405
 30
0.0
 11
37.70656406118394
 21
24.42826001547405
 31
0.0
 12
37.67656406118394
 22
24.60826001547405
 32
0.0
 13
37.67656406118394
 23
24.60826001547405
 33
0.0
  0
MTEXT
  5
F32B
330
F2B0
100
AcDbEntity
  8
DIM
 62
     0
100
AcDbMText
 10
37.67656406118393
 20
28.62826001547405
 30
0.0
 40
1.5
 41
0.0
 71
     5
 72
     1
  1
\A1;3.5355
 11
0.0000000000000001
 21
1.0
 31
0.0
 73
     1
 44
1.0
  0
POINT
  5
F32C
330
F2B0
100
AcDbEntity
  8
Defpoints
 62
     0
100
AcDbPoint
 10
44.06148405417702
 20
21.07272610954131
 30
0.0
  0
POINT
  5
F32D
330
F2B0
100
AcDbEntity
  8
Defpoints
 62
     0
100
AcDbPoint
 10
44.06148405417702
 20
24.60826001547405
 30
0.0
  0
POINT
  5
F32E
330
F2B0
100
AcDbEntity
  8
Defpoints
 62
     0
100
AcDbPoint
 10
37.67656406118394
 20
24.60826001547405
 30
0.0
  0
ENDBLK
  5
F2BC
330
F2B0
100
AcDbEntity
  8
0
100
AcDbBlockEnd
  0
BLOCK
  5
F2C9
330
F2BE
100
AcDbEntity
  8
0
100
AcDbBlockBegin
  2
*D6
 70
     1
 10
0.0
 20
0.0
 30
0.0
  3
*D6
  1

  0
LINE
  5
F32F
330
F2BE
100
AcDbEntity
  8
DIM
 62
     0
370
    -2
100
AcDbLine
 10
26.96611216258715
 20
15.75968723633183
 30
0.0
 11
17.29269605437936
 21
25.43310334453963
 31
0.0
  0
LINE
  5
F330
330
F2BE
100
AcDbEntity
  8
DIM
 62
     0
370
    -2
100
AcDbLine
 10
28.73387911555353
 20
17.52745418929821
 30
0.0
 11
19.06046300734574
 21
27.20087029750601
 31
0.0
  0
LINE
  5
F331
330
F2BE
100
AcDbEntity
  8
DIM
 62
     0
370
    -2
100
AcDbLine
 10
17.54725449560652
 20
25.43310334453963
 30
0.0
 11
19.06046300734574
 21
26.94631185627885
 31
0.0
  0
LINE
  5
F332
330
F2BE
100
AcDbEntity
  8
DIM
 62
     0
370
    -2
100
AcDbLine
 10
19.18774222795932
 20
27.07359107689243
 30
0.0
 11
19.3150214485729
 21
27.20087029750601
 31
0.0
  0
SOLID
  5
F333
330
F2BE
100
AcDbEntity
  8
DIM
 62
     0
100
AcDbTrace
 10
17.52604129217093
 20
25.45431654797522
 30
0.0
 11
17.56846769904212
 21
25.41189014110403
 31
0.0
 12
17.41997527499294
 22
25.30582412392605
 32
0.0
 13
17.41997527499294
 23
25.30582412392605
 33
0.0
  0
SOLID
  5
F334
330
F2BE
100
AcDbEntity
  8
DIM
 62
     0
100
AcDbTrace
 10
19.03924980391015
 20
26.96752505971444
 30
0.0
 11
19.08167621078134
 21
26.92509865284325
 31
0.0
 12
19.18774222795932
 22
27.07359107689243
 32
0.0
 13
19.18774222795932
 23
27.07359107689243
 33
0.0
  0
MTEXT
  5
F335
330
F2BE
100
AcDbEntity
  8
DIM
 62
     0
100
AcDbMText
 10
21.76514644538429
 20
29.65099529431739
 30
0.0
 40
1.5
 41
0.0
 71
     5
 72
     1
  1
\A1;2.5000
 11
0.7071067811865479
 21
0.7071067811865471
 31
0.0
 73
     1
 44
1.0
  0
POINT
  5
F336
330
F2BE
100
AcDbEntity
  8
Defpoints
 62
     0
100
AcDbPoint
 10
27.01030633641131
 20
15.71549306250767
 30
0.0
  0
POINT
  5
F337
330
F2BE
100
AcDbEntity
  8
Defpoints
 62
     0
100
AcDbPoint
 10
28.77807328937769
 20
17.48326001547405
 30
0.0
  0
POINT
  5
F338
330
F2BE
100
AcDbEntity
  8
Defpoints
 62
     0
100
AcDbPoint
 10
19.18774222795932
 20
27.07359107689243
 30
0.0
  0
ENDBLK
  5
F2CA
330
F2BE
100
AcDbEntity
  8
0
100
AcDbBlockEnd
  0
ENDSEC
  0
SECTION
  2
ENTITIES
  0
LINE
  5
F016
330
18
100
AcDbEntity
  8
0
100
AcDbLine
 10
44.68648405417702
 20
24.60826001547405
 30
0.0
 11
44.68648405417702
 21
9.608260015474044
 31
0.0
  0
LINE
  5
F018
330
18
100
AcDbEntity
  8
0
100
AcDbLine
 10
42.81148405417702
 20
9.608260015474044
 30
0.0
 11
44.68648405417702
 21
9.608260015474044
 31
0.0
  0
LINE
  5
F019
330
18
100
AcDbEntity
  8
0
 48
0.1
100
AcDbLine
 10
42.81148405417701
 20
24.60826001547405
 30
0.0
 11
42.81148405417702
 21
9.608260015474044
 31
0.0
  0
LINE
  5
F046
330
18
100
AcDbEntity
  8
0
100
AcDbLine
 10
36.65307328937769
 20
9.608260015474041
 30
0.0
 11
6.65307328937769
 21
9.608260015474044
 31
0.0
  0
LINE
  5
F048
330
18
100
AcDbEntity
  8
0
100
AcDbLine
 10
21.65307328937769
 20
24.60826001547405
 30
0.0
 11
6.65307328937769
 21
9.608260015474044
 31
0.0
  0
LINE
  5
F049
330
18
100
AcDbEntity
  8
0
100
AcDbLine
 10
21.65307328937769
 20
24.60826001547405
 30
0.0
 11
36.65307328937769
 21
9.608260015474041
 31
0.0
  0
LINE
  5
F04C
330
18
100
AcDbEntity
  8
0
100
AcDbLine
 10
35.19596650819114
 20
10.35826001547404
 30
0.0
 11
8.110180070564236
 21
10.35826001547404
 31
0.0
  0
LINE
  5
F05B
330
18
100
AcDbEntity
  8
0
100
AcDbLine
 10
21.65307328937769
 20
21.07272610954131
 30
0.0
 11
32.36753938344494
 21
10.35826001547404
 31
0.0
  0
LINE
  5
F05C
330
18
100
AcDbEntity
  8
0
100
AcDbLine
 10
21.65307328937769
 20
21.07272610954131
 30
0.0
 11
10.93860719531043
 21
10.35826001547404
 31
0.0
  0
LINE
  5
F07B
330
18
100
AcDbEntity
  8
0
100
AcDbLine
 10
43.43648405417702
 20
21.07272610954131
 30
0.0
 11
44.68648405417702
 21
21.07272610954131
 31
0.0
  0
LINE
  5
F07E
330
18
100
AcDbEntity
  8
0
100
AcDbLine
 10
42.81148405417702
 20
10.35826001547404
 30
0.0
 11
44.68648405417702
 21
10.35826001547404
 31
0.0
  0
LINE
  5
F0F5
330
18
100
AcDbEntity
  8
languettes de ventilateur
100
AcDbLine
 10
30.61753938344493
 20
12.10826001547405
 30
0.0
 11
12.68860719531043
 21
12.10826001547405
 31
0.0
  0
LINE
  5
F0F6
330
18
100
AcDbEntity
  8
languettes de ventilateur
100
AcDbLine
 10
31.61753938344493
 20
11.10826001547405
 30
0.0
 11
11.68860719531044
 21
11.10826001547405
 31
0.0
  0
LINE
  5
F102
330
18
100
AcDbEntity
  8
languettes de ventilateur
100
AcDbLine
 10
20.43860719531043
 20
19.85826001547405
 30
0.0
 11
22.86753938344494
 21
19.85826001547405
 31
0.0
  0
LINE
  5
F103
330
18
100
AcDbEntity
  8
languettes de ventilateur
100
AcDbLine
 10
24.61753938344493
 20
18.10826001547405
 30
0.0
 11
18.68860719531043
 21
18.10826001547405
 31
0.0
  0
LINE
  5
F104
330
18
100
AcDbEntity
  8
languettes de ventilateur
100
AcDbLine
 10
23.61753938344494
 20
19.10826001547405
 30
0.0
 11
19.68860719531043
 21
19.10826001547405
 31
0.0
  0
LINE
  5
F110
330
18
100
AcDbEntity
  8
languettes de ventilateur
100
AcDbLine
 10
15.18860719531043
 20
14.60826001547405
 30
0.0
 11
28.11753938344493
 21
14.60826001547405
 31
0.0
  0
LINE
  5
F111
330
18
100
AcDbEntity
  8
languettes de ventilateur
100
AcDbLine
 10
28.86753938344493
 20
13.85826001547405
 30
0.0
 11
14.43860719531043
 21
13.85826001547405
 31
0.0
  0
LINE
  5
F112
330
18
100
AcDbEntity
  8
languettes de ventilateur
100
AcDbLine
 10
29.86753938344493
 20
12.85826001547405
 30
0.0
 11
13.43860719531043
 21
12.85826001547405
 31
0.0
  0
LINE
  5
F113
330
18
100
AcDbEntity
  8
languettes de ventilateur
100
AcDbLine
 10
26.36753938344494
 20
16.35826001547405
 30
0.0
 11
16.93860719531043
 21
16.35826001547405
 31
0.0
  0
LINE
  5
F114
330
18
100
AcDbEntity
  8
languettes de ventilateur
100
AcDbLine
 10
25.36753938344494
 20
17.35826001547405
 30
0.0
 11
17.93860719531043
 21
17.35826001547405
 31
0.0
  0
LINE
  5
F115
330
18
100
AcDbEntity
  8
languettes de ventilateur
100
AcDbLine
 10
26.36753938344494
 20
16.35826001547405
 30
0.0
 11
16.93860719531043
 21
16.35826001547405
 31
0.0
  0
LINE
  5
F116
330
18
100
AcDbEntity
  8
languettes de ventilateur
100
AcDbLine
 10
27.11753938344494
 20
15.60826001547404
 30
0.0
 11
16.18860719531043
 21
15.60826001547404
 31
0.0
  0
DIMENSION
  5
F16C
330
18
100
AcDbEntity
  8
DIM
100
AcDbDimension
  2
*D2
 10
6.65307328937769
 20
5.119579491245701
 30
0.0
 11
21.65307328937769
 21
5.119579491245701
 31
0.0
 70
    32
 71
     5
 42
30.0
  3
STANDARD
100
AcDbAlignedDimension
 13
36.65307328937769
 23
9.608260015474041
 33
0.0
 14
6.65307328937769
 24
9.608260015474044
 34
0.0
100
AcDbRotatedDimension
  0
LINE
  5
F1A4
330
18
100
AcDbEntity
  8
0
100
AcDbLine
 10
42.81148405417701
 20
24.60826001547405
 30
0.0
 11
44.68648405417701
 21
24.60826001547405
 31
0.0
  0
LINE
  5
F1E5
330
18
100
AcDbEntity
  8
languettes de ventilateur
100
AcDbLine
 10
43.43648405417702
 20
12.85826001547404
 30
0.0
 11
43.43648405417702
 21
12.10826001547404
 31
0.0
  0
LINE
  5
F1E6
330
18
100
AcDbEntity
  8
languettes de ventilateur
100
AcDbLine
 10
43.43648405417702
 20
12.10826001547404
 30
0.0
 11
44.69110394109987
 21
12.87665656324416
 31
0.0
  0
LINE
  5
F1E7
330
18
100
AcDbEntity
  8
languettes de ventilateur
100
AcDbLine
 10
44.69110394109987
 20
12.50165656324416
 30
0.0
 11
44.69110394109987
 21
11.12665656324416
 31
0.0
  0
LINE
  5
F1E8
330
18
100
AcDbEntity
  8
languettes de ventilateur
100
AcDbLine
 10
43.43648405417702
 20
11.10826001547404
 30
0.0
 11
44.69110394109987
 21
12.50165656324416
 31
0.0
  0
LINE
  5
F1E9
330
18
100
AcDbEntity
  8
languettes de ventilateur
100
AcDbLine
 10
43.43648405417702
 20
11.10826001547404
 30
0.0
 11
43.43648405417702
 21
10.35826001547404
 31
0.0
  0
LINE
  5
F1EA
330
18
100
AcDbEntity
  8
languettes de ventilateur
100
AcDbLine
 10
43.43648405417702
 20
10.35826001547404
 30
0.0
 11
44.69110394109987
 21
11.12665656324416
 31
0.0
  0
LINE
  5
F1EF
330
18
100
AcDbEntity
  8
languettes de ventilateur
100
AcDbLine
 10
43.43648405417702
 20
18.10826001547404
 30
0.0
 11
44.69110394109987
 21
19.50165656324416
 31
0.0
  0
LINE
  5
F1F0
330
18
100
AcDbEntity
  8
languettes de ventilateur
100
AcDbLine
 10
44.69110394109987
 20
19.50165656324416
 30
0.0
 11
44.69110394109987
 21
18.12665656324416
 31
0.0
  0
LINE
  5
F1F1
330
18
100
AcDbEntity
  8
languettes de ventilateur
100
AcDbLine
 10
43.43648405417702
 20
17.35826001547404
 30
0.0
 11
44.69110394109987
 21
18.12665656324416
 31
0.0
  0
LINE
  5
F1F2
330
18
100
AcDbEntity
  8
languettes de ventilateur
100
AcDbLine
 10
43.43648405417702
 20
18.10826001547404
 30
0.0
 11
43.43648405417702
 21
17.35826001547404
 31
0.0
  0
LINE
  5
F1F3
330
18
100
AcDbEntity
  8
languettes de ventilateur
100
AcDbLine
 10
43.43648405417702
 20
16.35826001547404
 30
0.0
 11
44.69110394109987
 21
17.75165656324416
 31
0.0
  0
LINE
  5
F1F4
330
18
100
AcDbEntity
  8
languettes de ventilateur
100
AcDbLine
 10
44.69110394109987
 20
17.75165656324416
 30
0.0
 11
44.69110394109987
 21
16.37665656324416
 31
0.0
  0
LINE
  5
F1F5
330
18
100
AcDbEntity
  8
languettes de ventilateur
100
AcDbLine
 10
44.69110394109987
 20
14.25165656324416
 30
0.0
 11
44.69110394109987
 21
12.87665656324416
 31
0.0
  0
LINE
  5
F1F6
330
18
100
AcDbEntity
  8
languettes de ventilateur
100
AcDbLine
 10
43.43648405417702
 20
12.85826001547404
 30
0.0
 11
44.69110394109987
 21
14.25165656324416
 31
0.0
  0
LINE
  5
F1F7
330
18
100
AcDbEntity
  8
languettes de ventilateur
100
AcDbLine
 10
43.43648405417702
 20
14.60826001547404
 30
0.0
 11
43.43648405417702
 21
13.85826001547404
 31
0.0
  0
LINE
  5
F1F8
330
18
100
AcDbEntity
  8
languettes de ventilateur
100
AcDbLine
 10
43.43648405417702
 20
13.85826001547404
 30
0.0
 11
44.69110394109987
 21
14.62665656324416
 31
0.0
  0
LINE
  5
F1F9
330
18
100
AcDbEntity
  8
languettes de ventilateur
100
AcDbLine
 10
44.69110394109987
 20
16.00165656324416
 30
0.0
 11
44.69110394109987
 21
14.62665656324416
 31
0.0
  0
LINE
  5
F1FA
330
18
100
AcDbEntity
  8
languettes de ventilateur
100
AcDbLine
 10
43.43648405417702
 20
14.60826001547404
 30
0.0
 11
44.69110394109987
 21
16.00165656324416
 31
0.0
  0
LINE
  5
F1FB
330
18
100
AcDbEntity
  8
languettes de ventilateur
100
AcDbLine
 10
43.43648405417702
 20
15.60826001547404
 30
0.0
 11
44.69110394109987
 21
16.37665656324416
 31
0.0
  0
LINE
  5
F1FC
330
18
100
AcDbEntity
  8
languettes de ventilateur
100
AcDbLine
 10
43.43648405417702
 20
16.35826001547404
 30
0.0
 11
43.43648405417702
 21
15.60826001547404
 31
0.0
  0
LINE
  5
F203
330
18
100
AcDbEntity
  8
languettes de ventilateur
100
AcDbLine
 10
43.43648405417702
 20
19.85826001547404
 30
0.0
 11
43.43648405417702
 21
19.10826001547404
 31
0.0
  0
LINE
  5
F204
330
18
100
AcDbEntity
  8
languettes de ventilateur
100
AcDbLine
 10
43.43648405417702
 20
19.10826001547404
 30
0.0
 11
44.69110394109987
 21
19.87665656324416
 31
0.0
  0
LINE
  5
F205
330
18
100
AcDbEntity
  8
languettes de ventilateur
100
AcDbLine
 10
44.69110394109987
 20
21.25165656324417
 30
0.0
 11
44.69110394109987
 21
19.87665656324416
 31
0.0
  0
LINE
  5
F206
330
18
100
AcDbEntity
  8
languettes de ventilateur
100
AcDbLine
 10
43.43648405417702
 20
19.85826001547404
 30
0.0
 11
44.69110394109987
 21
21.25165656324417
 31
0.0
  0
DIMENSION
  5
F222
330
18
100
AcDbEntity
  8
DIM
100
AcDbDimension
  2
*D3
 10
44.68648405417702
 20
7.440056855256216
 30
0.0
 11
48.33148405417702
 21
7.440056855256216
 31
0.0
 70
    32
 71
     5
 42
1.874999999999992
  3
STANDARD
100
AcDbAlignedDimension
 13
42.81148405417702
 23
9.608260015474044
 33
0.0
 14
44.68648405417702
 24
9.608260015474044
 34
0.0
100
AcDbRotatedDimension
  0
DIMENSION
  5
F230
330
18
100
AcDbEntity
  8
DIM
100
AcDbDimension
  2
*D4
 10
49.49318668486256
 20
24.60826001547405
 30
0.0
 11
49.49318668486256
 21
17.10826001547405
 31
0.0
 70
    32
 71
     5
 42
15.0
  3
STANDARD
100
AcDbAlignedDimension
 13
43.74898405417702
 23
9.608260015474044
 33
0.0
 14
43.74898405417702
 24
24.60826001547405
 34
0.0
 50
90.0
100
AcDbRotatedDimension
  0
LINE
  5
F287
330
18
100
AcDbEntity
  8
0
100
AcDbLine
 10
21.65307328937769
 20
23.9011532342875
 30
0.0
 11
35.19596650819114
 21
10.35826001547404
 31
0.0
  0
LINE
  5
F288
330
18
100
AcDbEntity
  8
0
100
AcDbLine
 10
21.65307328937769
 20
23.9011532342875
 30
0.0
 11
8.110180070564236
 21
10.35826001547404
 31
0.0
  0
LINE
  5
F289
330
18
100
AcDbEntity
  8
0
100
AcDbLine
 10
21.65307328937769
 20
23.72437653899086
 30
0.0
 11
35.0191898128945
 21
10.35826001547404
 31
0.0
  0
LINE
  5
F28A
330
18
100
AcDbEntity
  8
0
100
AcDbLine
 10
21.65307328937769
 20
23.72437653899086
 30
0.0
 11
8.286956765860875
 21
10.35826001547404
 31
0.0
  0
LINE
  5
F28B
330
18
100
AcDbEntity
  8
0
100
AcDbLine
 10
21.65307328937769
 20
23.54759984369422
 30
0.0
 11
34.84241311759787
 21
10.35826001547404
 31
0.0
  0
LINE
  5
F28C
330
18
100
AcDbEntity
  8
0
100
AcDbLine
 10
21.65307328937769
 20
23.54759984369422
 30
0.0
 11
8.463733461157511
 21
10.35826001547404
 31
0.0
  0
LINE
  5
F28D
330
18
100
AcDbEntity
  8
0
100
AcDbLine
 10
21.65307328937769
 20
22.13338628132113
 30
0.0
 11
33.42819955522477
 21
10.35826001547404
 31
0.0
  0
LINE
  5
F28E
330
18
100
AcDbEntity
  8
0
100
AcDbLine
 10
21.65307328937769
 20
22.13338628132113
 30
0.0
 11
9.877947023530605
 21
10.35826001547404
 31
0.0
  0
LINE
  5
F2A3
330
18
100
AcDbEntity
  8
0
100
AcDbLine
 10
42.81148405417701
 20
23.9011532342875
 30
0.0
 11
42.873984054177
 21
23.9011532342875
 31
0.0
  0
LINE
  5
F2A4
330
18
100
AcDbEntity
  8
0
100
AcDbLine
 10
42.873984054177
 20
23.9011532342875
 30
0.0
 11
42.873984054177
 21
23.72437653899086
 31
0.0
  0
LINE
  5
F2A7
330
18
100
AcDbEntity
  8
0
100
AcDbLine
 10
42.998984054177
 20
23.54759984369422
 30
0.0
 11
43.12398405417701
 21
23.54759984369422
 31
0.0
  0
LINE
  5
F2A8
330
18
100
AcDbEntity
  8
0
100
AcDbLine
 10
43.12398405417701
 20
23.54759984369422
 30
0.0
 11
43.12398405417701
 21
22.13338628132113
 31
0.0
  0
LINE
  5
F2A9
330
18
100
AcDbEntity
  8
0
100
AcDbLine
 10
43.12398405417701
 20
22.13338628132113
 30
0.0
 11
43.43648405417701
 21
22.13338628132113
 31
0.0
  0
LINE
  5
F2AA
330
18
100
AcDbEntity
  8
0
100
AcDbLine
 10
43.43648405417701
 20
22.13338628132113
 30
0.0
 11
43.43648405417701
 21
21.07272610954131
 31
0.0
  0
ARC
  5
F2AB
330
18
100
AcDbEntity
  8
0
100
AcDbCircle
 10
42.83705677479304
 20
23.56568248785521
 30
0.0
 40
0.1629338081201804
100
AcDbArc
 50
353.6281001468769
 51
76.90067921863553
  0
DIMENSION
  5
F2AF
330
18
100
AcDbEntity
  8
DIM
100
AcDbDimension
  2
*D5
 10
37.67656406118394
 20
24.60826001547405
 30
0.0
 11
37.67656406118393
 21
28.62826001547405
 31
0.0
 70
    32
 71
     5
 42
3.535533905932737
  3
STANDARD
100
AcDbAlignedDimension
 13
44.06148405417702
 23
21.07272610954131
 33
0.0
 14
44.06148405417702
 24
24.60826001547405
 34
0.0
 50
90.0
100
AcDbRotatedDimension
  0
DIMENSION
  5
F2BD
330
18
100
AcDbEntity
  8
DIM
100
AcDbDimension
  2
*D6
 10
19.18774222795932
 20
27.07359107689243
 30
0.0
 11
21.76514644538429
 21
29.65099529431739
 31
0.0
 70
    33
 71
     5
 42
2.500000000000014
  3
STANDARD
100
AcDbAlignedDimension
 13
27.01030633641131
 23
15.71549306250767
 33
0.0
 14
28.77807328937769
 24
17.48326001547405
 34
0.0
  0
VIEWPORT
  5
F27A
330
15
100
AcDbEntity
 67
     1
  8
0
100
AcDbViewport
 10
5.249999639556163
 20
3.999999883606677
 30
0.0
 40
17.58407771518677
 41
8.992999745766947
 68
     2
 69
     1
 12
5.249999639556163
 22
3.999999883606677
 13
0.0
 23
0.0
 14
10.0
 24
10.0
 15
10.0
 25
10.0
 16
0.0
 26
0.0
 36
1.0
 17
0.0
 27
0.0
 37
0.0
 42
50.0
 43
0.0
 44
0.0
 45
8.992999745766947
 50
0.0
 51
0.0
 72
   100
 90
    32800
  1

281
     0
 71
     1
 74
     0
110
0.0
120
0.0
130
0.0
111
1.0
121
0.0
131
0.0
112
0.0
122
1.0
132
0.0
 79
     0
146
0.0
170
     0
  0
VIEWPORT
  5
F27C
330
15
100
AcDbEntity
 67
     1
  8
0
100
AcDbViewport
 10
5.24999976158142
 20
3.99999976158142
 30
0.0
 40
8.399999618530271
 41
6.399999618530272
 68
     1
 69
     2
 12
29.39044386512613
 22
18.10218098225098
 13
0.0
 23
0.0
 14
0.5
 24
0.5
 15
0.5
 25
0.5
 16
0.0
 26
0.0
 36
1.0
 17
0.0
 27
0.0
 37
0.0
 42
50.0
 43
0.0
 44
0.0
 45
38.12367710693117
 50
0.0
 51
0.0
 72
   100
 90
    32800
  1

281
     0
 71
     1
 74
     0
110
0.0
120
0.0
130
0.0
111
1.0
121
0.0
131
0.0
112
0.0
122
1.0
132
0.0
 79
     0
146
0.0
170
     0
  0
ENDSEC
  0
SECTION
  2
OBJECTS
  0
DICTIONARY
  5
C
330
0
100
AcDbDictionary
281
     1
  3
ACAD_COLOR
350
F03E
  3
ACAD_GROUP
350
D
  3
ACAD_IMAGE_DICT
350
21
  3
ACAD_IMAGE_VARS
350
20
  3
ACAD_LAYOUT
350
F03F
  3
ACAD_MATERIAL
350
F03D
  3
ACAD_MLINESTYLE
350
1B
  3
ACAD_PLOTSETTINGS
350
F040
  3
ACAD_PLOTSTYLENAME
350
F03B
  0
DICTIONARY
  5
F03E
102
{ACAD_REACTORS
330
C
102
}
330
C
100
AcDbDictionary
281
     1
  0
DICTIONARY
  5
D
102
{ACAD_REACTORS
330
C
102
}
330
C
100
AcDbDictionary
281
     1
  0
DICTIONARY
  5
21
102
{ACAD_REACTORS
330
C
102
}
330
C
100
AcDbDictionary
281
     1
  3
1220-1
350
D528
  3
1220-2
350
D52B
  3
1220-3
350
D52E
  3
1220-4
350
D531
  3
3304-1
350
ED48
  3
3304-1B
350
ED49
  3
3304-2
350
ED4A
  3
3304-2B
350
ED4B
  3
3304-3
350
ED4C
  3
3304-3B
350
ED4D
  0
RASTERVARIABLES
  5
20
102
{ACAD_REACTORS
330
C
102
}
330
C
100
AcDbRasterVariables
 90
        0
 70
     1
 71
     1
 72
     0
  0
DICTIONARY
  5
F03F
102
{ACAD_REACTORS
330
C
102
}
330
C
100
AcDbDictionary
281
     1
  3
Layout1
350
F042
  3
Model
350
F041
  0
DICTIONARY
  5
F03D
102
{ACAD_REACTORS
330
C
102
}
330
C
100
AcDbDictionary
281
     1
  0
DICTIONARY
  5
1B
102
{ACAD_REACTORS
330
C
102
}
330
C
100
AcDbDictionary
281
     1
  3
STANDARD
350
1C
  0
DICTIONARY
  5
F040
102
{ACAD_REACTORS
330
C
102
}
330
C
100
AcDbDictionary
281
     1
  0
ACDBDICTIONARYWDFLT
  5
F03B
102
{ACAD_REACTORS
330
C
102
}
330
C
100
AcDbDictionary
281
     1
  3
Normal
350
F03C
100
AcDbDictionaryWithDefault
340
F03C
  0
IMAGEDEF
  5
D528
102
{ACAD_REACTORS
330
21
102
}
330
21
100
AcDbRasterImageDef
 90
        0
  1
U:\TPDWG\MichelQ\1220-1.tif
 10
1852.0
 20
3778.0
 11
0.0705555555555556
 21
0.0705555555555556
280
     1
281
     5
  0
IMAGEDEF
  5
D52B
102
{ACAD_REACTORS
330
21
102
}
330
21
100
AcDbRasterImageDef
 90
        0
  1
U:\TPDWG\MichelQ\1220-2.tif
 10
1852.0
 20
3778.0
 11
0.0705555555555556
 21
0.0705555555555556
280
     1
281
     5
  0
IMAGEDEF
  5
D52E
102
{ACAD_REACTORS
330
21
102
}
330
21
100
AcDbRasterImageDef
 90
        0
  1
U:\TPDWG\MichelQ\1220-3.tif
 10
1852.0
 20
3778.0
 11
0.0705555555555556
 21
0.0705555555555556
280
     1
281
     5
  0
IMAGEDEF
  5
D531
102
{ACAD_REACTORS
330
21
102
}
330
21
100
AcDbRasterImageDef
 90
        0
  1
U:\TPDWG\MichelQ\1220-4.tif
 10
1852.0
 20
3778.0
 11
0.0705555555555556
 21
0.0705555555555556
280
     1
281
     5
  0
IMAGEDEF
  5
ED48
102
{ACAD_REACTORS
330
21
102
}
330
21
100
AcDbRasterImageDef
 90
        0
  1
U:\TPDWG\MichelQ\3304-1.tif
 10
2243.0
 20
3009.0
 11
0.0705555555555556
 21
0.0705555555555556
280
     1
281
     5
  0
IMAGEDEF
  5
ED49
102
{ACAD_REACTORS
330
21
102
}
330
21
100
AcDbRasterImageDef
 90
        0
  1
U:\TPDWG\MichelQ\3304-1b.TIF
 10
2202.0
 20
2931.0
 11
0.0705555555555556
 21
0.0705555555555556
280
     1
281
     5
  0
IMAGEDEF
  5
ED4A
102
{ACAD_REACTORS
330
21
102
}
330
21
100
AcDbRasterImageDef
 90
        0
  1
U:\TPDWG\MichelQ\3304-2.tif
 10
2243.0
 20
3009.0
 11
0.0705555555555556
 21
0.0705555555555556
280
     1
281
     5
  0
IMAGEDEF
  5
ED4B
102
{ACAD_REACTORS
330
21
102
}
330
21
100
AcDbRasterImageDef
 90
        0
  1
U:\TPDWG\MichelQ\3304-2b.TIF
 10
2202.0
 20
2931.0
 11
0.0705555555555556
 21
0.0705555555555556
280
     1
281
     5
  0
IMAGEDEF
  5
ED4C
102
{ACAD_REACTORS
330
21
102
}
330
21
100
AcDbRasterImageDef
 90
        0
  1
U:\TPDWG\MichelQ\3304-3.tif
 10
2243.0
 20
3009.0
 11
0.0705555555555556
 21
0.0705555555555556
280
     1
281
     5
  0
IMAGEDEF
  5
ED4D
102
{ACAD_REACTORS
330
21
102
}
330
21
100
AcDbRasterImageDef
 90
        0
  1
U:\TPDWG\MichelQ\3304-3b.TIF
 10
2202.0
 20
2931.0
 11
0.0705555555555556
 21
0.0705555555555556
280
     1
281
     5
  0
LAYOUT
  5
F042
102
{ACAD_REACTORS
330
F03F
102
}
330
F03F
100
AcDbPlotSettings
  1

  2
none_device
  4
Letter_(8.50_x_11.00_Inches)
  6

 40
6.349999904632568
 41
6.349999904632568
 42
6.350006103515625
 43
6.350006103515625
 44
215.8999938964844
 45
279.3999938964844
 46
0.0
 47
0.0
 48
0.0
 49
0.0
140
0.0
141
0.0
142
1.0
143
1.0
 70
   688
 72
     0
 73
     1
 74
     5
  7

 75
    16
147
1.0
 76
     1
 77
     2
 78
   300
148
0.0
149
0.0
100
AcDbLayout
  1
Layout1
 70
     1
 71
     1
 10
-0.2500002402958907
 20
-0.2499999962453767
 11
10.74999951940821
 21
8.249999763458731
 12
0.0
 22
0.0
 32
0.0
 14
1.049636599258096
 24
0.7996597240971113
 34
-0.0015258207003583
 15
9.450362731076971
 25
7.200340082697458
 35
0.0000000349246037
146
0.0
 13
0.0
 23
0.0
 33
0.0
 16
1.0
 26
0.0
 36
0.0
 17
0.0
 27
1.0
 37
0.0
 76
     0
330
15
331
F27C
  0
LAYOUT
  5
F041
102
{ACAD_REACTORS
330
F03F
102
}
330
F03F
100
AcDbPlotSettings
  1

  2
None
  4

  6

 40
0.0
 41
0.0
 42
0.0
 43
0.0
 44
0.0
 45
0.0
 46
0.0
 47
0.0
 48
0.0
 49
0.0
140
0.0
141
0.0
142
1.0
143
1.0
 70
  1712
 72
     0
 73
     0
 74
     0
  7

 75
     0
147
1.0
 76
     0
 77
     2
 78
   300
148
0.0
149
0.0
100
AcDbLayout
  1
Model
 70
     1
 71
     0
 10
0.0
 20
0.0
 11
12.0
 21
9.0
 12
0.0
 22
0.0
 32
0.0
 14
0.0
 24
0.0
 34
0.0
 15
0.0
 25
0.0
 35
0.0
146
0.0
 13
0.0
 23
0.0
 33
0.0
 16
1.0
 26
0.0
 36
0.0
 17
0.0
 27
1.0
 37
0.0
 76
     0
330
18
  0
MLINESTYLE
  5
1C
102
{ACAD_REACTORS
330
1B
102
}
330
1B
100
AcDbMlineStyle
  2
STANDARD
 70
     0
  3

 62
   256
 51
90.0
 52
90.0
 71
     2
 49
0.5
 62
   256
  6
BYLAYER
 49
-0.5
 62
   256
  6
BYLAYER
  0
ACDBPLACEHOLDER
  5
F03C
102
{ACAD_REACTORS
330
F03B
102
}
330
F03B
  0
ENDSEC
  0
EOF
