  0
SECTION
  2
HEADER
  9
$ACADVER
  1
AC1024
  9
$ACADMAINTVER
 70
    63
  9
$DWGCODEPAGE
  3
ANSI_1252
  9
$LASTSAVEDBY
  1
reception
  9
$INSBASE
 10
0.0
 20
0.0
 30
0.0
  9
$EXTMIN
 10
-107.4337769062598
 20
153.9286734266295
 30
0.0
  9
$EXTMAX
 10
-91.53905018193473
 20
181.7519336989753
 30
0.0
  9
$LIMMIN
 10
0.0
 20
0.0
  9
$LIMMAX
 10
12.0
 20
9.0
  9
$ORTHOMODE
 70
     0
  9
$REGENMODE
 70
     1
  9
$FILLMODE
 70
     1
  9
$QTEXTMODE
 70
     0
  9
$MIRRTEXT
 70
     1
  9
$LTSCALE
 40
1.0
  9
$ATTMODE
 70
     1
  9
$TEXTSIZE
 40
0.25
  9
$TRACEWID
 40
0.05
  9
$TEXTSTYLE
  7
style1
  9
$CLAYER
  8
0
  9
$CELTYPE
  6
ByLayer
  9
$CECOLOR
 62
   256
  9
$CELTSCALE
 40
1.0
  9
$DISPSILH
 70
     0
  9
$DIMSCALE
 40
1.0
  9
$DIMASZ
 40
0.25
  9
$DIMEXO
 40
0.25
  9
$DIMDLI
 40
0.25
  9
$DIMRND
 40
0.0
  9
$DIMDLE
 40
0.25
  9
$DIMEXE
 40
0.25
  9
$DIMTP
 40
0.0
  9
$DIMTM
 40
0.0
  9
$DIMTXT
 40
0.75
  9
$DIMCEN
 40
0.03125
  9
$DIMTSZ
 40
0.0
  9
$DIMTOL
 70
     0
  9
$DIMLIM
 70
     0
  9
$DIMTIH
 70
     0
  9
$DIMTOH
 70
     0
  9
$DIMSE1
 70
     0
  9
$DIMSE2
 70
     0
  9
$DIMTAD
 70
     1
  9
$DIMZIN
 70
     3
  9
$DIMBLK
  1

  9
$DIMASO
 70
     1
  9
$DIMSHO
 70
     1
  9
$DIMPOST
  1
"
  9
$DIMAPOST
  1

  9
$DIMALT
 70
     0
  9
$DIMALTD
 70
     2
  9
$DIMALTF
 40
25.4
  9
$DIMLFAC
 40
1.0
  9
$DIMTOFL
 70
     0
  9
$DIMTVP
 40
0.0
  9
$DIMTIX
 70
     0
  9
$DIMSOXD
 70
     0
  9
$DIMSAH
 70
     1
  9
$DIMBLK1
  1
ARCHTICK
  9
$DIMBLK2
  1
ARCHTICK
  9
$DIMSTYLE
  2
DIM4
  9
$DIMCLRD
 70
     3
  9
$DIMCLRE
 70
     3
  9
$DIMCLRT
 70
   256
  9
$DIMTFAC
 40
1.0
  9
$DIMGAP
 40
0.25
  9
$DIMJUST
 70
     0
  9
$DIMSD1
 70
     0
  9
$DIMSD2
 70
     0
  9
$DIMTOLJ
 70
     1
  9
$DIMTZIN
 70
     0
  9
$DIMALTZ
 70
     0
  9
$DIMALTTZ
 70
     0
  9
$DIMUPT
 70
     0
  9
$DIMDEC
 70
     4
  9
$DIMTDEC
 70
     4
  9
$DIMALTU
 70
     2
  9
$DIMALTTD
 70
     2
  9
$DIMTXSTY
  7
ARCH
  9
$DIMAUNIT
 70
     0
  9
$DIMADEC
 70
     0
  9
$DIMALTRND
 40
0.0
  9
$DIMAZIN
 70
     0
  9
$DIMDSEP
 70
    46
  9
$DIMATFIT
 70
     2
  9
$DIMFRAC
 70
     2
  9
$DIMLDRBLK
  1
ARCHTICK
  9
$DIMLUNIT
 70
     5
  9
$DIMLWD
 70
    -2
  9
$DIMLWE
 70
    -2
  9
$DIMTMOVE
 70
     0
  9
$DIMFXL
 40
1.0
  9
$DIMFXLON
 70
     0
  9
$DIMJOGANG
 40
0.7853981633974483
  9
$DIMTFILL
 70
     0
  9
$DIMTFILLCLR
 70
     0
  9
$DIMARCSYM
 70
     0
  9
$DIMLTYPE
  6

  9
$DIMLTEX1
  6

  9
$DIMLTEX2
  6

  9
$DIMTXTDIRECTION
 70
     0
  9
$LUNITS
 70
     2
  9
$LUPREC
 70
     4
  9
$SKETCHINC
 40
0.1
  9
$FILLETRAD
 40
0.25
  9
$AUNITS
 70
     0
  9
$AUPREC
 70
     0
  9
$MENU
  1
.
  9
$ELEVATION
 40
0.0
  9
$PELEVATION
 40
0.0
  9
$THICKNESS
 40
0.0
  9
$LIMCHECK
 70
     0
  9
$CHAMFERA
 40
0.5
  9
$CHAMFERB
 40
0.5
  9
$CHAMFERC
 40
1.0
  9
$CHAMFERD
 40
0.0
  9
$SKPOLY
 70
     0
  9
$TDCREATE
 40
2453324.772751841
  9
$TDUCREATE
 40
2453324.939418507
  9
$TDUPDATE
 40
2457219.428398460
  9
$TDUUPDATE
 40
2457219.595065127
  9
$TDINDWG
 40
0.1098578472
  9
$TDUSRTIMER
 40
0.1098548380
  9
$USRTIMER
 70
     1
  9
$ANGBASE
 50
0.0
  9
$ANGDIR
 70
     0
  9
$PDMODE
 70
     0
  9
$PDSIZE
 40
0.0
  9
$PLINEWID
 40
0.0
  9
$SPLFRAME
 70
     0
  9
$SPLINETYPE
 70
     6
  9
$SPLINESEGS
 70
     8
  9
$HANDSEED
  5
176D
  9
$SURFTAB1
 70
     6
  9
$SURFTAB2
 70
     6
  9
$SURFTYPE
 70
     6
  9
$SURFU
 70
     6
  9
$SURFV
 70
     6
  9
$UCSBASE
  2

  9
$UCSNAME
  2

  9
$UCSORG
 10
0.0
 20
0.0
 30
0.0
  9
$UCSXDIR
 10
1.0
 20
0.0
 30
0.0
  9
$UCSYDIR
 10
0.0
 20
1.0
 30
0.0
  9
$UCSORTHOREF
  2

  9
$UCSORTHOVIEW
 70
     0
  9
$UCSORGTOP
 10
0.0
 20
0.0
 30
0.0
  9
$UCSORGBOTTOM
 10
0.0
 20
0.0
 30
0.0
  9
$UCSORGLEFT
 10
0.0
 20
0.0
 30
0.0
  9
$UCSORGRIGHT
 10
0.0
 20
0.0
 30
0.0
  9
$UCSORGFRONT
 10
0.0
 20
0.0
 30
0.0
  9
$UCSORGBACK
 10
0.0
 20
0.0
 30
0.0
  9
$PUCSBASE
  2

  9
$PUCSNAME
  2

  9
$PUCSORG
 10
0.0
 20
0.0
 30
0.0
  9
$PUCSXDIR
 10
1.0
 20
0.0
 30
0.0
  9
$PUCSYDIR
 10
0.0
 20
1.0
 30
0.0
  9
$PUCSORTHOREF
  2

  9
$PUCSORTHOVIEW
 70
     0
  9
$PUCSORGTOP
 10
0.0
 20
0.0
 30
0.0
  9
$PUCSORGBOTTOM
 10
0.0
 20
0.0
 30
0.0
  9
$PUCSORGLEFT
 10
0.0
 20
0.0
 30
0.0
  9
$PUCSORGRIGHT
 10
0.0
 20
0.0
 30
0.0
  9
$PUCSORGFRONT
 10
0.0
 20
0.0
 30
0.0
  9
$PUCSORGBACK
 10
0.0
 20
0.0
 30
0.0
  9
$USERI1
 70
     0
  9
$USERI2
 70
     0
  9
$USERI3
 70
     0
  9
$USERI4
 70
     0
  9
$USERI5
 70
     0
  9
$USERR1
 40
0.0
  9
$USERR2
 40
0.0
  9
$USERR3
 40
0.0
  9
$USERR4
 40
0.0
  9
$USERR5
 40
0.0
  9
$WORLDVIEW
 70
     1
  9
$SHADEDGE
 70
     3
  9
$SHADEDIF
 70
    70
  9
$TILEMODE
 70
     1
  9
$MAXACTVP
 70
    64
  9
$PINSBASE
 10
0.0
 20
0.0
 30
0.0
  9
$PLIMCHECK
 70
     0
  9
$PEXTMIN
 10
0.7999999523162842
 20
1.049999952316284
 30
0.0
  9
$PEXTMAX
 10
7.199999570846556
 20
9.449999570846557
 30
0.0
  9
$PLIMMIN
 10
-0.2499999962453767
 20
-0.2499999962453767
  9
$PLIMMAX
 10
8.249999763458731
 20
10.74999976345873
  9
$UNITMODE
 70
     0
  9
$VISRETAIN
 70
     1
  9
$PLINEGEN
 70
     0
  9
$PSLTSCALE
 70
     1
  9
$TREEDEPTH
 70
  3020
  9
$CMLSTYLE
  2
Standard
  9
$CMLJUST
 70
     0
  9
$CMLSCALE
 40
1.0
  9
$PROXYGRAPHICS
 70
     1
  9
$MEASUREMENT
 70
     0
  9
$CELWEIGHT
370
    -1
  9
$ENDCAPS
280
     0
  9
$JOINSTYLE
280
     0
  9
$LWDISPLAY
290
     0
  9
$INSUNITS
 70
     1
  9
$HYPERLINKBASE
  1

  9
$STYLESHEET
  1
acad.ctb
  9
$XEDIT
290
     1
  9
$CEPSNTYPE
380
     0
  9
$PSTYLEMODE
290
     1
  9
$FINGERPRINTGUID
  2
{9E1B2E43-E85D-48F5-947B-0001419E8B65}
  9
$VERSIONGUID
  2
{23E4D59E-CD92-4130-936A-67ABB4ACFC68}
  9
$EXTNAMES
290
     1
  9
$PSVPSCALE
 40
0.0
  9
$OLESTARTUP
290
     0
  9
$SORTENTS
280
   127
  9
$INDEXCTL
280
     0
  9
$HIDETEXT
280
     0
  9
$XCLIPFRAME
280
     0
  9
$HALOGAP
280
     0
  9
$OBSCOLOR
 70
   257
  9
$OBSLTYPE
280
     0
  9
$INTERSECTIONDISPLAY
280
     0
  9
$INTERSECTIONCOLOR
 70
   257
  9
$DIMASSOC
280
     1
  9
$PROJECTNAME
  1

  9
$CAMERADISPLAY
290
     0
  9
$LENSLENGTH
 40
50.0
  9
$CAMERAHEIGHT
 40
0.0
  9
$STEPSPERSEC
 40
2.0
  9
$STEPSIZE
 40
6.0
  9
$3DDWFPREC
 40
2.0
  9
$PSOLWIDTH
 40
0.25
  9
$PSOLHEIGHT
 40
4.0
  9
$LOFTANG1
 40
1.570796326794896
  9
$LOFTANG2
 40
1.570796326794896
  9
$LOFTMAG1
 40
0.0
  9
$LOFTMAG2
 40
0.0
  9
$LOFTPARAM
 70
     7
  9
$LOFTNORMALS
280
     1
  9
$LATITUDE
 40
37.795
  9
$LONGITUDE
 40
-122.394
  9
$NORTHDIRECTION
 40
0.0
  9
$TIMEZONE
 70
 -8000
  9
$LIGHTGLYPHDISPLAY
280
     1
  9
$TILEMODELIGHTSYNCH
280
     1
  9
$CMATERIAL
347
16A8
  9
$SOLIDHIST
280
     0
  9
$SHOWHIST
280
     1
  9
$DWFFRAME
280
     2
  9
$DGNFRAME
280
     0
  9
$REALWORLDSCALE
290
     1
  9
$INTERFERECOLOR
 62
     1
  9
$INTERFEREOBJVS
345
16CA
  9
$INTERFEREVPVS
346
16C7
  9
$CSHADOW
280
     0
  9
$SHADOWPLANELOCATION
 40
0.0
  0
ENDSEC
  0
SECTION
  2
CLASSES
  0
CLASS
  1
ACDBDICTIONARYWDFLT
  2
AcDbDictionaryWithDefault
  3
ObjectDBX Classes
 90
        0
 91
        1
280
     0
281
     0
  0
CLASS
  1
IMAGEDEF
  2
AcDbRasterImageDef
  3
ISM
 90
        0
 91
        4
280
     0
281
     0
  0
CLASS
  1
DICTIONARYVAR
  2
AcDbDictionaryVar
  3
ObjectDBX Classes
 90
        0
 91
       16
280
     0
281
     0
  0
CLASS
  1
MATERIAL
  2
AcDbMaterial
  3
ObjectDBX Classes
 90
     1153
 91
        3
280
     0
281
     0
  0
CLASS
  1
VISUALSTYLE
  2
AcDbVisualStyle
  3
ObjectDBX Classes
 90
     4095
 91
       24
280
     0
281
     0
  0
CLASS
  1
TABLESTYLE
  2
AcDbTableStyle
  3
ObjectDBX Classes
 90
     4095
 91
        1
280
     0
281
     0
  0
CLASS
  1
SCALE
  2
AcDbScale
  3
ObjectDBX Classes
 90
     1153
 91
       17
280
     0
281
     0
  0
CLASS
  1
MLEADERSTYLE
  2
AcDbMLeaderStyle
  3
ACDB_MLEADERSTYLE_CLASS
 90
     4095
 91
        1
280
     0
281
     0
  0
CLASS
  1
CELLSTYLEMAP
  2
AcDbCellStyleMap
  3
ObjectDBX Classes
 90
     1152
 91
        1
280
     0
281
     0
  0
ENDSEC
  0
SECTION
  2
TABLES
  0
TABLE
  2
VPORT
  5
8
330
0
100
AcDbSymbolTable
 70
     1
  0
VPORT
  5
16A6
330
8
100
AcDbSymbolTableRecord
100
AcDbViewportTableRecord
  2
*Active
 70
     0
 10
0.0
 20
0.0
 11
1.0
 21
1.0
 12
-103.490313375071
 22
171.3504212532806
 13
0.0
 23
0.0
 14
0.5
 24
0.5
 15
0.5
 25
0.5
 16
0.0
 26
0.0
 36
1.0
 17
0.0
 27
0.0
 37
0.0
 40
36.26704500911285
 41
1.536585365853658
 42
50.0
 43
0.0
 44
0.0
 50
0.0
 51
0.0
 71
     0
 72
   100
 73
     1
 74
     3
 75
     0
 76
     1
 77
     0
 78
     0
281
     0
 65
     1
110
0.0
120
0.0
130
0.0
111
1.0
121
0.0
131
0.0
112
0.0
122
1.0
132
0.0
 79
     0
146
0.0
348
16C6
 60
     3
 61
     5
292
     1
282
     1
141
0.0
142
0.0
 63
   250
421
  3355443
1001
ACAD_NAV_VCDISPLAY
1070
     3
  0
ENDTAB
  0
TABLE
  2
LTYPE
  5
5
330
0
100
AcDbSymbolTable
 70
     1
  0
LTYPE
  5
14
330
5
100
AcDbSymbolTableRecord
100
AcDbLinetypeTableRecord
  2
ByBlock
 70
     0
  3

 72
    65
 73
     0
 40
0.0
  0
LTYPE
  5
15
330
5
100
AcDbSymbolTableRecord
100
AcDbLinetypeTableRecord
  2
ByLayer
 70
     0
  3

 72
    65
 73
     0
 40
0.0
  0
LTYPE
  5
16
330
5
100
AcDbSymbolTableRecord
100
AcDbLinetypeTableRecord
  2
Continuous
 70
     0
  3
Solid line
 72
    65
 73
     0
 40
0.0
  0
ENDTAB
  0
TABLE
  2
LAYER
  5
2
330
0
100
AcDbSymbolTable
 70
     3
  0
LAYER
  5
10
102
{ACAD_XDICTIONARY
360
1753
102
}
330
2
100
AcDbSymbolTableRecord
100
AcDbLayerTableRecord
  2
0
 70
     0
 62
     7
  6
Continuous
370
    -3
390
F
347
16B8
  0
LAYER
  5
328
330
2
100
AcDbSymbolTableRecord
100
AcDbLayerTableRecord
  2
Defpoints
 70
     0
 62
     7
  6
Continuous
290
     0
370
    -3
390
F
347
16B8
  0
LAYER
  5
329
102
{ACAD_XDICTIONARY
360
1755
102
}
330
2
100
AcDbSymbolTableRecord
100
AcDbLayerTableRecord
  2
DIM
 70
     0
 62
    -3
  6
Continuous
370
    -3
390
F
347
16B8
  0
ENDTAB
  0
TABLE
  2
STYLE
  5
3
330
0
100
AcDbSymbolTable
 70
     3
  0
STYLE
  5
11
330
3
100
AcDbSymbolTableRecord
100
AcDbTextStyleTableRecord
  2
Standard
 70
     0
 40
0.0
 41
1.0
 50
0.0
 71
     0
 42
0.125
  3
txt
  4

  0
STYLE
  5
32A
330
3
100
AcDbSymbolTableRecord
100
AcDbTextStyleTableRecord
  2
ARCH
 70
     0
 40
0.75
 41
1.0
 50
0.0
 71
     0
 42
8.0
  3
stylu.ttf
  4

1001
ACAD
1000
Stylus BT
1071
       34
  0
STYLE
  5
627
330
3
100
AcDbSymbolTableRecord
100
AcDbTextStyleTableRecord
  2
style1
 70
     0
 40
0.25
 41
1.0
 50
0.0
 71
     0
 42
0.25
  3
ARIAL.TTF
  4

1001
ACAD
1000
Arial
1071
       34
  0
ENDTAB
  0
TABLE
  2
VIEW
  5
6
330
0
100
AcDbSymbolTable
 70
     0
  0
ENDTAB
  0
TABLE
  2
UCS
  5
7
330
0
100
AcDbSymbolTable
 70
     0
  0
ENDTAB
  0
TABLE
  2
APPID
  5
9
330
0
100
AcDbSymbolTable
 70
     6
  0
APPID
  5
12
330
9
100
AcDbSymbolTableRecord
100
AcDbRegAppTableRecord
  2
ACAD
 70
     0
  0
APPID
  5
32F
330
9
100
AcDbSymbolTableRecord
100
AcDbRegAppTableRecord
  2
DCO15
 70
     0
  0
APPID
  5
330
330
9
100
AcDbSymbolTableRecord
100
AcDbRegAppTableRecord
  2
ADE
 70
     0
  0
APPID
  5
16F9
330
9
100
AcDbSymbolTableRecord
100
AcDbRegAppTableRecord
  2
ACAD_DSTYLE_DIMJAG
 70
     0
  0
APPID
  5
16FA
330
9
100
AcDbSymbolTableRecord
100
AcDbRegAppTableRecord
  2
ACAD_DSTYLE_DIMTALN
 70
     0
  0
APPID
  5
1757
330
9
100
AcDbSymbolTableRecord
100
AcDbRegAppTableRecord
  2
ACAD_NAV_VCDISPLAY
 70
     0
  0
ENDTAB
  0
TABLE
  2
DIMSTYLE
  5
A
330
0
100
AcDbSymbolTable
 70
     2
100
AcDbDimStyleTable
 71
     2
340
32E
340
27
  0
DIMSTYLE
105
27
330
A
100
AcDbSymbolTableRecord
100
AcDbDimStyleTableRecord
  2
Standard
 70
     0
340
11
  0
DIMSTYLE
105
32E
102
{ACAD_REACTORS
330
15FA
330
1704
330
1711
330
171E
330
1746
102
}
330
A
100
AcDbSymbolTableRecord
100
AcDbDimStyleTableRecord
  2
DIM4
 70
     0
  3
"
 41
0.25
 42
0.25
 43
0.25
 44
0.25
 46
0.25
 73
     0
 74
     0
 77
     1
 78
     3
140
0.75
141
0.03125
147
0.25
173
     1
176
     3
177
     3
178
   256
276
     2
277
     5
289
     2
340
32A
341
244
343
244
344
244
1001
ACAD_DSTYLE_DIMJAG
1070
   388
1040
1.5
1001
ACAD_DSTYLE_DIMTALN
1070
   392
1070
     0
  0
ENDTAB
  0
TABLE
  2
BLOCK_RECORD
  5
1
330
0
100
AcDbSymbolTable
 70
     9
  0
BLOCK_RECORD
  5
1F
330
1
100
AcDbSymbolTableRecord
100
AcDbBlockTableRecord
  2
*Model_Space
340
22
 70
     0
280
     1
281
     0
  0
BLOCK_RECORD
  5
14DB
330
1
100
AcDbSymbolTableRecord
100
AcDbBlockTableRecord
  2
*Paper_Space
340
14DC
 70
     0
280
     1
281
     0
  0
BLOCK_RECORD
  5
244
330
1
100
AcDbSymbolTableRecord
100
AcDbBlockTableRecord
  2
_ARCHTICK
340
0
102
{BLKREFS
331
16FE
331
16FF
331
170B
331
170C
331
1725
331
1726
331
1740
331
1741
331
174D
331
174E
331
1622
331
1623
331
162B
331
162C
331
1634
331
1635
102
}
 70
     0
280
     1
281
     0
  0
BLOCK_RECORD
  5
15FB
330
1
100
AcDbSymbolTableRecord
100
AcDbBlockTableRecord
  2
*D3
340
0
 70
     0
280
     1
281
     0
  0
BLOCK_RECORD
  5
1705
330
1
100
AcDbSymbolTableRecord
100
AcDbBlockTableRecord
  2
*D5
340
0
 70
     0
280
     1
281
     0
  0
BLOCK_RECORD
  5
1712
330
1
100
AcDbSymbolTableRecord
100
AcDbBlockTableRecord
  2
*D6
340
0
 70
     0
280
     1
281
     0
  0
BLOCK_RECORD
  5
171F
330
1
100
AcDbSymbolTableRecord
100
AcDbBlockTableRecord
  2
*D7
340
0
 70
     0
280
     1
281
     0
  0
BLOCK_RECORD
  5
1747
330
1
100
AcDbSymbolTableRecord
100
AcDbBlockTableRecord
  2
*D8
340
0
 70
     0
280
     1
281
     0
  0
ENDTAB
  0
ENDSEC
  0
SECTION
  2
BLOCKS
  0
BLOCK
  5
20
330
1F
100
AcDbEntity
  8
0
100
AcDbBlockBegin
  2
*Model_Space
 70
     0
 10
0.0
 20
0.0
 30
0.0
  3
*Model_Space
  1

  0
ENDBLK
  5
21
330
1F
100
AcDbEntity
  8
0
100
AcDbBlockEnd
  0
BLOCK
  5
14DD
330
14DB
100
AcDbEntity
 67
     1
  8
0
100
AcDbBlockBegin
  2
*Paper_Space
 70
     0
 10
0.0
 20
0.0
 30
0.0
  3
*Paper_Space
  1

  0
ENDBLK
  5
14DE
330
14DB
100
AcDbEntity
 67
     1
  8
0
100
AcDbBlockEnd
  0
BLOCK
  5
246
330
244
100
AcDbEntity
  8
0
100
AcDbBlockBegin
  2
_ARCHTICK
 70
     0
 10
0.0
 20
0.0
 30
0.0
  3
_ARCHTICK
  1

  0
LWPOLYLINE
  5
245
330
244
100
AcDbEntity
  8
0
  6
ByBlock
 62
     0
100
AcDbPolyline
 90
        2
 70
     0
 43
0.15
 10
-0.5
 20
-0.5
 10
0.5
 20
0.5
  0
ENDBLK
  5
247
330
244
100
AcDbEntity
  8
0
100
AcDbBlockEnd
  0
BLOCK
  5
1605
330
15FB
100
AcDbEntity
  8
0
100
AcDbBlockBegin
  2
*D3
 70
     1
 10
0.0
 20
0.0
 30
0.0
  3
*D3
  1

  0
LINE
  5
16FB
330
15FB
100
AcDbEntity
  8
DIM
 62
     3
440
 16777216
370
    -2
100
AcDbLine
 10
-98.73866948573407
 20
167.6341150106647
 30
0.0
 11
-91.53905018193473
 21
167.6341150106647
 31
0.0
  0
LINE
  5
16FC
330
15FB
100
AcDbEntity
  8
DIM
 62
     3
440
 16777216
370
    -2
100
AcDbLine
 10
-98.73866948573409
 20
161.2591150106647
 30
0.0
 11
-91.53905018193473
 21
161.2591150106647
 31
0.0
  0
LINE
  5
16FD
330
15FB
100
AcDbEntity
  8
DIM
 62
     3
440
 16777216
370
    -2
100
AcDbLine
 10
-91.78905018193473
 20
167.8841150106647
 30
0.0
 11
-91.78905018193473
 21
161.0091150106647
 31
0.0
  0
INSERT
  5
16FE
330
15FB
100
AcDbEntity
  8
DIM
 62
     3
440
 16777216
370
    -2
100
AcDbBlockReference
  2
_ARCHTICK
 10
-91.78905018193473
 20
167.6341150106647
 30
0.0
 41
0.25
 42
0.25
 43
0.25
 50
90.0
  0
INSERT
  5
16FF
330
15FB
100
AcDbEntity
  8
DIM
 62
     3
440
 16777216
370
    -2
100
AcDbBlockReference
  2
_ARCHTICK
 10
-91.78905018193473
 20
161.2591150106647
 30
0.0
 41
0.25
 42
0.25
 43
0.25
 50
270.0
  0
MTEXT
  5
1700
330
15FB
100
AcDbEntity
  8
DIM
440
 16777216
100
AcDbMText
 10
-92.46346453039741
 20
164.4466150106647
 30
0.0
 40
0.75
 41
0.0
 46
0.0
 71
     5
 72
     1
  1
\A1;6 3/8"
  7
ARCH
 11
0.0000000000000001
 21
1.0
 31
0.0
 73
     1
 44
1.0
  0
POINT
  5
1701
330
15FB
100
AcDbEntity
  8
Defpoints
 62
     0
440
 16777216
100
AcDbPoint
 10
-98.98866948573408
 20
167.6341150106647
 30
0.0
  0
POINT
  5
1702
330
15FB
100
AcDbEntity
  8
Defpoints
 62
     0
440
 16777216
100
AcDbPoint
 10
-98.98866948573409
 20
161.2591150106647
 30
0.0
  0
POINT
  5
1703
330
15FB
100
AcDbEntity
  8
Defpoints
 62
     0
440
 16777216
100
AcDbPoint
 10
-91.78905018193473
 20
161.2591150106647
 30
0.0
  0
ENDBLK
  5
1606
330
15FB
100
AcDbEntity
  8
0
100
AcDbBlockEnd
  0
BLOCK
  5
1706
330
1705
100
AcDbEntity
  8
0
100
AcDbBlockBegin
  2
*D5
 70
     1
 10
0.0
 20
0.0
 30
0.0
  3
*D5
  1

  0
LINE
  5
1708
330
1705
100
AcDbEntity
  8
0
 62
     3
440
 16777216
370
    -2
100
AcDbLine
 10
-103.176669485734
 20
163.2683635023567
 30
0.0
 11
-106.2791282971822
 21
163.2683635023567
 31
0.0
  0
LINE
  5
1709
330
1705
100
AcDbEntity
  8
0
 62
     3
440
 16777216
370
    -2
100
AcDbLine
 10
-103.6136694857341
 20
156.8933635023567
 30
0.0
 11
-106.2791282971822
 21
156.8933635023567
 31
0.0
  0
LINE
  5
170A
330
1705
100
AcDbEntity
  8
0
 62
     3
440
 16777216
370
    -2
100
AcDbLine
 10
-106.0291282971821
 20
163.5183635023567
 30
0.0
 11
-106.0291282971822
 21
156.6433635023567
 31
0.0
  0
INSERT
  5
170B
330
1705
100
AcDbEntity
  8
0
 62
     3
440
 16777216
370
    -2
100
AcDbBlockReference
  2
_ARCHTICK
 10
-106.0291282971821
 20
163.2683635023567
 30
0.0
 41
0.25
 42
0.25
 43
0.25
 50
90.0
  0
INSERT
  5
170C
330
1705
100
AcDbEntity
  8
0
 62
     3
440
 16777216
370
    -2
100
AcDbBlockReference
  2
_ARCHTICK
 10
-106.0291282971822
 20
156.8933635023567
 30
0.0
 41
0.25
 42
0.25
 43
0.25
 50
270.0
  0
MTEXT
  5
170D
330
1705
100
AcDbEntity
  8
0
440
 16777216
100
AcDbMText
 10
-106.7035426456448
 20
160.0808635023566
 30
0.0
 40
0.75
 41
0.0
 46
0.0
 71
     5
 72
     1
  1
\A1;6 3/8"
  7
ARCH
 11
0.0000000000000001
 21
1.0
 31
0.0
 73
     1
 44
1.0
  0
POINT
  5
170E
330
1705
100
AcDbEntity
  8
Defpoints
 62
     0
440
 16777216
100
AcDbPoint
 10
-102.9266694857341
 20
163.2683635023567
 30
0.0
  0
POINT
  5
170F
330
1705
100
AcDbEntity
  8
Defpoints
 62
     0
440
 16777216
100
AcDbPoint
 10
-103.3636694857341
 20
156.8933635023567
 30
0.0
  0
POINT
  5
1710
330
1705
100
AcDbEntity
  8
Defpoints
 62
     0
440
 16777216
100
AcDbPoint
 10
-106.0291282971822
 20
156.8933635023567
 30
0.0
  0
ENDBLK
  5
1707
330
1705
100
AcDbEntity
  8
0
100
AcDbBlockEnd
  0
BLOCK
  5
1713
330
1712
100
AcDbEntity
  8
0
100
AcDbBlockBegin
  2
*D6
 70
     1
 10
0.0
 20
0.0
 30
0.0
  3
*D6
  1

  0
LINE
  5
173D
330
1712
100
AcDbEntity
  8
0
 62
     3
440
 16777216
370
    -2
100
AcDbLine
 10
-103.801169485734
 20
157.8308635023567
 30
0.0
 11
-103.801169485734
 21
153.9286734266295
 31
0.0
  0
LINE
  5
173E
330
1712
100
AcDbEntity
  8
0
 62
     3
440
 16777216
370
    -2
100
AcDbLine
 10
-94.17616948573408
 20
157.8308635023567
 30
0.0
 11
-94.17616948573408
 21
153.9286734266295
 31
0.0
  0
LINE
  5
173F
330
1712
100
AcDbEntity
  8
0
 62
     3
440
 16777216
370
    -2
100
AcDbLine
 10
-104.051169485734
 20
154.1786734266295
 30
0.0
 11
-93.9261694857341
 21
154.1786734266295
 31
0.0
  0
INSERT
  5
1740
330
1712
100
AcDbEntity
  8
0
 62
     3
440
 16777216
370
    -2
100
AcDbBlockReference
  2
_ARCHTICK
 10
-103.801169485734
 20
154.1786734266295
 30
0.0
 41
0.25
 42
0.25
 43
0.25
 50
180.0
  0
INSERT
  5
1741
330
1712
100
AcDbEntity
  8
0
 62
     3
440
 16777216
370
    -2
100
AcDbBlockReference
  2
_ARCHTICK
 10
-94.17616948573408
 20
154.1786734266295
 30
0.0
 41
0.25
 42
0.25
 43
0.25
  0
MTEXT
  5
1742
330
1712
100
AcDbEntity
  8
0
440
 16777216
100
AcDbMText
 10
-98.98866948573408
 20
154.8530877750922
 30
0.0
 40
0.75
 41
0.0
 46
0.0
 71
     5
 72
     1
  1
\A1;9 5/8"
  7
ARCH
 73
     1
 44
1.0
  0
POINT
  5
1743
330
1712
100
AcDbEntity
  8
Defpoints
 62
     0
440
 16777216
100
AcDbPoint
 10
-103.801169485734
 20
158.0808635023567
 30
0.0
  0
POINT
  5
1744
330
1712
100
AcDbEntity
  8
Defpoints
 62
     0
440
 16777216
100
AcDbPoint
 10
-94.17616948573408
 20
158.0808635023567
 30
0.0
  0
POINT
  5
1745
330
1712
100
AcDbEntity
  8
Defpoints
 62
     0
440
 16777216
100
AcDbPoint
 10
-94.17616948573408
 20
154.1786734266295
 30
0.0
  0
ENDBLK
  5
1714
330
1712
100
AcDbEntity
  8
0
100
AcDbBlockEnd
  0
BLOCK
  5
1720
330
171F
100
AcDbEntity
  8
0
100
AcDbBlockBegin
  2
*D7
 70
     1
 10
0.0
 20
0.0
 30
0.0
  3
*D7
  1

  0
LINE
  5
1722
330
171F
100
AcDbEntity
  8
0
 62
     3
440
 16777216
370
    -2
100
AcDbLine
 10
-102.9266694857341
 20
163.5183635023567
 30
0.0
 11
-102.9266694857341
 21
165.8885848302143
 31
0.0
  0
LINE
  5
1723
330
171F
100
AcDbEntity
  8
0
 62
     3
440
 16777216
370
    -2
100
AcDbLine
 10
-95.05066948573407
 20
163.5183635023567
 30
0.0
 11
-95.05066948573407
 21
165.8885848302143
 31
0.0
  0
LINE
  5
1724
330
171F
100
AcDbEntity
  8
0
 62
     3
440
 16777216
370
    -2
100
AcDbLine
 10
-103.176669485734
 20
165.6385848302143
 30
0.0
 11
-94.80066948573407
 21
165.6385848302143
 31
0.0
  0
INSERT
  5
1725
330
171F
100
AcDbEntity
  8
0
 62
     3
440
 16777216
370
    -2
100
AcDbBlockReference
  2
_ARCHTICK
 10
-102.9266694857341
 20
165.6385848302143
 30
0.0
 41
0.25
 42
0.25
 43
0.25
 50
180.0
  0
INSERT
  5
1726
330
171F
100
AcDbEntity
  8
0
 62
     3
440
 16777216
370
    -2
100
AcDbBlockReference
  2
_ARCHTICK
 10
-95.05066948573407
 20
165.6385848302143
 30
0.0
 41
0.25
 42
0.25
 43
0.25
  0
MTEXT
  5
1727
330
171F
100
AcDbEntity
  8
0
440
 16777216
100
AcDbMText
 10
-98.98866948573408
 20
166.312999178677
 30
0.0
 40
0.75
 41
0.0
 46
0.0
 71
     5
 72
     1
  1
\A1;7 7/8"
  7
ARCH
 73
     1
 44
1.0
  0
POINT
  5
1728
330
171F
100
AcDbEntity
  8
Defpoints
 62
     0
440
 16777216
100
AcDbPoint
 10
-102.9266694857341
 20
163.2683635023567
 30
0.0
  0
POINT
  5
1729
330
171F
100
AcDbEntity
  8
Defpoints
 62
     0
440
 16777216
100
AcDbPoint
 10
-95.05066948573407
 20
163.2683635023567
 30
0.0
  0
POINT
  5
172A
330
171F
100
AcDbEntity
  8
Defpoints
 62
     0
440
 16777216
100
AcDbPoint
 10
-95.05066948573407
 20
165.6385848302143
 30
0.0
  0
ENDBLK
  5
1721
330
171F
100
AcDbEntity
  8
0
100
AcDbBlockEnd
  0
BLOCK
  5
1748
330
1747
100
AcDbEntity
  8
0
100
AcDbBlockBegin
  2
*D8
 70
     1
 10
0.0
 20
0.0
 30
0.0
  3
*D8
  1

  0
LINE
  5
174A
330
1747
100
AcDbEntity
  8
0
 62
     3
440
 16777216
370
    -2
100
AcDbLine
 10
-102.4266694857341
 20
180.1269336989753
 30
0.0
 11
-106.0429066613724
 21
180.1269336989753
 31
0.0
  0
LINE
  5
174B
330
1747
100
AcDbEntity
  8
0
 62
     3
440
 16777216
370
    -2
100
AcDbLine
 10
-102.426669485734
 20
173.7519336989753
 30
0.0
 11
-106.0429066613724
 21
173.7519336989753
 31
0.0
  0
LINE
  5
174C
330
1747
100
AcDbEntity
  8
0
 62
     3
440
 16777216
370
    -2
100
AcDbLine
 10
-105.7929066613724
 20
180.3769336989752
 30
0.0
 11
-105.7929066613724
 21
173.5019336989753
 31
0.0
  0
INSERT
  5
174D
330
1747
100
AcDbEntity
  8
0
 62
     3
440
 16777216
370
    -2
100
AcDbBlockReference
  2
_ARCHTICK
 10
-105.7929066613724
 20
180.1269336989753
 30
0.0
 41
0.25
 42
0.25
 43
0.25
 50
90.0
  0
INSERT
  5
174E
330
1747
100
AcDbEntity
  8
0
 62
     3
440
 16777216
370
    -2
100
AcDbBlockReference
  2
_ARCHTICK
 10
-105.7929066613724
 20
173.7519336989753
 30
0.0
 41
0.25
 42
0.25
 43
0.25
 50
270.0
  0
MTEXT
  5
174F
330
1747
100
AcDbEntity
  8
0
440
 16777216
100
AcDbMText
 10
-106.4673210098351
 20
176.9394336989752
 30
0.0
 40
0.75
 41
0.0
 46
0.0
 71
     5
 72
     1
  1
\A1;6 3/8"
  7
ARCH
 11
0.0000000000000001
 21
1.0
 31
0.0
 73
     1
 44
1.0
  0
POINT
  5
1750
330
1747
100
AcDbEntity
  8
Defpoints
 62
     0
440
 16777216
100
AcDbPoint
 10
-102.176669485734
 20
180.1269336989753
 30
0.0
  0
POINT
  5
1751
330
1747
100
AcDbEntity
  8
Defpoints
 62
     0
440
 16777216
100
AcDbPoint
 10
-102.176669485734
 20
173.7519336989753
 30
0.0
  0
POINT
  5
1752
330
1747
100
AcDbEntity
  8
Defpoints
 62
     0
440
 16777216
100
AcDbPoint
 10
-105.7929066613724
 20
173.7519336989753
 30
0.0
  0
ENDBLK
  5
1749
330
1747
100
AcDbEntity
  8
0
100
AcDbBlockEnd
  0
ENDSEC
  0
SECTION
  2
ENTITIES
  0
LINE
  5
12DC
330
1F
100
AcDbEntity
  8
0
100
AcDbLine
 10
-102.9266694857341
 20
163.2683635023567
 30
0.0
 11
-95.05066948573407
 21
163.2683635023567
 31
0.0
  0
LINE
  5
12DD
330
1F
100
AcDbEntity
  8
0
100
AcDbLine
 10
-103.176669485734
 20
161.8308635023567
 30
0.0
 11
-94.80066948573409
 21
161.8308635023567
 31
0.0
  0
LINE
  5
12DE
330
1F
100
AcDbEntity
  8
0
100
AcDbLine
 10
-103.176669485734
 20
161.7058635023567
 30
0.0
 11
-94.80066948573409
 21
161.7058635023567
 31
0.0
  0
LINE
  5
12DF
330
1F
100
AcDbEntity
  8
0
100
AcDbLine
 10
-103.176669485734
 20
161.3308635023567
 30
0.0
 11
-94.80066948573409
 21
161.3308635023567
 31
0.0
  0
LINE
  5
12E0
330
1F
100
AcDbEntity
  8
0
100
AcDbLine
 10
-103.176669485734
 20
158.7683635023567
 30
0.0
 11
-94.80066948573407
 21
158.7683635023567
 31
0.0
  0
LINE
  5
12E1
330
1F
100
AcDbEntity
  8
0
100
AcDbLine
 10
-103.3636694857341
 20
157.6433635023567
 30
0.0
 11
-94.61366948573408
 21
157.6433635023567
 31
0.0
  0
LINE
  5
12E2
330
1F
100
AcDbEntity
  8
0
100
AcDbLine
 10
-103.3636694857341
 20
156.8933635023567
 30
0.0
 11
-94.61366948573408
 21
156.8933635023567
 31
0.0
  0
ARC
  5
12E3
330
1F
100
AcDbEntity
  8
0
100
AcDbCircle
 10
-102.9170563171021
 20
157.8807639231042
 30
0.0
 40
0.9247875488003604
100
AcDbArc
 50
106.3036207090229
 51
152.2161422124947
  0
ARC
  5
12E4
330
1F
100
AcDbEntity
  8
0
100
AcDbCircle
 10
-103.363669485734
 20
158.0808635023567
 30
0.0
 40
0.4374999999999907
100
AcDbArc
 50
148.1328949901968
 51
270.0000000000008
  0
LINE
  5
12E5
330
1F
100
AcDbEntity
  8
0
100
AcDbLine
 10
-103.3636694857341
 20
157.6433635023567
 30
0.0
 11
-103.3636694857341
 21
156.8933635023567
 31
0.0
  0
LINE
  5
12E6
330
1F
100
AcDbEntity
  8
0
100
AcDbLine
 10
-102.9266694857341
 20
161.8308635023567
 30
0.0
 11
-102.9266694857341
 21
163.2683635023567
 31
0.0
  0
LINE
  5
12E7
330
1F
100
AcDbEntity
  8
0
100
AcDbLine
 10
-103.176669485734
 20
158.7683635023567
 30
0.0
 11
-103.176669485734
 21
161.3308635023567
 31
0.0
  0
ARC
  5
12E8
330
1F
100
AcDbEntity
  8
0
100
AcDbCircle
 10
-103.176669485734
 20
161.5183635023567
 30
0.0
 40
0.1875
100
AcDbArc
 50
90.0
 51
270.0
  0
LINE
  5
12E9
330
1F
100
AcDbEntity
  8
0
100
AcDbLine
 10
-103.176669485734
 20
161.7058635023567
 30
0.0
 11
-103.176669485734
 21
161.8308635023567
 31
0.0
  0
ARC
  5
12EA
330
1F
100
AcDbEntity
  8
0
100
AcDbCircle
 10
-95.06028265436603
 20
157.8807639231043
 30
0.0
 40
0.9247875488003405
100
AcDbArc
 50
27.78385778750407
 51
73.69637929097709
  0
ARC
  5
12EB
330
1F
100
AcDbEntity
  8
0
100
AcDbCircle
 10
-94.61366948573408
 20
158.0808635023567
 30
0.0
 40
0.4374999999999907
100
AcDbArc
 50
269.9999999999992
 51
31.86710500980313
  0
LINE
  5
12EC
330
1F
100
AcDbEntity
  8
0
100
AcDbLine
 10
-94.61366948573408
 20
157.6433635023567
 30
0.0
 11
-94.61366948573408
 21
156.8933635023566
 31
0.0
  0
LINE
  5
12ED
330
1F
100
AcDbEntity
  8
0
100
AcDbLine
 10
-95.05066948573407
 20
161.8308635023567
 30
0.0
 11
-95.05066948573407
 21
163.2683635023567
 31
0.0
  0
LINE
  5
12EE
330
1F
100
AcDbEntity
  8
0
100
AcDbLine
 10
-94.80066948573407
 20
158.7683635023567
 30
0.0
 11
-94.80066948573409
 21
161.3308635023567
 31
0.0
  0
ARC
  5
12EF
330
1F
100
AcDbEntity
  8
0
100
AcDbCircle
 10
-94.80066948573409
 20
161.5183635023567
 30
0.0
 40
0.1875
100
AcDbArc
 50
270.0
 51
90.0
  0
LINE
  5
12F0
330
1F
100
AcDbEntity
  8
0
100
AcDbLine
 10
-94.80066948573409
 20
161.7058635023567
 30
0.0
 11
-94.80066948573409
 21
161.8308635023567
 31
0.0
  0
DIMENSION
  5
15FA
330
1F
100
AcDbEntity
  8
DIM
100
AcDbDimension
280
     0
  2
*D3
 10
-91.78905018193473
 20
161.2591150106647
 30
0.0
 11
-92.46346453039741
 21
164.4466150106647
 31
0.0
 70
    32
 71
     5
 42
6.374999999999971
 73
     0
 74
     0
 75
     0
  3
DIM4
100
AcDbAlignedDimension
 13
-98.98866948573408
 23
167.6341150106647
 33
0.0
 14
-98.98866948573409
 24
161.2591150106647
 34
0.0
 50
90.0
100
AcDbRotatedDimension
  0
LINE
  5
1690
330
1F
100
AcDbEntity
  8
0
100
AcDbLine
 10
-102.176669485734
 20
173.7519336989753
 30
0.0
 11
-95.80066948573408
 21
173.7519336989753
 31
0.0
  0
LINE
  5
1691
330
1F
100
AcDbEntity
  8
0
100
AcDbLine
 10
-102.176669485734
 20
180.1269336989753
 30
0.0
 11
-95.80066948573408
 21
180.1269336989753
 31
0.0
  0
LINE
  5
1692
330
1F
100
AcDbEntity
  8
0
100
AcDbLine
 10
-102.9266694857341
 20
173.0019336989752
 30
0.0
 11
-95.05066948573407
 21
173.0019336989752
 31
0.0
  0
LINE
  5
1693
330
1F
100
AcDbEntity
  8
0
100
AcDbLine
 10
-102.9266694857341
 20
180.8769336989753
 30
0.0
 11
-95.05066948573407
 21
180.8769336989753
 31
0.0
  0
LINE
  5
1694
330
1F
100
AcDbEntity
  8
0
100
AcDbLine
 10
-103.176669485734
 20
172.7519336989753
 30
0.0
 11
-94.80066948573409
 21
172.7519336989753
 31
0.0
  0
LINE
  5
1695
330
1F
100
AcDbEntity
  8
0
100
AcDbLine
 10
-103.176669485734
 20
181.1269336989752
 30
0.0
 11
-94.8006694857341
 21
181.1269336989752
 31
0.0
  0
LINE
  5
1696
330
1F
100
AcDbEntity
  8
0
100
AcDbLine
 10
-103.3636694857341
 20
172.5644336989752
 30
0.0
 11
-94.61366948573408
 21
172.5644336989752
 31
0.0
  0
LINE
  5
1697
330
1F
100
AcDbEntity
  8
0
100
AcDbLine
 10
-103.3636694857341
 20
181.3144336989753
 30
0.0
 11
-94.61366948573409
 21
181.3144336989753
 31
0.0
  0
LINE
  5
1698
330
1F
100
AcDbEntity
  8
0
100
AcDbLine
 10
-103.8011694857341
 20
181.7519336989753
 30
0.0
 11
-94.17616948573408
 21
181.7519336989753
 31
0.0
  0
LINE
  5
1699
330
1F
100
AcDbEntity
  8
0
100
AcDbLine
 10
-103.8011694857341
 20
172.1269336989753
 30
0.0
 11
-94.17616948573408
 21
172.1269336989753
 31
0.0
  0
LINE
  5
169A
330
1F
100
AcDbEntity
  8
0
100
AcDbLine
 10
-102.176669485734
 20
173.7519336989753
 30
0.0
 11
-102.176669485734
 21
180.1269336989753
 31
0.0
  0
LINE
  5
169B
330
1F
100
AcDbEntity
  8
0
100
AcDbLine
 10
-102.9266694857341
 20
173.0019336989752
 30
0.0
 11
-102.9266694857341
 21
180.8769336989753
 31
0.0
  0
LINE
  5
169C
330
1F
100
AcDbEntity
  8
0
100
AcDbLine
 10
-103.176669485734
 20
172.7519336989753
 30
0.0
 11
-103.176669485734
 21
181.1269336989752
 31
0.0
  0
LINE
  5
169D
330
1F
100
AcDbEntity
  8
0
100
AcDbLine
 10
-103.3636694857341
 20
172.5644336989752
 30
0.0
 11
-103.3636694857341
 21
181.3144336989753
 31
0.0
  0
LINE
  5
169E
330
1F
100
AcDbEntity
  8
0
100
AcDbLine
 10
-103.8011694857341
 20
172.1269336989753
 30
0.0
 11
-103.8011694857341
 21
181.7519336989753
 31
0.0
  0
LINE
  5
169F
330
1F
100
AcDbEntity
  8
0
100
AcDbLine
 10
-95.80066948573408
 20
173.7519336989753
 30
0.0
 11
-95.80066948573408
 21
180.1269336989753
 31
0.0
  0
LINE
  5
16A0
330
1F
100
AcDbEntity
  8
0
100
AcDbLine
 10
-95.05066948573407
 20
173.0019336989752
 30
0.0
 11
-95.05066948573407
 21
180.8769336989753
 31
0.0
  0
LINE
  5
16A1
330
1F
100
AcDbEntity
  8
0
100
AcDbLine
 10
-94.80066948573409
 20
172.7519336989753
 30
0.0
 11
-94.8006694857341
 21
181.1269336989752
 31
0.0
  0
LINE
  5
16A2
330
1F
100
AcDbEntity
  8
0
100
AcDbLine
 10
-94.61366948573408
 20
172.5644336989752
 30
0.0
 11
-94.61366948573409
 21
181.3144336989753
 31
0.0
  0
LINE
  5
16A3
330
1F
100
AcDbEntity
  8
0
100
AcDbLine
 10
-94.17616948573408
 20
172.1269336989753
 30
0.0
 11
-94.17616948573408
 21
181.7519336989753
 31
0.0
  0
DIMENSION
  5
1704
330
1F
100
AcDbEntity
  8
0
100
AcDbDimension
280
     0
  2
*D5
 10
-106.0291282971822
 20
156.8933635023567
 30
0.0
 11
-106.7035426456448
 21
160.0808635023566
 31
0.0
 70
    32
 71
     5
 42
6.375
 73
     0
 74
     0
 75
     0
  3
DIM4
100
AcDbAlignedDimension
 13
-102.9266694857341
 23
163.2683635023567
 33
0.0
 14
-103.3636694857341
 24
156.8933635023567
 34
0.0
 50
90.0
100
AcDbRotatedDimension
  0
DIMENSION
  5
1711
330
1F
100
AcDbEntity
  8
0
100
AcDbDimension
280
     0
  2
*D6
 10
-94.17616948573408
 20
154.1786734266295
 30
0.0
 11
-98.98866948573408
 21
154.8530877750922
 31
0.0
 70
    32
 71
     5
 42
9.624999999999971
 73
     0
 74
     0
 75
     0
  3
DIM4
100
AcDbAlignedDimension
 13
-103.801169485734
 23
158.0808635023567
 33
0.0
 14
-94.17616948573408
 24
158.0808635023567
 34
0.0
100
AcDbRotatedDimension
  0
DIMENSION
  5
171E
330
1F
100
AcDbEntity
  8
0
100
AcDbDimension
280
     0
  2
*D7
 10
-95.05066948573407
 20
165.6385848302143
 30
0.0
 11
-98.98866948573408
 21
166.312999178677
 31
0.0
 70
    32
 71
     5
 42
7.876000000000004
 73
     0
 74
     0
 75
     0
  3
DIM4
100
AcDbAlignedDimension
 13
-102.9266694857341
 23
163.2683635023567
 33
0.0
 14
-95.05066948573407
 24
163.2683635023567
 34
0.0
100
AcDbRotatedDimension
  0
DIMENSION
  5
1746
330
1F
100
AcDbEntity
  8
0
100
AcDbDimension
280
     0
  2
*D8
 10
-105.7929066613724
 20
173.7519336989753
 30
0.0
 11
-106.4673210098351
 21
176.9394336989752
 31
0.0
 70
    32
 71
     5
 42
6.375
 73
     0
 74
     0
 75
     0
  3
DIM4
100
AcDbAlignedDimension
 13
-102.176669485734
 23
180.1269336989753
 33
0.0
 14
-102.176669485734
 24
173.7519336989753
 34
0.0
 50
90.0
100
AcDbRotatedDimension
  0
VIEWPORT
  5
14E2
330
14DB
100
AcDbEntity
 67
     1
  8
0
100
AcDbViewport
 10
4.127061205651442
 20
5.249999883606677
 30
0.0
 40
23.00998806877351
 41
11.63799974576694
 68
     2
 69
     1
 12
4.127061205651442
 22
5.249999883606677
 13
0.0
 23
0.0
 14
10.0
 24
10.0
 15
10.0
 25
10.0
 16
0.0
 26
0.0
 36
1.0
 17
0.0
 27
0.0
 37
0.0
 42
50.0
 43
0.0
 44
0.0
 45
11.63799974576694
 50
0.0
 51
0.0
 72
   100
 90
    32800
  1

281
     0
 71
     1
 74
     0
110
0.0
120
0.0
130
0.0
111
1.0
121
0.0
131
0.0
112
0.0
122
1.0
132
0.0
 79
     0
146
0.0
170
     0
 61
     5
348
16C6
292
     1
282
     1
141
0.0
142
0.0
 63
   250
421
  3355443
  0
VIEWPORT
  5
14E4
330
14DB
100
AcDbEntity
 67
     1
  8
0
100
AcDbViewport
 10
3.99999976158142
 20
5.24999976158142
 30
0.0
 40
6.399999618530272
 41
8.399999618530273
 68
     1
 69
     2
 12
-96.38699756586678
 22
112.6038437617458
 13
0.0
 23
0.0
 14
0.5
 24
0.5
 15
0.5
 25
0.5
 16
0.0
 26
0.0
 36
1.0
 17
0.0
 27
0.0
 37
0.0
 42
50.0
 43
0.0
 44
0.0
 45
148.1672098360006
 50
0.0
 51
0.0
 72
   100
 90
    33376
  1

281
     0
 71
     1
 74
     0
110
0.0
120
0.0
130
0.0
111
1.0
121
0.0
131
0.0
112
0.0
122
1.0
132
0.0
 79
     0
146
0.0
170
     0
 61
     5
348
16C6
292
     1
282
     1
141
0.0
142
0.0
 63
   250
421
  3355443
  0
ENDSEC
  0
SECTION
  2
OBJECTS
  0
DICTIONARY
  5
C
330
0
100
AcDbDictionary
281
     1
  3
ACAD_CIP_PREVIOUS_PRODUCT_INFO
350
16F7
  3
ACAD_COLOR
350
135B
  3
ACAD_GROUP
350
D
  3
ACAD_IMAGE_DICT
350
3B4
  3
ACAD_LAYOUT
350
1A
  3
ACAD_MATERIAL
350
135A
  3
ACAD_MLEADERSTYLE
350
16ED
  3
ACAD_MLINESTYLE
350
17
  3
ACAD_PLOTSETTINGS
350
19
  3
ACAD_PLOTSTYLENAME
350
E
  3
ACAD_SCALELIST
350
16DB
  3
ACAD_TABLESTYLE
350
16D9
  3
ACAD_VISUALSTYLE
350
16C0
  3
ACDB_RECOMPOSE_DATA
350
176C
  3
AcDbVariableDictionary
350
1505
  3
ADE_QUERY_LIBRARY
350
62F
  3
ASE_INDEX_DICTIONARY
350
62D
1001
ADE
1000
ADE02C004
1000
[Query]
1000
CaseSensitiveMatch=0
1000
SaveCurrQueryInSession=1
1000
MkSelSetWithQryObj=0
1000
ShowBlockAsInsPt=0
1000
CreateAssociativeHatchObjects=0
1000
ReferenceBoundaryForAreaLocation=1
1000
ShowImageAsBoundary=1
1000
DefaultJoinOperator=2
1000
ColorForAdd=red
1000
ColorForRemove=red
1000
BlockLocnForQuery=1
1000
TextLocnForQuery=1
1000
[Save Back]
1000
RedefineBlockDefinitions=1
1000
RedefineLayerDefinitions=1
1000
RedefineTextStyleDefinitions=1
1000
RemoveUnusedGroups=1
1000
EraseSavedBackObjects=1
1000
RemoveLockAfterSave=1
1000
CreateHistoryFileOfChanges=0
1000
CreateBackupFileOfSourceDwg=1
1000
DontAddObjectsToSaveSet=0
1000
MarkObjectsForEditingWithoutPrompting=0
1000
[Coordinate Transformation]
1000
RestoreLastActiveDwgsOnStartup=1
1000
ActivateDwgsOnAttach=1
1000
AdjustSizesAndScalesForChangesInUnits=1
1000
AdjustRotationsForMapDistortions=1
1000
AdjustSizesAndScalesForMapDistortions=1
1000
AdjustElevations=1
1000
AdjustZeroRotationObjects=1
1000
ReconnectDbOnWSOpen=1
1000
NoOfSQLConditionsInHistory=10
  0
DICTIONARY
  5
1753
330
10
100
AcDbDictionary
280
     1
281
     1
  3
ADSK_XREC_LAYER_RECONCILED
360
1754
  0
DICTIONARY
  5
1755
330
329
100
AcDbDictionary
280
     1
281
     1
  3
ADSK_XREC_LAYER_RECONCILED
360
1756
  0
XRECORD
  5
16F7
102
{ACAD_REACTORS
330
C
102
}
330
C
100
AcDbXrecord
280
     1
300
ACD
300
2012
300
ACD_F_S
  0
DICTIONARY
  5
135B
102
{ACAD_REACTORS
330
C
102
}
330
C
100
AcDbDictionary
281
     1
  0
DICTIONARY
  5
D
102
{ACAD_REACTORS
330
C
102
}
330
C
100
AcDbDictionary
281
     1
  0
DICTIONARY
  5
3B4
102
{ACAD_REACTORS
330
C
102
}
330
C
100
AcDbDictionary
281
     1
  3
1220-1
350
3B5
  3
1220-2
350
3B6
  3
1220-3
350
3B7
  3
1220-4
350
3B8
  0
DICTIONARY
  5
1A
102
{ACAD_REACTORS
330
C
102
}
330
C
100
AcDbDictionary
281
     1
  3
Layout1
350
14DC
  3
Model
350
22
  0
DICTIONARY
  5
135A
102
{ACAD_REACTORS
330
C
102
}
330
C
100
AcDbDictionary
281
     1
  3
ByBlock
350
16B0
  3
ByLayer
350
16A8
  3
Global
350
16B8
  0
DICTIONARY
  5
16ED
102
{ACAD_REACTORS
330
C
102
}
330
C
100
AcDbDictionary
281
     1
  3
Standard
350
16EE
  0
DICTIONARY
  5
17
102
{ACAD_REACTORS
330
C
102
}
330
C
100
AcDbDictionary
281
     1
  3
Standard
350
18
  0
DICTIONARY
  5
19
102
{ACAD_REACTORS
330
C
102
}
330
C
100
AcDbDictionary
281
     1
  0
ACDBDICTIONARYWDFLT
  5
E
102
{ACAD_REACTORS
330
C
102
}
330
C
100
AcDbDictionary
281
     1
  3
Normal
350
F
100
AcDbDictionaryWithDefault
340
F
  0
DICTIONARY
  5
16DB
102
{ACAD_REACTORS
330
C
102
}
330
C
100
AcDbDictionary
281
     1
  3
A0
350
16DC
  3
A1
350
16DD
  3
A2
350
16DE
  3
A3
350
16DF
  3
A4
350
16E0
  3
A5
350
16E1
  3
A6
350
16E2
  3
A7
350
16E3
  3
A8
350
16E4
  3
A9
350
16E5
  3
B0
350
16E6
  3
B1
350
16E7
  3
B2
350
16E8
  3
B3
350
16E9
  3
B4
350
16EA
  3
B5
350
16EB
  3
B6
350
16EC
  0
DICTIONARY
  5
16D9
102
{ACAD_REACTORS
330
C
102
}
330
C
100
AcDbDictionary
281
     1
  3
Standard
350
16DA
  0
DICTIONARY
  5
16C0
102
{ACAD_REACTORS
330
C
102
}
330
C
100
AcDbDictionary
281
     1
  3
2dWireframe
350
16C6
  3
Basic
350
16C5
  3
Brighten
350
16CC
  3
ColorChange
350
16D0
  3
Conceptual
350
16C9
  3
Dim
350
16CB
  3
EdgeColorOff
350
16D8
  3
Facepattern
350
16CF
  3
Flat
350
16C1
  3
FlatWithEdges
350
16C2
  3
Gouraud
350
16C3
  3
GouraudWithEdges
350
16C4
  3
Hidden
350
16C8
  3
JitterOff
350
16D6
  3
Linepattern
350
16CE
  3
OverhangOff
350
16D7
  3
Realistic
350
16CA
  3
Shaded
350
16D5
  3
Shaded with edges
350
16D4
  3
Shades of Gray
350
16D1
  3
Sketchy
350
16D2
  3
Thicken
350
16CD
  3
Wireframe
350
16C7
  3
X-Ray
350
16D3
  0
XRECORD
  5
176C
102
{ACAD_REACTORS
330
C
102
}
330
C
100
AcDbXrecord
280
     1
 90
        1
330
16DA
  0
DICTIONARY
  5
1505
102
{ACAD_REACTORS
330
C
102
}
330
C
100
AcDbDictionary
281
     1
  3
CANNOSCALE
350
1764
  3
CMLEADERSTYLE
350
1762
  3
CTABLESTYLE
350
1761
  3
DIMASSOC
350
1506
  3
LAYEREVAL
350
1766
  3
LAYERNOTIFY
350
1767
  3
LIGHTINGUNITS
350
1765
  3
MSLTSCALE
350
1763
  3
PROJECTNAME
350
1507
  0
DICTIONARY
  5
62F
102
{ACAD_REACTORS
330
C
102
}
330
C
100
AcDbDictionary
281
     1
  3
_CurrQry
350
1357
  0
DICTIONARY
  5
62D
102
{ACAD_REACTORS
330
C
102
}
330
C
100
AcDbDictionary
281
     1
  3
ASEBlockHierarchyIndexRecord
350
62E
1001
DCO15
1040
1514443287.79
  0
XRECORD
  5
1754
102
{ACAD_REACTORS
330
1753
102
}
330
1753
100
AcDbXrecord
280
     1
290
     1
  0
XRECORD
  5
1756
102
{ACAD_REACTORS
330
1755
102
}
330
1755
100
AcDbXrecord
280
     1
290
     1
  0
IMAGEDEF
  5
3B5
102
{ACAD_REACTORS
330
3B4
102
}
330
3B4
100
AcDbRasterImageDef
 90
        0
  1
U:\TPDWG\MichelQ\1220-1.tif
 10
1852.0
 20
3778.0
 11
0.0705555555555556
 21
0.0705555555555556
280
     1
281
     5
  0
IMAGEDEF
  5
3B6
102
{ACAD_REACTORS
330
3B4
102
}
330
3B4
100
AcDbRasterImageDef
 90
        0
  1
U:\TPDWG\MichelQ\1220-2.tif
 10
1852.0
 20
3778.0
 11
0.0705555555555556
 21
0.0705555555555556
280
     1
281
     5
  0
IMAGEDEF
  5
3B7
102
{ACAD_REACTORS
330
3B4
102
}
330
3B4
100
AcDbRasterImageDef
 90
        0
  1
U:\TPDWG\MichelQ\1220-3.tif
 10
1852.0
 20
3778.0
 11
0.0705555555555556
 21
0.0705555555555556
280
     1
281
     5
  0
IMAGEDEF
  5
3B8
102
{ACAD_REACTORS
330
3B4
102
}
330
3B4
100
AcDbRasterImageDef
 90
        0
  1
U:\TPDWG\MichelQ\1220-4.tif
 10
1852.0
 20
3778.0
 11
0.0705555555555556
 21
0.0705555555555556
280
     1
281
     5
  0
LAYOUT
  5
14DC
102
{ACAD_REACTORS
330
1A
102
}
330
1A
100
AcDbPlotSettings
  1

  2
none_device
  4
Letter_(8.50_x_11.00_Inches)
  6

 40
6.349999904632568
 41
6.349999904632568
 42
6.350006103515625
 43
6.350006103515625
 44
215.8999938964844
 45
279.3999938964844
 46
0.0
 47
0.0
 48
0.0
 49
0.0
140
0.0
141
0.0
142
1.0
143
1.0
 70
   688
 72
     0
 73
     0
 74
     5
  7

 75
    16
147
1.0
 76
     1
 77
     2
 78
   300
148
0.0
149
0.0
100
AcDbLayout
  1
Layout1
 70
     1
 71
     1
 10
-0.2499999962453767
 20
-0.2499999962453767
 11
8.249999763458731
 21
10.74999976345873
 12
0.0
 22
0.0
 32
0.0
 14
0.7999999523162842
 24
1.049999952316284
 34
0.0
 15
7.199999570846556
 25
9.449999570846557
 35
0.0
146
0.0
 13
0.0
 23
0.0
 33
0.0
 16
1.0
 26
0.0
 36
0.0
 17
0.0
 27
1.0
 37
0.0
 76
     0
330
14DB
331
14E4
  0
LAYOUT
  5
22
102
{ACAD_REACTORS
330
1A
102
}
330
1A
100
AcDbPlotSettings
  1

  2
Acrobat PDFWriter
  4
Letter
  6

 40
7.143749713897705
 41
7.143756389617919
 42
7.14373779296875
 43
7.14373779296875
 44
215.8999938964844
 45
279.3999938964844
 46
0.0
 47
0.0
 48
0.0
 49
0.0
140
0.0
141
0.0
142
1.0
143
11.25112338808174
 70
 11952
 72
     0
 73
     0
 74
     1
  7
acad.ctb
 75
     0
147
0.0888800136223992
 76
     0
 77
     2
 78
   300
148
2740.458763089197
149
-1374.913441741114
100
AcDbLayout
  1
Model
 70
     1
 71
     0
 10
0.0
 20
0.0
 11
12.0
 21
9.0
 12
0.0
 22
0.0
 32
0.0
 14
0.0
 24
0.0
 34
0.0
 15
0.0
 25
0.0
 35
0.0
146
0.0
 13
0.0
 23
0.0
 33
0.0
 16
1.0
 26
0.0
 36
0.0
 17
0.0
 27
1.0
 37
0.0
 76
     0
330
1F
331
16A6
  0
MATERIAL
  5
16B0
102
{ACAD_XDICTIONARY
360
16B1
102
}
102
{ACAD_REACTORS
330
135A
102
}
330
135A
100
AcDbMaterial
  1
ByBlock
 72
     0
 43
0.0208333333333333
 43
0.0
 43
0.0
 43
0.0
 43
0.0
 43
0.0208333333333333
 43
0.0
 43
0.0
 43
0.0
 43
0.0
 43
1.0
 43
0.0
 43
0.0
 43
0.0
 43
0.0
 43
1.0
 77
     0
 47
0.0208333333333333
 47
0.0
 47
0.0
 47
0.0
 47
0.0
 47
0.0208333333333333
 47
0.0
 47
0.0
 47
0.0
 47
0.0
 47
1.0
 47
0.0
 47
0.0
 47
0.0
 47
0.0
 47
1.0
171
     0
 49
0.0208333333333333
 49
0.0
 49
0.0
 49
0.0
 49
0.0
 49
0.0208333333333333
 49
0.0
 49
0.0
 49
0.0
 49
0.0
 49
1.0
 49
0.0
 49
0.0
 49
0.0
 49
0.0
 49
1.0
175
     0
142
0.0208333333333333
142
0.0
142
0.0
142
0.0
142
0.0
142
0.0208333333333333
142
0.0
142
0.0
142
0.0
142
0.0
142
1.0
142
0.0
142
0.0
142
0.0
142
0.0
142
1.0
179
     0
144
0.0208333333333333
144
0.0
144
0.0
144
0.0
144
0.0
144
0.0208333333333333
144
0.0
144
0.0
144
0.0
144
0.0
144
1.0
144
0.0
144
0.0
144
0.0
144
0.0
144
1.0
147
0.0208333333333333
147
0.0
147
0.0
147
0.0
147
0.0
147
0.0208333333333333
147
0.0
147
0.0
147
0.0
147
0.0
147
1.0
147
0.0
147
0.0
147
0.0
147
0.0
147
1.0
  0
MATERIAL
  5
16A8
102
{ACAD_XDICTIONARY
360
16A9
102
}
102
{ACAD_REACTORS
330
135A
102
}
330
135A
100
AcDbMaterial
  1
ByLayer
 72
     0
 43
0.0208333333333333
 43
0.0
 43
0.0
 43
0.0
 43
0.0
 43
0.0208333333333333
 43
0.0
 43
0.0
 43
0.0
 43
0.0
 43
1.0
 43
0.0
 43
0.0
 43
0.0
 43
0.0
 43
1.0
 77
     0
 47
0.0208333333333333
 47
0.0
 47
0.0
 47
0.0
 47
0.0
 47
0.0208333333333333
 47
0.0
 47
0.0
 47
0.0
 47
0.0
 47
1.0
 47
0.0
 47
0.0
 47
0.0
 47
0.0
 47
1.0
171
     0
 49
0.0208333333333333
 49
0.0
 49
0.0
 49
0.0
 49
0.0
 49
0.0208333333333333
 49
0.0
 49
0.0
 49
0.0
 49
0.0
 49
1.0
 49
0.0
 49
0.0
 49
0.0
 49
0.0
 49
1.0
175
     0
142
0.0208333333333333
142
0.0
142
0.0
142
0.0
142
0.0
142
0.0208333333333333
142
0.0
142
0.0
142
0.0
142
0.0
142
1.0
142
0.0
142
0.0
142
0.0
142
0.0
142
1.0
179
     0
144
0.0208333333333333
144
0.0
144
0.0
144
0.0
144
0.0
144
0.0208333333333333
144
0.0
144
0.0
144
0.0
144
0.0
144
1.0
144
0.0
144
0.0
144
0.0
144
0.0
144
1.0
147
0.0208333333333333
147
0.0
147
0.0
147
0.0
147
0.0
147
0.0208333333333333
147
0.0
147
0.0
147
0.0
147
0.0
147
1.0
147
0.0
147
0.0
147
0.0
147
0.0
147
1.0
  0
MATERIAL
  5
16B8
102
{ACAD_XDICTIONARY
360
16B9
102
}
102
{ACAD_REACTORS
330
135A
102
}
330
135A
100
AcDbMaterial
  1
Global
 72
     0
 43
0.0208333333333333
 43
0.0
 43
0.0
 43
0.0
 43
0.0
 43
0.0208333333333333
 43
0.0
 43
0.0
 43
0.0
 43
0.0
 43
1.0
 43
0.0
 43
0.0
 43
0.0
 43
0.0
 43
1.0
 77
     0
 47
0.0208333333333333
 47
0.0
 47
0.0
 47
0.0
 47
0.0
 47
0.0208333333333333
 47
0.0
 47
0.0
 47
0.0
 47
0.0
 47
1.0
 47
0.0
 47
0.0
 47
0.0
 47
0.0
 47
1.0
171
     0
 49
0.0208333333333333
 49
0.0
 49
0.0
 49
0.0
 49
0.0
 49
0.0208333333333333
 49
0.0
 49
0.0
 49
0.0
 49
0.0
 49
1.0
 49
0.0
 49
0.0
 49
0.0
 49
0.0
 49
1.0
175
     0
142
0.0208333333333333
142
0.0
142
0.0
142
0.0
142
0.0
142
0.0208333333333333
142
0.0
142
0.0
142
0.0
142
0.0
142
1.0
142
0.0
142
0.0
142
0.0
142
0.0
142
1.0
179
     0
144
0.0208333333333333
144
0.0
144
0.0
144
0.0
144
0.0
144
0.0208333333333333
144
0.0
144
0.0
144
0.0
144
0.0
144
1.0
144
0.0
144
0.0
144
0.0
144
0.0
144
1.0
147
0.0208333333333333
147
0.0
147
0.0
147
0.0
147
0.0
147
0.0208333333333333
147
0.0
147
0.0
147
0.0
147
0.0
147
1.0
147
0.0
147
0.0
147
0.0
147
0.0
147
1.0
  0
MLEADERSTYLE
  5
16EE
102
{ACAD_XDICTIONARY
360
176A
102
}
102
{ACAD_REACTORS
330
16ED
102
}
330
16ED
100
AcDbMLeaderStyle
179
     2
170
     2
171
     1
172
     0
 90
        2
 40
0.0
 41
0.0
173
     1
 91
-1056964608
340
14
 92
       -2
290
     1
 42
0.09
291
     1
 43
0.36
  3
Standard
 44
0.18
300

342
11
174
     1
178
     6
175
     1
176
     0
 93
-1056964608
 45
0.18
292
     0
297
     0
 46
0.18
 94
-1056964608
 47
1.0
 49
1.0
140
1.0
293
     1
141
0.0
294
     1
177
     0
142
1.0
295
     0
296
     0
143
0.125
271
     0
272
     9
273
     9
  0
MLINESTYLE
  5
18
102
{ACAD_REACTORS
330
17
102
}
330
17
100
AcDbMlineStyle
  2
STANDARD
 70
     0
  3

 62
   256
 51
90.0
 52
90.0
 71
     2
 49
0.5
 62
   256
  6
BYLAYER
 49
-0.5
 62
   256
  6
BYLAYER
  0
ACDBPLACEHOLDER
  5
F
102
{ACAD_REACTORS
330
E
102
}
330
E
  0
SCALE
  5
16DC
102
{ACAD_REACTORS
330
16DB
102
}
330
16DB
100
AcDbScale
 70
     0
300
1:1
140
1.0
141
1.0
290
     1
  0
SCALE
  5
16DD
102
{ACAD_REACTORS
330
16DB
102
}
330
16DB
100
AcDbScale
 70
     0
300
1/128" = 1'-0"
140
0.0078125
141
12.0
290
     0
  0
SCALE
  5
16DE
102
{ACAD_REACTORS
330
16DB
102
}
330
16DB
100
AcDbScale
 70
     0
300
1/64" = 1'-0"
140
0.015625
141
12.0
290
     0
  0
SCALE
  5
16DF
102
{ACAD_REACTORS
330
16DB
102
}
330
16DB
100
AcDbScale
 70
     0
300
1/32" = 1'-0"
140
0.03125
141
12.0
290
     0
  0
SCALE
  5
16E0
102
{ACAD_REACTORS
330
16DB
102
}
330
16DB
100
AcDbScale
 70
     0
300
1/16" = 1'-0"
140
0.0625
141
12.0
290
     0
  0
SCALE
  5
16E1
102
{ACAD_REACTORS
330
16DB
102
}
330
16DB
100
AcDbScale
 70
     0
300
3/32" = 1'-0"
140
0.09375
141
12.0
290
     0
  0
SCALE
  5
16E2
102
{ACAD_REACTORS
330
16DB
102
}
330
16DB
100
AcDbScale
 70
     0
300
1/8" = 1'-0"
140
0.125
141
12.0
290
     0
  0
SCALE
  5
16E3
102
{ACAD_REACTORS
330
16DB
102
}
330
16DB
100
AcDbScale
 70
     0
300
3/16" = 1'-0"
140
0.1875
141
12.0
290
     0
  0
SCALE
  5
16E4
102
{ACAD_REACTORS
330
16DB
102
}
330
16DB
100
AcDbScale
 70
     0
300
1/4" = 1'-0"
140
0.25
141
12.0
290
     0
  0
SCALE
  5
16E5
102
{ACAD_REACTORS
330
16DB
102
}
330
16DB
100
AcDbScale
 70
     0
300
3/8" = 1'-0"
140
0.375
141
12.0
290
     0
  0
SCALE
  5
16E6
102
{ACAD_REACTORS
330
16DB
102
}
330
16DB
100
AcDbScale
 70
     0
300
1/2" = 1'-0"
140
0.5
141
12.0
290
     0
  0
SCALE
  5
16E7
102
{ACAD_REACTORS
330
16DB
102
}
330
16DB
100
AcDbScale
 70
     0
300
3/4" = 1'-0"
140
0.75
141
12.0
290
     0
  0
SCALE
  5
16E8
102
{ACAD_REACTORS
330
16DB
102
}
330
16DB
100
AcDbScale
 70
     0
300
1" = 1'-0"
140
1.0
141
12.0
290
     0
  0
SCALE
  5
16E9
102
{ACAD_REACTORS
330
16DB
102
}
330
16DB
100
AcDbScale
 70
     0
300
1-1/2" = 1'-0"
140
1.5
141
12.0
290
     0
  0
SCALE
  5
16EA
102
{ACAD_REACTORS
330
16DB
102
}
330
16DB
100
AcDbScale
 70
     0
300
3" = 1'-0"
140
3.0
141
12.0
290
     0
  0
SCALE
  5
16EB
102
{ACAD_REACTORS
330
16DB
102
}
330
16DB
100
AcDbScale
 70
     0
300
6" = 1'-0"
140
6.0
141
12.0
290
     0
  0
SCALE
  5
16EC
102
{ACAD_REACTORS
330
16DB
102
}
330
16DB
100
AcDbScale
 70
     0
300
1'-0" = 1'-0"
140
12.0
141
12.0
290
     0
  0
TABLESTYLE
  5
16DA
102
{ACAD_XDICTIONARY
360
1768
102
}
102
{ACAD_REACTORS
330
16D9
102
}
330
16D9
100
AcDbTableStyle
280
     0
  3
Standard
 70
     0
 71
     0
 40
0.06
 41
0.06
280
     0
281
     0
  7
Standard
140
0.18
170
     2
 62
     0
 63
     7
283
     0
 90
      512
 91
        0
  1

274
    -2
284
     1
 64
     0
275
    -2
285
     1
 65
     0
276
    -2
286
     1
 66
     0
277
    -2
287
     1
 67
     0
278
    -2
288
     1
 68
     0
279
    -2
289
     1
 69
     0
  7
Standard
140
0.25
170
     5
 62
     0
 63
     7
283
     0
 90
      512
 91
        0
  1

274
    -2
284
     1
 64
     0
275
    -2
285
     1
 65
     0
276
    -2
286
     1
 66
     0
277
    -2
287
     1
 67
     0
278
    -2
288
     1
 68
     0
279
    -2
289
     1
 69
     0
  7
Standard
140
0.18
170
     5
 62
     0
 63
     7
283
     0
 90
      512
 91
        0
  1

274
    -2
284
     1
 64
     0
275
    -2
285
     1
 65
     0
276
    -2
286
     1
 66
     0
277
    -2
287
     1
 67
     0
278
    -2
288
     1
 68
     0
279
    -2
289
     1
 69
     0
  0
VISUALSTYLE
  5
16C6
102
{ACAD_REACTORS
330
16C0
102
}
330
16C0
100
AcDbVisualStyle
  2
2dWireframe
 70
     4
177
     2
291
     0
 71
     0
176
     1
 72
     2
176
     1
 73
     0
176
     1
 90
        0
176
     1
 40
0.6
176
     1
 41
30.0
176
     1
 63
     7
421
 16777215
176
     1
 74
     1
176
     1
 91
        4
176
     1
 64
     7
176
     1
 65
   257
176
     1
 75
     1
176
     1
175
     1
176
     1
 42
1.0
176
     1
 92
        0
176
     1
 66
   257
176
     1
 43
1.0
176
     1
 76
     1
176
     1
 77
     6
176
     1
 78
     2
176
     1
 67
     7
176
     1
 79
     5
176
     1
170
     0
176
     1
171
     0
176
     1
290
     0
176
     1
 93
        1
176
     1
 44
0.0
176
     1
173
     0
176
     1
  0
VISUALSTYLE
  5
16C5
102
{ACAD_REACTORS
330
16C0
102
}
330
16C0
100
AcDbVisualStyle
  2
Basic
 70
     7
177
     2
291
     1
 71
     1
176
     1
 72
     0
176
     1
 73
     1
176
     1
 90
        0
176
     1
 40
0.6
176
     1
 41
30.0
176
     1
 63
     7
421
 16777215
176
     1
 74
     0
176
     1
 91
        4
176
     1
 64
     7
176
     1
 65
   257
176
     1
 75
     1
176
     1
175
     1
176
     1
 42
1.0
176
     1
 92
        8
176
     1
 66
     7
176
     1
 43
1.0
176
     1
 76
     1
176
     1
 77
     6
176
     1
 78
     2
176
     1
 67
     7
176
     1
 79
     5
176
     1
170
     0
176
     1
171
     0
176
     1
290
     0
176
     1
 93
        1
176
     1
 44
0.0
176
     1
173
     0
176
     1
  0
VISUALSTYLE
  5
16CC
102
{ACAD_REACTORS
330
16C0
102
}
330
16C0
100
AcDbVisualStyle
  2
Brighten
 70
    12
177
     2
291
     1
 71
     2
176
     1
 72
     2
176
     1
 73
     0
176
     1
 90
        0
176
     1
 40
0.6
176
     1
 41
30.0
176
     1
 63
     7
421
 16777215
176
     1
 74
     1
176
     1
 91
        4
176
     1
 64
     7
176
     1
 65
   257
176
     1
 75
     1
176
     1
175
     1
176
     1
 42
1.0
176
     1
 92
        8
176
     1
 66
     7
176
     1
 43
1.0
176
     1
 76
     1
176
     1
 77
     6
176
     1
 78
     2
176
     1
 67
     7
176
     1
 79
     5
176
     1
170
     0
176
     1
171
     0
176
     1
290
     0
176
     1
 93
        1
176
     1
 44
50.0
176
     1
173
     0
176
     1
  0
VISUALSTYLE
  5
16D0
102
{ACAD_REACTORS
330
16C0
102
}
330
16C0
100
AcDbVisualStyle
  2
ColorChange
 70
    16
177
     2
291
     1
 71
     2
176
     1
 72
     2
176
     1
 73
     3
176
     1
 90
        0
176
     1
 40
0.6
176
     1
 41
30.0
176
     1
 63
     8
421
  8421504
176
     1
 74
     1
176
     1
 91
        4
176
     1
 64
     7
176
     1
 65
   257
176
     1
 75
     1
176
     1
175
     1
176
     1
 42
1.0
176
     1
 92
        8
176
     1
 66
     8
424
  8421504
176
     1
 43
1.0
176
     1
 76
     1
176
     1
 77
     6
176
     1
 78
     2
176
     1
 67
     7
176
     1
 79
     5
176
     1
170
     0
176
     1
171
     0
176
     1
290
     0
176
     1
 93
        1
176
     1
 44
0.0
176
     1
173
     0
176
     1
  0
VISUALSTYLE
  5
16C9
102
{ACAD_REACTORS
330
16C0
102
}
330
16C0
100
AcDbVisualStyle
  2
Conceptual
 70
     9
177
     2
291
     0
 71
     3
176
     1
 72
     2
176
     1
 73
     0
176
     1
 90
        0
176
     1
 40
0.6
176
     1
 41
30.0
176
     1
 63
     7
421
 16777215
176
     1
 74
     2
176
     1
 91
        2
176
     1
 64
     7
176
     1
 65
   257
176
     1
 75
     1
176
     1
175
     1
176
     1
 42
179.0
176
     1
 92
        8
176
     1
 66
     7
176
     1
 43
1.0
176
     1
 76
     1
176
     1
 77
     6
176
     1
 78
     2
176
     1
 67
     7
176
     1
 79
     3
176
     1
170
     0
176
     1
171
     0
176
     1
290
     0
176
     1
 93
        1
176
     1
 44
0.0
176
     1
173
     0
176
     1
  0
VISUALSTYLE
  5
16CB
102
{ACAD_REACTORS
330
16C0
102
}
330
16C0
100
AcDbVisualStyle
  2
Dim
 70
    11
177
     2
291
     1
 71
     2
176
     1
 72
     2
176
     1
 73
     0
176
     1
 90
        0
176
     1
 40
0.6
176
     1
 41
30.0
176
     1
 63
     7
421
 16777215
176
     1
 74
     1
176
     1
 91
        4
176
     1
 64
     7
176
     1
 65
   257
176
     1
 75
     1
176
     1
175
     1
176
     1
 42
1.0
176
     1
 92
        8
176
     1
 66
     7
176
     1
 43
1.0
176
     1
 76
     1
176
     1
 77
     6
176
     1
 78
     2
176
     1
 67
     7
176
     1
 79
     5
176
     1
170
     0
176
     1
171
     0
176
     1
290
     0
176
     1
 93
        1
176
     1
 44
-50.0
176
     1
173
     0
176
     1
  0
VISUALSTYLE
  5
16D8
102
{ACAD_REACTORS
330
16C0
102
}
330
16C0
100
AcDbVisualStyle
  2
EdgeColorOff
 70
    22
177
     2
291
     1
 71
     2
176
     0
 72
     2
176
     0
 73
     0
176
     0
 90
        0
176
     0
 40
0.6
176
     0
 41
30.0
176
     0
 63
     7
421
 16777215
176
     0
 74
     1
176
     0
 91
        4
176
     0
 64
     7
176
     0
 65
   257
176
     0
 75
     1
176
     0
175
     1
176
     0
 42
1.0
176
     0
 92
        8
176
     2
 66
     7
176
     0
 43
1.0
176
     0
 76
     1
176
     0
 77
     6
176
     0
 78
     2
176
     0
 67
     7
176
     0
 79
     5
176
     0
170
     0
176
     0
171
     0
176
     0
290
     0
176
     0
 93
        1
176
     0
 44
0.0
176
     0
173
     0
176
     0
  0
VISUALSTYLE
  5
16CF
102
{ACAD_REACTORS
330
16C0
102
}
330
16C0
100
AcDbVisualStyle
  2
Facepattern
 70
    15
177
     2
291
     1
 71
     2
176
     1
 72
     2
176
     1
 73
     0
176
     1
 90
        0
176
     1
 40
0.6
176
     1
 41
30.0
176
     1
 63
     7
421
 16777215
176
     1
 74
     1
176
     1
 91
        4
176
     1
 64
     7
176
     1
 65
   257
176
     1
 75
     1
176
     1
175
     1
176
     1
 42
1.0
176
     1
 92
        8
176
     1
 66
     7
176
     1
 43
1.0
176
     1
 76
     1
176
     1
 77
     6
176
     1
 78
     2
176
     1
 67
     7
176
     1
 79
     5
176
     1
170
     0
176
     1
171
     0
176
     1
290
     0
176
     1
 93
        1
176
     1
 44
0.0
176
     1
173
     0
176
     1
  0
VISUALSTYLE
  5
16C1
102
{ACAD_REACTORS
330
16C0
102
}
330
16C0
100
AcDbVisualStyle
  2
Flat
 70
     0
177
     2
291
     1
 71
     2
176
     1
 72
     1
176
     1
 73
     1
176
     1
 90
        2
176
     1
 40
0.6
176
     1
 41
30.0
176
     1
 63
     7
421
 16777215
176
     1
 74
     0
176
     1
 91
        0
176
     1
 64
     7
176
     1
 65
   257
176
     1
 75
     1
176
     1
175
     1
176
     1
 42
1.0
176
     1
 92
        8
176
     1
 66
     7
176
     1
 43
1.0
176
     1
 76
     1
176
     1
 77
     6
176
     1
 78
     2
176
     1
 67
     7
176
     1
 79
     5
176
     1
170
     0
176
     1
171
     0
176
     1
290
     0
176
     1
 93
       13
176
     1
 44
0.0
176
     1
173
     0
176
     1
  0
VISUALSTYLE
  5
16C2
102
{ACAD_REACTORS
330
16C0
102
}
330
16C0
100
AcDbVisualStyle
  2
FlatWithEdges
 70
     1
177
     2
291
     1
 71
     2
176
     1
 72
     1
176
     1
 73
     1
176
     1
 90
        2
176
     1
 40
0.6
176
     1
 41
30.0
176
     1
 63
     7
421
 16777215
176
     1
 74
     1
176
     1
 91
        0
176
     1
 64
     7
176
     1
 65
   257
176
     1
 75
     1
176
     1
175
     1
176
     1
 42
1.0
176
     1
 92
        0
176
     1
 66
   257
176
     1
 43
1.0
176
     1
 76
     1
176
     1
 77
     6
176
     1
 78
     2
176
     1
 67
     7
176
     1
 79
     5
176
     1
170
     0
176
     1
171
     0
176
     1
290
     0
176
     1
 93
       13
176
     1
 44
0.0
176
     1
173
     0
176
     1
  0
VISUALSTYLE
  5
16C3
102
{ACAD_REACTORS
330
16C0
102
}
330
16C0
100
AcDbVisualStyle
  2
Gouraud
 70
     2
177
     2
291
     1
 71
     2
176
     1
 72
     2
176
     1
 73
     1
176
     1
 90
        2
176
     1
 40
0.6
176
     1
 41
30.0
176
     1
 63
     7
421
 16777215
176
     1
 74
     0
176
     1
 91
        0
176
     1
 64
     7
176
     1
 65
   257
176
     1
 75
     1
176
     1
175
     1
176
     1
 42
1.0
176
     1
 92
        0
176
     1
 66
     7
176
     1
 43
1.0
176
     1
 76
     1
176
     1
 77
     6
176
     1
 78
     2
176
     1
 67
     7
176
     1
 79
     5
176
     1
170
     0
176
     1
171
     0
176
     1
290
     0
176
     1
 93
       13
176
     1
 44
0.0
176
     1
173
     0
176
     1
  0
VISUALSTYLE
  5
16C4
102
{ACAD_REACTORS
330
16C0
102
}
330
16C0
100
AcDbVisualStyle
  2
GouraudWithEdges
 70
     3
177
     2
291
     1
 71
     2
176
     1
 72
     2
176
     1
 73
     1
176
     1
 90
        2
176
     1
 40
0.6
176
     1
 41
30.0
176
     1
 63
     7
421
 16777215
176
     1
 74
     1
176
     1
 91
        0
176
     1
 64
     7
176
     1
 65
   257
176
     1
 75
     1
176
     1
175
     1
176
     1
 42
1.0
176
     1
 92
        0
176
     1
 66
   257
176
     1
 43
1.0
176
     1
 76
     1
176
     1
 77
     6
176
     1
 78
     2
176
     1
 67
     7
176
     1
 79
     5
176
     1
170
     0
176
     1
171
     0
176
     1
290
     0
176
     1
 93
       13
176
     1
 44
0.0
176
     1
173
     0
176
     1
  0
VISUALSTYLE
  5
16C8
102
{ACAD_REACTORS
330
16C0
102
}
330
16C0
100
AcDbVisualStyle
  2
Hidden
 70
     6
177
     2
291
     0
 71
     1
176
     1
 72
     2
176
     1
 73
     2
176
     1
 90
        0
176
     1
 40
0.6
176
     1
 41
30.0
176
     1
 63
     7
421
 16777215
176
     1
 74
     2
176
     1
 91
        2
176
     1
 64
     7
176
     1
 65
   257
176
     1
 75
     2
176
     1
175
     1
176
     1
 42
40.0
176
     1
 92
        0
176
     1
 66
   257
176
     1
 43
1.0
176
     1
 76
     1
176
     1
 77
     6
176
     1
 78
     2
176
     1
 67
     7
176
     1
 79
     3
176
     1
170
     0
176
     1
171
     0
176
     1
290
     0
176
     1
 93
        1
176
     1
 44
0.0
176
     1
173
     0
176
     1
  0
VISUALSTYLE
  5
16D6
102
{ACAD_REACTORS
330
16C0
102
}
330
16C0
100
AcDbVisualStyle
  2
JitterOff
 70
    20
177
     2
291
     1
 71
     2
176
     0
 72
     2
176
     0
 73
     0
176
     0
 90
        0
176
     0
 40
0.6
176
     0
 41
30.0
176
     0
 63
     7
421
 16777215
176
     0
 74
     1
176
     0
 91
        4
176
     0
 64
     7
176
     0
 65
   257
176
     0
 75
     1
176
     0
175
     1
176
     0
 42
1.0
176
     0
 92
       10
176
     2
 66
     7
176
     0
 43
1.0
176
     0
 76
     1
176
     0
 77
     6
176
     0
 78
     2
176
     0
 67
     7
176
     0
 79
     5
176
     0
170
     0
176
     0
171
     0
176
     0
290
     0
176
     0
 93
        1
176
     0
 44
0.0
176
     0
173
     0
176
     0
  0
VISUALSTYLE
  5
16CE
102
{ACAD_REACTORS
330
16C0
102
}
330
16C0
100
AcDbVisualStyle
  2
Linepattern
 70
    14
177
     2
291
     1
 71
     2
176
     1
 72
     2
176
     1
 73
     0
176
     1
 90
        0
176
     1
 40
0.6
176
     1
 41
30.0
176
     1
 63
     7
421
 16777215
176
     1
 74
     1
176
     1
 91
        4
176
     1
 64
     7
176
     1
 65
   257
176
     1
 75
     7
176
     1
175
     7
176
     1
 42
1.0
176
     1
 92
        8
176
     1
 66
     7
176
     1
 43
1.0
176
     1
 76
     1
176
     1
 77
     6
176
     1
 78
     2
176
     1
 67
     7
176
     1
 79
     5
176
     1
170
     0
176
     1
171
     0
176
     1
290
     0
176
     1
 93
        1
176
     1
 44
0.0
176
     1
173
     0
176
     1
  0
VISUALSTYLE
  5
16D7
102
{ACAD_REACTORS
330
16C0
102
}
330
16C0
100
AcDbVisualStyle
  2
OverhangOff
 70
    21
177
     2
291
     1
 71
     2
176
     0
 72
     2
176
     0
 73
     0
176
     0
 90
        0
176
     0
 40
0.6
176
     0
 41
30.0
176
     0
 63
     7
421
 16777215
176
     0
 74
     1
176
     0
 91
        4
176
     0
 64
     7
176
     0
 65
   257
176
     0
 75
     1
176
     0
175
     1
176
     0
 42
1.0
176
     0
 92
        9
176
     2
 66
     7
176
     0
 43
1.0
176
     0
 76
     1
176
     0
 77
     6
176
     0
 78
     2
176
     0
 67
     7
176
     0
 79
     5
176
     0
170
     0
176
     0
171
     0
176
     0
290
     0
176
     0
 93
        1
176
     0
 44
0.0
176
     0
173
     0
176
     0
  0
VISUALSTYLE
  5
16CA
102
{ACAD_REACTORS
330
16C0
102
}
330
16C0
100
AcDbVisualStyle
  2
Realistic
 70
     8
177
     2
291
     0
 71
     2
176
     1
 72
     3
176
     1
 73
     0
176
     1
 90
        2
176
     1
 40
0.6
176
     1
 41
30.0
176
     1
 63
     7
421
 16777215
176
     1
 74
     0
176
     1
 91
        0
176
     1
 64
     7
176
     1
 65
   257
176
     1
 75
     1
176
     1
175
     1
176
     1
 42
1.0
176
     1
 92
        8
176
     1
 66
   257
176
     1
 43
1.0
176
     1
 76
     1
176
     1
 77
     6
176
     1
 78
     2
176
     1
 67
     7
176
     1
 79
     3
176
     1
170
     0
176
     1
171
     0
176
     1
290
     0
176
     1
 93
       13
176
     1
 44
0.0
176
     1
173
     0
176
     1
  0
VISUALSTYLE
  5
16D5
102
{ACAD_REACTORS
330
16C0
102
}
330
16C0
100
AcDbVisualStyle
  2
Shaded
 70
    27
177
     2
291
     0
 71
     2
176
     1
 72
     2
176
     1
 73
     1
176
     1
 90
        2
176
     1
 40
0.6
176
     1
 41
30.0
176
     1
 63
     7
421
 16777215
176
     1
 74
     0
176
     1
 91
        4
176
     1
 64
     7
176
     1
 65
   257
176
     1
 75
     1
176
     1
175
     1
176
     1
 42
1.0
176
     1
 92
        8
176
     1
 66
   257
176
     1
 43
1.0
176
     1
 76
     1
176
     1
 77
     6
176
     1
 78
     2
176
     1
 67
     8
425
  7895160
176
     1
 79
     3
176
     1
170
     0
176
     1
171
     0
176
     1
290
     0
176
     1
 93
        5
176
     1
 44
0.0
176
     1
173
     0
176
     1
  0
VISUALSTYLE
  5
16D4
102
{ACAD_REACTORS
330
16C0
102
}
330
16C0
100
AcDbVisualStyle
  2
Shaded with edges
 70
    26
177
     2
291
     0
 71
     2
176
     1
 72
     2
176
     1
 73
     1
176
     1
 90
        2
176
     1
 40
0.6
176
     1
 41
30.0
176
     1
 63
     7
421
 16777215
176
     1
 74
     1
176
     1
 91
       10
176
     1
 64
     7
176
     1
 65
   257
176
     1
 75
     2
176
     1
175
     1
176
     1
 42
1.0
176
     1
 92
        8
176
     1
 66
   257
176
     1
 43
1.0
176
     1
 76
     1
176
     1
 77
     6
176
     1
 78
     2
176
     1
 67
     7
176
     1
 79
     3
176
     1
170
     0
176
     1
171
     0
176
     1
290
     0
176
     1
 93
        5
176
     1
 44
0.0
176
     1
173
     0
176
     1
  0
VISUALSTYLE
  5
16D1
102
{ACAD_REACTORS
330
16C0
102
}
330
16C0
100
AcDbVisualStyle
  2
Shades of Gray
 70
    23
177
     2
291
     0
 71
     2
176
     1
 72
     2
176
     1
 73
     3
176
     1
 90
        0
176
     1
 40
0.6
176
     1
 41
30.0
176
     1
 63
     7
421
 16777215
176
     1
 74
     2
176
     1
 91
        2
176
     1
 64
     7
176
     1
 65
     7
176
     1
 75
     1
176
     1
175
     1
176
     1
 42
40.0
176
     1
 92
        8
176
     1
 66
     7
176
     1
 43
1.0
176
     1
 76
     1
176
     1
 77
     6
176
     1
 78
     2
176
     1
 67
     7
176
     1
 79
     3
176
     1
170
     0
176
     1
171
     0
176
     1
290
     0
176
     1
 93
        1
176
     1
 44
0.0
176
     1
173
     0
176
     1
  0
VISUALSTYLE
  5
16D2
102
{ACAD_REACTORS
330
16C0
102
}
330
16C0
100
AcDbVisualStyle
  2
Sketchy
 70
    24
177
     2
291
     0
 71
     1
176
     1
 72
     2
176
     1
 73
     2
176
     1
 90
        0
176
     1
 40
0.6
176
     1
 41
30.0
176
     1
 63
     7
421
 16777215
176
     1
 74
     2
176
     1
 91
        2
176
     1
 64
     7
176
     1
 65
     7
176
     1
 75
     1
176
     1
175
     1
176
     1
 42
40.0
176
     1
 92
       11
176
     1
 66
     7
176
     1
 43
1.0
176
     1
 76
     1
176
     1
 77
     6
176
     1
 78
     2
176
     1
 67
     7
176
     1
 79
     6
176
     1
170
     0
176
     1
171
     0
176
     1
290
     0
176
     1
 93
        1
176
     1
 44
0.0
176
     1
173
     0
176
     1
  0
VISUALSTYLE
  5
16CD
102
{ACAD_REACTORS
330
16C0
102
}
330
16C0
100
AcDbVisualStyle
  2
Thicken
 70
    13
177
     2
291
     1
 71
     2
176
     1
 72
     2
176
     1
 73
     0
176
     1
 90
        0
176
     1
 40
0.6
176
     1
 41
30.0
176
     1
 63
     7
421
 16777215
176
     1
 74
     1
176
     1
 91
        4
176
     1
 64
     7
176
     1
 65
   257
176
     1
 75
     1
176
     1
175
     1
176
     1
 42
1.0
176
     1
 92
       12
176
     1
 66
     7
176
     1
 43
1.0
176
     1
 76
     1
176
     1
 77
     6
176
     1
 78
     2
176
     1
 67
     7
176
     1
 79
     5
176
     1
170
     0
176
     1
171
     0
176
     1
290
     0
176
     1
 93
        1
176
     1
 44
0.0
176
     1
173
     0
176
     1
  0
VISUALSTYLE
  5
16C7
102
{ACAD_REACTORS
330
16C0
102
}
330
16C0
100
AcDbVisualStyle
  2
Wireframe
 70
     5
177
     2
291
     0
 71
     0
176
     1
 72
     2
176
     1
 73
     0
176
     1
 90
        0
176
     1
 40
0.6
176
     1
 41
30.0
176
     1
 63
     7
421
 16777215
176
     1
 74
     1
176
     1
 91
        4
176
     1
 64
     7
176
     1
 65
   257
176
     1
 75
     1
176
     1
175
     1
176
     1
 42
1.0
176
     1
 92
        0
176
     1
 66
   257
176
     1
 43
1.0
176
     1
 76
     1
176
     1
 77
     6
176
     1
 78
     2
176
     1
 67
     7
176
     1
 79
     3
176
     1
170
     0
176
     1
171
     0
176
     1
290
     0
176
     1
 93
        1
176
     1
 44
0.0
176
     1
173
     0
176
     1
  0
VISUALSTYLE
  5
16D3
102
{ACAD_REACTORS
330
16C0
102
}
330
16C0
100
AcDbVisualStyle
  2
X-Ray
 70
    25
177
     2
291
     0
 71
     2
176
     1
 72
     2
176
     1
 73
     1
176
     1
 90
        1
176
     1
 40
0.5
176
     1
 41
30.0
176
     1
 63
     7
421
 16777215
176
     1
 74
     1
176
     1
 91
        0
176
     1
 64
     7
176
     1
 65
   257
176
     1
 75
     1
176
     1
175
     1
176
     1
 42
1.0
176
     1
 92
        8
176
     1
 66
     7
176
     1
 43
1.0
176
     1
 76
     1
176
     1
 77
     6
176
     1
 78
     2
176
     1
 67
     7
176
     1
 79
     3
176
     1
170
     0
176
     1
171
     0
176
     1
290
     0
176
     1
 93
       13
176
     1
 44
0.0
176
     1
173
     0
176
     1
  0
DICTIONARYVAR
  5
1764
102
{ACAD_REACTORS
330
1505
102
}
330
1505
100
DictionaryVariables
280
     0
  1
1:1
  0
DICTIONARYVAR
  5
1762
102
{ACAD_REACTORS
330
1505
102
}
330
1505
100
DictionaryVariables
280
     0
  1
STANDARD
  0
DICTIONARYVAR
  5
1761
102
{ACAD_REACTORS
330
1505
102
}
330
1505
100
DictionaryVariables
280
     0
  1
STANDARD
  0
DICTIONARYVAR
  5
1506
102
{ACAD_REACTORS
330
1505
102
}
330
1505
100
DictionaryVariables
280
     0
  1
1
  0
DICTIONARYVAR
  5
1766
102
{ACAD_REACTORS
330
1505
102
}
330
1505
100
DictionaryVariables
280
     0
  1
1
  0
DICTIONARYVAR
  5
1767
102
{ACAD_REACTORS
330
1505
102
}
330
1505
100
DictionaryVariables
280
     0
  1
15
  0
DICTIONARYVAR
  5
1765
102
{ACAD_REACTORS
330
1505
102
}
330
1505
100
DictionaryVariables
280
     0
  1
0
  0
DICTIONARYVAR
  5
1763
102
{ACAD_REACTORS
330
1505
102
}
330
1505
100
DictionaryVariables
280
     0
  1
0
  0
DICTIONARYVAR
  5
1507
102
{ACAD_REACTORS
330
1505
102
}
330
1505
100
DictionaryVariables
280
     0
  1

  0
XRECORD
  5
1357
102
{ACAD_REACTORS
330
62F
102
}
330
62F
100
AcDbXrecord
280
     1
1000
ADE02C001
1070
     1
1070
     0
1002
{
1002
}
1002
{
1002
}
1002
{
1002
}
1000

  0
XRECORD
  5
62E
102
{ACAD_REACTORS
330
62D
102
}
330
62D
100
AcDbXrecord
280
     1
330
0
330
0
330
0
330
0
330
0
330
0
330
0
330
0
330
0
330
0
330
0
330
0
330
0
330
0
330
0
330
0
330
0
330
0
330
0
330
0
330
0
330
0
330
0
330
0
  0
DICTIONARY
  5
16B1
330
16B0
100
AcDbDictionary
280
     1
281
     1
  3
BUMPTILE
360
16B3
  3
DIFFUSETILE
360
16B2
  3
OPACITYTILE
360
16B6
  3
REFLECTIONTILE
360
16B5
  3
REFRACTIONTILE
360
16B7
  3
SPECULARTILE
360
16B4
  0
DICTIONARY
  5
16A9
330
16A8
100
AcDbDictionary
280
     1
281
     1
  3
BUMPTILE
360
16AB
  3
DIFFUSETILE
360
16AA
  3
OPACITYTILE
360
16AE
  3
REFLECTIONTILE
360
16AD
  3
REFRACTIONTILE
360
16AF
  3
SPECULARTILE
360
16AC
  0
DICTIONARY
  5
16B9
330
16B8
100
AcDbDictionary
280
     1
281
     1
  3
BUMPTILE
360
16BB
  3
DIFFUSETILE
360
16BA
  3
OPACITYTILE
360
16BE
  3
REFLECTIONTILE
360
16BD
  3
REFRACTIONTILE
360
16BF
  3
SPECULARTILE
360
16BC
  0
DICTIONARY
  5
176A
330
16EE
100
AcDbDictionary
280
     1
281
     1
  3
ACAD_XREC_ROUNDTRIP
360
176B
  0
DICTIONARY
  5
1768
330
16DA
100
AcDbDictionary
280
     1
281
     1
  3
ACAD_ROUNDTRIP_2008_TABLESTYLE_CELLSTYLEMAP
360
1769
  0
XRECORD
  5
16B3
102
{ACAD_REACTORS
330
16B1
102
}
330
16B1
100
AcDbXrecord
280
     1
270
     1
271
     1
  0
XRECORD
  5
16B2
102
{ACAD_REACTORS
330
16B1
102
}
330
16B1
100
AcDbXrecord
280
     1
270
     1
271
     1
  0
XRECORD
  5
16B6
102
{ACAD_REACTORS
330
16B1
102
}
330
16B1
100
AcDbXrecord
280
     1
270
     1
271
     1
  0
XRECORD
  5
16B5
102
{ACAD_REACTORS
330
16B1
102
}
330
16B1
100
AcDbXrecord
280
     1
270
     1
271
     1
  0
XRECORD
  5
16B7
102
{ACAD_REACTORS
330
16B1
102
}
330
16B1
100
AcDbXrecord
280
     1
270
     1
271
     1
  0
XRECORD
  5
16B4
102
{ACAD_REACTORS
330
16B1
102
}
330
16B1
100
AcDbXrecord
280
     1
270
     1
271
     1
  0
XRECORD
  5
16AB
102
{ACAD_REACTORS
330
16A9
102
}
330
16A9
100
AcDbXrecord
280
     1
270
     1
271
     1
  0
XRECORD
  5
16AA
102
{ACAD_REACTORS
330
16A9
102
}
330
16A9
100
AcDbXrecord
280
     1
270
     1
271
     1
  0
XRECORD
  5
16AE
102
{ACAD_REACTORS
330
16A9
102
}
330
16A9
100
AcDbXrecord
280
     1
270
     1
271
     1
  0
XRECORD
  5
16AD
102
{ACAD_REACTORS
330
16A9
102
}
330
16A9
100
AcDbXrecord
280
     1
270
     1
271
     1
  0
XRECORD
  5
16AF
102
{ACAD_REACTORS
330
16A9
102
}
330
16A9
100
AcDbXrecord
280
     1
270
     1
271
     1
  0
XRECORD
  5
16AC
102
{ACAD_REACTORS
330
16A9
102
}
330
16A9
100
AcDbXrecord
280
     1
270
     1
271
     1
  0
XRECORD
  5
16BB
102
{ACAD_REACTORS
330
16B9
102
}
330
16B9
100
AcDbXrecord
280
     1
270
     1
271
     1
  0
XRECORD
  5
16BA
102
{ACAD_REACTORS
330
16B9
102
}
330
16B9
100
AcDbXrecord
280
     1
270
     1
271
     1
  0
XRECORD
  5
16BE
102
{ACAD_REACTORS
330
16B9
102
}
330
16B9
100
AcDbXrecord
280
     1
270
     1
271
     1
  0
XRECORD
  5
16BD
102
{ACAD_REACTORS
330
16B9
102
}
330
16B9
100
AcDbXrecord
280
     1
270
     1
271
     1
  0
XRECORD
  5
16BF
102
{ACAD_REACTORS
330
16B9
102
}
330
16B9
100
AcDbXrecord
280
     1
270
     1
271
     1
  0
XRECORD
  5
16BC
102
{ACAD_REACTORS
330
16B9
102
}
330
16B9
100
AcDbXrecord
280
     1
270
     1
271
     1
  0
XRECORD
  5
176B
102
{ACAD_REACTORS
330
176A
102
}
330
176A
100
AcDbXrecord
280
     1
102
ACAD_ROUNDTRIP_2012_MLEADER_STYLE
298
     1
  0
CELLSTYLEMAP
  5
1769
102
{ACAD_REACTORS
330
1768
102
}
330
1768
100
AcDbCellStyleMap
 90
        3
300
CELLSTYLE
  1
TABLEFORMAT_BEGIN
 90
        5
170
     1
 91
        0
 92
    32768
 62
   257
 93
        1
300
CONTENTFORMAT
  1
CONTENTFORMAT_BEGIN
 90
        0
 91
        0
 92
      512
 93
        0
300

 40
0.0
140
1.0
 94
        5
 62
     0
340
11
144
0.25
309
CONTENTFORMAT_END
171
     0
 94
        0
309
TABLEFORMAT_END
  1
CELLSTYLE_BEGIN
 90
        1
 91
        1
300
_TITLE
309
CELLSTYLE_END
300
CELLSTYLE
  1
TABLEFORMAT_BEGIN
 90
        5
170
     1
 91
        0
 92
        0
 62
   257
 93
        1
300
CONTENTFORMAT
  1
CONTENTFORMAT_BEGIN
 90
        0
 91
        0
 92
      512
 93
        0
300

 40
0.0
140
1.0
 94
        5
 62
     0
340
11
144
0.18
309
CONTENTFORMAT_END
171
     0
 94
        0
309
TABLEFORMAT_END
  1
CELLSTYLE_BEGIN
 90
        2
 91
        1
300
_HEADER
309
CELLSTYLE_END
300
CELLSTYLE
  1
TABLEFORMAT_BEGIN
 90
        5
170
     1
 91
        0
 92
        0
 62
   257
 93
        1
300
CONTENTFORMAT
  1
CONTENTFORMAT_BEGIN
 90
        0
 91
        0
 92
      512
 93
        0
300

 40
0.0
140
1.0
 94
        2
 62
     0
340
11
144
0.18
309
CONTENTFORMAT_END
171
     0
 94
        0
309
TABLEFORMAT_END
  1
CELLSTYLE_BEGIN
 90
        3
 91
        2
300
_DATA
309
CELLSTYLE_END
  0
ENDSEC
  0
EOF
