  0
SECTION
  2
HEADER
  9
$ACADVER
  1
AC1024
  9
$ACADMAINTVER
 70
   226
  9
$DWGCODEPAGE
  3
ANSI_1252
  9
$LASTSAVEDBY
  1
Isabelle
  9
$INSBASE
 10
0.0
 20
0.0
 30
0.0
  9
$EXTMIN
 10
-0.2674160541438637
 20
155.4916388648394
 30
0.0
  9
$EXTMAX
 10
25.93092179065154
 20
208.905961569816
 30
0.0
  9
$LIMMIN
 10
0.0
 20
0.0
  9
$LIMMAX
 10
420.0
 20
297.0
  9
$ORTHOMODE
 70
     0
  9
$REGENMODE
 70
     1
  9
$FILLMODE
 70
     1
  9
$QTEXTMODE
 70
     0
  9
$MIRRTEXT
 70
     1
  9
$LTSCALE
 40
0.04
  9
$ATTMODE
 70
     1
  9
$TEXTSIZE
 40
0.5
  9
$TRACEWID
 40
1.0
  9
$TEXTSTYLE
  7
STYLE1
  9
$CLAYER
  8
0
  9
$CELTYPE
  6
BYLAYER
  9
$CECOLOR
 62
   256
  9
$CELTSCALE
 40
1.0
  9
$DISPSILH
 70
     0
  9
$DIMSCALE
 40
1.0
  9
$DIMASZ
 40
0.18
  9
$DIMEXO
 40
0.0625
  9
$DIMDLI
 40
0.38
  9
$DIMRND
 40
0.0
  9
$DIMDLE
 40
0.375
  9
$DIMEXE
 40
0.18
  9
$DIMTP
 40
0.0
  9
$DIMTM
 40
0.0
  9
$DIMTXT
 40
0.75
  9
$DIMCEN
 40
0.09
  9
$DIMTSZ
 40
0.0
  9
$DIMTOL
 70
     0
  9
$DIMLIM
 70
     0
  9
$DIMTIH
 70
     0
  9
$DIMTOH
 70
     0
  9
$DIMSE1
 70
     0
  9
$DIMSE2
 70
     0
  9
$DIMTAD
 70
     1
  9
$DIMZIN
 70
     0
  9
$DIMBLK
  1
ArchTick
  9
$DIMASO
 70
     1
  9
$DIMSHO
 70
     1
  9
$DIMPOST
  1
"
  9
$DIMAPOST
  1

  9
$DIMALT
 70
     0
  9
$DIMALTD
 70
     2
  9
$DIMALTF
 40
25.4
  9
$DIMLFAC
 40
1.0
  9
$DIMTOFL
 70
     0
  9
$DIMTVP
 40
0.0
  9
$DIMTIX
 70
     0
  9
$DIMSOXD
 70
     0
  9
$DIMSAH
 70
     0
  9
$DIMBLK1
  1

  9
$DIMBLK2
  1

  9
$DIMSTYLE
  2
STANDARD
  9
$DIMCLRD
 70
     3
  9
$DIMCLRE
 70
     3
  9
$DIMCLRT
 70
     0
  9
$DIMTFAC
 40
1.0
  9
$DIMGAP
 40
0.09
  9
$DIMJUST
 70
     0
  9
$DIMSD1
 70
     0
  9
$DIMSD2
 70
     0
  9
$DIMTOLJ
 70
     1
  9
$DIMTZIN
 70
     0
  9
$DIMALTZ
 70
     0
  9
$DIMALTTZ
 70
     0
  9
$DIMUPT
 70
     0
  9
$DIMDEC
 70
     4
  9
$DIMTDEC
 70
     4
  9
$DIMALTU
 70
     2
  9
$DIMALTTD
 70
     2
  9
$DIMTXSTY
  7
STANDARD
  9
$DIMAUNIT
 70
     0
  9
$DIMADEC
 70
     0
  9
$DIMALTRND
 40
0.0
  9
$DIMAZIN
 70
     0
  9
$DIMDSEP
 70
    46
  9
$DIMATFIT
 70
     3
  9
$DIMFRAC
 70
     0
  9
$DIMLDRBLK
  1

  9
$DIMLUNIT
 70
     5
  9
$DIMLWD
 70
    -2
  9
$DIMLWE
 70
    -2
  9
$DIMTMOVE
 70
     0
  9
$DIMFXL
 40
1.0
  9
$DIMFXLON
 70
     0
  9
$DIMJOGANG
 40
0.7853981633974483
  9
$DIMTFILL
 70
     0
  9
$DIMTFILLCLR
 70
     0
  9
$DIMARCSYM
 70
     0
  9
$DIMLTYPE
  6

  9
$DIMLTEX1
  6

  9
$DIMLTEX2
  6

  9
$DIMTXTDIRECTION
 70
     0
  9
$LUNITS
 70
     4
  9
$LUPREC
 70
     4
  9
$SKETCHINC
 40
1.0
  9
$FILLETRAD
 40
0.375
  9
$AUNITS
 70
     0
  9
$AUPREC
 70
     0
  9
$MENU
  1
.
  9
$ELEVATION
 40
0.0
  9
$PELEVATION
 40
0.0
  9
$THICKNESS
 40
0.0
  9
$LIMCHECK
 70
     0
  9
$CHAMFERA
 40
10.0
  9
$CHAMFERB
 40
10.0
  9
$CHAMFERC
 40
20.0
  9
$CHAMFERD
 40
0.0
  9
$SKPOLY
 70
     0
  9
$TDCREATE
 40
2453810.534074074
  9
$TDUCREATE
 40
2453810.700743067
  9
$TDUPDATE
 40
2459150.431284723
  9
$TDUUPDATE
 40
2459150.597951389
  9
$TDINDWG
 40
0.0414983796
  9
$TDUSRTIMER
 40
0.0414878935
  9
$USRTIMER
 70
     1
  9
$ANGBASE
 50
0.0
  9
$ANGDIR
 70
     0
  9
$PDMODE
 70
     3
  9
$PDSIZE
 40
0.25
  9
$PLINEWID
 40
0.0
  9
$SPLFRAME
 70
     0
  9
$SPLINETYPE
 70
     6
  9
$SPLINESEGS
 70
     8
  9
$HANDSEED
  5
6C1E
  9
$SURFTAB1
 70
     6
  9
$SURFTAB2
 70
     6
  9
$SURFTYPE
 70
     6
  9
$SURFU
 70
     6
  9
$SURFV
 70
     6
  9
$UCSBASE
  2

  9
$UCSNAME
  2

  9
$UCSORG
 10
0.0
 20
0.0
 30
0.0
  9
$UCSXDIR
 10
1.0
 20
0.0
 30
0.0
  9
$UCSYDIR
 10
0.0
 20
1.0
 30
0.0
  9
$UCSORTHOREF
  2

  9
$UCSORTHOVIEW
 70
     0
  9
$UCSORGTOP
 10
0.0
 20
0.0
 30
0.0
  9
$UCSORGBOTTOM
 10
0.0
 20
0.0
 30
0.0
  9
$UCSORGLEFT
 10
0.0
 20
0.0
 30
0.0
  9
$UCSORGRIGHT
 10
0.0
 20
0.0
 30
0.0
  9
$UCSORGFRONT
 10
0.0
 20
0.0
 30
0.0
  9
$UCSORGBACK
 10
0.0
 20
0.0
 30
0.0
  9
$PUCSBASE
  2

  9
$PUCSNAME
  2

  9
$PUCSORG
 10
0.0
 20
0.0
 30
0.0
  9
$PUCSXDIR
 10
1.0
 20
0.0
 30
0.0
  9
$PUCSYDIR
 10
0.0
 20
1.0
 30
0.0
  9
$PUCSORTHOREF
  2

  9
$PUCSORTHOVIEW
 70
     0
  9
$PUCSORGTOP
 10
0.0
 20
0.0
 30
0.0
  9
$PUCSORGBOTTOM
 10
0.0
 20
0.0
 30
0.0
  9
$PUCSORGLEFT
 10
0.0
 20
0.0
 30
0.0
  9
$PUCSORGRIGHT
 10
0.0
 20
0.0
 30
0.0
  9
$PUCSORGFRONT
 10
0.0
 20
0.0
 30
0.0
  9
$PUCSORGBACK
 10
0.0
 20
0.0
 30
0.0
  9
$USERI1
 70
     0
  9
$USERI2
 70
     0
  9
$USERI3
 70
     0
  9
$USERI4
 70
     0
  9
$USERI5
 70
     0
  9
$USERR1
 40
0.0
  9
$USERR2
 40
0.0
  9
$USERR3
 40
0.0
  9
$USERR4
 40
0.0
  9
$USERR5
 40
0.0
  9
$WORLDVIEW
 70
     1
  9
$SHADEDGE
 70
     3
  9
$SHADEDIF
 70
    70
  9
$TILEMODE
 70
     1
  9
$MAXACTVP
 70
    48
  9
$PINSBASE
 10
0.0
 20
0.0
 30
0.0
  9
$PLIMCHECK
 70
     0
  9
$PEXTMIN
 10
0.1428687513023306
 20
0.4836973851117819
 30
0.0
  9
$PEXTMAX
 10
201.4696261993931
 20
269.2156916460771
 30
0.0
  9
$PLIMMIN
 10
-5.436634563282423
 20
-2.641093128505561
  9
$PLIMMAX
 10
207.0491325644048
 20
272.3404701926348
  9
$UNITMODE
 70
     0
  9
$VISRETAIN
 70
     1
  9
$PLINEGEN
 70
     0
  9
$PSLTSCALE
 70
     1
  9
$TREEDEPTH
 70
  3020
  9
$CMLSTYLE
  2
STANDARD
  9
$CMLJUST
 70
     0
  9
$CMLSCALE
 40
20.0
  9
$PROXYGRAPHICS
 70
     1
  9
$MEASUREMENT
 70
     1
  9
$CELWEIGHT
370
    -1
  9
$ENDCAPS
280
     0
  9
$JOINSTYLE
280
     0
  9
$LWDISPLAY
290
     0
  9
$INSUNITS
 70
     0
  9
$HYPERLINKBASE
  1

  9
$STYLESHEET
  1

  9
$XEDIT
290
     1
  9
$CEPSNTYPE
380
     0
  9
$PSTYLEMODE
290
     1
  9
$FINGERPRINTGUID
  2
{D9A0EA57-ACFE-4C24-92E0-F27F11621814}
  9
$VERSIONGUID
  2
{14B8F586-8555-E442-A933-67BAD7C5FEE0}
  9
$EXTNAMES
290
     1
  9
$PSVPSCALE
 40
0.0
  9
$OLESTARTUP
290
     0
  9
$SORTENTS
280
    96
  9
$INDEXCTL
280
     0
  9
$HIDETEXT
280
     0
  9
$XCLIPFRAME
280
     2
  9
$HALOGAP
280
     0
  9
$OBSCOLOR
 70
   257
  9
$OBSLTYPE
280
     0
  9
$INTERSECTIONDISPLAY
280
     0
  9
$INTERSECTIONCOLOR
 70
   257
  9
$DIMASSOC
280
     1
  9
$PROJECTNAME
  1

  9
$CAMERADISPLAY
290
     0
  9
$LENSLENGTH
 40
50.0
  9
$CAMERAHEIGHT
 40
0.0
  9
$STEPSPERSEC
 40
2.0
  9
$STEPSIZE
 40
6.0
  9
$3DDWFPREC
 40
2.0
  9
$PSOLWIDTH
 40
0.25
  9
$PSOLHEIGHT
 40
4.0
  9
$LOFTANG1
 40
1.570796326794896
  9
$LOFTANG2
 40
1.570796326794896
  9
$LOFTMAG1
 40
0.0
  9
$LOFTMAG2
 40
0.0
  9
$LOFTPARAM
 70
     7
  9
$LOFTNORMALS
280
     1
  9
$LATITUDE
 40
37.795
  9
$LONGITUDE
 40
-122.394
  9
$NORTHDIRECTION
 40
0.0
  9
$TIMEZONE
 70
 -8000
  9
$LIGHTGLYPHDISPLAY
280
     1
  9
$TILEMODELIGHTSYNCH
280
     1
  9
$CMATERIAL
347
63C9
  9
$SOLIDHIST
280
     0
  9
$SHOWHIST
280
     1
  9
$DWFFRAME
280
     2
  9
$DGNFRAME
280
     0
  9
$REALWORLDSCALE
290
     1
  9
$INTERFERECOLOR
 62
     1
  9
$INTERFEREOBJVS
345
63EB
  9
$INTERFEREVPVS
346
63E8
  9
$CSHADOW
280
     0
  9
$SHADOWPLANELOCATION
 40
0.0
  0
ENDSEC
  0
SECTION
  2
CLASSES
  0
CLASS
  1
RASTERVARIABLES
  2
AcDbRasterVariables
  3
ISM
 90
        0
 91
        1
280
     0
281
     0
  0
CLASS
  1
IMAGEDEF
  2
AcDbRasterImageDef
  3
ISM
 90
        0
 91
        0
280
     0
281
     0
  0
CLASS
  1
IMAGEDEF_REACTOR
  2
AcDbRasterImageDefReactor
  3
ISM
 90
        1
 91
        0
280
     0
281
     0
  0
CLASS
  1
IMAGE
  2
AcDbRasterImage
  3
ISM
 90
     2175
 91
        0
280
     0
281
     1
  0
CLASS
  1
DICTIONARYVAR
  2
AcDbDictionaryVar
  3
ObjectDBX Classes
 90
        0
 91
       12
280
     0
281
     0
  0
CLASS
  1
ACDBDICTIONARYWDFLT
  2
AcDbDictionaryWithDefault
  3
ObjectDBX Classes
 90
        0
 91
        1
280
     0
281
     0
  0
CLASS
  1
MATERIAL
  2
AcDbMaterial
  3
ObjectDBX Classes
 90
     1153
 91
        3
280
     0
281
     0
  0
CLASS
  1
VISUALSTYLE
  2
AcDbVisualStyle
  3
ObjectDBX Classes
 90
     4095
 91
       24
280
     0
281
     0
  0
CLASS
  1
TABLESTYLE
  2
AcDbTableStyle
  3
ObjectDBX Classes
 90
     4095
 91
        1
280
     0
281
     0
  0
CLASS
  1
SCALE
  2
AcDbScale
  3
ObjectDBX Classes
 90
     1153
 91
       17
280
     0
281
     0
  0
CLASS
  1
MLEADERSTYLE
  2
AcDbMLeaderStyle
  3
ACDB_MLEADERSTYLE_CLASS
 90
     4095
 91
        1
280
     0
281
     0
  0
CLASS
  1
SORTENTSTABLE
  2
AcDbSortentsTable
  3
ObjectDBX Classes
 90
        0
 91
        0
280
     0
281
     0
  0
CLASS
  1
ACDBSECTIONVIEWSTYLE
  2
AcDbSectionViewStyle
  3
ObjectDBX Classes
 90
     1025
 91
        1
280
     0
281
     0
  0
CLASS
  1
ACDBDETAILVIEWSTYLE
  2
AcDbDetailViewStyle
  3
ObjectDBX Classes
 90
     1025
 91
        1
280
     0
281
     0
  0
CLASS
  1
EXACXREFPANELOBJECT
  2
ExAcXREFPanelObject
  3
EXAC_ESW
 90
     1025
 91
        1
280
     0
281
     0
  0
CLASS
  1
NPOCOLLECTION
  2
AcDbImpNonPersistentObjectsCollection
  3
ObjectDBX Classes
 90
     1153
 91
        1
280
     0
281
     0
  0
CLASS
  1
CELLSTYLEMAP
  2
AcDbCellStyleMap
  3
ObjectDBX Classes
 90
     1152
 91
        1
280
     0
281
     0
  0
ENDSEC
  0
SECTION
  2
TABLES
  0
TABLE
  2
VPORT
  5
8
330
0
100
AcDbSymbolTable
 70
     1
  0
VPORT
  5
63BA
330
8
100
AcDbSymbolTableRecord
100
AcDbViewportTableRecord
  2
*Active
 70
     0
 10
0.0
 20
0.0
 11
1.0
 21
1.0
 12
27.74833949456314
 22
184.5421345346481
 13
0.0
 23
0.0
 14
10.0
 24
10.0
 15
10.0
 25
10.0
 16
0.0
 26
0.0
 36
1.0
 17
0.0
 27
0.0
 37
0.0
 40
67.28401281683426
 41
2.108967082860385
 42
50.0
 43
0.0
 44
0.0
 50
0.0
 51
0.0
 71
     0
 72
   100
 73
     1
 74
     1
 75
     0
 76
     0
 77
     0
 78
     0
281
     0
 65
     1
110
0.0
120
0.0
130
0.0
111
1.0
121
0.0
131
0.0
112
0.0
122
1.0
132
0.0
 79
     0
146
0.0
348
63E7
 60
     3
 61
     5
292
     1
282
     1
141
0.0
142
0.0
 63
   250
421
  3355443
1001
ACAD_NAV_VCDISPLAY
1070
     3
  0
ENDTAB
  0
TABLE
  2
LTYPE
  5
5
330
0
100
AcDbSymbolTable
 70
     2
  0
LTYPE
  5
12
330
5
100
AcDbSymbolTableRecord
100
AcDbLinetypeTableRecord
  2
BYBLOCK
 70
     0
  3

 72
    65
 73
     0
 40
0.0
  0
LTYPE
  5
13
330
5
100
AcDbSymbolTableRecord
100
AcDbLinetypeTableRecord
  2
BYLAYER
 70
     0
  3

 72
    65
 73
     0
 40
0.0
  0
LTYPE
  5
14
330
5
100
AcDbSymbolTableRecord
100
AcDbLinetypeTableRecord
  2
CONTINUOUS
 70
     0
  3
Solid line
 72
    65
 73
     0
 40
0.0
  0
LTYPE
  5
3F94
330
5
100
AcDbSymbolTableRecord
100
AcDbLinetypeTableRecord
  2
DASHED
 70
     0
  3
Dashed __ __ __ __ __ __ __ __ __ __ __ __ __ _
 72
    65
 73
     2
 40
19.05
 49
12.7
 74
     0
 49
-6.349999999999999
 74
     0
  0
ENDTAB
  0
TABLE
  2
LAYER
  5
2
102
{ACAD_XDICTIONARY
360
6561
102
}
330
0
100
AcDbSymbolTable
 70
     3
  0
LAYER
  5
E
102
{ACAD_XDICTIONARY
360
655A
102
}
330
2
100
AcDbSymbolTableRecord
100
AcDbLayerTableRecord
  2
0
 70
     0
 62
     7
  6
CONTINUOUS
370
    -3
390
3BB6
347
63D9
  0
LAYER
  5
3BC1
330
2
100
AcDbSymbolTableRecord
100
AcDbLayerTableRecord
  2
Defpoints
 70
     0
 62
     7
  6
CONTINUOUS
290
     0
370
    -3
390
3BB6
347
63D9
  0
LAYER
  5
478E
102
{ACAD_XDICTIONARY
360
655C
102
}
330
2
100
AcDbSymbolTableRecord
100
AcDbLayerTableRecord
  2
DIM
 70
     0
 62
     3
  6
CONTINUOUS
370
    -3
390
3BB6
347
63D9
  0
ENDTAB
  0
TABLE
  2
STYLE
  5
3
330
0
100
AcDbSymbolTable
 70
     3
  0
STYLE
  5
F
330
3
100
AcDbSymbolTableRecord
100
AcDbTextStyleTableRecord
  2
STANDARD
 70
     0
 40
0.75
 41
1.0
 50
0.0
 71
     0
 42
2.5
  3
stylu.ttf
  4

1001
ACAD
1000
Stylus BT
1071
       34
  0
STYLE
  5
36AA
330
3
100
AcDbSymbolTableRecord
100
AcDbTextStyleTableRecord
  2
STYLE1
 70
     0
 40
0.5
 41
1.0
 50
0.0
 71
     0
 42
0.5
  3
simplex.shx
  4

  0
STYLE
  5
3F93
330
3
100
AcDbSymbolTableRecord
100
AcDbTextStyleTableRecord
  2

 70
     1
 40
0.0
 41
1.0
 50
0.0
 71
     0
 42
0.09375
  3
ltypeshp.shx
  4

  0
ENDTAB
  0
TABLE
  2
VIEW
  5
6
330
0
100
AcDbSymbolTable
 70
     4
  0
ENDTAB
  0
TABLE
  2
UCS
  5
7
330
0
100
AcDbSymbolTable
 70
     0
  0
ENDTAB
  0
TABLE
  2
APPID
  5
9
330
0
100
AcDbSymbolTable
 70
     7
  0
APPID
  5
10
330
9
100
AcDbSymbolTableRecord
100
AcDbRegAppTableRecord
  2
ACAD
 70
     0
  0
APPID
  5
6569
330
9
100
AcDbSymbolTableRecord
100
AcDbRegAppTableRecord
  2
ACAD_NAV_VCDISPLAY
 70
     0
  0
APPID
  5
657B
330
9
100
AcDbSymbolTableRecord
100
AcDbRegAppTableRecord
  2
AcadAnnoPO
 70
     0
  0
APPID
  5
6580
330
9
100
AcDbSymbolTableRecord
100
AcDbRegAppTableRecord
  2
ACAD_DSTYLE_DIMJAG
 70
     0
  0
APPID
  5
6581
330
9
100
AcDbSymbolTableRecord
100
AcDbRegAppTableRecord
  2
ACAD_DSTYLE_DIMTALN
 70
     0
  0
APPID
  5
65B3
330
9
100
AcDbSymbolTableRecord
100
AcDbRegAppTableRecord
  2
ACAD_PSEXT
 70
     0
  0
APPID
  5
65D3
330
9
100
AcDbSymbolTableRecord
100
AcDbRegAppTableRecord
  2
ACAD_EXEMPT_FROM_CAD_STANDARDS
 70
     0
  0
ENDTAB
  0
TABLE
  2
DIMSTYLE
  5
A
330
0
100
AcDbSymbolTable
 70
     2
100
AcDbDimStyleTable
 71
     1
340
1D
  0
DIMSTYLE
105
1D
102
{ACAD_REACTORS
330
6AD0
330
6AD1
330
6AD2
330
6AD3
330
6AD4
330
6AD5
330
6AD6
330
6AD7
102
}
330
A
100
AcDbSymbolTableRecord
100
AcDbDimStyleTableRecord
  2
STANDARD
 70
     0
  3
"
 46
0.375
 73
     0
 74
     0
 77
     1
140
0.75
176
     3
177
     3
277
     5
340
F
342
657C
1001
ACAD_DSTYLE_DIMJAG
1070
   388
1040
1.5
1001
ACAD_DSTYLE_DIMTALN
1070
   392
1070
     0
  0
DIMSTYLE
105
4824
330
A
100
AcDbSymbolTableRecord
100
AcDbDimStyleTableRecord
  2
ISO-25
 70
     0
 41
2.5
 42
0.625
 43
3.75
 44
1.25
 77
     1
 78
     8
140
2.0
141
2.5
143
0.03937007874016
147
0.625
171
     3
172
     1
274
     3
277
     5
278
    44
283
     0
284
     8
340
F
  0
ENDTAB
  0
TABLE
  2
BLOCK_RECORD
  5
1
330
0
100
AcDbSymbolTable
 70
    25
  0
BLOCK_RECORD
  5
18
330
1
100
AcDbSymbolTableRecord
100
AcDbBlockTableRecord
  2
*MODEL_SPACE
340
3BBB
 70
     0
280
     1
281
     0
  0
BLOCK_RECORD
  5
68A8
330
1
100
AcDbSymbolTableRecord
100
AcDbBlockTableRecord
  2
*Paper_Space
340
68A9
 70
     0
280
     1
281
     0
  0
BLOCK_RECORD
  5
3B56
330
1
100
AcDbSymbolTableRecord
100
AcDbBlockTableRecord
  2
1097-7_E
340
0
 70
     0
280
     1
281
     0
  0
BLOCK_RECORD
  5
657C
330
1
100
AcDbSymbolTableRecord
100
AcDbBlockTableRecord
  2
_ArchTick
340
0
102
{BLKREFS
331
6B3B
331
6B3C
331
6B44
331
6B45
331
6B4D
331
6B4E
331
6B56
331
6B57
331
6B5F
331
6B60
331
6B68
331
6B69
331
6B71
331
6B72
331
6B7A
331
6B7B
331
6797
331
6798
331
67A0
331
67A1
331
67A9
331
67AA
331
67B2
331
67B3
331
67CD
331
67CE
331
687C
331
687D
331
6945
331
6946
331
6951
331
6952
331
695D
331
695E
331
6969
331
696A
331
6975
331
6976
331
6981
331
6982
331
698D
331
698E
331
6999
331
699A
102
}
 70
     0
280
     1
281
     0
  0
BLOCK_RECORD
  5
66FA
330
1
100
AcDbSymbolTableRecord
100
AcDbBlockTableRecord
  2
*D2
340
0
 70
     0
280
     1
281
     0
  0
BLOCK_RECORD
  5
6710
330
1
100
AcDbSymbolTableRecord
100
AcDbBlockTableRecord
  2
*D3
340
0
 70
     0
280
     1
281
     0
  0
BLOCK_RECORD
  5
6741
330
1
100
AcDbSymbolTableRecord
100
AcDbBlockTableRecord
  2
*D4
340
0
 70
     0
280
     1
281
     0
  0
BLOCK_RECORD
  5
6769
330
1
100
AcDbSymbolTableRecord
100
AcDbBlockTableRecord
  2
*D5
340
0
 70
     0
280
     1
281
     0
  0
BLOCK_RECORD
  5
677F
330
1
100
AcDbSymbolTableRecord
100
AcDbBlockTableRecord
  2
*D6
340
0
 70
     0
280
     1
281
     0
  0
BLOCK_RECORD
  5
686C
330
1
100
AcDbSymbolTableRecord
100
AcDbBlockTableRecord
  2
*D7
340
0
 70
     0
280
     1
281
     0
  0
BLOCK_RECORD
  5
6940
330
1
100
AcDbSymbolTableRecord
100
AcDbBlockTableRecord
  2
*D8
340
0
 70
     0
280
     1
281
     0
  0
BLOCK_RECORD
  5
694C
330
1
100
AcDbSymbolTableRecord
100
AcDbBlockTableRecord
  2
*D9
340
0
 70
     0
280
     1
281
     0
  0
BLOCK_RECORD
  5
6958
330
1
100
AcDbSymbolTableRecord
100
AcDbBlockTableRecord
  2
*D10
340
0
 70
     0
280
     1
281
     0
  0
BLOCK_RECORD
  5
6964
330
1
100
AcDbSymbolTableRecord
100
AcDbBlockTableRecord
  2
*D11
340
0
 70
     0
280
     1
281
     0
  0
BLOCK_RECORD
  5
6970
330
1
100
AcDbSymbolTableRecord
100
AcDbBlockTableRecord
  2
*D12
340
0
 70
     0
280
     1
281
     0
  0
BLOCK_RECORD
  5
697C
330
1
100
AcDbSymbolTableRecord
100
AcDbBlockTableRecord
  2
*D13
340
0
 70
     0
280
     1
281
     0
  0
BLOCK_RECORD
  5
6988
330
1
100
AcDbSymbolTableRecord
100
AcDbBlockTableRecord
  2
*D14
340
0
 70
     0
280
     1
281
     0
  0
BLOCK_RECORD
  5
6994
330
1
100
AcDbSymbolTableRecord
100
AcDbBlockTableRecord
  2
*D15
340
0
 70
     0
280
     1
281
     0
  0
BLOCK_RECORD
  5
6AD8
330
1
100
AcDbSymbolTableRecord
100
AcDbBlockTableRecord
  2
*D17
340
0
 70
     0
280
     1
281
     0
  0
BLOCK_RECORD
  5
6AE4
330
1
100
AcDbSymbolTableRecord
100
AcDbBlockTableRecord
  2
*D18
340
0
 70
     0
280
     1
281
     0
  0
BLOCK_RECORD
  5
6AF0
330
1
100
AcDbSymbolTableRecord
100
AcDbBlockTableRecord
  2
*D19
340
0
 70
     0
280
     1
281
     0
  0
BLOCK_RECORD
  5
6AFC
330
1
100
AcDbSymbolTableRecord
100
AcDbBlockTableRecord
  2
*D20
340
0
 70
     0
280
     1
281
     0
  0
BLOCK_RECORD
  5
6B08
330
1
100
AcDbSymbolTableRecord
100
AcDbBlockTableRecord
  2
*D21
340
0
 70
     0
280
     1
281
     0
  0
BLOCK_RECORD
  5
6B14
330
1
100
AcDbSymbolTableRecord
100
AcDbBlockTableRecord
  2
*D22
340
0
 70
     0
280
     1
281
     0
  0
BLOCK_RECORD
  5
6B20
330
1
100
AcDbSymbolTableRecord
100
AcDbBlockTableRecord
  2
*D23
340
0
 70
     0
280
     1
281
     0
  0
BLOCK_RECORD
  5
6B2C
330
1
100
AcDbSymbolTableRecord
100
AcDbBlockTableRecord
  2
*D24
340
0
 70
     0
280
     1
281
     0
  0
ENDTAB
  0
ENDSEC
  0
SECTION
  2
BLOCKS
  0
BLOCK
  5
19
330
18
100
AcDbEntity
  8
0
100
AcDbBlockBegin
  2
*MODEL_SPACE
 70
     0
 10
0.0
 20
0.0
 30
0.0
  3
*MODEL_SPACE
  1

  0
ENDBLK
  5
1A
330
18
100
AcDbEntity
  8
0
100
AcDbBlockEnd
  0
BLOCK
  5
68AA
330
68A8
100
AcDbEntity
 67
     1
  8
0
100
AcDbBlockBegin
  2
*Paper_Space
 70
     0
 10
0.0
 20
0.0
 30
0.0
  3
*Paper_Space
  1

  0
ENDBLK
  5
68AB
330
68A8
100
AcDbEntity
 67
     1
  8
0
100
AcDbBlockEnd
  0
BLOCK
  5
3B57
330
3B56
100
AcDbEntity
  8
0
100
AcDbBlockBegin
  2
1097-7_E
 70
     0
 10
0.0
 20
0.0
 30
0.0
  3
1097-7_E
  1

  0
LINE
  5
3B58
330
3B56
100
AcDbEntity
  8
0
100
AcDbLine
 10
3.5
 20
0.0000000000000053
 30
0.0
 11
3.499999999999998
 21
89.43749999999999
 31
0.0
  0
LINE
  5
3B59
330
3B56
100
AcDbEntity
  8
0
100
AcDbLine
 10
-3.5
 20
-0.0000000000000053
 30
0.0
 11
-3.5
 21
89.43749999999999
 31
0.0
  0
LINE
  5
3B5A
330
3B56
100
AcDbEntity
  8
0
100
AcDbLine
 10
-2.500000000000001
 20
14.125
 30
0.0
 11
-2.5
 21
82.62500000000001
 31
0.0
  0
LINE
  5
3B5B
330
3B56
100
AcDbEntity
  8
0
100
AcDbLine
 10
2.499999999999996
 20
14.12500000000001
 30
0.0
 11
2.500000000000001
 21
82.62500000000001
 31
0.0
  0
LINE
  5
3B5C
330
3B56
100
AcDbEntity
  8
0
100
AcDbLine
 10
1.499999999999998
 20
15.12500000000001
 30
0.0
 11
1.5
 21
81.62500000000001
 31
0.0
  0
LINE
  5
3B5D
330
3B56
100
AcDbEntity
  8
0
100
AcDbLine
 10
0.5
 20
15.125
 30
0.0
 11
0.5000000000000018
 21
81.62500000000001
 31
0.0
  0
LINE
  5
3B5E
330
3B56
100
AcDbEntity
  8
0
100
AcDbLine
 10
-0.5000000000000018
 20
15.125
 30
0.0
 11
-0.5
 21
81.62500000000001
 31
0.0
  0
LINE
  5
3B5F
330
3B56
100
AcDbEntity
  8
0
100
AcDbLine
 10
-1.500000000000001
 20
15.125
 30
0.0
 11
-1.5
 21
81.62500000000001
 31
0.0
  0
LINE
  5
3B60
330
3B56
100
AcDbEntity
  8
0
100
AcDbLine
 10
-3.5
 20
-0.0000000000000053
 30
0.0
 11
3.5
 21
0.0000000000000053
 31
0.0
  0
LINE
  5
3B61
330
3B56
100
AcDbEntity
  8
0
100
AcDbLine
 10
-2.937500000000005
 20
13.24999999999999
 30
0.0
 11
2.9375
 21
13.25
 31
0.0
  0
LINE
  5
3B62
330
3B56
100
AcDbEntity
  8
0
100
AcDbLine
 10
-2.500000000000001
 20
14.125
 30
0.0
 11
2.499999999999996
 21
14.12500000000001
 31
0.0
  0
LINE
  5
3B63
330
3B56
100
AcDbEntity
  8
0
100
AcDbLine
 10
-3.187500000000003
 20
12.99999999999999
 30
0.0
 11
3.1875
 21
13.00000000000001
 31
0.0
  0
LINE
  5
3B64
330
3B56
100
AcDbEntity
  8
0
100
AcDbLine
 10
-3.187500000000001
 20
-0.0000000000000053
 30
0.0
 11
-3.187500000000003
 21
12.99999999999999
 31
0.0
  0
ARC
  5
3B65
330
3B56
100
AcDbEntity
  8
0
100
AcDbCircle
 10
-3.778028086576522
 20
14.21713904328827
 30
0.0
 40
1.281345149979709
100
AcDbArc
 50
310.9934848747234
 51
355.8764127711199
  0
LINE
  5
3B66
330
3B56
100
AcDbEntity
  8
0
100
AcDbLine
 10
-2.937500000000005
 20
13.0
 30
0.0
 11
-2.937500000000005
 21
13.24999999999999
 31
0.0
  0
LINE
  5
3B67
330
3B56
100
AcDbEntity
  8
0
100
AcDbLine
 10
3.187500000000001
 20
0.0000000000000053
 30
0.0
 11
3.1875
 21
13.00000000000001
 31
0.0
  0
ARC
  5
3B68
330
3B56
100
AcDbEntity
  8
0
100
AcDbCircle
 10
3.778028086576519
 20
14.21713904328827
 30
0.0
 40
1.281345149979709
100
AcDbArc
 50
184.12358722888
 51
229.0065151252766
  0
LINE
  5
3B69
330
3B56
100
AcDbEntity
  8
0
100
AcDbLine
 10
2.937500000000001
 20
13.0
 30
0.0
 11
2.9375
 21
13.25
 31
0.0
  0
LINE
  5
3B6A
330
3B56
100
AcDbEntity
  8
0
100
AcDbLine
 10
-3.5
 20
89.43749999999999
 30
0.0
 11
3.499999999999998
 21
89.43749999999999
 31
0.0
  0
LINE
  5
3B6B
330
3B56
100
AcDbEntity
  8
0
100
AcDbLine
 10
-2.500000000000001
 20
83.68750000000002
 30
0.0
 11
2.499999999999998
 21
83.6875
 31
0.0
  0
LINE
  5
3B6C
330
3B56
100
AcDbEntity
  8
0
100
AcDbLine
 10
2.733133811154942
 20
82.81419568654792
 30
0.0
 11
-2.733133811154946
 21
82.8141956865479
 31
0.0
  0
LINE
  5
3B6D
330
3B56
100
AcDbEntity
  8
0
100
AcDbLine
 10
-3.062500000000001
 20
83.375
 30
0.0
 11
3.062499999999996
 21
83.375
 31
0.0
  0
LINE
  5
3B6E
330
3B56
100
AcDbEntity
  8
0
100
AcDbLine
 10
-2.75
 20
82.62500000000001
 30
0.0
 11
2.733133811154942
 21
82.62500000000001
 31
0.0
  0
LINE
  5
3B6F
330
3B56
100
AcDbEntity
  8
0
100
AcDbLine
 10
-3.500000000000001
 20
89.18750000000001
 30
0.0
 11
3.499999999999992
 21
89.18750000000001
 31
0.0
  0
LINE
  5
3B70
330
3B56
100
AcDbEntity
  8
0
100
AcDbLine
 10
-2.75
 20
87.8125
 30
0.0
 11
2.749999999999994
 21
87.8125
 31
0.0
  0
LINE
  5
3B71
330
3B56
100
AcDbEntity
  8
0
100
AcDbLine
 10
-2.75
 20
88.3125
 30
0.0
 11
2.749999999999994
 21
88.3125
 31
0.0
  0
ARC
  5
3B72
330
3B56
100
AcDbEntity
  8
0
100
AcDbCircle
 10
-2.75
 20
88.0625
 30
0.0
 40
0.25
100
AcDbArc
 50
90.0
 51
270.0
  0
ARC
  5
3B73
330
3B56
100
AcDbEntity
  8
0
100
AcDbCircle
 10
-2.501273046897312
 20
83.37542135397564
 30
0.0
 40
0.5612271112732353
100
AcDbArc
 50
180.0430161092873
 51
270.1299657044769
  0
LINE
  5
3B74
330
3B56
100
AcDbEntity
  8
0
100
AcDbLine
 10
-2.500000000000001
 20
83.6875
 30
0.0
 11
-2.500000000000001
 21
87.8125
 31
0.0
  0
ARC
  5
3B75
330
3B56
100
AcDbEntity
  8
0
100
AcDbCircle
 10
-2.500000000000001
 20
83.375
 30
0.0
 40
0.3125000000000071
100
AcDbArc
 50
90.0
 51
180.0
  0
ARC
  5
3B76
330
3B56
100
AcDbEntity
  8
0
100
AcDbCircle
 10
-2.733133811154946
 20
82.71959784327396
 30
0.0
 40
0.0945978432739558
100
AcDbArc
 50
90.0
 51
270.0
  0
POLYLINE
  5
3B77
330
3B56
100
AcDbEntity
  8
0
100
AcDb2dPolyline
 66
     1
 10
0.0
 20
0.0
 30
0.0
 70
     4
 75
     6
  0
VERTEX
  5
3B78
330
3B77
100
AcDbEntity
  8
0
100
AcDbVertex
100
AcDb2dVertex
 10
-2.749999999999998
 20
88.3125
 30
0.0
 70
    16
  0
VERTEX
  5
3B79
330
3B77
100
AcDbEntity
  8
0
100
AcDbVertex
100
AcDb2dVertex
 10
-2.749999999999998
 20
88.3125
 30
0.0
 70
     8
  0
VERTEX
  5
3B7A
330
3B77
100
AcDbEntity
  8
0
100
AcDbVertex
100
AcDb2dVertex
 10
-2.807897507381591
 20
88.3419806704442
 30
0.0
 70
     8
  0
VERTEX
  5
3B7B
330
3B77
100
AcDbEntity
  8
0
100
AcDbVertex
100
AcDb2dVertex
 10
-2.865894388711843
 20
88.37263457936595
 30
0.0
 70
     8
  0
VERTEX
  5
3B7C
330
3B77
100
AcDbEntity
  8
0
100
AcDbVertex
100
AcDb2dVertex
 10
-2.92367334149632
 20
88.40502979354431
 30
0.0
 70
     8
  0
VERTEX
  5
3B7D
330
3B77
100
AcDbEntity
  8
0
100
AcDbVertex
100
AcDb2dVertex
 10
-2.980917063240591
 20
88.43973437975842
 30
0.0
 70
     8
  0
VERTEX
  5
3B7E
330
3B77
100
AcDbEntity
  8
0
100
AcDbVertex
100
AcDb2dVertex
 10
-3.037308251450225
 20
88.47731640478732
 30
0.0
 70
     8
  0
VERTEX
  5
3B7F
330
3B77
100
AcDbEntity
  8
0
100
AcDbVertex
100
AcDb2dVertex
 10
-3.09252960363079
 20
88.5183439354102
 30
0.0
 70
     8
  0
VERTEX
  5
3B80
330
3B77
100
AcDbEntity
  8
0
100
AcDbVertex
100
AcDb2dVertex
 10
-3.146263817287856
 20
88.56338503840607
 30
0.0
 70
     8
  0
VERTEX
  5
3B81
330
3B77
100
AcDbEntity
  8
0
100
AcDbVertex
100
AcDb2dVertex
 10
-3.198193589926988
 20
88.61300778055399
 30
0.0
 70
     8
  0
VERTEX
  5
3B82
330
3B77
100
AcDbEntity
  8
0
100
AcDbVertex
100
AcDb2dVertex
 10
-3.247980924532152
 20
88.66767164124899
 30
0.0
 70
     8
  0
VERTEX
  5
3B83
330
3B77
100
AcDbEntity
  8
0
100
AcDbVertex
100
AcDb2dVertex
 10
-3.29520504600088
 20
88.72740175034918
 30
0.0
 70
     8
  0
VERTEX
  5
3B84
330
3B77
100
AcDbEntity
  8
0
100
AcDbVertex
100
AcDb2dVertex
 10
-3.339424484709098
 20
88.79211465032847
 30
0.0
 70
     8
  0
VERTEX
  5
3B85
330
3B77
100
AcDbEntity
  8
0
100
AcDbVertex
100
AcDb2dVertex
 10
-3.380197771032735
 20
88.86172688366084
 30
0.0
 70
     8
  0
VERTEX
  5
3B86
330
3B77
100
AcDbEntity
  8
0
100
AcDbVertex
100
AcDb2dVertex
 10
-3.417083435347716
 20
88.93615499282022
 30
0.0
 70
     8
  0
VERTEX
  5
3B87
330
3B77
100
AcDbEntity
  8
0
100
AcDbVertex
100
AcDb2dVertex
 10
-3.44964000802997
 20
89.01531552028059
 30
0.0
 70
     8
  0
VERTEX
  5
3B88
330
3B77
100
AcDbEntity
  8
0
100
AcDbVertex
100
AcDb2dVertex
 10
-3.477426019455421
 20
89.09912500851584
 30
0.0
 70
     8
  0
VERTEX
  5
3B89
330
3B77
100
AcDbEntity
  8
0
100
AcDbVertex
100
AcDb2dVertex
 10
-3.5
 20
89.18750000000001
 30
0.0
 70
     8
  0
VERTEX
  5
3B8A
330
3B77
100
AcDbEntity
  8
0
100
AcDbVertex
100
AcDb2dVertex
 10
-2.903978807757654
 20
88.39005575146257
 30
0.0
 70
    16
  0
VERTEX
  5
3B8B
330
3B77
100
AcDbEntity
  8
0
100
AcDbVertex
100
AcDb2dVertex
 10
-3.220825520725528
 20
88.55807758395435
 30
0.0
 70
    16
  0
VERTEX
  5
3B8C
330
3B77
100
AcDbEntity
  8
0
100
AcDbVertex
100
AcDb2dVertex
 10
-3.447144510499244
 20
88.9458202028447
 30
0.0
 70
    16
  0
VERTEX
  5
3B8D
330
3B77
100
AcDbEntity
  8
0
100
AcDbVertex
100
AcDb2dVertex
 10
-3.5
 20
89.18750000000001
 30
0.0
 70
    16
  0
SEQEND
  5
3B8E
330
3B77
100
AcDbEntity
  8
0
  0
LINE
  5
3B8F
330
3B56
100
AcDbEntity
  8
0
100
AcDbLine
 10
-3.500000000000001
 20
89.43749999999999
 30
0.0
 11
-3.500000000000001
 21
89.18750000000001
 31
0.0
  0
ARC
  5
3B90
330
3B56
100
AcDbEntity
  8
0
100
AcDbCircle
 10
2.749999999999994
 20
88.0625
 30
0.0
 40
0.25
100
AcDbArc
 50
270.0
 51
90.0
  0
LINE
  5
3B91
330
3B56
100
AcDbEntity
  8
0
100
AcDbLine
 10
2.5
 20
83.6875
 30
0.0
 11
2.499999999999998
 21
87.8125
 31
0.0
  0
ARC
  5
3B92
330
3B56
100
AcDbEntity
  8
0
100
AcDbCircle
 10
2.733133811154942
 20
82.71959784327396
 30
0.0
 40
0.0945978432739558
100
AcDbArc
 50
270.0
 51
90.0
  0
ARC
  5
3B93
330
3B56
100
AcDbEntity
  8
0
100
AcDbCircle
 10
2.501273046897308
 20
83.37542135397564
 30
0.0
 40
0.5612271112732353
100
AcDbArc
 50
269.8700342955231
 51
359.9569838907127
  0
ARC
  5
3B94
330
3B56
100
AcDbEntity
  8
0
100
AcDbCircle
 10
2.499999999999998
 20
83.375
 30
0.0
 40
0.3125000000000071
100
AcDbArc
 50
0.0
 51
90.0
  0
LINE
  5
3B95
330
3B56
100
AcDbEntity
  8
0
100
AcDbLine
 10
3.499999999999996
 20
89.43749999999999
 30
0.0
 11
3.499999999999992
 21
89.18750000000001
 31
0.0
  0
POLYLINE
  5
3B96
330
3B56
100
AcDbEntity
  8
0
100
AcDb2dPolyline
 66
     1
 10
0.0
 20
0.0
 30
0.0
 70
     4
 75
     6
  0
VERTEX
  5
3B97
330
3B96
100
AcDbEntity
  8
0
100
AcDbVertex
100
AcDb2dVertex
 10
2.749999999999994
 20
88.3125
 30
0.0
 70
    16
  0
VERTEX
  5
3B98
330
3B96
100
AcDbEntity
  8
0
100
AcDbVertex
100
AcDb2dVertex
 10
2.749999999999994
 20
88.3125
 30
0.0
 70
     8
  0
VERTEX
  5
3B99
330
3B96
100
AcDbEntity
  8
0
100
AcDbVertex
100
AcDb2dVertex
 10
2.807897507381587
 20
88.3419806704442
 30
0.0
 70
     8
  0
VERTEX
  5
3B9A
330
3B96
100
AcDbEntity
  8
0
100
AcDbVertex
100
AcDb2dVertex
 10
2.86589438871184
 20
88.37263457936595
 30
0.0
 70
     8
  0
VERTEX
  5
3B9B
330
3B96
100
AcDbEntity
  8
0
100
AcDbVertex
100
AcDb2dVertex
 10
2.923673341496316
 20
88.40502979354431
 30
0.0
 70
     8
  0
VERTEX
  5
3B9C
330
3B96
100
AcDbEntity
  8
0
100
AcDbVertex
100
AcDb2dVertex
 10
2.980917063240587
 20
88.43973437975842
 30
0.0
 70
     8
  0
VERTEX
  5
3B9D
330
3B96
100
AcDbEntity
  8
0
100
AcDbVertex
100
AcDb2dVertex
 10
3.037308251450221
 20
88.47731640478732
 30
0.0
 70
     8
  0
VERTEX
  5
3B9E
330
3B96
100
AcDbEntity
  8
0
100
AcDbVertex
100
AcDb2dVertex
 10
3.092529603630786
 20
88.5183439354102
 30
0.0
 70
     8
  0
VERTEX
  5
3B9F
330
3B96
100
AcDbEntity
  8
0
100
AcDbVertex
100
AcDb2dVertex
 10
3.146263817287852
 20
88.56338503840607
 30
0.0
 70
     8
  0
VERTEX
  5
3BA0
330
3B96
100
AcDbEntity
  8
0
100
AcDbVertex
100
AcDb2dVertex
 10
3.198193589926985
 20
88.61300778055399
 30
0.0
 70
     8
  0
VERTEX
  5
3BA1
330
3B96
100
AcDbEntity
  8
0
100
AcDbVertex
100
AcDb2dVertex
 10
3.247980924532148
 20
88.66767164124899
 30
0.0
 70
     8
  0
VERTEX
  5
3BA2
330
3B96
100
AcDbEntity
  8
0
100
AcDbVertex
100
AcDb2dVertex
 10
3.295205046000877
 20
88.72740175034918
 30
0.0
 70
     8
  0
VERTEX
  5
3BA3
330
3B96
100
AcDbEntity
  8
0
100
AcDbVertex
100
AcDb2dVertex
 10
3.339424484709095
 20
88.79211465032847
 30
0.0
 70
     8
  0
VERTEX
  5
3BA4
330
3B96
100
AcDbEntity
  8
0
100
AcDbVertex
100
AcDb2dVertex
 10
3.380197771032731
 20
88.86172688366084
 30
0.0
 70
     8
  0
VERTEX
  5
3BA5
330
3B96
100
AcDbEntity
  8
0
100
AcDbVertex
100
AcDb2dVertex
 10
3.417083435347713
 20
88.93615499282022
 30
0.0
 70
     8
  0
VERTEX
  5
3BA6
330
3B96
100
AcDbEntity
  8
0
100
AcDbVertex
100
AcDb2dVertex
 10
3.449640008029966
 20
89.01531552028059
 30
0.0
 70
     8
  0
VERTEX
  5
3BA7
330
3B96
100
AcDbEntity
  8
0
100
AcDbVertex
100
AcDb2dVertex
 10
3.477426019455418
 20
89.09912500851584
 30
0.0
 70
     8
  0
VERTEX
  5
3BA8
330
3B96
100
AcDbEntity
  8
0
100
AcDbVertex
100
AcDb2dVertex
 10
3.499999999999996
 20
89.18750000000001
 30
0.0
 70
     8
  0
VERTEX
  5
3BA9
330
3B96
100
AcDbEntity
  8
0
100
AcDbVertex
100
AcDb2dVertex
 10
2.903978807757651
 20
88.39005575146257
 30
0.0
 70
    16
  0
VERTEX
  5
3BAA
330
3B96
100
AcDbEntity
  8
0
100
AcDbVertex
100
AcDb2dVertex
 10
3.220825520725524
 20
88.55807758395435
 30
0.0
 70
    16
  0
VERTEX
  5
3BAB
330
3B96
100
AcDbEntity
  8
0
100
AcDbVertex
100
AcDb2dVertex
 10
3.44714451049924
 20
88.9458202028447
 30
0.0
 70
    16
  0
VERTEX
  5
3BAC
330
3B96
100
AcDbEntity
  8
0
100
AcDbVertex
100
AcDb2dVertex
 10
3.499999999999996
 20
89.18750000000001
 30
0.0
 70
    16
  0
SEQEND
  5
3BAD
330
3B96
100
AcDbEntity
  8
0
  0
ENDBLK
  5
3BAE
330
3B56
100
AcDbEntity
  8
0
100
AcDbBlockEnd
  0
BLOCK
  5
657E
330
657C
100
AcDbEntity
  8
0
100
AcDbBlockBegin
  2
_ArchTick
 70
     0
 10
0.0
 20
0.0
 30
0.0
  3
_ArchTick
  1

  0
LWPOLYLINE
  5
657D
330
657C
100
AcDbEntity
  8
0
  6
ByBlock
 62
     0
100
AcDbPolyline
 90
        2
 70
     0
 43
0.15
 10
-0.5
 20
-0.5
 10
0.5
 20
0.5
  0
ENDBLK
  5
657F
330
657C
100
AcDbEntity
  8
0
100
AcDbBlockEnd
  0
BLOCK
  5
66FB
330
66FA
100
AcDbEntity
  8
0
100
AcDbBlockBegin
  2
*D2
 70
     1
 10
0.0
 20
0.0
 30
0.0
  3
*D2
  1

  0
LINE
  5
67CA
330
66FA
100
AcDbEntity
  8
0
 62
     3
440
 16777216
370
    -2
100
AcDbLine
 10
9.893554848676217
 20
161.0621985590623
 30
0.0
 11
9.893554848676217
 21
158.3530411020675
 31
0.0
  0
LINE
  5
67CB
330
66FA
100
AcDbEntity
  8
0
 62
     3
440
 16777216
370
    -2
100
AcDbLine
 10
21.33203552603811
 20
161.062198559063
 30
0.0
 11
21.33203552603811
 21
158.3530411020675
 31
0.0
  0
LINE
  5
67CC
330
66FA
100
AcDbEntity
  8
0
 62
     3
440
 16777216
370
    -2
100
AcDbLine
 10
9.518554848676217
 20
158.5330411020675
 30
0.0
 11
21.70703552603811
 21
158.5330411020675
 31
0.0
  0
INSERT
  5
67CD
330
66FA
100
AcDbEntity
  8
0
 62
     3
440
 16777216
370
    -2
100
AcDbBlockReference
  2
_ArchTick
 10
9.893554848676217
 20
158.5330411020675
 30
0.0
 41
0.18
 42
0.18
 43
0.18
 50
180.0
  0
INSERT
  5
67CE
330
66FA
100
AcDbEntity
  8
0
 62
     3
440
 16777216
370
    -2
100
AcDbBlockReference
  2
_ArchTick
 10
21.33203552603811
 20
158.5330411020675
 30
0.0
 41
0.18
 42
0.18
 43
0.18
  0
MTEXT
  5
67CF
330
66FA
100
AcDbEntity
  8
0
 62
     0
440
 16777216
100
AcDbMText
 10
15.61279518735716
 20
159.0474554505302
 30
0.0
 40
0.75
 41
0.0
 46
0.0
 71
     5
 72
     1
  1
\A1;11 1/2"
 73
     1
 44
1.0
  0
POINT
  5
67D0
330
66FA
100
AcDbEntity
  8
Defpoints
 62
     0
440
 16777216
100
AcDbPoint
 10
9.893554848676217
 20
161.1246985590623
 30
0.0
  0
POINT
  5
67D1
330
66FA
100
AcDbEntity
  8
Defpoints
 62
     0
440
 16777216
100
AcDbPoint
 10
21.33203552603811
 20
161.124698559063
 30
0.0
  0
POINT
  5
67D2
330
66FA
100
AcDbEntity
  8
Defpoints
 62
     0
440
 16777216
100
AcDbPoint
 10
21.33203552603811
 20
158.5330411020675
 30
0.0
  0
ENDBLK
  5
66FC
330
66FA
100
AcDbEntity
  8
0
100
AcDbBlockEnd
  0
BLOCK
  5
6711
330
6710
100
AcDbEntity
  8
0
100
AcDbBlockBegin
  2
*D3
 70
     1
 10
0.0
 20
0.0
 30
0.0
  3
*D3
  1

  0
LINE
  5
6794
330
6710
100
AcDbEntity
  8
0
 62
     3
440
 16777216
370
    -2
100
AcDbLine
 10
9.831054848676217
 20
161.1246985590623
 30
0.0
 11
8.057178413417496
 21
161.1246985590623
 31
0.0
  0
LINE
  5
6795
330
6710
100
AcDbEntity
  8
0
 62
     3
440
 16777216
370
    -2
100
AcDbLine
 10
10.963904978463
 20
169.6749409087042
 30
0.0
 11
8.057178413417497
 21
169.6749409087042
 31
0.0
  0
LINE
  5
6796
330
6710
100
AcDbEntity
  8
0
 62
     3
440
 16777216
370
    -2
100
AcDbLine
 10
8.237178413417495
 20
160.7496985590623
 30
0.0
 11
8.237178413417497
 21
170.0499409087042
 31
0.0
  0
INSERT
  5
6797
330
6710
100
AcDbEntity
  8
0
 62
     3
440
 16777216
370
    -2
100
AcDbBlockReference
  2
_ArchTick
 10
8.237178413417495
 20
161.1246985590623
 30
0.0
 41
0.18
 42
0.18
 43
0.18
 50
270.0
  0
INSERT
  5
6798
330
6710
100
AcDbEntity
  8
0
 62
     3
440
 16777216
370
    -2
100
AcDbBlockReference
  2
_ArchTick
 10
8.237178413417497
 20
169.6749409087042
 30
0.0
 41
0.18
 42
0.18
 43
0.18
 50
90.0
  0
MTEXT
  5
6799
330
6710
100
AcDbEntity
  8
0
 62
     0
440
 16777216
100
AcDbMText
 10
7.722764064954805
 20
165.3998197338832
 30
0.0
 40
0.75
 41
0.0
 46
0.0
 71
     5
 72
     1
  1
\A1;8 1/2"
 11
0.0000000000000001
 21
1.0
 31
0.0
 73
     1
 44
1.0
  0
POINT
  5
679A
330
6710
100
AcDbEntity
  8
Defpoints
 62
     0
440
 16777216
100
AcDbPoint
 10
9.893554848676217
 20
161.1246985590623
 30
0.0
  0
POINT
  5
679B
330
6710
100
AcDbEntity
  8
Defpoints
 62
     0
440
 16777216
100
AcDbPoint
 10
11.026404978463
 20
169.6749409087042
 30
0.0
  0
POINT
  5
679C
330
6710
100
AcDbEntity
  8
Defpoints
 62
     0
440
 16777216
100
AcDbPoint
 10
8.237178413417497
 20
169.6749409087042
 30
0.0
  0
ENDBLK
  5
6712
330
6710
100
AcDbEntity
  8
0
100
AcDbBlockEnd
  0
BLOCK
  5
6742
330
6741
100
AcDbEntity
  8
0
100
AcDbBlockBegin
  2
*D4
 70
     1
 10
0.0
 20
0.0
 30
0.0
  3
*D4
  1

  0
LINE
  5
679D
330
6741
100
AcDbEntity
  8
0
 62
     3
440
 16777216
370
    -2
100
AcDbLine
 10
9.831054848676217
 20
161.1246985590623
 30
0.0
 11
5.599084919955598
 21
161.1246985590623
 31
0.0
  0
LINE
  5
679E
330
6741
100
AcDbEntity
  8
0
 62
     3
440
 16777216
370
    -2
100
AcDbLine
 10
11.00630084783245
 20
203.2496939588239
 30
0.0
 11
5.599084919955608
 21
203.2496939588239
 31
0.0
  0
LINE
  5
679F
330
6741
100
AcDbEntity
  8
0
 62
     3
440
 16777216
370
    -2
100
AcDbLine
 10
5.779084919955598
 20
160.7496985590623
 30
0.0
 11
5.779084919955607
 21
203.6246939588239
 31
0.0
  0
INSERT
  5
67A0
330
6741
100
AcDbEntity
  8
0
 62
     3
440
 16777216
370
    -2
100
AcDbBlockReference
  2
_ArchTick
 10
5.779084919955598
 20
161.1246985590623
 30
0.0
 41
0.18
 42
0.18
 43
0.18
 50
270.0
  0
INSERT
  5
67A1
330
6741
100
AcDbEntity
  8
0
 62
     3
440
 16777216
370
    -2
100
AcDbBlockReference
  2
_ArchTick
 10
5.779084919955607
 20
203.2496939588239
 30
0.0
 41
0.18
 42
0.18
 43
0.18
 50
90.0
  0
MTEXT
  5
67A2
330
6741
100
AcDbEntity
  8
0
 62
     0
440
 16777216
100
AcDbMText
 10
4.788005124933611
 20
182.1871962589431
 30
0.0
 40
0.75
 41
0.0
 46
0.0
 71
     5
 72
     1
  1
\A1;42{\H1.000000x;\S1/8;}"
 11
0.0000000000000001
 21
1.0
 31
0.0
 73
     1
 44
1.0
  0
POINT
  5
67A3
330
6741
100
AcDbEntity
  8
Defpoints
 62
     0
440
 16777216
100
AcDbPoint
 10
9.893554848676217
 20
161.1246985590623
 30
0.0
  0
POINT
  5
67A4
330
6741
100
AcDbEntity
  8
Defpoints
 62
     0
440
 16777216
100
AcDbPoint
 10
11.06880084783245
 20
203.2496939588239
 30
0.0
  0
POINT
  5
67A5
330
6741
100
AcDbEntity
  8
Defpoints
 62
     0
440
 16777216
100
AcDbPoint
 10
5.779084919955607
 20
203.2496939588239
 30
0.0
  0
ENDBLK
  5
6743
330
6741
100
AcDbEntity
  8
0
100
AcDbBlockEnd
  0
BLOCK
  5
676A
330
6769
100
AcDbEntity
  8
0
100
AcDbBlockBegin
  2
*D5
 70
     1
 10
0.0
 20
0.0
 30
0.0
  3
*D5
  1

  0
LINE
  5
67A6
330
6769
100
AcDbEntity
  8
0
 62
     3
440
 16777216
370
    -2
100
AcDbLine
 10
11.06880084783245
 20
169.7374409087042
 30
0.0
 11
11.06880084783245
 21
171.3174620161081
 31
0.0
  0
LINE
  5
67A7
330
6769
100
AcDbEntity
  8
0
 62
     3
440
 16777216
370
    -2
100
AcDbLine
 10
20.09717524001519
 20
169.7374409087042
 30
0.0
 11
20.09717524001519
 21
171.3174620161081
 31
0.0
  0
LINE
  5
67A8
330
6769
100
AcDbEntity
  8
0
 62
     3
440
 16777216
370
    -2
100
AcDbLine
 10
10.69380084783245
 20
171.1374620161081
 30
0.0
 11
20.47217524001519
 21
171.1374620161081
 31
0.0
  0
INSERT
  5
67A9
330
6769
100
AcDbEntity
  8
0
 62
     3
440
 16777216
370
    -2
100
AcDbBlockReference
  2
_ArchTick
 10
11.06880084783245
 20
171.1374620161081
 30
0.0
 41
0.18
 42
0.18
 43
0.18
 50
180.0
  0
INSERT
  5
67AA
330
6769
100
AcDbEntity
  8
0
 62
     3
440
 16777216
370
    -2
100
AcDbBlockReference
  2
_ArchTick
 10
20.09717524001519
 20
171.1374620161081
 30
0.0
 41
0.18
 42
0.18
 43
0.18
  0
MTEXT
  5
67AB
330
6769
100
AcDbEntity
  8
0
 62
     0
440
 16777216
100
AcDbMText
 10
15.58298804392382
 20
171.6148156032237
 30
0.0
 40
0.75
 41
0.0
 46
0.0
 71
     5
 72
     1
  1
\A1;9"
 73
     1
 44
1.0
  0
POINT
  5
67AC
330
6769
100
AcDbEntity
  8
Defpoints
 62
     0
440
 16777216
100
AcDbPoint
 10
11.06880084783245
 20
169.6749409087042
 30
0.0
  0
POINT
  5
67AD
330
6769
100
AcDbEntity
  8
Defpoints
 62
     0
440
 16777216
100
AcDbPoint
 10
20.09717524001519
 20
169.6749409087042
 30
0.0
  0
POINT
  5
67AE
330
6769
100
AcDbEntity
  8
Defpoints
 62
     0
440
 16777216
100
AcDbPoint
 10
20.09717524001519
 20
171.1374620161081
 30
0.0
  0
ENDBLK
  5
676B
330
6769
100
AcDbEntity
  8
0
100
AcDbBlockEnd
  0
BLOCK
  5
6780
330
677F
100
AcDbEntity
  8
0
100
AcDbBlockBegin
  2
*D6
 70
     1
 10
0.0
 20
0.0
 30
0.0
  3
*D6
  1

  0
LINE
  5
67AF
330
677F
100
AcDbEntity
  8
0
 62
     3
440
 16777216
370
    -2
100
AcDbLine
 10
15.52767235337489
 20
207.9055665614702
 30
0.0
 11
2.318575757092464
 21
207.9055665614702
 31
0.0
  0
LINE
  5
67B0
330
677F
100
AcDbEntity
  8
0
 62
     3
440
 16777216
370
    -2
100
AcDbLine
 10
9.831054848676217
 20
161.1246985590623
 30
0.0
 11
2.318575757092454
 21
161.1246985590623
 31
0.0
  0
LINE
  5
67B1
330
677F
100
AcDbEntity
  8
0
 62
     3
440
 16777216
370
    -2
100
AcDbLine
 10
2.498575757092463
 20
208.2805665614702
 30
0.0
 11
2.498575757092452
 21
160.7496985590623
 31
0.0
  0
INSERT
  5
67B2
330
677F
100
AcDbEntity
  8
0
 62
     3
440
 16777216
370
    -2
100
AcDbBlockReference
  2
_ArchTick
 10
2.498575757092463
 20
207.9055665614702
 30
0.0
 41
0.18
 42
0.18
 43
0.18
 50
90.0
  0
INSERT
  5
67B3
330
677F
100
AcDbEntity
  8
0
 62
     3
440
 16777216
370
    -2
100
AcDbBlockReference
  2
_ArchTick
 10
2.498575757092453
 20
161.1246985590623
 30
0.0
 41
0.18
 42
0.18
 43
0.18
 50
270.0
  0
MTEXT
  5
67B4
330
677F
100
AcDbEntity
  8
0
 62
     0
440
 16777216
100
AcDbMText
 10
1.4877302226854
 20
184.5151325602662
 30
0.0
 40
0.75
 41
0.0
 46
0.0
 71
     5
 72
     1
  1
\A1;46{\H1.000000x;\S3/4;}"
 11
0.0000000000000001
 21
1.0
 31
0.0
 73
     1
 44
1.0
  0
POINT
  5
67B5
330
677F
100
AcDbEntity
  8
Defpoints
 62
     0
440
 16777216
100
AcDbPoint
 10
15.59017235337489
 20
207.9055665614702
 30
0.0
  0
POINT
  5
67B6
330
677F
100
AcDbEntity
  8
Defpoints
 62
     0
440
 16777216
100
AcDbPoint
 10
9.893554848676217
 20
161.1246985590623
 30
0.0
  0
POINT
  5
67B7
330
677F
100
AcDbEntity
  8
Defpoints
 62
     0
440
 16777216
100
AcDbPoint
 10
2.498575757092453
 20
161.1246985590623
 30
0.0
  0
ENDBLK
  5
6781
330
677F
100
AcDbEntity
  8
0
100
AcDbBlockEnd
  0
BLOCK
  5
686D
330
686C
100
AcDbEntity
  8
0
100
AcDbBlockBegin
  2
*D7
 70
     1
 10
0.0
 20
0.0
 30
0.0
  3
*D7
  1

  0
LINE
  5
6879
330
686C
100
AcDbEntity
  8
0
 62
     3
440
 16777216
370
    -2
100
AcDbLine
 10
15.52048804392393
 20
196.874693958824
 30
0.0
 11
15.40298804392393
 21
196.874693958824
 31
0.0
  0
LINE
  5
687A
330
686C
100
AcDbEntity
  8
0
 62
     3
440
 16777216
370
    -2
100
AcDbLine
 10
15.52048804392393
 20
203.249693958824
 30
0.0
 11
15.40298804392393
 21
203.249693958824
 31
0.0
  0
LINE
  5
687B
330
686C
100
AcDbEntity
  8
0
 62
     3
440
 16777216
370
    -2
100
AcDbLine
 10
15.58298804392393
 20
196.499693958824
 30
0.0
 11
15.58298804392393
 21
203.624693958824
 31
0.0
  0
INSERT
  5
687C
330
686C
100
AcDbEntity
  8
0
 62
     3
440
 16777216
370
    -2
100
AcDbBlockReference
  2
_ArchTick
 10
15.58298804392393
 20
196.874693958824
 30
0.0
 41
0.18
 42
0.18
 43
0.18
 50
270.0
  0
INSERT
  5
687D
330
686C
100
AcDbEntity
  8
0
 62
     3
440
 16777216
370
    -2
100
AcDbBlockReference
  2
_ArchTick
 10
15.58298804392393
 20
203.249693958824
 30
0.0
 41
0.18
 42
0.18
 43
0.18
 50
90.0
  0
MTEXT
  5
687E
330
686C
100
AcDbEntity
  8
0
 62
     0
440
 16777216
100
AcDbMText
 10
14.57818204099564
 20
200.062193958824
 30
0.0
 40
0.75
 41
0.0
 46
0.0
 71
     5
 72
     1
  1
\A1;6{\H1.000000x;\S3/8;}"
 11
0.0000000000000001
 21
1.0
 31
0.0
 73
     1
 44
1.0
  0
POINT
  5
687F
330
686C
100
AcDbEntity
  8
Defpoints
 62
     0
440
 16777216
100
AcDbPoint
 10
15.58298804392393
 20
196.874693958824
 30
0.0
  0
POINT
  5
6880
330
686C
100
AcDbEntity
  8
Defpoints
 62
     0
440
 16777216
100
AcDbPoint
 10
15.58298804392393
 20
203.249693958824
 30
0.0
  0
POINT
  5
6881
330
686C
100
AcDbEntity
  8
Defpoints
 62
     0
440
 16777216
100
AcDbPoint
 10
15.58298804392393
 20
203.249693958824
 30
0.0
  0
ENDBLK
  5
686E
330
686C
100
AcDbEntity
  8
0
100
AcDbBlockEnd
  0
BLOCK
  5
6941
330
6940
100
AcDbEntity
  8
0
100
AcDbBlockBegin
  2
*D8
 70
     1
 10
0.0
 20
0.0
 30
0.0
  3
*D8
  1

  0
LINE
  5
6942
330
6940
100
AcDbEntity
  8
0
 62
     3
440
 16777216
370
    -2
100
AcDbLine
 10
9.893554848676217
 20
160.7496985590623
 30
0.0
 11
9.893554848676217
 21
158.0405411020675
 31
0.0
  0
LINE
  5
6943
330
6940
100
AcDbEntity
  8
0
 62
     3
440
 16777216
370
    -2
100
AcDbLine
 10
21.33203552603811
 20
160.749698559063
 30
0.0
 11
21.33203552603811
 21
158.0405411020675
 31
0.0
  0
LINE
  5
6944
330
6940
100
AcDbEntity
  8
0
 62
     3
440
 16777216
370
    -2
100
AcDbLine
 10
9.518554848676217
 20
158.2205411020675
 30
0.0
 11
21.70703552603811
 21
158.2205411020675
 31
0.0
  0
INSERT
  5
6945
330
6940
100
AcDbEntity
  8
0
 62
     3
440
 16777216
370
    -2
100
AcDbBlockReference
  2
_ArchTick
 10
9.893554848676217
 20
158.2205411020675
 30
0.0
 41
0.18
 42
0.18
 43
0.18
 50
180.0
  0
INSERT
  5
6946
330
6940
100
AcDbEntity
  8
0
 62
     3
440
 16777216
370
    -2
100
AcDbBlockReference
  2
_ArchTick
 10
21.33203552603811
 20
158.2205411020675
 30
0.0
 41
0.18
 42
0.18
 43
0.18
  0
MTEXT
  5
6947
330
6940
100
AcDbEntity
  8
0
 62
     0
440
 16777216
100
AcDbMText
 10
15.61279518735716
 20
158.7349554505302
 30
0.0
 40
0.75
 41
0.0
 46
0.0
 71
     5
 72
     1
  1
\A1;11 1/2"
 73
     1
 44
1.0
  0
POINT
  5
6948
330
6940
100
AcDbEntity
  8
Defpoints
 62
     0
440
 16777216
100
AcDbPoint
 10
9.893554848676217
 20
160.8121985590623
 30
0.0
  0
POINT
  5
6949
330
6940
100
AcDbEntity
  8
Defpoints
 62
     0
440
 16777216
100
AcDbPoint
 10
21.33203552603811
 20
160.812198559063
 30
0.0
  0
POINT
  5
694A
330
6940
100
AcDbEntity
  8
Defpoints
 62
     0
440
 16777216
100
AcDbPoint
 10
21.33203552603811
 20
158.2205411020675
 30
0.0
  0
ENDBLK
  5
694B
330
6940
100
AcDbEntity
  8
0
100
AcDbBlockEnd
  0
BLOCK
  5
694D
330
694C
100
AcDbEntity
  8
0
100
AcDbBlockBegin
  2
*D9
 70
     1
 10
0.0
 20
0.0
 30
0.0
  3
*D9
  1

  0
LINE
  5
694E
330
694C
100
AcDbEntity
  8
0
 62
     3
440
 16777216
370
    -2
100
AcDbLine
 10
9.831054848676217
 20
160.8121985590623
 30
0.0
 11
8.057178413417496
 21
160.8121985590623
 31
0.0
  0
LINE
  5
694F
330
694C
100
AcDbEntity
  8
0
 62
     3
440
 16777216
370
    -2
100
AcDbLine
 10
10.963904978463
 20
169.3624409087042
 30
0.0
 11
8.057178413417497
 21
169.3624409087042
 31
0.0
  0
LINE
  5
6950
330
694C
100
AcDbEntity
  8
0
 62
     3
440
 16777216
370
    -2
100
AcDbLine
 10
8.237178413417495
 20
160.4371985590623
 30
0.0
 11
8.237178413417497
 21
169.7374409087041
 31
0.0
  0
INSERT
  5
6951
330
694C
100
AcDbEntity
  8
0
 62
     3
440
 16777216
370
    -2
100
AcDbBlockReference
  2
_ArchTick
 10
8.237178413417495
 20
160.8121985590623
 30
0.0
 41
0.18
 42
0.18
 43
0.18
 50
270.0
  0
INSERT
  5
6952
330
694C
100
AcDbEntity
  8
0
 62
     3
440
 16777216
370
    -2
100
AcDbBlockReference
  2
_ArchTick
 10
8.237178413417497
 20
169.3624409087042
 30
0.0
 41
0.18
 42
0.18
 43
0.18
 50
90.0
  0
MTEXT
  5
6953
330
694C
100
AcDbEntity
  8
0
 62
     0
440
 16777216
100
AcDbMText
 10
7.722764064954805
 20
165.0873197338832
 30
0.0
 40
0.75
 41
0.0
 46
0.0
 71
     5
 72
     1
  1
\A1;8 1/2"
 11
0.0000000000000001
 21
1.0
 31
0.0
 73
     1
 44
1.0
  0
POINT
  5
6954
330
694C
100
AcDbEntity
  8
Defpoints
 62
     0
440
 16777216
100
AcDbPoint
 10
9.893554848676217
 20
160.8121985590623
 30
0.0
  0
POINT
  5
6955
330
694C
100
AcDbEntity
  8
Defpoints
 62
     0
440
 16777216
100
AcDbPoint
 10
11.026404978463
 20
169.3624409087042
 30
0.0
  0
POINT
  5
6956
330
694C
100
AcDbEntity
  8
Defpoints
 62
     0
440
 16777216
100
AcDbPoint
 10
8.237178413417497
 20
169.3624409087042
 30
0.0
  0
ENDBLK
  5
6957
330
694C
100
AcDbEntity
  8
0
100
AcDbBlockEnd
  0
BLOCK
  5
6959
330
6958
100
AcDbEntity
  8
0
100
AcDbBlockBegin
  2
*D10
 70
     1
 10
0.0
 20
0.0
 30
0.0
  3
*D10
  1

  0
LINE
  5
695A
330
6958
100
AcDbEntity
  8
0
 62
     3
440
 16777216
370
    -2
100
AcDbLine
 10
9.831054848676217
 20
160.8121985590623
 30
0.0
 11
5.599084919955598
 21
160.8121985590623
 31
0.0
  0
LINE
  5
695B
330
6958
100
AcDbEntity
  8
0
 62
     3
440
 16777216
370
    -2
100
AcDbLine
 10
11.00630084783245
 20
203.749693958824
 30
0.0
 11
5.599084919955608
 21
203.749693958824
 31
0.0
  0
LINE
  5
695C
330
6958
100
AcDbEntity
  8
0
 62
     3
440
 16777216
370
    -2
100
AcDbLine
 10
5.779084919955598
 20
160.4371985590623
 30
0.0
 11
5.779084919955607
 21
204.1246939588239
 31
0.0
  0
INSERT
  5
695D
330
6958
100
AcDbEntity
  8
0
 62
     3
440
 16777216
370
    -2
100
AcDbBlockReference
  2
_ArchTick
 10
5.779084919955598
 20
160.8121985590623
 30
0.0
 41
0.18
 42
0.18
 43
0.18
 50
270.0
  0
INSERT
  5
695E
330
6958
100
AcDbEntity
  8
0
 62
     3
440
 16777216
370
    -2
100
AcDbBlockReference
  2
_ArchTick
 10
5.779084919955607
 20
203.749693958824
 30
0.0
 41
0.18
 42
0.18
 43
0.18
 50
90.0
  0
MTEXT
  5
695F
330
6958
100
AcDbEntity
  8
0
 62
     0
440
 16777216
100
AcDbMText
 10
4.77263177207856
 20
182.2809462589431
 30
0.0
 40
0.75
 41
0.0
 46
0.0
 71
     5
 72
     1
  1
\A1;42{\H1.000000x;\S15/16;}"
 11
0.0000000000000001
 21
1.0
 31
0.0
 73
     1
 44
1.0
  0
POINT
  5
6960
330
6958
100
AcDbEntity
  8
Defpoints
 62
     0
440
 16777216
100
AcDbPoint
 10
9.893554848676217
 20
160.8121985590623
 30
0.0
  0
POINT
  5
6961
330
6958
100
AcDbEntity
  8
Defpoints
 62
     0
440
 16777216
100
AcDbPoint
 10
11.06880084783245
 20
203.749693958824
 30
0.0
  0
POINT
  5
6962
330
6958
100
AcDbEntity
  8
Defpoints
 62
     0
440
 16777216
100
AcDbPoint
 10
5.779084919955607
 20
203.749693958824
 30
0.0
  0
ENDBLK
  5
6963
330
6958
100
AcDbEntity
  8
0
100
AcDbBlockEnd
  0
BLOCK
  5
6965
330
6964
100
AcDbEntity
  8
0
100
AcDbBlockBegin
  2
*D11
 70
     1
 10
0.0
 20
0.0
 30
0.0
  3
*D11
  1

  0
LINE
  5
6966
330
6964
100
AcDbEntity
  8
0
 62
     3
440
 16777216
370
    -2
100
AcDbLine
 10
11.06880084783245
 20
169.4249409087042
 30
0.0
 11
11.06880084783245
 21
170.8174620161081
 31
0.0
  0
LINE
  5
6967
330
6964
100
AcDbEntity
  8
0
 62
     3
440
 16777216
370
    -2
100
AcDbLine
 10
20.09717524001519
 20
169.4249409087042
 30
0.0
 11
20.09717524001519
 21
170.8174620161081
 31
0.0
  0
LINE
  5
6968
330
6964
100
AcDbEntity
  8
0
 62
     3
440
 16777216
370
    -2
100
AcDbLine
 10
10.69380084783245
 20
170.6374620161081
 30
0.0
 11
20.47217524001519
 21
170.6374620161081
 31
0.0
  0
INSERT
  5
6969
330
6964
100
AcDbEntity
  8
0
 62
     3
440
 16777216
370
    -2
100
AcDbBlockReference
  2
_ArchTick
 10
11.06880084783245
 20
170.6374620161081
 30
0.0
 41
0.18
 42
0.18
 43
0.18
 50
180.0
  0
INSERT
  5
696A
330
6964
100
AcDbEntity
  8
0
 62
     3
440
 16777216
370
    -2
100
AcDbBlockReference
  2
_ArchTick
 10
20.09717524001519
 20
170.6374620161081
 30
0.0
 41
0.18
 42
0.18
 43
0.18
  0
MTEXT
  5
696B
330
6964
100
AcDbEntity
  8
0
 62
     0
440
 16777216
100
AcDbMText
 10
15.58298804392382
 20
171.1148156032237
 30
0.0
 40
0.75
 41
0.0
 46
0.0
 71
     5
 72
     1
  1
\A1;9"
 73
     1
 44
1.0
  0
POINT
  5
696C
330
6964
100
AcDbEntity
  8
Defpoints
 62
     0
440
 16777216
100
AcDbPoint
 10
11.06880084783245
 20
169.3624409087042
 30
0.0
  0
POINT
  5
696D
330
6964
100
AcDbEntity
  8
Defpoints
 62
     0
440
 16777216
100
AcDbPoint
 10
20.09717524001519
 20
169.3624409087042
 30
0.0
  0
POINT
  5
696E
330
6964
100
AcDbEntity
  8
Defpoints
 62
     0
440
 16777216
100
AcDbPoint
 10
20.09717524001519
 20
170.6374620161081
 30
0.0
  0
ENDBLK
  5
696F
330
6964
100
AcDbEntity
  8
0
100
AcDbBlockEnd
  0
BLOCK
  5
6971
330
6970
100
AcDbEntity
  8
0
100
AcDbBlockBegin
  2
*D12
 70
     1
 10
0.0
 20
0.0
 30
0.0
  3
*D12
  1

  0
LINE
  5
6972
330
6970
100
AcDbEntity
  8
0
 62
     3
440
 16777216
370
    -2
100
AcDbLine
 10
15.52767235337489
 20
208.4055665614702
 30
0.0
 11
2.318575757092464
 21
208.4055665614702
 31
0.0
  0
LINE
  5
6973
330
6970
100
AcDbEntity
  8
0
 62
     3
440
 16777216
370
    -2
100
AcDbLine
 10
9.831054848676217
 20
160.8121985590623
 30
0.0
 11
2.318575757092453
 21
160.8121985590623
 31
0.0
  0
LINE
  5
6974
330
6970
100
AcDbEntity
  8
0
 62
     3
440
 16777216
370
    -2
100
AcDbLine
 10
2.498575757092464
 20
208.7805665614702
 30
0.0
 11
2.498575757092453
 21
160.4371985590623
 31
0.0
  0
INSERT
  5
6975
330
6970
100
AcDbEntity
  8
0
 62
     3
440
 16777216
370
    -2
100
AcDbBlockReference
  2
_ArchTick
 10
2.498575757092464
 20
208.4055665614702
 30
0.0
 41
0.18
 42
0.18
 43
0.18
 50
90.0
  0
INSERT
  5
6976
330
6970
100
AcDbEntity
  8
0
 62
     3
440
 16777216
370
    -2
100
AcDbBlockReference
  2
_ArchTick
 10
2.498575757092453
 20
160.8121985590623
 30
0.0
 41
0.18
 42
0.18
 43
0.18
 50
270.0
  0
MTEXT
  5
6977
330
6970
100
AcDbEntity
  8
0
 62
     0
440
 16777216
100
AcDbMText
 10
1.481965215364757
 20
184.6088825602662
 30
0.0
 40
0.75
 41
0.0
 46
0.0
 71
     5
 72
     1
  1
\A1;47{\H1.000000x;\S9/16;}"
 11
0.0000000000000001
 21
1.0
 31
0.0
 73
     1
 44
1.0
  0
POINT
  5
6978
330
6970
100
AcDbEntity
  8
Defpoints
 62
     0
440
 16777216
100
AcDbPoint
 10
15.59017235337489
 20
208.4055665614702
 30
0.0
  0
POINT
  5
6979
330
6970
100
AcDbEntity
  8
Defpoints
 62
     0
440
 16777216
100
AcDbPoint
 10
9.893554848676217
 20
160.8121985590623
 30
0.0
  0
POINT
  5
697A
330
6970
100
AcDbEntity
  8
Defpoints
 62
     0
440
 16777216
100
AcDbPoint
 10
2.498575757092453
 20
160.8121985590623
 30
0.0
  0
ENDBLK
  5
697B
330
6970
100
AcDbEntity
  8
0
100
AcDbBlockEnd
  0
BLOCK
  5
697D
330
697C
100
AcDbEntity
  8
0
100
AcDbBlockBegin
  2
*D13
 70
     1
 10
0.0
 20
0.0
 30
0.0
  3
*D13
  1

  0
LINE
  5
697E
330
697C
100
AcDbEntity
  8
0
 62
     3
440
 16777216
370
    -2
100
AcDbLine
 10
15.52048804392393
 20
197.499693958824
 30
0.0
 11
15.40298804392393
 21
197.499693958824
 31
0.0
  0
LINE
  5
697F
330
697C
100
AcDbEntity
  8
0
 62
     3
440
 16777216
370
    -2
100
AcDbLine
 10
15.52048804392393
 20
203.749693958824
 30
0.0
 11
15.40298804392393
 21
203.749693958824
 31
0.0
  0
LINE
  5
6980
330
697C
100
AcDbEntity
  8
0
 62
     3
440
 16777216
370
    -2
100
AcDbLine
 10
15.58298804392393
 20
197.124693958824
 30
0.0
 11
15.58298804392393
 21
204.124693958824
 31
0.0
  0
INSERT
  5
6981
330
697C
100
AcDbEntity
  8
0
 62
     3
440
 16777216
370
    -2
100
AcDbBlockReference
  2
_ArchTick
 10
15.58298804392393
 20
197.499693958824
 30
0.0
 41
0.18
 42
0.18
 43
0.18
 50
270.0
  0
INSERT
  5
6982
330
697C
100
AcDbEntity
  8
0
 62
     3
440
 16777216
370
    -2
100
AcDbBlockReference
  2
_ArchTick
 10
15.58298804392393
 20
203.749693958824
 30
0.0
 41
0.18
 42
0.18
 43
0.18
 50
90.0
  0
MTEXT
  5
6983
330
697C
100
AcDbEntity
  8
0
 62
     0
440
 16777216
100
AcDbMText
 10
14.59135920058568
 20
200.624693958824
 30
0.0
 40
0.75
 41
0.0
 46
0.0
 71
     5
 72
     1
  1
\A1;6{\H1.000000x;\S1/4;}"
 11
0.0000000000000001
 21
1.0
 31
0.0
 73
     1
 44
1.0
  0
POINT
  5
6984
330
697C
100
AcDbEntity
  8
Defpoints
 62
     0
440
 16777216
100
AcDbPoint
 10
15.58298804392393
 20
197.499693958824
 30
0.0
  0
POINT
  5
6985
330
697C
100
AcDbEntity
  8
Defpoints
 62
     0
440
 16777216
100
AcDbPoint
 10
15.58298804392393
 20
203.749693958824
 30
0.0
  0
POINT
  5
6986
330
697C
100
AcDbEntity
  8
Defpoints
 62
     0
440
 16777216
100
AcDbPoint
 10
15.58298804392393
 20
203.749693958824
 30
0.0
  0
ENDBLK
  5
6987
330
697C
100
AcDbEntity
  8
0
100
AcDbBlockEnd
  0
BLOCK
  5
6989
330
6988
100
AcDbEntity
  8
0
100
AcDbBlockBegin
  2
*D14
 70
     1
 10
0.0
 20
0.0
 30
0.0
  3
*D14
  1

  0
LINE
  5
698A
330
6988
100
AcDbEntity
  8
0
 62
     3
440
 16777216
370
    -2
100
AcDbLine
 10
18.15967524001519
 20
197.499693958824
 30
0.0
 11
25.48797294213739
 21
197.499693958824
 31
0.0
  0
LINE
  5
698B
330
6988
100
AcDbEntity
  8
0
 62
     3
440
 16777216
370
    -2
100
AcDbLine
 10
18.15967524001519
 20
172.3204187992173
 30
0.0
 11
25.48797294213738
 21
172.3204187992173
 31
0.0
  0
LINE
  5
698C
330
6988
100
AcDbEntity
  8
0
 62
     3
440
 16777216
370
    -2
100
AcDbLine
 10
25.30797294213739
 20
197.874693958824
 30
0.0
 11
25.30797294213738
 21
171.9454187992173
 31
0.0
  0
INSERT
  5
698D
330
6988
100
AcDbEntity
  8
0
 62
     3
440
 16777216
370
    -2
100
AcDbBlockReference
  2
_ArchTick
 10
25.30797294213739
 20
197.499693958824
 30
0.0
 41
0.18
 42
0.18
 43
0.18
 50
90.0
  0
INSERT
  5
698E
330
6988
100
AcDbEntity
  8
0
 62
     3
440
 16777216
370
    -2
100
AcDbBlockReference
  2
_ArchTick
 10
25.30797294213738
 20
172.3204187992173
 30
0.0
 41
0.18
 42
0.18
 43
0.18
 50
270.0
  0
MTEXT
  5
698F
330
6988
100
AcDbEntity
  8
0
 62
     0
440
 16777216
100
AcDbMText
 10
24.30042169762784
 20
184.9100563790207
 30
0.0
 40
0.75
 41
0.0
 46
0.0
 71
     5
 72
     1
  1
\A1;25{\H1.000000x;\S3/16;}"
 11
0.0000000000000001
 21
1.0
 31
0.0
 73
     1
 44
1.0
  0
POINT
  5
6990
330
6988
100
AcDbEntity
  8
Defpoints
 62
     0
440
 16777216
100
AcDbPoint
 10
18.09717524001519
 20
197.499693958824
 30
0.0
  0
POINT
  5
6991
330
6988
100
AcDbEntity
  8
Defpoints
 62
     0
440
 16777216
100
AcDbPoint
 10
18.09717524001519
 20
172.3204187992173
 30
0.0
  0
POINT
  5
6992
330
6988
100
AcDbEntity
  8
Defpoints
 62
     0
440
 16777216
100
AcDbPoint
 10
25.30797294213738
 20
172.3204187992173
 30
0.0
  0
ENDBLK
  5
6993
330
6988
100
AcDbEntity
  8
0
100
AcDbBlockEnd
  0
BLOCK
  5
6995
330
6994
100
AcDbEntity
  8
0
100
AcDbBlockBegin
  2
*D15
 70
     1
 10
0.0
 20
0.0
 30
0.0
  3
*D15
  1

  0
LINE
  5
6996
330
6994
100
AcDbEntity
  8
0
 62
     3
440
 16777216
370
    -2
100
AcDbLine
 10
13.13130084783222
 20
172.3204187992173
 30
0.0
 11
26.43401462677803
 21
172.3204187992173
 31
0.0
  0
LINE
  5
6997
330
6994
100
AcDbEntity
  8
0
 62
     3
440
 16777216
370
    -2
100
AcDbLine
 10
13.13130084783222
 20
160.8121985590623
 30
0.0
 11
26.43401462677803
 21
160.8121985590623
 31
0.0
  0
LINE
  5
6998
330
6994
100
AcDbEntity
  8
0
 62
     3
440
 16777216
370
    -2
100
AcDbLine
 10
26.25401462677804
 20
172.6954187992173
 30
0.0
 11
26.25401462677803
 21
160.4371985590623
 31
0.0
  0
INSERT
  5
6999
330
6994
100
AcDbEntity
  8
0
 62
     3
440
 16777216
370
    -2
100
AcDbBlockReference
  2
_ArchTick
 10
26.25401462677804
 20
172.3204187992173
 30
0.0
 41
0.18
 42
0.18
 43
0.18
 50
90.0
  0
INSERT
  5
699A
330
6994
100
AcDbEntity
  8
0
 62
     3
440
 16777216
370
    -2
100
AcDbBlockReference
  2
_ArchTick
 10
26.25401462677803
 20
160.8121985590623
 30
0.0
 41
0.18
 42
0.18
 43
0.18
 50
270.0
  0
MTEXT
  5
699B
330
6994
100
AcDbEntity
  8
0
 62
     0
440
 16777216
100
AcDbMText
 10
25.28187699866673
 20
166.5663086791398
 30
0.0
 40
0.75
 41
0.0
 46
0.0
 71
     5
 72
     1
  1
\A1;11{\H1.000000x;\S1/2;}"
 11
0.0000000000000001
 21
1.0
 31
0.0
 73
     1
 44
1.0
  0
POINT
  5
699C
330
6994
100
AcDbEntity
  8
Defpoints
 62
     0
440
 16777216
100
AcDbPoint
 10
13.06880084783222
 20
172.3204187992173
 30
0.0
  0
POINT
  5
699D
330
6994
100
AcDbEntity
  8
Defpoints
 62
     0
440
 16777216
100
AcDbPoint
 10
13.06880084783222
 20
160.8121985590623
 30
0.0
  0
POINT
  5
699E
330
6994
100
AcDbEntity
  8
Defpoints
 62
     0
440
 16777216
100
AcDbPoint
 10
26.25401462677803
 20
160.8121985590623
 30
0.0
  0
ENDBLK
  5
699F
330
6994
100
AcDbEntity
  8
0
100
AcDbBlockEnd
  0
BLOCK
  5
6AD9
330
6AD8
100
AcDbEntity
  8
0
100
AcDbBlockBegin
  2
*D17
 70
     1
 10
0.0
 20
0.0
 30
0.0
  3
*D17
  1

  0
LINE
  5
6B38
330
6AD8
100
AcDbEntity
  8
0
 62
     3
440
 16777216
370
    -2
100
AcDbLine
 10
9.351896858816132
 20
160.875093567408
 30
0.0
 11
9.351896858816132
 21
158.1659361104132
 31
0.0
  0
LINE
  5
6B39
330
6AD8
100
AcDbEntity
  8
0
 62
     3
440
 16777216
370
    -2
100
AcDbLine
 10
20.79037753617803
 20
160.8750935674087
 30
0.0
 11
20.79037753617803
 21
158.1659361104132
 31
0.0
  0
LINE
  5
6B3A
330
6AD8
100
AcDbEntity
  8
0
 62
     3
440
 16777216
370
    -2
100
AcDbLine
 10
8.976896858816132
 20
158.3459361104132
 30
0.0
 11
21.16537753617803
 21
158.3459361104132
 31
0.0
  0
INSERT
  5
6B3B
330
6AD8
100
AcDbEntity
  8
0
 62
     3
440
 16777216
370
    -2
100
AcDbBlockReference
  2
_ArchTick
 10
9.351896858816132
 20
158.3459361104132
 30
0.0
 41
0.18
 42
0.18
 43
0.18
 50
180.0
  0
INSERT
  5
6B3C
330
6AD8
100
AcDbEntity
  8
0
 62
     3
440
 16777216
370
    -2
100
AcDbBlockReference
  2
_ArchTick
 10
20.79037753617803
 20
158.3459361104132
 30
0.0
 41
0.18
 42
0.18
 43
0.18
  0
MTEXT
  5
6B3D
330
6AD8
100
AcDbEntity
  8
0
 62
     0
440
 16777216
100
AcDbMText
 10
15.07113719749708
 20
158.8603504588759
 30
0.0
 40
0.75
 41
0.0
 46
0.0
 71
     5
 72
     1
  1
\A1;11 1/2"
 73
     1
 44
1.0
  0
POINT
  5
6B3E
330
6AD8
100
AcDbEntity
  8
Defpoints
 62
     0
440
 16777216
100
AcDbPoint
 10
9.351896858816132
 20
160.937593567408
 30
0.0
  0
POINT
  5
6B3F
330
6AD8
100
AcDbEntity
  8
Defpoints
 62
     0
440
 16777216
100
AcDbPoint
 10
20.79037753617803
 20
160.9375935674087
 30
0.0
  0
POINT
  5
6B40
330
6AD8
100
AcDbEntity
  8
Defpoints
 62
     0
440
 16777216
100
AcDbPoint
 10
20.79037753617803
 20
158.3459361104132
 30
0.0
  0
ENDBLK
  5
6ADA
330
6AD8
100
AcDbEntity
  8
0
100
AcDbBlockEnd
  0
BLOCK
  5
6AE5
330
6AE4
100
AcDbEntity
  8
0
100
AcDbBlockBegin
  2
*D18
 70
     1
 10
0.0
 20
0.0
 30
0.0
  3
*D18
  1

  0
LINE
  5
6B41
330
6AE4
100
AcDbEntity
  8
0
 62
     3
440
 16777216
370
    -2
100
AcDbLine
 10
9.289396858816136
 20
160.937593567408
 30
0.0
 11
7.515520423557422
 21
160.937593567408
 31
0.0
  0
LINE
  5
6B42
330
6AE4
100
AcDbEntity
  8
0
 62
     3
440
 16777216
370
    -2
100
AcDbLine
 10
10.42224698860292
 20
169.4878359170499
 30
0.0
 11
7.51552042355742
 21
169.4878359170499
 31
0.0
  0
LINE
  5
6B43
330
6AE4
100
AcDbEntity
  8
0
 62
     3
440
 16777216
370
    -2
100
AcDbLine
 10
7.695520423557422
 20
160.5625935674081
 30
0.0
 11
7.69552042355742
 21
169.8628359170499
 31
0.0
  0
INSERT
  5
6B44
330
6AE4
100
AcDbEntity
  8
0
 62
     3
440
 16777216
370
    -2
100
AcDbBlockReference
  2
_ArchTick
 10
7.695520423557422
 20
160.937593567408
 30
0.0
 41
0.18
 42
0.18
 43
0.18
 50
270.0
  0
INSERT
  5
6B45
330
6AE4
100
AcDbEntity
  8
0
 62
     3
440
 16777216
370
    -2
100
AcDbBlockReference
  2
_ArchTick
 10
7.69552042355742
 20
169.4878359170499
 30
0.0
 41
0.18
 42
0.18
 43
0.18
 50
90.0
  0
MTEXT
  5
6B46
330
6AE4
100
AcDbEntity
  8
0
 62
     0
440
 16777216
100
AcDbMText
 10
7.181106075094801
 20
165.2127147422289
 30
0.0
 40
0.75
 41
0.0
 46
0.0
 71
     5
 72
     1
  1
\A1;8 1/2"
 11
0.0000000000000001
 21
1.0
 31
0.0
 73
     1
 44
1.0
  0
POINT
  5
6B47
330
6AE4
100
AcDbEntity
  8
Defpoints
 62
     0
440
 16777216
100
AcDbPoint
 10
9.351896858816136
 20
160.937593567408
 30
0.0
  0
POINT
  5
6B48
330
6AE4
100
AcDbEntity
  8
Defpoints
 62
     0
440
 16777216
100
AcDbPoint
 10
10.48474698860292
 20
169.4878359170499
 30
0.0
  0
POINT
  5
6B49
330
6AE4
100
AcDbEntity
  8
Defpoints
 62
     0
440
 16777216
100
AcDbPoint
 10
7.69552042355742
 20
169.4878359170499
 30
0.0
  0
ENDBLK
  5
6AE6
330
6AE4
100
AcDbEntity
  8
0
100
AcDbBlockEnd
  0
BLOCK
  5
6AF1
330
6AF0
100
AcDbEntity
  8
0
100
AcDbBlockBegin
  2
*D19
 70
     1
 10
0.0
 20
0.0
 30
0.0
  3
*D19
  1

  0
LINE
  5
6B4A
330
6AF0
100
AcDbEntity
  8
0
 62
     3
440
 16777216
370
    -2
100
AcDbLine
 10
9.289396858816136
 20
160.937593567408
 30
0.0
 11
5.057426930095537
 21
160.937593567408
 31
0.0
  0
LINE
  5
6B4B
330
6AF0
100
AcDbEntity
  8
0
 62
     3
440
 16777216
370
    -2
100
AcDbLine
 10
10.46464285797237
 20
203.8750889671697
 30
0.0
 11
5.057426930095527
 21
203.8750889671697
 31
0.0
  0
LINE
  5
6B4C
330
6AF0
100
AcDbEntity
  8
0
 62
     3
440
 16777216
370
    -2
100
AcDbLine
 10
5.237426930095536
 20
160.5625935674081
 30
0.0
 11
5.237426930095526
 21
204.2500889671698
 31
0.0
  0
INSERT
  5
6B4D
330
6AF0
100
AcDbEntity
  8
0
 62
     3
440
 16777216
370
    -2
100
AcDbBlockReference
  2
_ArchTick
 10
5.237426930095536
 20
160.937593567408
 30
0.0
 41
0.18
 42
0.18
 43
0.18
 50
270.0
  0
INSERT
  5
6B4E
330
6AF0
100
AcDbEntity
  8
0
 62
     3
440
 16777216
370
    -2
100
AcDbBlockReference
  2
_ArchTick
 10
5.237426930095526
 20
203.8750889671697
 30
0.0
 41
0.18
 42
0.18
 43
0.18
 50
90.0
  0
MTEXT
  5
6B4F
330
6AF0
100
AcDbEntity
  8
0
 62
     0
440
 16777216
100
AcDbMText
 10
4.230973782218569
 20
182.4063412672888
 30
0.0
 40
0.75
 41
0.0
 46
0.0
 71
     5
 72
     1
  1
\A1;42{\H1x;\S15/16;}"
 11
0.0000000000000001
 21
1.0
 31
0.0
 73
     1
 44
1.0
  0
POINT
  5
6B50
330
6AF0
100
AcDbEntity
  8
Defpoints
 62
     0
440
 16777216
100
AcDbPoint
 10
9.351896858816136
 20
160.937593567408
 30
0.0
  0
POINT
  5
6B51
330
6AF0
100
AcDbEntity
  8
Defpoints
 62
     0
440
 16777216
100
AcDbPoint
 10
10.52714285797237
 20
203.8750889671697
 30
0.0
  0
POINT
  5
6B52
330
6AF0
100
AcDbEntity
  8
Defpoints
 62
     0
440
 16777216
100
AcDbPoint
 10
5.237426930095526
 20
203.8750889671697
 30
0.0
  0
ENDBLK
  5
6AF2
330
6AF0
100
AcDbEntity
  8
0
100
AcDbBlockEnd
  0
BLOCK
  5
6AFD
330
6AFC
100
AcDbEntity
  8
0
100
AcDbBlockBegin
  2
*D20
 70
     1
 10
0.0
 20
0.0
 30
0.0
  3
*D20
  1

  0
LINE
  5
6B53
330
6AFC
100
AcDbEntity
  8
0
 62
     3
440
 16777216
370
    -2
100
AcDbLine
 10
10.52714285797236
 20
169.5503359170499
 30
0.0
 11
10.52714285797236
 21
170.9428570244538
 31
0.0
  0
LINE
  5
6B54
330
6AFC
100
AcDbEntity
  8
0
 62
     3
440
 16777216
370
    -2
100
AcDbLine
 10
19.5555172501551
 20
169.5503359170499
 30
0.0
 11
19.5555172501551
 21
170.9428570244538
 31
0.0
  0
LINE
  5
6B55
330
6AFC
100
AcDbEntity
  8
0
 62
     3
440
 16777216
370
    -2
100
AcDbLine
 10
10.15214285797236
 20
170.7628570244537
 30
0.0
 11
19.9305172501551
 21
170.7628570244537
 31
0.0
  0
INSERT
  5
6B56
330
6AFC
100
AcDbEntity
  8
0
 62
     3
440
 16777216
370
    -2
100
AcDbBlockReference
  2
_ArchTick
 10
10.52714285797236
 20
170.7628570244537
 30
0.0
 41
0.18
 42
0.18
 43
0.18
 50
180.0
  0
INSERT
  5
6B57
330
6AFC
100
AcDbEntity
  8
0
 62
     3
440
 16777216
370
    -2
100
AcDbBlockReference
  2
_ArchTick
 10
19.5555172501551
 20
170.7628570244537
 30
0.0
 41
0.18
 42
0.18
 43
0.18
  0
MTEXT
  5
6B58
330
6AFC
100
AcDbEntity
  8
0
 62
     0
440
 16777216
100
AcDbMText
 10
15.04133005406373
 20
171.2402106115694
 30
0.0
 40
0.75
 41
0.0
 46
0.0
 71
     5
 72
     1
  1
\A1;9"
 73
     1
 44
1.0
  0
POINT
  5
6B59
330
6AFC
100
AcDbEntity
  8
Defpoints
 62
     0
440
 16777216
100
AcDbPoint
 10
10.52714285797236
 20
169.4878359170499
 30
0.0
  0
POINT
  5
6B5A
330
6AFC
100
AcDbEntity
  8
Defpoints
 62
     0
440
 16777216
100
AcDbPoint
 10
19.5555172501551
 20
169.4878359170499
 30
0.0
  0
POINT
  5
6B5B
330
6AFC
100
AcDbEntity
  8
Defpoints
 62
     0
440
 16777216
100
AcDbPoint
 10
19.5555172501551
 20
170.7628570244537
 30
0.0
  0
ENDBLK
  5
6AFE
330
6AFC
100
AcDbEntity
  8
0
100
AcDbBlockEnd
  0
BLOCK
  5
6B09
330
6B08
100
AcDbEntity
  8
0
100
AcDbBlockBegin
  2
*D21
 70
     1
 10
0.0
 20
0.0
 30
0.0
  3
*D21
  1

  0
LINE
  5
6B5C
330
6B08
100
AcDbEntity
  8
0
 62
     3
440
 16777216
370
    -2
100
AcDbLine
 10
14.98601436351482
 20
208.530961569816
 30
0.0
 11
1.77691776723236
 21
208.530961569816
 31
0.0
  0
LINE
  5
6B5D
330
6B08
100
AcDbEntity
  8
0
 62
     3
440
 16777216
370
    -2
100
AcDbLine
 10
9.289396858816136
 20
160.937593567408
 30
0.0
 11
1.776917767232371
 21
160.937593567408
 31
0.0
  0
LINE
  5
6B5E
330
6B08
100
AcDbEntity
  8
0
 62
     3
440
 16777216
370
    -2
100
AcDbLine
 10
1.95691776723236
 20
208.905961569816
 30
0.0
 11
1.95691776723237
 21
160.5625935674081
 31
0.0
  0
INSERT
  5
6B5F
330
6B08
100
AcDbEntity
  8
0
 62
     3
440
 16777216
370
    -2
100
AcDbBlockReference
  2
_ArchTick
 10
1.95691776723236
 20
208.530961569816
 30
0.0
 41
0.18
 42
0.18
 43
0.18
 50
90.0
  0
INSERT
  5
6B60
330
6B08
100
AcDbEntity
  8
0
 62
     3
440
 16777216
370
    -2
100
AcDbBlockReference
  2
_ArchTick
 10
1.95691776723237
 20
160.937593567408
 30
0.0
 41
0.18
 42
0.18
 43
0.18
 50
270.0
  0
MTEXT
  5
6B61
330
6B08
100
AcDbEntity
  8
0
 62
     0
440
 16777216
100
AcDbMText
 10
0.9403072255047453
 20
184.734277568612
 30
0.0
 40
0.75
 41
0.0
 46
0.0
 71
     5
 72
     1
  1
\A1;47{\H1x;\S9/16;}"
 11
0.0000000000000001
 21
1.0
 31
0.0
 73
     1
 44
1.0
  0
POINT
  5
6B62
330
6B08
100
AcDbEntity
  8
Defpoints
 62
     0
440
 16777216
100
AcDbPoint
 10
15.04851436351482
 20
208.530961569816
 30
0.0
  0
POINT
  5
6B63
330
6B08
100
AcDbEntity
  8
Defpoints
 62
     0
440
 16777216
100
AcDbPoint
 10
9.351896858816136
 20
160.937593567408
 30
0.0
  0
POINT
  5
6B64
330
6B08
100
AcDbEntity
  8
Defpoints
 62
     0
440
 16777216
100
AcDbPoint
 10
1.95691776723237
 20
160.937593567408
 30
0.0
  0
ENDBLK
  5
6B0A
330
6B08
100
AcDbEntity
  8
0
100
AcDbBlockEnd
  0
BLOCK
  5
6B15
330
6B14
100
AcDbEntity
  8
0
100
AcDbBlockBegin
  2
*D22
 70
     1
 10
0.0
 20
0.0
 30
0.0
  3
*D22
  1

  0
LINE
  5
6B65
330
6B14
100
AcDbEntity
  8
0
 62
     3
440
 16777216
370
    -2
100
AcDbLine
 10
14.97883005406385
 20
197.6250889671698
 30
0.0
 11
14.86133005406385
 21
197.6250889671698
 31
0.0
  0
LINE
  5
6B66
330
6B14
100
AcDbEntity
  8
0
 62
     3
440
 16777216
370
    -2
100
AcDbLine
 10
14.97883005406385
 20
203.8750889671698
 30
0.0
 11
14.86133005406385
 21
203.8750889671698
 31
0.0
  0
LINE
  5
6B67
330
6B14
100
AcDbEntity
  8
0
 62
     3
440
 16777216
370
    -2
100
AcDbLine
 10
15.04133005406386
 20
197.2500889671698
 30
0.0
 11
15.04133005406385
 21
204.2500889671698
 31
0.0
  0
INSERT
  5
6B68
330
6B14
100
AcDbEntity
  8
0
 62
     3
440
 16777216
370
    -2
100
AcDbBlockReference
  2
_ArchTick
 10
15.04133005406386
 20
197.6250889671698
 30
0.0
 41
0.18
 42
0.18
 43
0.18
 50
270.0
  0
INSERT
  5
6B69
330
6B14
100
AcDbEntity
  8
0
 62
     3
440
 16777216
370
    -2
100
AcDbBlockReference
  2
_ArchTick
 10
15.04133005406386
 20
203.8750889671698
 30
0.0
 41
0.18
 42
0.18
 43
0.18
 50
90.0
  0
MTEXT
  5
6B6A
330
6B14
100
AcDbEntity
  8
0
 62
     0
440
 16777216
100
AcDbMText
 10
14.0497012107257
 20
200.7500889671697
 30
0.0
 40
0.75
 41
0.0
 46
0.0
 71
     5
 72
     1
  1
\A1;6{\H1x;\S1/4;}"
 11
0.0000000000000001
 21
1.0
 31
0.0
 73
     1
 44
1.0
  0
POINT
  5
6B6B
330
6B14
100
AcDbEntity
  8
Defpoints
 62
     0
440
 16777216
100
AcDbPoint
 10
15.04133005406385
 20
197.6250889671698
 30
0.0
  0
POINT
  5
6B6C
330
6B14
100
AcDbEntity
  8
Defpoints
 62
     0
440
 16777216
100
AcDbPoint
 10
15.04133005406385
 20
203.8750889671698
 30
0.0
  0
POINT
  5
6B6D
330
6B14
100
AcDbEntity
  8
Defpoints
 62
     0
440
 16777216
100
AcDbPoint
 10
15.04133005406386
 20
203.8750889671698
 30
0.0
  0
ENDBLK
  5
6B16
330
6B14
100
AcDbEntity
  8
0
100
AcDbBlockEnd
  0
BLOCK
  5
6B21
330
6B20
100
AcDbEntity
  8
0
100
AcDbBlockBegin
  2
*D23
 70
     1
 10
0.0
 20
0.0
 30
0.0
  3
*D23
  1

  0
LINE
  5
6B6E
330
6B20
100
AcDbEntity
  8
0
 62
     3
440
 16777216
370
    -2
100
AcDbLine
 10
17.61801725015511
 20
197.6250889671698
 30
0.0
 11
24.94631495227733
 21
197.6250889671698
 31
0.0
  0
LINE
  5
6B6F
330
6B20
100
AcDbEntity
  8
0
 62
     3
440
 16777216
370
    -2
100
AcDbLine
 10
17.61801725015511
 20
172.4458138075631
 30
0.0
 11
24.94631495227733
 21
172.4458138075631
 31
0.0
  0
LINE
  5
6B70
330
6B20
100
AcDbEntity
  8
0
 62
     3
440
 16777216
370
    -2
100
AcDbLine
 10
24.76631495227732
 20
198.0000889671698
 30
0.0
 11
24.76631495227733
 21
172.0708138075631
 31
0.0
  0
INSERT
  5
6B71
330
6B20
100
AcDbEntity
  8
0
 62
     3
440
 16777216
370
    -2
100
AcDbBlockReference
  2
_ArchTick
 10
24.76631495227732
 20
197.6250889671698
 30
0.0
 41
0.18
 42
0.18
 43
0.18
 50
90.0
  0
INSERT
  5
6B72
330
6B20
100
AcDbEntity
  8
0
 62
     3
440
 16777216
370
    -2
100
AcDbBlockReference
  2
_ArchTick
 10
24.76631495227733
 20
172.4458138075631
 30
0.0
 41
0.18
 42
0.18
 43
0.18
 50
270.0
  0
MTEXT
  5
6B73
330
6B20
100
AcDbEntity
  8
0
 62
     0
440
 16777216
100
AcDbMText
 10
23.75876370776785
 20
185.0354513873664
 30
0.0
 40
0.75
 41
0.0
 46
0.0
 71
     5
 72
     1
  1
\A1;25{\H1x;\S3/16;}"
 11
0.0000000000000001
 21
1.0
 31
0.0
 73
     1
 44
1.0
  0
POINT
  5
6B74
330
6B20
100
AcDbEntity
  8
Defpoints
 62
     0
440
 16777216
100
AcDbPoint
 10
17.55551725015511
 20
197.6250889671698
 30
0.0
  0
POINT
  5
6B75
330
6B20
100
AcDbEntity
  8
Defpoints
 62
     0
440
 16777216
100
AcDbPoint
 10
17.55551725015511
 20
172.4458138075631
 30
0.0
  0
POINT
  5
6B76
330
6B20
100
AcDbEntity
  8
Defpoints
 62
     0
440
 16777216
100
AcDbPoint
 10
24.76631495227733
 20
172.4458138075631
 30
0.0
  0
ENDBLK
  5
6B22
330
6B20
100
AcDbEntity
  8
0
100
AcDbBlockEnd
  0
BLOCK
  5
6B2D
330
6B2C
100
AcDbEntity
  8
0
100
AcDbBlockBegin
  2
*D24
 70
     1
 10
0.0
 20
0.0
 30
0.0
  3
*D24
  1

  0
LINE
  5
6B77
330
6B2C
100
AcDbEntity
  8
0
 62
     3
440
 16777216
370
    -2
100
AcDbLine
 10
12.58964285797214
 20
172.4458138075631
 30
0.0
 11
25.89235663691797
 21
172.4458138075631
 31
0.0
  0
LINE
  5
6B78
330
6B2C
100
AcDbEntity
  8
0
 62
     3
440
 16777216
370
    -2
100
AcDbLine
 10
12.58964285797214
 20
160.937593567408
 30
0.0
 11
25.89235663691797
 21
160.937593567408
 31
0.0
  0
LINE
  5
6B79
330
6B2C
100
AcDbEntity
  8
0
 62
     3
440
 16777216
370
    -2
100
AcDbLine
 10
25.71235663691797
 20
172.8208138075631
 30
0.0
 11
25.71235663691798
 21
160.5625935674081
 31
0.0
  0
INSERT
  5
6B7A
330
6B2C
100
AcDbEntity
  8
0
 62
     3
440
 16777216
370
    -2
100
AcDbBlockReference
  2
_ArchTick
 10
25.71235663691797
 20
172.4458138075631
 30
0.0
 41
0.18
 42
0.18
 43
0.18
 50
90.0
  0
INSERT
  5
6B7B
330
6B2C
100
AcDbEntity
  8
0
 62
     3
440
 16777216
370
    -2
100
AcDbBlockReference
  2
_ArchTick
 10
25.71235663691798
 20
160.937593567408
 30
0.0
 41
0.18
 42
0.18
 43
0.18
 50
270.0
  0
MTEXT
  5
6B7C
330
6B2C
100
AcDbEntity
  8
0
 62
     0
440
 16777216
100
AcDbMText
 10
24.74021900880674
 20
166.6917036874855
 30
0.0
 40
0.75
 41
0.0
 46
0.0
 71
     5
 72
     1
  1
\A1;11{\H1x;\S1/2;}"
 11
0.0000000000000001
 21
1.0
 31
0.0
 73
     1
 44
1.0
  0
POINT
  5
6B7D
330
6B2C
100
AcDbEntity
  8
Defpoints
 62
     0
440
 16777216
100
AcDbPoint
 10
12.52714285797214
 20
172.4458138075631
 30
0.0
  0
POINT
  5
6B7E
330
6B2C
100
AcDbEntity
  8
Defpoints
 62
     0
440
 16777216
100
AcDbPoint
 10
12.52714285797214
 20
160.937593567408
 30
0.0
  0
POINT
  5
6B7F
330
6B2C
100
AcDbEntity
  8
Defpoints
 62
     0
440
 16777216
100
AcDbPoint
 10
25.71235663691798
 20
160.937593567408
 30
0.0
  0
ENDBLK
  5
6B2E
330
6B2C
100
AcDbEntity
  8
0
100
AcDbBlockEnd
  0
ENDSEC
  0
SECTION
  2
ENTITIES
  0
MTEXT
  5
67E3
330
18
100
AcDbEntity
  8
0
100
AcDbMText
 10
11.55067032159957
 20
156.9081835207692
 30
0.0
 40
1.0
 41
16.86657211002273
 46
0.0
 71
     1
 72
     5
  1
{\fStylus BT|b0|i0|c0|p34;\L1501-0942}
  7
STYLE1
 73
     1
 44
1.0
1001
ACAD
1000
ACAD_MTEXT_COLUMN_INFO_BEGIN
1070
    75
1070
     2
1070
    79
1070
     0
1070
    76
1070
     1
1070
    78
1070
     0
1070
    48
1040
16.86657211002273
1070
    49
1040
2.5
1070
    50
1070
     1
1040
0.0
1000
ACAD_MTEXT_COLUMN_INFO_END
  0
LINE
  5
6A3E
330
18
100
AcDbEntity
  8
0
100
AcDbLine
 10
19.5555172501551
 20
203.8750889671697
 30
0.0
 11
19.5555172501551
 21
171.9082634942281
 31
0.0
  0
LINE
  5
6A3F
330
18
100
AcDbEntity
  8
0
100
AcDbLine
 10
10.52714285797236
 20
203.8750889671697
 30
0.0
 11
10.52714285797236
 21
171.9082634942281
 31
0.0
  0
LINE
  5
6A40
330
18
100
AcDbEntity
  8
0
100
AcDbLine
 10
12.52714285797259
 20
197.6250889671696
 30
0.0
 11
12.52714285797213
 21
172.445813807563
 31
0.0
  0
LINE
  5
6A41
330
18
100
AcDbEntity
  8
0
100
AcDbLine
 10
13.02714285797259
 20
197.1250889671697
 30
0.0
 11
13.02714285797214
 21
172.945813807563
 31
0.0
  0
LINE
  5
6A42
330
18
100
AcDbEntity
  8
0
100
AcDbLine
 10
17.0555172501551
 20
197.1250889671697
 30
0.0
 11
17.0555172501551
 21
172.945813807563
 31
0.0
  0
LINE
  5
6A43
330
18
100
AcDbEntity
  8
0
100
AcDbLine
 10
17.5555172501551
 20
197.6250889671696
 30
0.0
 11
17.5555172501551
 21
172.445813807563
 31
0.0
  0
LINE
  5
6A44
330
18
100
AcDbEntity
  8
0
100
AcDbLine
 10
12.77714285797259
 20
197.3750889671697
 30
0.0
 11
12.77714285797214
 21
172.695813807563
 31
0.0
  0
LINE
  5
6A45
330
18
100
AcDbEntity
  8
0
100
AcDbLine
 10
17.3055172501551
 20
197.3750889671697
 30
0.0
 11
17.3055172501551
 21
172.695813807563
 31
0.0
  0
LINE
  5
6A46
330
18
100
AcDbEntity
  8
0
100
AcDbLine
 10
19.5555172501551
 20
203.8750889671697
 30
0.0
 11
19.5555172501551
 21
171.6599707365103
 31
0.0
  0
LINE
  5
6A47
330
18
100
AcDbEntity
  8
0
100
AcDbLine
 10
19.5555172501551
 20
203.8750889671697
 30
0.0
 11
19.5555172501551
 21
171.5482389955373
 31
0.0
  0
LINE
  5
6A48
330
18
100
AcDbEntity
  8
0
100
AcDbLine
 10
19.5555172501551
 20
203.8750889671697
 30
0.0
 11
19.5555172501551
 21
171.7841171153692
 31
0.0
  0
LINE
  5
6A49
330
18
100
AcDbEntity
  8
0
100
AcDbLine
 10
9.351896858816132
 20
167.8413555356864
 30
0.0
 11
9.351896858816132
 21
160.937593567408
 31
0.0
  0
LINE
  5
6A4A
330
18
100
AcDbEntity
  8
0
100
AcDbLine
 10
20.79037753617757
 20
167.8413555356864
 30
0.0
 11
20.79037753617803
 21
160.937593567408
 31
0.0
  0
LINE
  5
6A4B
330
18
100
AcDbEntity
  8
0
100
AcDbLine
 10
9.351896858816132
 20
160.937593567408
 30
0.0
 11
20.79037753617803
 21
160.937593567408
 31
0.0
  0
LINE
  5
6A4C
330
18
100
AcDbEntity
  8
0
100
AcDbLine
 10
19.5555172501551
 20
169.4878359170499
 30
0.0
 11
19.5555172501551
 21
173.9528057375192
 31
0.0
  0
LINE
  5
6A4D
330
18
100
AcDbEntity
  8
0
100
AcDbLine
 10
19.5555172501551
 20
169.4878359170499
 30
0.0
 11
19.5555172501551
 21
173.5000587554722
 31
0.0
  0
LINE
  5
6A4E
330
18
100
AcDbEntity
  8
0
100
AcDbLine
 10
19.5555172501551
 20
169.4878359170499
 30
0.0
 11
19.5555172501551
 21
174.6713226135511
 31
0.0
  0
LINE
  5
6A4F
330
18
100
AcDbEntity
  8
0
100
AcDbLine
 10
19.5555172501551
 20
169.4878359170499
 30
0.0
 11
19.5555172501551
 21
175.1014322464957
 31
0.0
  0
LINE
  5
6A50
330
18
100
AcDbEntity
  8
0
100
AcDbLine
 10
17.0555172501551
 20
172.945813807563
 30
0.0
 11
14.02714285797214
 21
172.945813807563
 31
0.0
  0
LINE
  5
6A51
330
18
100
AcDbEntity
  8
0
100
AcDbLine
 10
17.5555172501551
 20
172.445813807563
 30
0.0
 11
14.02714285797214
 21
172.445813807563
 31
0.0
  0
LINE
  5
6A52
330
18
100
AcDbEntity
  8
0
100
AcDbLine
 10
17.3055172501551
 20
172.695813807563
 30
0.0
 11
12.77714285797214
 21
172.695813807563
 31
0.0
  0
LINE
  5
6A53
330
18
100
AcDbEntity
  8
0
100
AcDbLine
 10
9.74649210667502
 20
168.574956495838
 30
0.0
 11
20.39578228830686
 21
168.5749564958381
 31
0.0
  0
LINE
  5
6A54
330
18
100
AcDbEntity
  8
0
100
AcDbLine
 10
9.629781989361106
 20
167.9688245425986
 30
0.0
 11
20.5124924056326
 21
167.9688245425986
 31
0.0
  0
LINE
  5
6A55
330
18
100
AcDbEntity
  8
0
100
AcDbLine
 10
10.58675714483882
 20
169.4878359170488
 30
0.0
 11
19.75953756262669
 21
169.4878359170499
 31
0.0
  0
LINE
  5
6A56
330
18
100
AcDbEntity
  8
0
100
AcDbLine
 10
9.351896858816132
 20
167.8413555356864
 30
0.0
 11
20.79037753617757
 21
167.8413555356864
 31
0.0
  0
LINE
  5
6A57
330
18
100
AcDbEntity
  8
0
100
AcDbLine
 10
9.351896858816132
 20
167.8413555356864
 30
0.0
 11
20.79037753617757
 21
167.8413555356864
 31
0.0
  0
LINE
  5
6A58
330
18
100
AcDbEntity
  8
0
100
AcDbLine
 10
10.52714285797236
 20
169.4878359170499
 30
0.0
 11
10.52714285797236
 21
171.9082634942281
 31
0.0
  0
LINE
  5
6A59
330
18
100
AcDbEntity
  8
0
100
AcDbLine
 10
13.02714285797214
 20
172.945813807563
 30
0.0
 11
14.02714285797214
 21
172.945813807563
 31
0.0
  0
LINE
  5
6A5A
330
18
100
AcDbEntity
  8
0
100
AcDbLine
 10
12.52714285797213
 20
172.445813807563
 30
0.0
 11
14.02714285797214
 21
172.445813807563
 31
0.0
  0
LINE
  5
6A5B
330
18
100
AcDbEntity
  8
0
100
AcDbLine
 10
10.58675714483882
 20
169.4878359170499
 30
0.0
 11
12.29675714483886
 21
169.4878359170499
 31
0.0
  0
ARC
  5
6A5C
330
18
100
AcDbEntity
  8
0
100
AcDbCircle
 10
10.38273683236701
 20
169.4466739075158
 30
0.0
 40
0.0411620095340855
100
AcDbArc
 50
90.0
 51
180.0
  0
ARC
  5
6A5D
330
18
100
AcDbEntity
  8
0
100
AcDbCircle
 10
9.841180476693978
 20
168.6443205751248
 30
0.0
 40
0.0823240190681711
100
AcDbArc
 50
83.37596298735206
 51
135.9338172232616
  0
ARC
  5
6A5E
330
18
100
AcDbEntity
  8
0
100
AcDbCircle
 10
9.851598003618562
 20
169.1621692490767
 30
0.0
 40
0.4360751850984151
100
AcDbArc
 50
269.8789727374
 51
301.2350089938721
  0
ARC
  5
6A5F
330
18
100
AcDbEntity
  8
0
100
AcDbCircle
 10
10.03475869796165
 20
168.8595265487967
 30
0.0
 40
0.0823240190681711
100
AcDbArc
 50
301.4605981779169
 51
326.6163899448025
  0
ARC
  5
6A60
330
18
100
AcDbEntity
  8
0
100
AcDbCircle
 10
9.106016345071509
 20
169.5507496279416
 30
0.0
 40
1.239934073872569
100
AcDbArc
 50
323.5586019318178
 51
355.185128020465
  0
LINE
  5
6A61
330
18
100
AcDbEntity
  8
0
100
AcDbLine
 10
10.58675714483882
 20
169.4878359170498
 30
0.0
 11
10.38273683236701
 21
169.4878359170499
 31
0.0
  0
LINE
  5
6A62
330
18
100
AcDbEntity
  8
0
100
AcDbLine
 10
9.746492106687071
 20
168.6265277921708
 30
0.0
 11
9.746492106687071
 21
168.5749564958381
 31
0.0
  0
LINE
  5
6A63
330
18
100
AcDbEntity
  8
0
100
AcDbLine
 10
9.629781989360878
 20
167.9688245425986
 30
0.0
 11
9.629781989360878
 21
167.8413555356864
 31
0.0
  0
ARC
  5
6A64
330
18
100
AcDbEntity
  8
0
100
AcDbCircle
 10
9.860044193687315
 20
168.3676463721661
 30
0.0
 40
0.4605209381565943
100
AcDbArc
 50
192.001038678445
 51
239.9997507100869
  0
ARC
  5
6A65
330
18
100
AcDbEntity
  8
0
100
AcDbCircle
 10
9.752250936624875
 20
168.2297620526626
 30
0.0
 40
0.3452424767052647
100
AcDbArc
 50
90.95576870102663
 51
172.9909721117066
  0
ARC
  5
6A66
330
18
100
AcDbEntity
  8
0
100
AcDbCircle
 10
9.874938707615172
 20
168.6116451874998
 30
0.0
 40
0.1293059210239101
100
AcDbArc
 50
135.9338172232616
 51
173.390833157003
  0
LINE
  5
6A67
330
18
100
AcDbEntity
  8
0
100
AcDbLine
 10
19.5555172501551
 20
171.9082634942281
 30
0.0
 11
19.5555172501551
 21
169.4878359170499
 31
0.0
  0
LINE
  5
6A68
330
18
100
AcDbEntity
  8
0
100
AcDbLine
 10
19.5555172501551
 20
171.6599707365103
 30
0.0
 11
19.5555172501551
 21
169.4878359170499
 31
0.0
  0
ARC
  5
6A69
330
18
100
AcDbEntity
  8
0
100
AcDbCircle
 10
20.30109391829973
 20
168.6443205751248
 30
0.0
 40
0.0823240190681711
100
AcDbArc
 50
44.06618277673834
 51
96.62403701264793
  0
ARC
  5
6A6A
330
18
100
AcDbEntity
  8
0
100
AcDbCircle
 10
20.10751569703206
 20
168.8595265487967
 30
0.0
 40
0.0823240190681711
100
AcDbArc
 50
213.3836100551975
 51
238.5394018220829
  0
ARC
  5
6A6B
330
18
100
AcDbEntity
  8
0
100
AcDbCircle
 10
21.0362580499222
 20
169.5507496279416
 30
0.0
 40
1.239934073872569
100
AcDbArc
 50
184.8148719795349
 51
216.4413980681802
  0
ARC
  5
6A6C
330
18
100
AcDbEntity
  8
0
100
AcDbCircle
 10
20.28223020130662
 20
168.3676463721661
 30
0.0
 40
0.4605209381565943
100
AcDbArc
 50
300.0002492899131
 51
347.9989613215549
  0
ARC
  5
6A6D
330
18
100
AcDbEntity
  8
0
100
AcDbCircle
 10
20.3900234583686
 20
168.2297620526626
 30
0.0
 40
0.3452424767052647
100
AcDbArc
 50
7.009027888293381
 51
89.04423129897338
  0
ARC
  5
6A6E
330
18
100
AcDbEntity
  8
0
100
AcDbCircle
 10
19.75953756262669
 20
169.4466739075158
 30
0.0
 40
0.0411620095340855
100
AcDbArc
 50
0.0
 51
90.0
  0
ARC
  5
6A6F
330
18
100
AcDbEntity
  8
0
100
AcDbCircle
 10
20.26733568737853
 20
168.6116451874998
 30
0.0
 40
0.1293059210239101
100
AcDbArc
 50
6.609166842996924
 51
44.06618277673834
  0
LINE
  5
6A70
330
18
100
AcDbEntity
  8
0
100
AcDbLine
 10
20.39578228830663
 20
168.6265277921708
 30
0.0
 11
20.39578228830663
 21
168.5749564958381
 31
0.0
  0
LINE
  5
6A71
330
18
100
AcDbEntity
  8
0
100
AcDbLine
 10
20.51249240563283
 20
167.9688245425986
 30
0.0
 11
20.51249240563283
 21
167.8413555356864
 31
0.0
  0
ARC
  5
6A72
330
18
100
AcDbEntity
  8
0
100
AcDbCircle
 10
20.29067639137514
 20
169.1621692490767
 30
0.0
 40
0.4360751850984151
100
AcDbArc
 50
238.7649910061278
 51
270.1210272626
  0
LINE
  5
6A73
330
18
100
AcDbEntity
  8
0
100
AcDbLine
 10
20.66278144203869
 20
167.8413555356864
 30
0.0
 11
15.70919828892892
 21
167.8413555356864
 31
0.0
  0
LINE
  5
6A74
330
18
100
AcDbEntity
  8
0
100
AcDbLine
 10
19.5555172501551
 20
171.5482389955373
 30
0.0
 11
19.5555172501551
 21
169.4878359170499
 31
0.0
  0
LINE
  5
6A75
330
18
100
AcDbEntity
  8
0
100
AcDbLine
 10
19.5555172501551
 20
171.7841171153692
 30
0.0
 11
19.5555172501551
 21
169.4878359170499
 31
0.0
  0
LINE
  5
6A76
330
18
100
AcDbEntity
  8
0
100
AcDbLine
 10
19.5555172501551
 20
203.8225617066637
 30
0.0
 11
19.5555172501551
 21
202.3489582666648
 31
0.0
  0
LINE
  5
6A77
330
18
100
AcDbEntity
  8
0
100
AcDbLine
 10
10.52714285797236
 20
203.8750889671696
 30
0.0
 11
10.52714285797236
 21
202.4311241117016
 31
0.0
  0
LINE
  5
6A78
330
18
100
AcDbEntity
  8
0
100
AcDbLine
 10
19.55551725015488
 20
203.8750889671696
 30
0.0
 11
19.5555172501551
 21
202.5540960317033
 31
0.0
  0
LINE
  5
6A79
330
18
100
AcDbEntity
  8
0
100
AcDbLine
 10
19.5555172501551
 20
203.8750889671697
 30
0.0
 11
19.5555172501551
 21
202.6151580259706
 31
0.0
  0
LINE
  5
6A7A
330
18
100
AcDbEntity
  8
0
100
AcDbLine
 10
19.5555172501551
 20
203.820200417183
 30
0.0
 11
19.5555172501551
 21
202.420277149184
 31
0.0
  0
LINE
  5
6A7B
330
18
100
AcDbEntity
  8
0
100
AcDbLine
 10
17.0555172501551
 20
197.1250889671697
 30
0.0
 11
14.02714285797236
 21
197.1250889671697
 31
0.0
  0
LINE
  5
6A7C
330
18
100
AcDbEntity
  8
0
100
AcDbLine
 10
17.5555172501551
 20
197.6250889671696
 30
0.0
 11
14.02714285797236
 21
197.6250889671696
 31
0.0
  0
LINE
  5
6A7D
330
18
100
AcDbEntity
  8
0
100
AcDbLine
 10
12.77714285797259
 20
197.3750889671697
 30
0.0
 11
17.3055172501551
 21
197.3750889671697
 31
0.0
  0
LINE
  5
6A7E
330
18
100
AcDbEntity
  8
0
100
AcDbLine
 10
13.02714285797259
 20
197.1250889671697
 30
0.0
 11
14.02714285797236
 21
197.1250889671697
 31
0.0
  0
LINE
  5
6A7F
330
18
100
AcDbEntity
  8
0
100
AcDbLine
 10
12.52714285797259
 20
197.6250889671696
 30
0.0
 11
14.02714285797236
 21
197.6250889671696
 31
0.0
  0
LINE
  5
6A80
330
18
100
AcDbEntity
  8
0
100
AcDbLine
 10
10.962993986757
 20
207.662281067408
 30
0.0
 11
19.12223533116861
 21
207.662281067408
 31
0.0
  0
LINE
  5
6A81
330
18
100
AcDbEntity
  8
0
100
AcDbLine
 10
10.81374277862841
 20
207.662281067408
 30
0.0
 11
16.76799277862841
 21
207.662281067408
 31
0.0
  0
LINE
  5
6A82
330
18
100
AcDbEntity
  8
0
100
AcDbLine
 10
16.55424277862852
 20
207.662281067408
 30
0.0
 11
10.81374277862841
 21
207.662281067408
 31
0.0
  0
LINE
  5
6A83
330
18
100
AcDbEntity
  8
0
100
AcDbLine
 10
11.13436777862847
 20
207.662281067408
 30
0.0
 11
16.76799277862841
 21
207.662281067408
 31
0.0
  0
LINE
  5
6A84
330
18
100
AcDbEntity
  8
0
100
AcDbLine
 10
11.13436777862847
 20
207.662281067408
 30
0.0
 11
19.0101177786284
 21
207.662281067408
 31
0.0
  0
LINE
  5
6A85
330
18
100
AcDbEntity
  8
0
100
AcDbLine
 10
11.13436777862847
 20
207.662281067408
 30
0.0
 11
16.76799277862841
 21
207.662281067408
 31
0.0
  0
LINE
  5
6A86
330
18
100
AcDbEntity
  8
0
100
AcDbLine
 10
19.0101177786284
 20
207.662281067408
 30
0.0
 11
11.13436777862847
 21
207.662281067408
 31
0.0
  0
LINE
  5
6A87
330
18
100
AcDbEntity
  8
0
100
AcDbLine
 10
19.82491591241836
 20
203.8750889671697
 30
0.0
 11
10.31956964483873
 21
203.8750889671697
 31
0.0
  0
LINE
  5
6A88
330
18
100
AcDbEntity
  8
0
100
AcDbLine
 10
10.04974193321976
 20
207.1407647619744
 30
0.0
 11
20.32661520740425
 21
207.1407647619744
 31
0.0
  0
LINE
  5
6A89
330
18
100
AcDbEntity
  8
0
100
AcDbLine
 10
21.18139906477444
 20
205.9050687751842
 30
0.0
 11
14.03325225426278
 21
205.9050687751842
 31
0.0
  0
LINE
  5
6A8A
330
18
100
AcDbEntity
  8
0
100
AcDbLine
 10
20.36371323694533
 20
204.6276362916964
 30
0.0
 11
14.03325225426278
 21
204.6276362916964
 31
0.0
  0
LINE
  5
6A8B
330
18
100
AcDbEntity
  8
0
100
AcDbLine
 10
21.18139906477444
 20
207.1407647619744
 30
0.0
 11
14.03325225426278
 21
207.1407647619744
 31
0.0
  0
LINE
  5
6A8C
330
18
100
AcDbEntity
  8
0
100
AcDbLine
 10
8.963086492482659
 20
205.587781468712
 30
0.0
 11
21.18139906477444
 21
205.587781468712
 31
0.0
  0
LINE
  5
6A8D
330
18
100
AcDbEntity
  8
0
100
AcDbLine
 10
9.780772320311996
 20
204.82852759713
 30
0.0
 11
20.36371323694533
 21
204.82852759713
 31
0.0
  0
LINE
  5
6A8E
330
18
100
AcDbEntity
  8
0
100
AcDbLine
 10
21.18139906477444
 20
207.1407647619744
 30
0.0
 11
8.963086492483114
 21
207.1407647619744
 31
0.0
  0
LINE
  5
6A8F
330
18
100
AcDbEntity
  8
0
100
AcDbLine
 10
8.963086492482887
 20
207.448531067408
 30
0.0
 11
16.10217251131115
 21
207.448531067408
 31
0.0
  0
LINE
  5
6A90
330
18
100
AcDbEntity
  8
0
100
AcDbLine
 10
19.01011777862862
 20
207.448531067408
 30
0.0
 11
11.1343677786287
 21
207.448531067408
 31
0.0
  0
LINE
  5
6A91
330
18
100
AcDbEntity
  8
0
100
AcDbLine
 10
19.01011777862862
 20
207.448531067408
 30
0.0
 11
14.2314927786287
 21
207.448531067408
 31
0.0
  0
LINE
  5
6A92
330
18
100
AcDbEntity
  8
0
100
AcDbLine
 10
11.1343677786287
 20
207.448531067408
 30
0.0
 11
19.01011777862862
 21
207.448531067408
 31
0.0
  0
LINE
  5
6A93
330
18
100
AcDbEntity
  8
0
100
AcDbLine
 10
11.1343677786287
 20
207.662281067408
 30
0.0
 11
19.01011777862862
 21
207.662281067408
 31
0.0
  0
LINE
  5
6A94
330
18
100
AcDbEntity
  8
0
100
AcDbLine
 10
10.92765410650071
 20
207.662281067408
 30
0.0
 11
19.15330545597266
 21
207.662281067408
 31
0.0
  0
LINE
  5
6A95
330
18
100
AcDbEntity
  8
0
100
AcDbLine
 10
11.29475256371
 20
208.1362218916269
 30
0.0
 11
18.45274707438005
 21
208.1362218916269
 31
0.0
  0
LINE
  5
6A96
330
18
100
AcDbEntity
  8
0
100
AcDbLine
 10
10.962993986757
 20
207.8518573970957
 30
0.0
 11
19.12223533116861
 21
207.8518573970957
 31
0.0
  0
LINE
  5
6A97
330
18
100
AcDbEntity
  8
0
100
AcDbLine
 10
18.69568858937185
 20
208.2310100564706
 30
0.0
 11
11.38954072855375
 21
208.2310100564706
 31
0.0
  0
LINE
  5
6A98
330
18
100
AcDbEntity
  8
0
100
AcDbLine
 10
15.04851436351481
 20
208.5309615698159
 30
0.0
 11
18.69568858937185
 21
208.2310100564706
 31
0.0
  0
LINE
  5
6A99
330
18
100
AcDbEntity
  8
0
100
AcDbLine
 10
10.95577000559496
 20
207.662281067408
 30
0.0
 11
19.13004928278605
 21
207.662281067408
 31
0.0
  0
ARC
  5
6A9A
330
18
100
AcDbEntity
  8
0
100
AcDbCircle
 10
9.034556041091434
 20
206.5229167685793
 30
0.0
 40
0.6219678764378834
100
AcDbArc
 50
96.59836167605
 51
263.4016383239498
  0
LINE
  5
6A9B
330
18
100
AcDbEntity
  8
0
100
AcDbLine
 10
10.77101436351489
 20
207.662281067408
 30
0.0
 11
14.09789902862843
 21
207.662281067408
 31
0.0
  0
LINE
  5
6A9C
330
18
100
AcDbEntity
  8
0
100
AcDbLine
 10
10.81374277862863
 20
207.662281067408
 30
0.0
 11
11.45499277862876
 21
207.662281067408
 31
0.0
  0
LINE
  5
6A9D
330
18
100
AcDbEntity
  8
0
100
AcDbLine
 10
10.81374277862863
 20
207.662281067408
 30
0.0
 11
11.02749277862875
 21
207.662281067408
 31
0.0
  0
LINE
  5
6A9E
330
18
100
AcDbEntity
  8
0
100
AcDbLine
 10
8.963086492482887
 20
205.9050687751842
 30
0.0
 11
14.03325225426278
 21
205.9050687751842
 31
0.0
  0
LINE
  5
6A9F
330
18
100
AcDbEntity
  8
0
100
AcDbLine
 10
9.780772320311996
 20
204.6276362916964
 30
0.0
 11
14.03325225426278
 21
204.6276362916964
 31
0.0
  0
LINE
  5
6AA0
330
18
100
AcDbEntity
  8
0
100
AcDbLine
 10
8.963086492482887
 20
207.1407647619744
 30
0.0
 11
14.03325225426278
 21
207.1407647619744
 31
0.0
  0
ARC
  5
6AA1
330
18
100
AcDbEntity
  8
0
100
AcDbCircle
 10
9.562624179915871
 20
203.9022963258359
 30
0.0
 40
0.7574342725495232
100
AcDbArc
 50
357.9414685830319
 51
73.26118477645255
  0
LINE
  5
6AA2
330
18
100
AcDbEntity
  8
0
100
AcDbLine
 10
9.013431925065958
 20
205.587781468712
 30
0.0
 11
9.161692527365119
 21
205.587781468712
 31
0.0
  0
ARC
  5
6AA3
330
18
100
AcDbEntity
  8
0
100
AcDbCircle
 10
9.939683643564137
 20
205.5901199004594
 30
0.0
 40
0.7779946305434242
100
AcDbArc
 50
180.1722151622787
 51
258.213956340005
  0
LINE
  5
6AA4
330
18
100
AcDbEntity
  8
0
100
AcDbLine
 10
9.780772320311996
 20
204.6276362916964
 30
0.0
 11
9.780772320311996
 21
204.82852759713
 31
0.0
  0
LINE
  5
6AA5
330
18
100
AcDbEntity
  8
0
100
AcDbLine
 10
8.963086492482659
 20
205.9050687751842
 30
0.0
 11
8.963086492482659
 21
205.587781468712
 31
0.0
  0
LINE
  5
6AA6
330
18
100
AcDbEntity
  8
0
100
AcDbLine
 10
8.963086492482887
 20
207.1407647619744
 30
0.0
 11
14.2314927786287
 21
207.1407647619744
 31
0.0
  0
LINE
  5
6AA7
330
18
100
AcDbEntity
  8
0
100
AcDbLine
 10
8.963086492482659
 20
205.587781468712
 30
0.0
 11
9.161692527360798
 21
205.587781468712
 31
0.0
  0
LINE
  5
6AA8
330
18
100
AcDbEntity
  8
0
100
AcDbLine
 10
10.31956964483873
 20
203.8750889671697
 30
0.0
 11
10.58675714483882
 21
203.8750889671697
 31
0.0
  0
LINE
  5
6AA9
330
18
100
AcDbEntity
  8
0
100
AcDbLine
 10
8.963086492482887
 20
207.448531067408
 30
0.0
 11
8.963086492483114
 21
207.1407647619744
 31
0.0
  0
LINE
  5
6AAA
330
18
100
AcDbEntity
  8
0
100
AcDbLine
 10
8.963086492483114
 20
207.1407647619744
 30
0.0
 11
14.2314927786287
 21
207.1407647619744
 31
0.0
  0
LINE
  5
6AAB
330
18
100
AcDbEntity
  8
0
100
AcDbLine
 10
11.1343677786287
 20
207.448531067408
 30
0.0
 11
14.2314927786287
 21
207.448531067408
 31
0.0
  0
LINE
  5
6AAC
330
18
100
AcDbEntity
  8
0
100
AcDbLine
 10
11.1343677786287
 20
207.448531067408
 30
0.0
 11
14.2314927786287
 21
207.448531067408
 31
0.0
  0
LINE
  5
6AAD
330
18
100
AcDbEntity
  8
0
100
AcDbLine
 10
11.1343677786287
 20
207.662281067408
 30
0.0
 11
10.81374277862863
 21
207.662281067408
 31
0.0
  0
LINE
  5
6AAE
330
18
100
AcDbEntity
  8
0
100
AcDbLine
 10
10.81374277862863
 20
207.662281067408
 30
0.0
 11
8.963086492482887
 21
207.448531067408
 31
0.0
  0
LINE
  5
6AAF
330
18
100
AcDbEntity
  8
0
100
AcDbLine
 10
10.77101436351489
 20
207.662281067408
 30
0.0
 11
10.93132686351481
 21
207.662281067408
 31
0.0
  0
LINE
  5
6AB0
330
18
100
AcDbEntity
  8
0
100
AcDbLine
 10
11.29475256371023
 20
208.1362218916269
 30
0.0
 11
11.63248224354578
 21
208.1362218916269
 31
0.0
  0
LINE
  5
6AB1
330
18
100
AcDbEntity
  8
0
100
AcDbLine
 10
10.962993986757
 20
207.662281067408
 30
0.0
 11
10.962993986757
 21
207.8044633146737
 31
0.0
  0
LINE
  5
6AB2
330
18
100
AcDbEntity
  8
0
100
AcDbLine
 10
10.962993986757
 20
207.662281067408
 30
0.0
 11
10.962993986757
 21
207.8518573970957
 31
0.0
  0
ARC
  5
6AB3
330
18
100
AcDbEntity
  8
0
100
AcDbCircle
 10
10.96921224066949
 20
208.1803108513525
 30
0.0
 40
0.3285123107205397
100
AcDbArc
 50
268.9154105580654
 51
352.2871787319652
  0
LINE
  5
6AB4
330
18
100
AcDbEntity
  8
0
100
AcDbLine
 10
11.29475256371
 20
208.1362218916269
 30
0.0
 11
11.38954072855375
 21
208.1362218916269
 31
0.0
  0
LINE
  5
6AB5
330
18
100
AcDbEntity
  8
0
100
AcDbLine
 10
11.38954072855375
 20
208.1362218916269
 30
0.0
 11
11.38954072855375
 21
208.2310100564706
 31
0.0
  0
LINE
  5
6AB6
330
18
100
AcDbEntity
  8
0
100
AcDbLine
 10
11.38954072855375
 20
208.2310100564706
 30
0.0
 11
15.04851436351481
 21
208.2310100564706
 31
0.0
  0
LINE
  5
6AB8
330
18
100
AcDbEntity
  8
0
100
AcDbLine
 10
15.04851436351481
 20
208.5309615698159
 30
0.0
 11
11.38954072855375
 21
208.2310100564705
 31
0.0
  0
LINE
  5
6ABA
330
18
100
AcDbEntity
  8
0
100
AcDbLine
 10
10.77101436351489
 20
207.662281067408
 30
0.0
 11
15.04851436351481
 21
207.662281067408
 31
0.0
  0
ARC
  5
6ABB
330
18
100
AcDbEntity
  8
0
100
AcDbCircle
 10
21.10992951616589
 20
206.5229167685793
 30
0.0
 40
0.6219678764378848
100
AcDbArc
 50
276.59836167605
 51
83.40163832394994
  0
LINE
  5
6ABC
330
18
100
AcDbEntity
  8
0
100
AcDbLine
 10
16.55424277862852
 20
207.662281067408
 30
0.0
 11
19.33074277862846
 21
207.662281067408
 31
0.0
  0
LINE
  5
6ABD
330
18
100
AcDbEntity
  8
0
100
AcDbLine
 10
19.0101177786284
 20
207.662281067408
 30
0.0
 11
16.76799277862841
 21
207.662281067408
 31
0.0
  0
LINE
  5
6ABE
330
18
100
AcDbEntity
  8
0
100
AcDbLine
 10
19.33074277862869
 20
207.662281067408
 30
0.0
 11
19.1169927786288
 21
207.662281067408
 31
0.0
  0
LINE
  5
6ABF
330
18
100
AcDbEntity
  8
0
100
AcDbLine
 10
21.13105363219114
 20
205.587781468712
 30
0.0
 11
20.98279302989198
 21
205.587781468712
 31
0.0
  0
ARC
  5
6AC0
330
18
100
AcDbEntity
  8
0
100
AcDbCircle
 10
20.581861377341
 20
203.9022963258361
 30
0.0
 40
0.7574342725494417
100
AcDbArc
 50
106.7388152235474
 51
182.0585314169745
  0
LINE
  5
6AC1
330
18
100
AcDbEntity
  8
0
100
AcDbLine
 10
20.3637132369451
 20
204.6276362916964
 30
0.0
 11
20.36371323694533
 21
204.82852759713
 31
0.0
  0
ARC
  5
6AC2
330
18
100
AcDbEntity
  8
0
100
AcDbCircle
 10
20.20613383680023
 20
205.5890338780991
 30
0.0
 40
0.7766602028877271
100
AcDbArc
 50
281.7062212879531
 51
359.9076072097667
  0
LINE
  5
6AC3
330
18
100
AcDbEntity
  8
0
100
AcDbLine
 10
21.18139906477444
 20
205.9050687751842
 30
0.0
 11
21.18139906477444
 21
205.587781468712
 31
0.0
  0
LINE
  5
6AC4
330
18
100
AcDbEntity
  8
0
100
AcDbLine
 10
21.18139906477444
 20
205.587781468712
 30
0.0
 11
20.98279302989607
 21
205.587781468712
 31
0.0
  0
LINE
  5
6AC5
330
18
100
AcDbEntity
  8
0
100
AcDbLine
 10
21.18139906477444
 20
207.448531067408
 30
0.0
 11
21.18139906477444
 21
207.1407647619744
 31
0.0
  0
LINE
  5
6AC6
330
18
100
AcDbEntity
  8
0
100
AcDbLine
 10
21.18139906477444
 20
207.448531067408
 30
0.0
 11
16.10217251131115
 21
207.448531067408
 31
0.0
  0
LINE
  5
6AC7
330
18
100
AcDbEntity
  8
0
100
AcDbLine
 10
19.01011777862862
 20
207.662281067408
 30
0.0
 11
19.33074277862869
 21
207.662281067408
 31
0.0
  0
LINE
  5
6AC8
330
18
100
AcDbEntity
  8
0
100
AcDbLine
 10
19.33074277862869
 20
207.662281067408
 30
0.0
 11
21.18139906477444
 21
207.448531067408
 31
0.0
  0
LINE
  5
6AC9
330
18
100
AcDbEntity
  8
0
100
AcDbLine
 10
19.33074277862869
 20
207.662281067408
 30
0.0
 11
19.17043027862877
 21
207.662281067408
 31
0.0
  0
ARC
  5
6ACA
330
18
100
AcDbEntity
  8
0
100
AcDbCircle
 10
19.11601707725612
 20
208.1803108513525
 30
0.0
 40
0.3285123107205397
100
AcDbArc
 50
187.7128212680348
 51
271.0845894419346
  0
LINE
  5
6ACB
330
18
100
AcDbEntity
  8
0
100
AcDbLine
 10
19.12223533116861
 20
207.662281067408
 30
0.0
 11
19.12223533116861
 21
207.8518573970957
 31
0.0
  0
LINE
  5
6ACC
330
18
100
AcDbEntity
  8
0
100
AcDbLine
 10
19.12223533116861
 20
207.662281067408
 30
0.0
 11
19.12223533116861
 21
207.8044633146737
 31
0.0
  0
LINE
  5
6ACD
330
18
100
AcDbEntity
  8
0
100
AcDbLine
 10
18.7904767542156
 20
208.1362218916269
 30
0.0
 11
18.45274707438005
 21
208.1362218916269
 31
0.0
  0
LINE
  5
6ACE
330
18
100
AcDbEntity
  8
0
100
AcDbLine
 10
18.7904767542156
 20
208.1362218916269
 30
0.0
 11
18.69568858937185
 21
208.1362218916269
 31
0.0
  0
LINE
  5
6ACF
330
18
100
AcDbEntity
  8
0
100
AcDbLine
 10
18.69568858937185
 20
208.1362218916269
 30
0.0
 11
18.69568858937185
 21
208.2310100564706
 31
0.0
  0
DIMENSION
  5
6AD0
330
18
100
AcDbEntity
  8
0
100
AcDbDimension
280
     0
  2
*D17
 10
20.79037753617803
 20
158.3459361104132
 30
0.0
 11
15.07113719749708
 21
158.8603504588759
 31
0.0
 70
    32
  1
11 1/2"
 71
     5
 42
11.43848067736189
 73
     0
 74
     0
 75
     0
  3
STANDARD
100
AcDbAlignedDimension
 13
9.351896858816132
 23
160.937593567408
 33
0.0
 14
20.79037753617803
 24
160.9375935674087
 34
0.0
100
AcDbRotatedDimension
  0
DIMENSION
  5
6AD1
330
18
100
AcDbEntity
  8
0
100
AcDbDimension
280
     0
  2
*D18
 10
7.69552042355742
 20
169.4878359170499
 30
0.0
 11
7.181106075094801
 21
165.2127147422289
 31
0.0
 70
    32
  1
8 1/2"
 71
     5
 42
8.550242349641848
 73
     0
 74
     0
 75
     0
  3
STANDARD
100
AcDbAlignedDimension
 13
9.351896858816132
 23
160.937593567408
 33
0.0
 14
10.48474698860292
 24
169.4878359170498
 34
0.0
 50
90.0
100
AcDbRotatedDimension
  0
DIMENSION
  5
6AD2
330
18
100
AcDbEntity
  8
0
100
AcDbDimension
280
     0
  2
*D19
 10
5.237426930095526
 20
203.8750889671697
 30
0.0
 11
4.230973782218569
 21
182.4063412672888
 31
0.0
 70
    32
 71
     5
 42
42.93749539976164
 73
     0
 74
     0
 75
     0
  3
STANDARD
100
AcDbAlignedDimension
 13
9.351896858816132
 23
160.937593567408
 33
0.0
 14
10.52714285797236
 24
203.8750889671696
 34
0.0
 50
90.0
100
AcDbRotatedDimension
  0
DIMENSION
  5
6AD3
330
18
100
AcDbEntity
  8
0
100
AcDbDimension
280
     0
  2
*D20
 10
19.5555172501551
 20
170.7628570244537
 30
0.0
 11
15.04133005406373
 21
171.2402106115694
 31
0.0
 70
    32
 71
     5
 42
9.02837439218274
 73
     0
 74
     0
 75
     0
  3
STANDARD
100
AcDbAlignedDimension
 13
10.52714285797236
 23
169.4878359170499
 33
0.0
 14
19.5555172501551
 24
169.4878359170499
 34
0.0
100
AcDbRotatedDimension
  0
DIMENSION
  5
6AD4
330
18
100
AcDbEntity
  8
0
100
AcDbDimension
280
     0
  2
*D21
 10
1.95691776723237
 20
160.937593567408
 30
0.0
 11
0.9403072255047453
 21
184.734277568612
 31
0.0
 70
    32
 71
     5
 42
47.59336800240788
 73
     0
 74
     0
 75
     0
  3
STANDARD
100
AcDbAlignedDimension
 13
15.04851436351481
 23
208.5309615698159
 33
0.0
 14
9.351896858816132
 24
160.937593567408
 34
0.0
 50
90.0
100
AcDbRotatedDimension
  0
DIMENSION
  5
6AD5
330
18
100
AcDbEntity
  8
0
100
AcDbDimension
280
     0
  2
*D22
 10
15.04133005406386
 20
203.8750889671698
 30
0.0
 11
14.0497012107257
 21
200.7500889671697
 31
0.0
 70
    32
 71
     5
 42
6.25
 73
     0
 74
     0
 75
     0
  3
STANDARD
100
AcDbAlignedDimension
 13
15.04133005406385
 23
197.6250889671696
 33
0.0
 14
15.04133005406385
 24
203.8750889671697
 34
0.0
 50
90.0
100
AcDbRotatedDimension
  0
DIMENSION
  5
6AD6
330
18
100
AcDbEntity
  8
0
100
AcDbDimension
280
     0
  2
*D23
 10
24.76631495227733
 20
172.4458138075631
 30
0.0
 11
23.75876370776785
 21
185.0354513873664
 31
0.0
 70
    32
 71
     5
 42
25.17927515960668
 73
     0
 74
     0
 75
     0
  3
STANDARD
100
AcDbAlignedDimension
 13
17.5555172501551
 23
197.6250889671696
 33
0.0
 14
17.5555172501551
 24
172.445813807563
 34
0.0
 50
90.0
100
AcDbRotatedDimension
  0
DIMENSION
  5
6AD7
330
18
100
AcDbEntity
  8
0
100
AcDbDimension
280
     0
  2
*D24
 10
25.71235663691798
 20
160.937593567408
 30
0.0
 11
24.74021900880674
 21
166.6917036874855
 31
0.0
 70
    32
 71
     5
 42
11.50822024015502
 73
     0
 74
     0
 75
     0
  3
STANDARD
100
AcDbAlignedDimension
 13
12.52714285797213
 23
172.445813807563
 33
0.0
 14
12.52714285797213
 24
160.937593567408
 34
0.0
 50
90.0
100
AcDbRotatedDimension
  0
VIEWPORT
  5
68B6
102
{ACAD_XDICTIONARY
360
68B7
102
}
330
68A8
100
AcDbEntity
 67
     1
  8
0
100
AcDbViewport
 10
100.8062490005612
 20
146.1236366308543
 30
0.0
 40
640.070213591243
 41
303.4993854541901
 68
     2
 69
     1
 12
100.8062490005612
 22
146.1236366308543
 13
0.0
 23
0.0
 14
10.0
 24
10.0
 15
10.0
 25
10.0
 16
0.0
 26
0.0
 36
1.0
 17
0.0
 27
0.0
 37
0.0
 42
50.0
 43
0.0
 44
0.0
 45
303.4993854541901
 50
0.0
 51
0.0
 72
   100
 90
   819232
  1

281
     0
 71
     1
 74
     0
110
0.0
120
0.0
130
0.0
111
1.0
121
0.0
131
0.0
112
0.0
122
1.0
132
0.0
 79
     0
146
0.0
170
     0
 61
     5
348
63E7
292
     1
282
     1
141
0.0
142
0.0
 63
   250
421
  3355443
  0
VIEWPORT
  5
68BA
102
{ACAD_XDICTIONARY
360
68BB
102
}
330
68A8
100
AcDbEntity
 67
     1
  8
0
100
AcDbViewport
 10
100.8062474753477
 20
134.8496945155944
 30
0.0
 40
201.3267574480908
 41
268.7319942609653
 68
     1
 69
     2
 12
14.46605739355472
 22
182.3647113312512
 13
0.0
 23
0.0
 14
10.0
 24
10.0
 15
10.0
 25
10.0
 16
0.0
 26
0.0
 36
1.0
 17
0.0
 27
0.0
 37
0.0
 42
50.0
 43
0.0
 44
0.0
 45
59.07857840851003
 50
0.0
 51
0.0
 72
   100
 90
   819232
  1

281
     0
 71
     1
 74
     0
110
0.0
120
0.0
130
0.0
111
1.0
121
0.0
131
0.0
112
0.0
122
1.0
132
0.0
 79
     0
146
0.0
170
     0
 61
     5
348
63E7
292
     1
282
     1
141
0.0
142
0.0
 63
   250
421
  3355443
  0
ENDSEC
  0
SECTION
  2
OBJECTS
  0
DICTIONARY
  5
C
330
0
100
AcDbDictionary
281
     1
  3
ACAD_CIP_PREVIOUS_PRODUCT_INFO
350
6413
  3
ACAD_COLOR
350
3BB8
  3
ACAD_DETAILVIEWSTYLE
350
6907
  3
ACAD_GROUP
350
D
  3
ACAD_IMAGE_DICT
350
21
  3
ACAD_IMAGE_VARS
350
20
  3
ACAD_LAYOUT
350
3BB9
  3
ACAD_MATERIAL
350
3BB7
  3
ACAD_MLEADERSTYLE
350
640E
  3
ACAD_MLINESTYLE
350
1B
  3
ACAD_PLOTSETTINGS
350
3BBA
  3
ACAD_PLOTSTYLENAME
350
3BB5
  3
ACAD_SCALELIST
350
63FC
  3
ACAD_SECTIONVIEWSTYLE
350
6905
  3
ACAD_TABLESTYLE
350
63FA
  3
ACAD_VISUALSTYLE
350
63E1
  3
ACDB_RECOMPOSE_DATA
350
6BDF
  3
ACDBVARIABLEDICTIONARY
350
34D4
  3
AcDsDecomposeData
350
6BE5
  0
DICTIONARY
  5
6561
330
2
100
AcDbDictionary
280
     1
281
     1
  3
ACAD_LAYERSTATES
360
6562
  0
DICTIONARY
  5
655A
330
E
100
AcDbDictionary
280
     1
281
     1
  3
ADSK_XREC_LAYER_RECONCILED
360
655B
  0
DICTIONARY
  5
655C
330
478E
100
AcDbDictionary
280
     1
281
     1
  3
ADSK_XREC_LAYER_RECONCILED
360
655D
  0
DICTIONARY
  5
68B7
330
68B6
100
AcDbDictionary
280
     1
281
     1
  3
ASDK_XREC_ANNOTATION_SCALE_INFO
360
68B8
  0
DICTIONARY
  5
68BB
330
68BA
100
AcDbDictionary
280
     1
281
     1
  3
ASDK_XREC_ANNOTATION_SCALE_INFO
360
68BC
  0
XRECORD
  5
6413
102
{ACAD_REACTORS
330
C
102
}
330
C
100
AcDbXrecord
280
     1
300
ACDLT
300
2020
300

  0
DICTIONARY
  5
3BB8
102
{ACAD_REACTORS
330
C
102
}
330
C
100
AcDbDictionary
281
     1
  0
DICTIONARY
  5
6907
102
{ACAD_REACTORS
330
C
102
}
330
C
100
AcDbDictionary
281
     1
  3
Metric50
350
6908
  0
DICTIONARY
  5
D
102
{ACAD_REACTORS
330
C
102
}
330
C
100
AcDbDictionary
281
     1
  0
DICTIONARY
  5
21
102
{ACAD_REACTORS
330
C
102
}
330
C
100
AcDbDictionary
281
     1
  0
RASTERVARIABLES
  5
20
102
{ACAD_REACTORS
330
C
102
}
330
C
100
AcDbRasterVariables
 90
        0
 70
     1
 71
     1
 72
     0
  0
DICTIONARY
  5
3BB9
102
{ACAD_REACTORS
330
C
102
}
330
C
100
AcDbDictionary
281
     1
  3
Layout2
350
68A9
  3
Model
350
3BBB
  0
DICTIONARY
  5
3BB7
102
{ACAD_REACTORS
330
C
102
}
330
C
100
AcDbDictionary
281
     1
  3
ByBlock
350
63D1
  3
ByLayer
350
63C9
  3
Global
350
63D9
  0
DICTIONARY
  5
640E
102
{ACAD_REACTORS
330
C
102
}
330
C
100
AcDbDictionary
281
     1
  3
Standard
350
640F
  0
DICTIONARY
  5
1B
102
{ACAD_REACTORS
330
C
102
}
330
C
100
AcDbDictionary
281
     1
  3
STANDARD
350
1C
  0
DICTIONARY
  5
3BBA
102
{ACAD_REACTORS
330
C
102
}
330
C
100
AcDbDictionary
281
     1
  0
ACDBDICTIONARYWDFLT
  5
3BB5
102
{ACAD_REACTORS
330
C
102
}
330
C
100
AcDbDictionary
281
     1
  3
Normal
350
3BB6
100
AcDbDictionaryWithDefault
340
3BB6
  0
DICTIONARY
  5
63FC
102
{ACAD_REACTORS
330
C
102
}
330
C
100
AcDbDictionary
281
     1
  3
A0
350
63FD
  3
A1
350
63FE
  3
A2
350
63FF
  3
A3
350
6400
  3
A4
350
6401
  3
A5
350
6402
  3
A6
350
6403
  3
A7
350
6404
  3
A8
350
6405
  3
A9
350
6406
  3
B0
350
6407
  3
B1
350
6408
  3
B2
350
6409
  3
B3
350
640A
  3
B4
350
640B
  3
B5
350
640C
  3
B6
350
640D
  0
DICTIONARY
  5
6905
102
{ACAD_REACTORS
330
C
102
}
330
C
100
AcDbDictionary
281
     1
  3
Metric50
350
6906
  0
DICTIONARY
  5
63FA
102
{ACAD_REACTORS
330
C
102
}
330
C
100
AcDbDictionary
281
     1
  3
Standard
350
63FB
  0
DICTIONARY
  5
63E1
102
{ACAD_REACTORS
330
C
102
}
330
C
100
AcDbDictionary
281
     1
  3
2dWireframe
350
63E7
  3
Basic
350
63E6
  3
Brighten
350
63ED
  3
ColorChange
350
63F1
  3
Conceptual
350
63EA
  3
Dim
350
63EC
  3
EdgeColorOff
350
63F9
  3
Facepattern
350
63F0
  3
Flat
350
63E2
  3
FlatWithEdges
350
63E3
  3
Gouraud
350
63E4
  3
GouraudWithEdges
350
63E5
  3
Hidden
350
63E9
  3
JitterOff
350
63F7
  3
Linepattern
350
63EF
  3
OverhangOff
350
63F8
  3
Realistic
350
63EB
  3
Shaded
350
63F6
  3
Shaded with edges
350
63F5
  3
Shades of Gray
350
63F2
  3
Sketchy
350
63F3
  3
Thicken
350
63EE
  3
Wireframe
350
63E8
  3
X-Ray
350
63F4
  0
XRECORD
  5
6BDF
102
{ACAD_REACTORS
330
C
102
}
330
C
100
AcDbXrecord
280
     1
 90
        1
330
63FB
330
67E3
  0
DICTIONARY
  5
34D4
102
{ACAD_REACTORS
330
C
102
}
330
C
100
AcDbDictionary
281
     1
  3
CANNOSCALE
350
656F
  3
CMLEADERSTYLE
350
656D
  3
CTABLESTYLE
350
656C
  3
CVIEWDETAILSTYLE
350
6933
  3
CVIEWSECTIONSTYLE
350
6934
  3
DIMASSOC
350
63C6
  3
LAYEREVAL
350
6571
  3
LAYERNOTIFY
350
6572
  3
LIGHTINGUNITS
350
6570
  3
MSLTSCALE
350
656E
  3
PROJECTNAME
350
63C7
  3
SORTENTS
350
34D5
  0
DICTIONARY
  5
6BE5
102
{ACAD_REACTORS
330
C
102
}
330
C
100
AcDbDictionary
281
     1
  3
AcDsRecords
350
6BE7
  3
AcDsSchemas
350
6BE6
1001
ACAD
1070
     2
  0
DICTIONARY
  5
6562
102
{ACAD_REACTORS
330
6561
102
}
330
6561
100
AcDbDictionary
281
     1
  0
XRECORD
  5
655B
102
{ACAD_REACTORS
330
655A
102
}
330
655A
100
AcDbXrecord
280
     1
290
     1
  0
XRECORD
  5
655D
102
{ACAD_REACTORS
330
655C
102
}
330
655C
100
AcDbXrecord
280
     1
290
     1
  0
XRECORD
  5
68B8
102
{ACAD_REACTORS
330
68B7
102
}
330
68B7
100
AcDbXrecord
280
     1
 90
        1
340
63FD
  0
XRECORD
  5
68BC
102
{ACAD_REACTORS
330
68BB
102
}
330
68BB
100
AcDbXrecord
280
     1
 90
        1
340
63FD
  0
ACDBDETAILVIEWSTYLE
  5
6908
102
{ACAD_XDICTIONARY
360
6C1C
102
}
102
{ACAD_REACTORS
330
6907
102
}
330
6907
100
AcDbModelDocViewStyle
 70
     0
  3
Metric50
290
     0
100
AcDbDetailViewStyle
 70
     0
 71
     0
 90
        3
 71
     1
340
F
 62
   256
 40
5.0
340
0
 62
   256
 40
5.0
300

 40
0.0
280
     1
 71
     2
340
14
 90
       25
 62
   256
 71
     3
340
F
 62
   256
 40
5.0
 90
        0
 40
15.0
 90
        1
300
%<\AcVar ViewDetailId>% (%<\AcVar ViewScale \f "%sn">%)
 71
     4
340
14
 90
       25
 62
   256
340
14
 90
       25
 62
   256
280
     0
  0
LAYOUT
  5
68A9
102
{ACAD_XDICTIONARY
360
68D5
102
}
102
{ACAD_REACTORS
330
3BB9
102
}
330
3BB9
100
AcDbPlotSettings
  1

  2
Adobe PDF
  4
User32767
  6

 40
3.174999952316284
 41
3.174999952316284
 42
3.175003051757812
 43
3.17498779296875
 44
215.9000091552734
 45
279.3999938964844
 46
2.494155365634249
 47
0.0
 48
0.1428687513023306
 49
0.4836973851117819
140
201.4696261993931
141
269.2156916460771
142
1.0
143
24.99832448437592
 70
   692
 72
     0
 73
     0
 74
     4
  7
monochrome.ctb
 75
     0
147
0.0400026810046812
 76
     0
 77
     2
 78
   300
148
-3.628866283079196
149
-12.28591358183926
100
AcDbLayout
  1
Layout2
 70
     1
 71
     1
 10
-5.436634563282423
 20
-2.641093128505561
 11
207.0491325644048
 21
272.3404701926348
 12
0.0
 22
0.0
 32
0.0
 14
0.1428687513023306
 24
0.4836973851117819
 34
0.0
 15
201.4696261993931
 25
269.2156916460771
 35
0.0
146
0.0
 13
0.0
 23
0.0
 33
0.0
 16
1.0
 26
0.0
 36
0.0
 17
0.0
 27
1.0
 37
0.0
 76
     0
330
68A8
331
68BA
1001
ACAD_PSEXT
1000
Adobe PDF
1000
Adobe PDF Converter
1000
Documents\*.pdf
1000

1070
     0
  0
LAYOUT
  5
3BBB
102
{ACAD_XDICTIONARY
360
6567
102
}
102
{ACAD_REACTORS
330
3BB9
102
}
330
3BB9
100
AcDbPlotSettings
  1

  2
None
  4

  6

 40
0.0
 41
0.0
 42
0.0
 43
0.0
 44
0.0
 45
0.0
 46
0.0
 47
0.0
 48
0.0
 49
0.0
140
0.0
141
0.0
142
1.0
143
1.0
 70
  1712
 72
     0
 73
     0
 74
     0
  7

 75
     0
147
1.0
 76
     0
 77
     2
 78
   300
148
0.0
149
0.0
100
AcDbLayout
  1
Model
 70
     1
 71
     0
 10
0.0
 20
0.0
 11
12.0
 21
9.0
 12
0.0
 22
0.0
 32
0.0
 14
0.0
 24
0.0
 34
0.0
 15
0.0
 25
0.0
 35
0.0
146
0.0
 13
0.0
 23
0.0
 33
0.0
 16
1.0
 26
0.0
 36
0.0
 17
0.0
 27
1.0
 37
0.0
 76
     0
330
18
331
63BA
  0
MATERIAL
  5
63D1
102
{ACAD_XDICTIONARY
360
63D2
102
}
102
{ACAD_REACTORS
330
3BB7
102
}
330
3BB7
100
AcDbMaterial
  1
ByBlock
 72
     0
 43
0.0208333333333333
 43
0.0
 43
0.0
 43
0.0
 43
0.0
 43
0.0208333333333333
 43
0.0
 43
0.0
 43
0.0
 43
0.0
 43
1.0
 43
0.0
 43
0.0
 43
0.0
 43
0.0
 43
1.0
 77
     0
 47
0.0208333333333333
 47
0.0
 47
0.0
 47
0.0
 47
0.0
 47
0.0208333333333333
 47
0.0
 47
0.0
 47
0.0
 47
0.0
 47
1.0
 47
0.0
 47
0.0
 47
0.0
 47
0.0
 47
1.0
171
     0
 49
0.0208333333333333
 49
0.0
 49
0.0
 49
0.0
 49
0.0
 49
0.0208333333333333
 49
0.0
 49
0.0
 49
0.0
 49
0.0
 49
1.0
 49
0.0
 49
0.0
 49
0.0
 49
0.0
 49
1.0
175
     0
142
0.0208333333333333
142
0.0
142
0.0
142
0.0
142
0.0
142
0.0208333333333333
142
0.0
142
0.0
142
0.0
142
0.0
142
1.0
142
0.0
142
0.0
142
0.0
142
0.0
142
1.0
179
     0
144
0.0208333333333333
144
0.0
144
0.0
144
0.0
144
0.0
144
0.0208333333333333
144
0.0
144
0.0
144
0.0
144
0.0
144
1.0
144
0.0
144
0.0
144
0.0
144
0.0
144
1.0
147
0.0208333333333333
147
0.0
147
0.0
147
0.0
147
0.0
147
0.0208333333333333
147
0.0
147
0.0
147
0.0
147
0.0
147
1.0
147
0.0
147
0.0
147
0.0
147
0.0
147
1.0
  0
MATERIAL
  5
63C9
102
{ACAD_XDICTIONARY
360
63CA
102
}
102
{ACAD_REACTORS
330
3BB7
102
}
330
3BB7
100
AcDbMaterial
  1
ByLayer
 72
     0
 43
0.0208333333333333
 43
0.0
 43
0.0
 43
0.0
 43
0.0
 43
0.0208333333333333
 43
0.0
 43
0.0
 43
0.0
 43
0.0
 43
1.0
 43
0.0
 43
0.0
 43
0.0
 43
0.0
 43
1.0
 77
     0
 47
0.0208333333333333
 47
0.0
 47
0.0
 47
0.0
 47
0.0
 47
0.0208333333333333
 47
0.0
 47
0.0
 47
0.0
 47
0.0
 47
1.0
 47
0.0
 47
0.0
 47
0.0
 47
0.0
 47
1.0
171
     0
 49
0.0208333333333333
 49
0.0
 49
0.0
 49
0.0
 49
0.0
 49
0.0208333333333333
 49
0.0
 49
0.0
 49
0.0
 49
0.0
 49
1.0
 49
0.0
 49
0.0
 49
0.0
 49
0.0
 49
1.0
175
     0
142
0.0208333333333333
142
0.0
142
0.0
142
0.0
142
0.0
142
0.0208333333333333
142
0.0
142
0.0
142
0.0
142
0.0
142
1.0
142
0.0
142
0.0
142
0.0
142
0.0
142
1.0
179
     0
144
0.0208333333333333
144
0.0
144
0.0
144
0.0
144
0.0
144
0.0208333333333333
144
0.0
144
0.0
144
0.0
144
0.0
144
1.0
144
0.0
144
0.0
144
0.0
144
0.0
144
1.0
147
0.0208333333333333
147
0.0
147
0.0
147
0.0
147
0.0
147
0.0208333333333333
147
0.0
147
0.0
147
0.0
147
0.0
147
1.0
147
0.0
147
0.0
147
0.0
147
0.0
147
1.0
  0
MATERIAL
  5
63D9
102
{ACAD_XDICTIONARY
360
63DA
102
}
102
{ACAD_REACTORS
330
3BB7
102
}
330
3BB7
100
AcDbMaterial
  1
Global
 72
     0
 43
0.0208333333333333
 43
0.0
 43
0.0
 43
0.0
 43
0.0
 43
0.0208333333333333
 43
0.0
 43
0.0
 43
0.0
 43
0.0
 43
1.0
 43
0.0
 43
0.0
 43
0.0
 43
0.0
 43
1.0
 77
     0
 47
0.0208333333333333
 47
0.0
 47
0.0
 47
0.0
 47
0.0
 47
0.0208333333333333
 47
0.0
 47
0.0
 47
0.0
 47
0.0
 47
1.0
 47
0.0
 47
0.0
 47
0.0
 47
0.0
 47
1.0
171
     0
 49
0.0208333333333333
 49
0.0
 49
0.0
 49
0.0
 49
0.0
 49
0.0208333333333333
 49
0.0
 49
0.0
 49
0.0
 49
0.0
 49
1.0
 49
0.0
 49
0.0
 49
0.0
 49
0.0
 49
1.0
175
     0
142
0.0208333333333333
142
0.0
142
0.0
142
0.0
142
0.0
142
0.0208333333333333
142
0.0
142
0.0
142
0.0
142
0.0
142
1.0
142
0.0
142
0.0
142
0.0
142
0.0
142
1.0
179
     0
144
0.0208333333333333
144
0.0
144
0.0
144
0.0
144
0.0
144
0.0208333333333333
144
0.0
144
0.0
144
0.0
144
0.0
144
1.0
144
0.0
144
0.0
144
0.0
144
0.0
144
1.0
147
0.0208333333333333
147
0.0
147
0.0
147
0.0
147
0.0
147
0.0208333333333333
147
0.0
147
0.0
147
0.0
147
0.0
147
1.0
147
0.0
147
0.0
147
0.0
147
0.0
147
1.0
  0
MLEADERSTYLE
  5
640F
102
{ACAD_XDICTIONARY
360
6C18
102
}
102
{ACAD_REACTORS
330
640E
102
}
330
640E
100
AcDbMLeaderStyle
179
     2
170
     2
171
     1
172
     0
 90
        2
 40
0.0
 41
0.0
173
     1
 91
-1056964608
340
12
 92
       -2
290
     1
 42
2.0
291
     1
 43
0.36
  3
Standard
 44
4.0
300

342
F
174
     1
178
     6
175
     1
176
     0
 93
-1056964608
 45
4.0
292
     0
297
     0
 46
4.0
 94
-1056964608
 47
1.0
 49
1.0
140
1.0
293
     1
141
0.0
294
     1
177
     0
142
1.0
295
     0
296
     0
143
0.125
271
     0
272
     9
273
     9
  0
MLINESTYLE
  5
1C
102
{ACAD_REACTORS
330
1B
102
}
330
1B
100
AcDbMlineStyle
  2
STANDARD
 70
     0
  3

 62
   256
 51
90.0
 52
90.0
 71
     2
 49
0.5
 62
   256
  6
BYLAYER
 49
-0.5
 62
   256
  6
BYLAYER
  0
ACDBPLACEHOLDER
  5
3BB6
102
{ACAD_REACTORS
330
3BB5
102
}
330
3BB5
  0
SCALE
  5
63FD
102
{ACAD_REACTORS
330
63FC
102
}
330
63FC
100
AcDbScale
 70
     0
300
1:1
140
1.0
141
1.0
290
     1
  0
SCALE
  5
63FE
102
{ACAD_REACTORS
330
63FC
102
}
330
63FC
100
AcDbScale
 70
     0
300
1:2
140
1.0
141
2.0
290
     0
  0
SCALE
  5
63FF
102
{ACAD_REACTORS
330
63FC
102
}
330
63FC
100
AcDbScale
 70
     0
300
1:4
140
1.0
141
4.0
290
     0
  0
SCALE
  5
6400
102
{ACAD_REACTORS
330
63FC
102
}
330
63FC
100
AcDbScale
 70
     0
300
1:5
140
1.0
141
5.0
290
     0
  0
SCALE
  5
6401
102
{ACAD_REACTORS
330
63FC
102
}
330
63FC
100
AcDbScale
 70
     0
300
1:8
140
1.0
141
8.0
290
     0
  0
SCALE
  5
6402
102
{ACAD_REACTORS
330
63FC
102
}
330
63FC
100
AcDbScale
 70
     0
300
1:10
140
1.0
141
10.0
290
     0
  0
SCALE
  5
6403
102
{ACAD_REACTORS
330
63FC
102
}
330
63FC
100
AcDbScale
 70
     0
300
1:16
140
1.0
141
16.0
290
     0
  0
SCALE
  5
6404
102
{ACAD_REACTORS
330
63FC
102
}
330
63FC
100
AcDbScale
 70
     0
300
1:20
140
1.0
141
20.0
290
     0
  0
SCALE
  5
6405
102
{ACAD_REACTORS
330
63FC
102
}
330
63FC
100
AcDbScale
 70
     0
300
1:30
140
1.0
141
30.0
290
     0
  0
SCALE
  5
6406
102
{ACAD_REACTORS
330
63FC
102
}
330
63FC
100
AcDbScale
 70
     0
300
1:40
140
1.0
141
40.0
290
     0
  0
SCALE
  5
6407
102
{ACAD_REACTORS
330
63FC
102
}
330
63FC
100
AcDbScale
 70
     0
300
1:50
140
1.0
141
50.0
290
     0
  0
SCALE
  5
6408
102
{ACAD_REACTORS
330
63FC
102
}
330
63FC
100
AcDbScale
 70
     0
300
1:100
140
1.0
141
100.0
290
     0
  0
SCALE
  5
6409
102
{ACAD_REACTORS
330
63FC
102
}
330
63FC
100
AcDbScale
 70
     0
300
2:1
140
2.0
141
1.0
290
     0
  0
SCALE
  5
640A
102
{ACAD_REACTORS
330
63FC
102
}
330
63FC
100
AcDbScale
 70
     0
300
4:1
140
4.0
141
1.0
290
     0
  0
SCALE
  5
640B
102
{ACAD_REACTORS
330
63FC
102
}
330
63FC
100
AcDbScale
 70
     0
300
8:1
140
8.0
141
1.0
290
     0
  0
SCALE
  5
640C
102
{ACAD_REACTORS
330
63FC
102
}
330
63FC
100
AcDbScale
 70
     0
300
10:1
140
10.0
141
1.0
290
     0
  0
SCALE
  5
640D
102
{ACAD_REACTORS
330
63FC
102
}
330
63FC
100
AcDbScale
 70
     0
300
100:1
140
100.0
141
1.0
290
     0
  0
ACDBSECTIONVIEWSTYLE
  5
6906
102
{ACAD_XDICTIONARY
360
6C1A
102
}
102
{ACAD_REACTORS
330
6905
102
}
330
6905
100
AcDbModelDocViewStyle
 70
     0
  3
Metric50
290
     0
100
AcDbSectionViewStyle
 70
     0
 71
     0
 90
      102
 71
     1
340
F
 62
   256
 40
5.0
340
0
340
0
 62
   256
 40
5.0
300
I, O, Q, S, X, Z
 40
10.0
 90
        0
 40
2.5
 90
        0
 71
     2
340
14
 90
       25
 62
   256
340
14
 90
       50
 62
   256
 40
5.0
 40
2.5
 40
5.0
 71
     3
340
F
 62
   256
 40
5.0
 90
        0
 40
15.0
 90
        1
300
%<\AcVar ViewSectionStartId>%-%<\AcVar ViewSectionEndId>% (%<\AcVar ViewScale \f "%sn">%)
 71
     4
 62
   256
 62
   257
300
ANSI31
 40
1.0
 90
        0
290
     0
290
     0
 90
        6
 40
0.0
 40
1.570796326794896
 40
0.2617993877991494
 40
1.308996938995747
 40
-0.2617993877991494
 40
1.832595714594046
  0
TABLESTYLE
  5
63FB
102
{ACAD_XDICTIONARY
360
6BDD
102
}
102
{ACAD_REACTORS
330
63FA
102
}
330
63FA
100
AcDbTableStyle
280
     0
  3
Standard
 70
     0
 71
     0
 40
1.5
 41
1.5
280
     0
281
     0
  7
STANDARD
140
4.5
170
     2
 62
     0
 63
     7
283
     0
 90
      512
 91
        0
  1

274
    -2
284
     1
 64
     0
275
    -2
285
     1
 65
     0
276
    -2
286
     1
 66
     0
277
    -2
287
     1
 67
     0
278
    -2
288
     1
 68
     0
279
    -2
289
     1
 69
     0
  7
STANDARD
140
6.0
170
     5
 62
     0
 63
     7
283
     0
 90
      512
 91
        0
  1

274
    -2
284
     1
 64
     0
275
    -2
285
     1
 65
     0
276
    -2
286
     1
 66
     0
277
    -2
287
     1
 67
     0
278
    -2
288
     1
 68
     0
279
    -2
289
     1
 69
     0
  7
STANDARD
140
4.5
170
     5
 62
     0
 63
     7
283
     0
 90
      512
 91
        0
  1

274
    -2
284
     1
 64
     0
275
    -2
285
     1
 65
     0
276
    -2
286
     1
 66
     0
277
    -2
287
     1
 67
     0
278
    -2
288
     1
 68
     0
279
    -2
289
     1
 69
     0
  0
VISUALSTYLE
  5
63E7
102
{ACAD_XDICTIONARY
360
6BF2
102
}
102
{ACAD_REACTORS
330
63E1
102
}
330
63E1
100
AcDbVisualStyle
  2
2dWireframe
 70
     4
177
     2
291
     0
 71
     0
176
     1
 72
     2
176
     1
 73
     0
176
     1
 90
        0
176
     1
 40
0.6
176
     1
 41
30.0
176
     1
 63
     7
421
 16777215
176
     1
 74
     1
176
     1
 91
        4
176
     1
 64
     7
176
     1
 65
   257
176
     1
 75
     1
176
     1
175
     1
176
     1
 42
1.0
176
     1
 92
        0
176
     1
 66
   257
176
     1
 43
1.0
176
     1
 76
     1
176
     1
 77
     6
176
     1
 78
     2
176
     1
 67
     7
176
     1
 79
     5
176
     1
170
     0
176
     1
171
     0
176
     1
290
     0
176
     1
 93
        1
176
     1
 44
0.0
176
     1
173
     0
176
     1
1001
ACAD
1000
AcDbSavedByObjectVersion
1070
     0
  0
VISUALSTYLE
  5
63E6
102
{ACAD_XDICTIONARY
360
6BF0
102
}
102
{ACAD_REACTORS
330
63E1
102
}
330
63E1
100
AcDbVisualStyle
  2
Basic
 70
     7
177
     2
291
     1
 71
     1
176
     1
 72
     0
176
     1
 73
     1
176
     1
 90
        0
176
     1
 40
0.6
176
     1
 41
30.0
176
     1
 63
     7
421
 16777215
176
     1
 74
     0
176
     1
 91
        4
176
     1
 64
     7
176
     1
 65
   257
176
     1
 75
     1
176
     1
175
     1
176
     1
 42
1.0
176
     1
 92
        8
176
     1
 66
     7
176
     1
 43
1.0
176
     1
 76
     1
176
     1
 77
     6
176
     1
 78
     2
176
     1
 67
     7
176
     1
 79
     5
176
     1
170
     0
176
     1
171
     0
176
     1
290
     0
176
     1
 93
        1
176
     1
 44
0.0
176
     1
173
     0
176
     1
1001
ACAD
1000
AcDbSavedByObjectVersion
1070
     0
  0
VISUALSTYLE
  5
63ED
102
{ACAD_XDICTIONARY
360
6BFE
102
}
102
{ACAD_REACTORS
330
63E1
102
}
330
63E1
100
AcDbVisualStyle
  2
Brighten
 70
    12
177
     2
291
     1
 71
     2
176
     1
 72
     2
176
     1
 73
     0
176
     1
 90
        0
176
     1
 40
0.6
176
     1
 41
30.0
176
     1
 63
     7
421
 16777215
176
     1
 74
     1
176
     1
 91
        4
176
     1
 64
     7
176
     1
 65
   257
176
     1
 75
     1
176
     1
175
     1
176
     1
 42
1.0
176
     1
 92
        8
176
     1
 66
     7
176
     1
 43
1.0
176
     1
 76
     1
176
     1
 77
     6
176
     1
 78
     2
176
     1
 67
     7
176
     1
 79
     5
176
     1
170
     0
176
     1
171
     0
176
     1
290
     0
176
     1
 93
        1
176
     1
 44
50.0
176
     1
173
     0
176
     1
1001
ACAD
1000
AcDbSavedByObjectVersion
1070
     0
  0
VISUALSTYLE
  5
63F1
102
{ACAD_XDICTIONARY
360
6C06
102
}
102
{ACAD_REACTORS
330
63E1
102
}
330
63E1
100
AcDbVisualStyle
  2
ColorChange
 70
    16
177
     2
291
     1
 71
     2
176
     1
 72
     2
176
     1
 73
     3
176
     1
 90
        0
176
     1
 40
0.6
176
     1
 41
30.0
176
     1
 63
     8
421
  8421504
176
     1
 74
     1
176
     1
 91
        4
176
     1
 64
     7
176
     1
 65
   257
176
     1
 75
     1
176
     1
175
     1
176
     1
 42
1.0
176
     1
 92
        8
176
     1
 66
     8
424
  8421504
176
     1
 43
1.0
176
     1
 76
     1
176
     1
 77
     6
176
     1
 78
     2
176
     1
 67
     7
176
     1
 79
     5
176
     1
170
     0
176
     1
171
     0
176
     1
290
     0
176
     1
 93
        1
176
     1
 44
0.0
176
     1
173
     0
176
     1
1001
ACAD
1000
AcDbSavedByObjectVersion
1070
     0
  0
VISUALSTYLE
  5
63EA
102
{ACAD_XDICTIONARY
360
6BF8
102
}
102
{ACAD_REACTORS
330
63E1
102
}
330
63E1
100
AcDbVisualStyle
  2
Conceptual
 70
     9
177
     2
291
     0
 71
     3
176
     1
 72
     2
176
     1
 73
     0
176
     1
 90
        0
176
     1
 40
0.6
176
     1
 41
30.0
176
     1
 63
     7
421
 16777215
176
     1
 74
     2
176
     1
 91
        2
176
     1
 64
     7
176
     1
 65
   257
176
     1
 75
     1
176
     1
175
     1
176
     1
 42
179.0
176
     1
 92
        8
176
     1
 66
     7
176
     1
 43
1.0
176
     1
 76
     1
176
     1
 77
     6
176
     1
 78
     2
176
     1
 67
     7
176
     1
 79
     3
176
     1
170
     0
176
     1
171
     0
176
     1
290
     0
176
     1
 93
        1
176
     1
 44
0.0
176
     1
173
     0
176
     1
1001
ACAD
1000
AcDbSavedByObjectVersion
1070
     0
  0
VISUALSTYLE
  5
63EC
102
{ACAD_XDICTIONARY
360
6BFC
102
}
102
{ACAD_REACTORS
330
63E1
102
}
330
63E1
100
AcDbVisualStyle
  2
Dim
 70
    11
177
     2
291
     1
 71
     2
176
     1
 72
     2
176
     1
 73
     0
176
     1
 90
        0
176
     1
 40
0.6
176
     1
 41
30.0
176
     1
 63
     7
421
 16777215
176
     1
 74
     1
176
     1
 91
        4
176
     1
 64
     7
176
     1
 65
   257
176
     1
 75
     1
176
     1
175
     1
176
     1
 42
1.0
176
     1
 92
        8
176
     1
 66
     7
176
     1
 43
1.0
176
     1
 76
     1
176
     1
 77
     6
176
     1
 78
     2
176
     1
 67
     7
176
     1
 79
     5
176
     1
170
     0
176
     1
171
     0
176
     1
290
     0
176
     1
 93
        1
176
     1
 44
-50.0
176
     1
173
     0
176
     1
1001
ACAD
1000
AcDbSavedByObjectVersion
1070
     0
  0
VISUALSTYLE
  5
63F9
102
{ACAD_XDICTIONARY
360
6C16
102
}
102
{ACAD_REACTORS
330
63E1
102
}
330
63E1
100
AcDbVisualStyle
  2
EdgeColorOff
 70
    22
177
     2
291
     1
 71
     2
176
     0
 72
     2
176
     0
 73
     0
176
     0
 90
        0
176
     0
 40
0.6
176
     0
 41
30.0
176
     0
 63
     7
421
 16777215
176
     0
 74
     1
176
     0
 91
        4
176
     0
 64
     7
176
     0
 65
   257
176
     0
 75
     1
176
     0
175
     1
176
     0
 42
1.0
176
     0
 92
        8
176
     2
 66
     7
176
     0
 43
1.0
176
     0
 76
     1
176
     0
 77
     6
176
     0
 78
     2
176
     0
 67
     7
176
     0
 79
     5
176
     0
170
     0
176
     0
171
     0
176
     0
290
     0
176
     0
 93
        1
176
     0
 44
0.0
176
     0
173
     0
176
     0
1001
ACAD
1000
AcDbSavedByObjectVersion
1070
     0
  0
VISUALSTYLE
  5
63F0
102
{ACAD_XDICTIONARY
360
6C04
102
}
102
{ACAD_REACTORS
330
63E1
102
}
330
63E1
100
AcDbVisualStyle
  2
Facepattern
 70
    15
177
     2
291
     1
 71
     2
176
     1
 72
     2
176
     1
 73
     0
176
     1
 90
        0
176
     1
 40
0.6
176
     1
 41
30.0
176
     1
 63
     7
421
 16777215
176
     1
 74
     1
176
     1
 91
        4
176
     1
 64
     7
176
     1
 65
   257
176
     1
 75
     1
176
     1
175
     1
176
     1
 42
1.0
176
     1
 92
        8
176
     1
 66
     7
176
     1
 43
1.0
176
     1
 76
     1
176
     1
 77
     6
176
     1
 78
     2
176
     1
 67
     7
176
     1
 79
     5
176
     1
170
     0
176
     1
171
     0
176
     1
290
     0
176
     1
 93
        1
176
     1
 44
0.0
176
     1
173
     0
176
     1
1001
ACAD
1000
AcDbSavedByObjectVersion
1070
     0
  0
VISUALSTYLE
  5
63E2
102
{ACAD_XDICTIONARY
360
6BE8
102
}
102
{ACAD_REACTORS
330
63E1
102
}
330
63E1
100
AcDbVisualStyle
  2
Flat
 70
     0
177
     2
291
     1
 71
     2
176
     1
 72
     1
176
     1
 73
     1
176
     1
 90
        2
176
     1
 40
0.6
176
     1
 41
30.0
176
     1
 63
     7
421
 16777215
176
     1
 74
     0
176
     1
 91
        0
176
     1
 64
     7
176
     1
 65
   257
176
     1
 75
     1
176
     1
175
     1
176
     1
 42
1.0
176
     1
 92
        8
176
     1
 66
     7
176
     1
 43
1.0
176
     1
 76
     1
176
     1
 77
     6
176
     1
 78
     2
176
     1
 67
     7
176
     1
 79
     5
176
     1
170
     0
176
     1
171
     0
176
     1
290
     0
176
     1
 93
       13
176
     1
 44
0.0
176
     1
173
     0
176
     1
1001
ACAD
1000
AcDbSavedByObjectVersion
1070
     0
  0
VISUALSTYLE
  5
63E3
102
{ACAD_XDICTIONARY
360
6BEA
102
}
102
{ACAD_REACTORS
330
63E1
102
}
330
63E1
100
AcDbVisualStyle
  2
FlatWithEdges
 70
     1
177
     2
291
     1
 71
     2
176
     1
 72
     1
176
     1
 73
     1
176
     1
 90
        2
176
     1
 40
0.6
176
     1
 41
30.0
176
     1
 63
     7
421
 16777215
176
     1
 74
     1
176
     1
 91
        0
176
     1
 64
     7
176
     1
 65
   257
176
     1
 75
     1
176
     1
175
     1
176
     1
 42
1.0
176
     1
 92
        0
176
     1
 66
   257
176
     1
 43
1.0
176
     1
 76
     1
176
     1
 77
     6
176
     1
 78
     2
176
     1
 67
     7
176
     1
 79
     5
176
     1
170
     0
176
     1
171
     0
176
     1
290
     0
176
     1
 93
       13
176
     1
 44
0.0
176
     1
173
     0
176
     1
1001
ACAD
1000
AcDbSavedByObjectVersion
1070
     0
  0
VISUALSTYLE
  5
63E4
102
{ACAD_XDICTIONARY
360
6BEC
102
}
102
{ACAD_REACTORS
330
63E1
102
}
330
63E1
100
AcDbVisualStyle
  2
Gouraud
 70
     2
177
     2
291
     1
 71
     2
176
     1
 72
     2
176
     1
 73
     1
176
     1
 90
        2
176
     1
 40
0.6
176
     1
 41
30.0
176
     1
 63
     7
421
 16777215
176
     1
 74
     0
176
     1
 91
        0
176
     1
 64
     7
176
     1
 65
   257
176
     1
 75
     1
176
     1
175
     1
176
     1
 42
1.0
176
     1
 92
        0
176
     1
 66
     7
176
     1
 43
1.0
176
     1
 76
     1
176
     1
 77
     6
176
     1
 78
     2
176
     1
 67
     7
176
     1
 79
     5
176
     1
170
     0
176
     1
171
     0
176
     1
290
     0
176
     1
 93
       13
176
     1
 44
0.0
176
     1
173
     0
176
     1
1001
ACAD
1000
AcDbSavedByObjectVersion
1070
     0
  0
VISUALSTYLE
  5
63E5
102
{ACAD_XDICTIONARY
360
6BEE
102
}
102
{ACAD_REACTORS
330
63E1
102
}
330
63E1
100
AcDbVisualStyle
  2
GouraudWithEdges
 70
     3
177
     2
291
     1
 71
     2
176
     1
 72
     2
176
     1
 73
     1
176
     1
 90
        2
176
     1
 40
0.6
176
     1
 41
30.0
176
     1
 63
     7
421
 16777215
176
     1
 74
     1
176
     1
 91
        0
176
     1
 64
     7
176
     1
 65
   257
176
     1
 75
     1
176
     1
175
     1
176
     1
 42
1.0
176
     1
 92
        0
176
     1
 66
   257
176
     1
 43
1.0
176
     1
 76
     1
176
     1
 77
     6
176
     1
 78
     2
176
     1
 67
     7
176
     1
 79
     5
176
     1
170
     0
176
     1
171
     0
176
     1
290
     0
176
     1
 93
       13
176
     1
 44
0.0
176
     1
173
     0
176
     1
1001
ACAD
1000
AcDbSavedByObjectVersion
1070
     0
  0
VISUALSTYLE
  5
63E9
102
{ACAD_XDICTIONARY
360
6BF6
102
}
102
{ACAD_REACTORS
330
63E1
102
}
330
63E1
100
AcDbVisualStyle
  2
Hidden
 70
     6
177
     2
291
     0
 71
     1
176
     1
 72
     2
176
     1
 73
     2
176
     1
 90
        0
176
     1
 40
0.6
176
     1
 41
30.0
176
     1
 63
     7
421
 16777215
176
     1
 74
     2
176
     1
 91
        2
176
     1
 64
     7
176
     1
 65
   257
176
     1
 75
     2
176
     1
175
     1
176
     1
 42
40.0
176
     1
 92
        0
176
     1
 66
   257
176
     1
 43
1.0
176
     1
 76
     1
176
     1
 77
     6
176
     1
 78
     2
176
     1
 67
     7
176
     1
 79
     3
176
     1
170
     0
176
     1
171
     0
176
     1
290
     0
176
     1
 93
        1
176
     1
 44
0.0
176
     1
173
     0
176
     1
1001
ACAD
1000
AcDbSavedByObjectVersion
1070
     0
  0
VISUALSTYLE
  5
63F7
102
{ACAD_XDICTIONARY
360
6C12
102
}
102
{ACAD_REACTORS
330
63E1
102
}
330
63E1
100
AcDbVisualStyle
  2
JitterOff
 70
    20
177
     2
291
     1
 71
     2
176
     0
 72
     2
176
     0
 73
     0
176
     0
 90
        0
176
     0
 40
0.6
176
     0
 41
30.0
176
     0
 63
     7
421
 16777215
176
     0
 74
     1
176
     0
 91
        4
176
     0
 64
     7
176
     0
 65
   257
176
     0
 75
     1
176
     0
175
     1
176
     0
 42
1.0
176
     0
 92
       10
176
     2
 66
     7
176
     0
 43
1.0
176
     0
 76
     1
176
     0
 77
     6
176
     0
 78
     2
176
     0
 67
     7
176
     0
 79
     5
176
     0
170
     0
176
     0
171
     0
176
     0
290
     0
176
     0
 93
        1
176
     0
 44
0.0
176
     0
173
     0
176
     0
1001
ACAD
1000
AcDbSavedByObjectVersion
1070
     0
  0
VISUALSTYLE
  5
63EF
102
{ACAD_XDICTIONARY
360
6C02
102
}
102
{ACAD_REACTORS
330
63E1
102
}
330
63E1
100
AcDbVisualStyle
  2
Linepattern
 70
    14
177
     2
291
     1
 71
     2
176
     1
 72
     2
176
     1
 73
     0
176
     1
 90
        0
176
     1
 40
0.6
176
     1
 41
30.0
176
     1
 63
     7
421
 16777215
176
     1
 74
     1
176
     1
 91
        4
176
     1
 64
     7
176
     1
 65
   257
176
     1
 75
     7
176
     1
175
     7
176
     1
 42
1.0
176
     1
 92
        8
176
     1
 66
     7
176
     1
 43
1.0
176
     1
 76
     1
176
     1
 77
     6
176
     1
 78
     2
176
     1
 67
     7
176
     1
 79
     5
176
     1
170
     0
176
     1
171
     0
176
     1
290
     0
176
     1
 93
        1
176
     1
 44
0.0
176
     1
173
     0
176
     1
1001
ACAD
1000
AcDbSavedByObjectVersion
1070
     0
  0
VISUALSTYLE
  5
63F8
102
{ACAD_XDICTIONARY
360
6C14
102
}
102
{ACAD_REACTORS
330
63E1
102
}
330
63E1
100
AcDbVisualStyle
  2
OverhangOff
 70
    21
177
     2
291
     1
 71
     2
176
     0
 72
     2
176
     0
 73
     0
176
     0
 90
        0
176
     0
 40
0.6
176
     0
 41
30.0
176
     0
 63
     7
421
 16777215
176
     0
 74
     1
176
     0
 91
        4
176
     0
 64
     7
176
     0
 65
   257
176
     0
 75
     1
176
     0
175
     1
176
     0
 42
1.0
176
     0
 92
        9
176
     2
 66
     7
176
     0
 43
1.0
176
     0
 76
     1
176
     0
 77
     6
176
     0
 78
     2
176
     0
 67
     7
176
     0
 79
     5
176
     0
170
     0
176
     0
171
     0
176
     0
290
     0
176
     0
 93
        1
176
     0
 44
0.0
176
     0
173
     0
176
     0
1001
ACAD
1000
AcDbSavedByObjectVersion
1070
     0
  0
VISUALSTYLE
  5
63EB
102
{ACAD_XDICTIONARY
360
6BFA
102
}
102
{ACAD_REACTORS
330
63E1
102
}
330
63E1
100
AcDbVisualStyle
  2
Realistic
 70
     8
177
     2
291
     0
 71
     2
176
     1
 72
     3
176
     1
 73
     0
176
     1
 90
        2
176
     1
 40
0.6
176
     1
 41
30.0
176
     1
 63
     7
421
 16777215
176
     1
 74
     0
176
     1
 91
        0
176
     1
 64
     7
176
     1
 65
   257
176
     1
 75
     1
176
     1
175
     1
176
     1
 42
1.0
176
     1
 92
        8
176
     1
 66
   257
176
     1
 43
1.0
176
     1
 76
     1
176
     1
 77
     6
176
     1
 78
     2
176
     1
 67
     7
176
     1
 79
     3
176
     1
170
     0
176
     1
171
     0
176
     1
290
     0
176
     1
 93
       13
176
     1
 44
0.0
176
     1
173
     0
176
     1
1001
ACAD
1000
AcDbSavedByObjectVersion
1070
     0
  0
VISUALSTYLE
  5
63F6
102
{ACAD_XDICTIONARY
360
6C10
102
}
102
{ACAD_REACTORS
330
63E1
102
}
330
63E1
100
AcDbVisualStyle
  2
Shaded
 70
    27
177
     2
291
     0
 71
     2
176
     1
 72
     2
176
     1
 73
     1
176
     1
 90
        2
176
     1
 40
0.6
176
     1
 41
30.0
176
     1
 63
     7
421
 16777215
176
     1
 74
     0
176
     1
 91
        4
176
     1
 64
     7
176
     1
 65
   257
176
     1
 75
     1
176
     1
175
     1
176
     1
 42
1.0
176
     1
 92
        8
176
     1
 66
   257
176
     1
 43
1.0
176
     1
 76
     1
176
     1
 77
     6
176
     1
 78
     2
176
     1
 67
     8
425
  7895160
176
     1
 79
     3
176
     1
170
     0
176
     1
171
     0
176
     1
290
     0
176
     1
 93
        5
176
     1
 44
0.0
176
     1
173
     0
176
     1
1001
ACAD
1000
AcDbSavedByObjectVersion
1070
     0
  0
VISUALSTYLE
  5
63F5
102
{ACAD_XDICTIONARY
360
6C0E
102
}
102
{ACAD_REACTORS
330
63E1
102
}
330
63E1
100
AcDbVisualStyle
  2
Shaded with edges
 70
    26
177
     2
291
     0
 71
     2
176
     1
 72
     2
176
     1
 73
     1
176
     1
 90
        2
176
     1
 40
0.6
176
     1
 41
30.0
176
     1
 63
     7
421
 16777215
176
     1
 74
     1
176
     1
 91
        2
176
     1
 64
     7
176
     1
 65
   257
176
     1
 75
     2
176
     1
175
     1
176
     1
 42
1.0
176
     1
 92
        8
176
     1
 66
   257
176
     1
 43
1.0
176
     1
 76
     1
176
     1
 77
     6
176
     1
 78
     2
176
     1
 67
     7
176
     1
 79
     3
176
     1
170
     0
176
     1
171
     0
176
     1
290
     0
176
     1
 93
        5
176
     1
 44
0.0
176
     1
173
     0
176
     1
1001
ACAD
1000
AcDbSavedByObjectVersion
1070
     0
  0
VISUALSTYLE
  5
63F2
102
{ACAD_XDICTIONARY
360
6C08
102
}
102
{ACAD_REACTORS
330
63E1
102
}
330
63E1
100
AcDbVisualStyle
  2
Shades of Gray
 70
    23
177
     2
291
     0
 71
     2
176
     1
 72
     2
176
     1
 73
     3
176
     1
 90
        0
176
     1
 40
0.6
176
     1
 41
30.0
176
     1
 63
     7
421
 16777215
176
     1
 74
     2
176
     1
 91
        2
176
     1
 64
     7
176
     1
 65
     7
176
     1
 75
     1
176
     1
175
     1
176
     1
 42
40.0
176
     1
 92
        8
176
     1
 66
     7
176
     1
 43
1.0
176
     1
 76
     1
176
     1
 77
     6
176
     1
 78
     2
176
     1
 67
     7
176
     1
 79
     3
176
     1
170
     0
176
     1
171
     0
176
     1
290
     0
176
     1
 93
        1
176
     1
 44
0.0
176
     1
173
     0
176
     1
1001
ACAD
1000
AcDbSavedByObjectVersion
1070
     0
  0
VISUALSTYLE
  5
63F3
102
{ACAD_XDICTIONARY
360
6C0A
102
}
102
{ACAD_REACTORS
330
63E1
102
}
330
63E1
100
AcDbVisualStyle
  2
Sketchy
 70
    24
177
     2
291
     0
 71
     1
176
     1
 72
     2
176
     1
 73
     2
176
     1
 90
        0
176
     1
 40
0.6
176
     1
 41
30.0
176
     1
 63
     7
421
 16777215
176
     1
 74
     2
176
     1
 91
        2
176
     1
 64
     7
176
     1
 65
     7
176
     1
 75
     1
176
     1
175
     1
176
     1
 42
40.0
176
     1
 92
       11
176
     1
 66
     7
176
     1
 43
1.0
176
     1
 76
     1
176
     1
 77
     6
176
     1
 78
     2
176
     1
 67
     7
176
     1
 79
     6
176
     1
170
     0
176
     1
171
     0
176
     1
290
     0
176
     1
 93
        1
176
     1
 44
0.0
176
     1
173
     0
176
     1
1001
ACAD
1000
AcDbSavedByObjectVersion
1070
     0
  0
VISUALSTYLE
  5
63EE
102
{ACAD_XDICTIONARY
360
6C00
102
}
102
{ACAD_REACTORS
330
63E1
102
}
330
63E1
100
AcDbVisualStyle
  2
Thicken
 70
    13
177
     2
291
     1
 71
     2
176
     1
 72
     2
176
     1
 73
     0
176
     1
 90
        0
176
     1
 40
0.6
176
     1
 41
30.0
176
     1
 63
     7
421
 16777215
176
     1
 74
     1
176
     1
 91
        4
176
     1
 64
     7
176
     1
 65
   257
176
     1
 75
     1
176
     1
175
     1
176
     1
 42
1.0
176
     1
 92
       12
176
     1
 66
     7
176
     1
 43
1.0
176
     1
 76
     1
176
     1
 77
     6
176
     1
 78
     2
176
     1
 67
     7
176
     1
 79
     5
176
     1
170
     0
176
     1
171
     0
176
     1
290
     0
176
     1
 93
        1
176
     1
 44
0.0
176
     1
173
     0
176
     1
1001
ACAD
1000
AcDbSavedByObjectVersion
1070
     0
  0
VISUALSTYLE
  5
63E8
102
{ACAD_XDICTIONARY
360
6BF4
102
}
102
{ACAD_REACTORS
330
63E1
102
}
330
63E1
100
AcDbVisualStyle
  2
Wireframe
 70
     5
177
     2
291
     0
 71
     0
176
     1
 72
     2
176
     1
 73
     0
176
     1
 90
        0
176
     1
 40
0.6
176
     1
 41
30.0
176
     1
 63
     7
421
 16777215
176
     1
 74
     1
176
     1
 91
        4
176
     1
 64
     7
176
     1
 65
   257
176
     1
 75
     1
176
     1
175
     1
176
     1
 42
1.0
176
     1
 92
        0
176
     1
 66
   257
176
     1
 43
1.0
176
     1
 76
     1
176
     1
 77
     6
176
     1
 78
     2
176
     1
 67
     7
176
     1
 79
     3
176
     1
170
     0
176
     1
171
     0
176
     1
290
     0
176
     1
 93
        1
176
     1
 44
0.0
176
     1
173
     0
176
     1
1001
ACAD
1000
AcDbSavedByObjectVersion
1070
     0
  0
VISUALSTYLE
  5
63F4
102
{ACAD_XDICTIONARY
360
6C0C
102
}
102
{ACAD_REACTORS
330
63E1
102
}
330
63E1
100
AcDbVisualStyle
  2
X-Ray
 70
    25
177
     2
291
     0
 71
     2
176
     1
 72
     2
176
     1
 73
     1
176
     1
 90
        1
176
     1
 40
0.5
176
     1
 41
30.0
176
     1
 63
     7
421
 16777215
176
     1
 74
     1
176
     1
 91
        0
176
     1
 64
     7
176
     1
 65
   257
176
     1
 75
     1
176
     1
175
     1
176
     1
 42
1.0
176
     1
 92
        8
176
     1
 66
     7
176
     1
 43
1.0
176
     1
 76
     1
176
     1
 77
     6
176
     1
 78
     2
176
     1
 67
     7
176
     1
 79
     3
176
     1
170
     0
176
     1
171
     0
176
     1
290
     0
176
     1
 93
       13
176
     1
 44
0.0
176
     1
173
     0
176
     1
1001
ACAD
1000
AcDbSavedByObjectVersion
1070
     0
  0
DICTIONARYVAR
  5
656F
102
{ACAD_REACTORS
330
34D4
102
}
330
34D4
100
DictionaryVariables
280
     0
  1
1:1
  0
DICTIONARYVAR
  5
656D
102
{ACAD_REACTORS
330
34D4
102
}
330
34D4
100
DictionaryVariables
280
     0
  1
STANDARD
  0
DICTIONARYVAR
  5
656C
102
{ACAD_REACTORS
330
34D4
102
}
330
34D4
100
DictionaryVariables
280
     0
  1
STANDARD
  0
DICTIONARYVAR
  5
6933
102
{ACAD_REACTORS
330
34D4
102
}
330
34D4
100
DictionaryVariables
280
     0
  1
Metric50
  0
DICTIONARYVAR
  5
6934
102
{ACAD_REACTORS
330
34D4
102
}
330
34D4
100
DictionaryVariables
280
     0
  1
Metric50
  0
DICTIONARYVAR
  5
63C6
102
{ACAD_REACTORS
330
34D4
102
}
330
34D4
100
DictionaryVariables
280
     0
  1
1
  0
DICTIONARYVAR
  5
6571
102
{ACAD_REACTORS
330
34D4
102
}
330
34D4
100
DictionaryVariables
280
     0
  1
1
  0
DICTIONARYVAR
  5
6572
102
{ACAD_REACTORS
330
34D4
102
}
330
34D4
100
DictionaryVariables
280
     0
  1
15
  0
DICTIONARYVAR
  5
6570
102
{ACAD_REACTORS
330
34D4
102
}
330
34D4
100
DictionaryVariables
280
     0
  1
0
  0
DICTIONARYVAR
  5
656E
102
{ACAD_REACTORS
330
34D4
102
}
330
34D4
100
DictionaryVariables
280
     0
  1
0
  0
DICTIONARYVAR
  5
63C7
102
{ACAD_REACTORS
330
34D4
102
}
330
34D4
100
DictionaryVariables
280
     0
  1

  0
DICTIONARYVAR
  5
34D5
102
{ACAD_REACTORS
330
34D4
102
}
330
34D4
100
DictionaryVariables
280
     0
  1
96
  0
DICTIONARY
  5
6BE7
102
{ACAD_REACTORS
330
6BE5
102
}
330
6BE5
100
AcDbDictionary
281
     1
  0
DICTIONARY
  5
6BE6
102
{ACAD_REACTORS
330
6BE5
102
}
330
6BE5
100
AcDbDictionary
281
     1
  3
2086739782784
350
6BE0
  3
2086739782800
350
6BE1
  3
2086739782816
350
6BE2
  3
2086739782832
350
6BE3
  3
2086739782848
350
6BE4
  0
DICTIONARY
  5
6C1C
330
6908
100
AcDbDictionary
280
     1
281
     1
  3
ACAD_XREC_ROUNDTRIP
360
6C1D
  0
DICTIONARY
  5
68D5
330
68A9
100
AcDbDictionary
280
     1
281
     1
  0
DICTIONARY
  5
6567
330
3BBB
100
AcDbDictionary
280
     1
281
     1
  0
DICTIONARY
  5
63D2
330
63D1
100
AcDbDictionary
280
     1
281
     1
  3
BUMPTILE
360
63D4
  3
DIFFUSETILE
360
63D3
  3
OPACITYTILE
360
63D7
  3
REFLECTIONTILE
360
63D6
  3
REFRACTIONTILE
360
63D8
  3
SPECULARTILE
360
63D5
  0
DICTIONARY
  5
63CA
330
63C9
100
AcDbDictionary
280
     1
281
     1
  3
BUMPTILE
360
63CC
  3
DIFFUSETILE
360
63CB
  3
OPACITYTILE
360
63CF
  3
REFLECTIONTILE
360
63CE
  3
REFRACTIONTILE
360
63D0
  3
SPECULARTILE
360
63CD
  0
DICTIONARY
  5
63DA
330
63D9
100
AcDbDictionary
280
     1
281
     1
  3
BUMPTILE
360
63DC
  3
DIFFUSETILE
360
63DB
  3
OPACITYTILE
360
63DF
  3
REFLECTIONTILE
360
63DE
  3
REFRACTIONTILE
360
63E0
  3
SPECULARTILE
360
63DD
  0
DICTIONARY
  5
6C18
330
640F
100
AcDbDictionary
280
     1
281
     1
  3
ACAD_XREC_ROUNDTRIP
360
6C19
  0
DICTIONARY
  5
6C1A
330
6906
100
AcDbDictionary
280
     1
281
     1
  3
ACAD_XREC_ROUNDTRIP
360
6C1B
  0
DICTIONARY
  5
6BDD
330
63FB
100
AcDbDictionary
280
     1
281
     1
  3
ACAD_ROUNDTRIP_2008_TABLESTYLE_CELLSTYLEMAP
360
6BDE
  0
DICTIONARY
  5
6BF2
330
63E7
100
AcDbDictionary
280
     1
281
     1
  3
ACAD_XREC_ROUNDTRIP
360
6BF3
  0
DICTIONARY
  5
6BF0
330
63E6
100
AcDbDictionary
280
     1
281
     1
  3
ACAD_XREC_ROUNDTRIP
360
6BF1
  0
DICTIONARY
  5
6BFE
330
63ED
100
AcDbDictionary
280
     1
281
     1
  3
ACAD_XREC_ROUNDTRIP
360
6BFF
  0
DICTIONARY
  5
6C06
330
63F1
100
AcDbDictionary
280
     1
281
     1
  3
ACAD_XREC_ROUNDTRIP
360
6C07
  0
DICTIONARY
  5
6BF8
330
63EA
100
AcDbDictionary
280
     1
281
     1
  3
ACAD_XREC_ROUNDTRIP
360
6BF9
  0
DICTIONARY
  5
6BFC
330
63EC
100
AcDbDictionary
280
     1
281
     1
  3
ACAD_XREC_ROUNDTRIP
360
6BFD
  0
DICTIONARY
  5
6C16
330
63F9
100
AcDbDictionary
280
     1
281
     1
  3
ACAD_XREC_ROUNDTRIP
360
6C17
  0
DICTIONARY
  5
6C04
330
63F0
100
AcDbDictionary
280
     1
281
     1
  3
ACAD_XREC_ROUNDTRIP
360
6C05
  0
DICTIONARY
  5
6BE8
330
63E2
100
AcDbDictionary
280
     1
281
     1
  3
ACAD_XREC_ROUNDTRIP
360
6BE9
  0
DICTIONARY
  5
6BEA
330
63E3
100
AcDbDictionary
280
     1
281
     1
  3
ACAD_XREC_ROUNDTRIP
360
6BEB
  0
DICTIONARY
  5
6BEC
330
63E4
100
AcDbDictionary
280
     1
281
     1
  3
ACAD_XREC_ROUNDTRIP
360
6BED
  0
DICTIONARY
  5
6BEE
330
63E5
100
AcDbDictionary
280
     1
281
     1
  3
ACAD_XREC_ROUNDTRIP
360
6BEF
  0
DICTIONARY
  5
6BF6
330
63E9
100
AcDbDictionary
280
     1
281
     1
  3
ACAD_XREC_ROUNDTRIP
360
6BF7
  0
DICTIONARY
  5
6C12
330
63F7
100
AcDbDictionary
280
     1
281
     1
  3
ACAD_XREC_ROUNDTRIP
360
6C13
  0
DICTIONARY
  5
6C02
330
63EF
100
AcDbDictionary
280
     1
281
     1
  3
ACAD_XREC_ROUNDTRIP
360
6C03
  0
DICTIONARY
  5
6C14
330
63F8
100
AcDbDictionary
280
     1
281
     1
  3
ACAD_XREC_ROUNDTRIP
360
6C15
  0
DICTIONARY
  5
6BFA
330
63EB
100
AcDbDictionary
280
     1
281
     1
  3
ACAD_XREC_ROUNDTRIP
360
6BFB
  0
DICTIONARY
  5
6C10
330
63F6
100
AcDbDictionary
280
     1
281
     1
  3
ACAD_XREC_ROUNDTRIP
360
6C11
  0
DICTIONARY
  5
6C0E
330
63F5
100
AcDbDictionary
280
     1
281
     1
  3
ACAD_XREC_ROUNDTRIP
360
6C0F
  0
DICTIONARY
  5
6C08
330
63F2
100
AcDbDictionary
280
     1
281
     1
  3
ACAD_XREC_ROUNDTRIP
360
6C09
  0
DICTIONARY
  5
6C0A
330
63F3
100
AcDbDictionary
280
     1
281
     1
  3
ACAD_XREC_ROUNDTRIP
360
6C0B
  0
DICTIONARY
  5
6C00
330
63EE
100
AcDbDictionary
280
     1
281
     1
  3
ACAD_XREC_ROUNDTRIP
360
6C01
  0
DICTIONARY
  5
6BF4
330
63E8
100
AcDbDictionary
280
     1
281
     1
  3
ACAD_XREC_ROUNDTRIP
360
6BF5
  0
DICTIONARY
  5
6C0C
330
63F4
100
AcDbDictionary
280
     1
281
     1
  3
ACAD_XREC_ROUNDTRIP
360
6C0D
  0
XRECORD
  5
6BE0
102
{ACAD_REACTORS
330
6BE6
102
}
330
6BE6
100
AcDbXrecord
280
     1
  1
AcDb_Thumbnail_Schema
102
{ATTRRECORD
341
6BE1
  2
AcDbDs::TreatedAsObjectData
280
     1
291
     1
102
ATTRRECORD}
102
{ATTRRECORD
341
6BE2
  2
AcDbDs::Legacy
280
     1
291
     1
102
ATTRRECORD}
  2
AcDbDs::ID
280
    10
 91
        8
102
{ATTRRECORD
341
6BE3
  2
AcDs:Indexable
280
     1
291
     1
102
ATTRRECORD}
102
{ATTRRECORD
341
6BE4
  2
AcDbDs::HandleAttribute
280
     7
282
     1
102
ATTRRECORD}
  2
Thumbnail_Data
280
    15
 91
        0
  0
XRECORD
  5
6BE1
102
{ACAD_REACTORS
330
6BE6
102
}
330
6BE6
100
AcDbXrecord
280
     1
  1
AcDbDs::TreatedAsObjectDataSchema
  2
AcDbDs::TreatedAsObjectData
280
     1
 91
        0
  0
XRECORD
  5
6BE2
102
{ACAD_REACTORS
330
6BE6
102
}
330
6BE6
100
AcDbXrecord
280
     1
  1
AcDbDs::LegacySchema
  2
AcDbDs::Legacy
280
     1
 91
        0
  0
XRECORD
  5
6BE3
102
{ACAD_REACTORS
330
6BE6
102
}
330
6BE6
100
AcDbXrecord
280
     1
  1
AcDbDs::IndexedPropertySchema
  2
AcDs:Indexable
280
     1
 91
        0
  0
XRECORD
  5
6BE4
102
{ACAD_REACTORS
330
6BE6
102
}
330
6BE6
100
AcDbXrecord
280
     1
  1
AcDbDs::HandleAttributeSchema
  2
AcDbDs::HandleAttribute
280
     7
 91
        1
284
     1
  0
XRECORD
  5
6C1D
102
{ACAD_REACTORS
330
6C1C
102
}
330
6C1C
100
AcDbXrecord
280
     1
102
DISPLAYNAME
  1
Metric50
102
FLAGS
 90
        0
  0
XRECORD
  5
63D4
102
{ACAD_REACTORS
330
63D2
102
}
330
63D2
100
AcDbXrecord
280
     1
270
     1
271
     1
  0
XRECORD
  5
63D3
102
{ACAD_REACTORS
330
63D2
102
}
330
63D2
100
AcDbXrecord
280
     1
270
     1
271
     1
  0
XRECORD
  5
63D7
102
{ACAD_REACTORS
330
63D2
102
}
330
63D2
100
AcDbXrecord
280
     1
270
     1
271
     1
  0
XRECORD
  5
63D6
102
{ACAD_REACTORS
330
63D2
102
}
330
63D2
100
AcDbXrecord
280
     1
270
     1
271
     1
  0
XRECORD
  5
63D8
102
{ACAD_REACTORS
330
63D2
102
}
330
63D2
100
AcDbXrecord
280
     1
270
     1
271
     1
  0
XRECORD
  5
63D5
102
{ACAD_REACTORS
330
63D2
102
}
330
63D2
100
AcDbXrecord
280
     1
270
     1
271
     1
  0
XRECORD
  5
63CC
102
{ACAD_REACTORS
330
63CA
102
}
330
63CA
100
AcDbXrecord
280
     1
270
     1
271
     1
  0
XRECORD
  5
63CB
102
{ACAD_REACTORS
330
63CA
102
}
330
63CA
100
AcDbXrecord
280
     1
270
     1
271
     1
  0
XRECORD
  5
63CF
102
{ACAD_REACTORS
330
63CA
102
}
330
63CA
100
AcDbXrecord
280
     1
270
     1
271
     1
  0
XRECORD
  5
63CE
102
{ACAD_REACTORS
330
63CA
102
}
330
63CA
100
AcDbXrecord
280
     1
270
     1
271
     1
  0
XRECORD
  5
63D0
102
{ACAD_REACTORS
330
63CA
102
}
330
63CA
100
AcDbXrecord
280
     1
270
     1
271
     1
  0
XRECORD
  5
63CD
102
{ACAD_REACTORS
330
63CA
102
}
330
63CA
100
AcDbXrecord
280
     1
270
     1
271
     1
  0
XRECORD
  5
63DC
102
{ACAD_REACTORS
330
63DA
102
}
330
63DA
100
AcDbXrecord
280
     1
270
     1
271
     1
  0
XRECORD
  5
63DB
102
{ACAD_REACTORS
330
63DA
102
}
330
63DA
100
AcDbXrecord
280
     1
270
     1
271
     1
  0
XRECORD
  5
63DF
102
{ACAD_REACTORS
330
63DA
102
}
330
63DA
100
AcDbXrecord
280
     1
270
     1
271
     1
  0
XRECORD
  5
63DE
102
{ACAD_REACTORS
330
63DA
102
}
330
63DA
100
AcDbXrecord
280
     1
270
     1
271
     1
  0
XRECORD
  5
63E0
102
{ACAD_REACTORS
330
63DA
102
}
330
63DA
100
AcDbXrecord
280
     1
270
     1
271
     1
  0
XRECORD
  5
63DD
102
{ACAD_REACTORS
330
63DA
102
}
330
63DA
100
AcDbXrecord
280
     1
270
     1
271
     1
  0
XRECORD
  5
6C19
102
{ACAD_REACTORS
330
6C18
102
}
330
6C18
100
AcDbXrecord
280
     1
102
ACAD_ROUNDTRIP_2012_MLEADER_STYLE
298
     1
  0
XRECORD
  5
6C1B
102
{ACAD_REACTORS
330
6C1A
102
}
330
6C1A
100
AcDbXrecord
280
     1
102
DISPLAYNAME
  1
Metric50
102
FLAGS
 90
        0
  0
CELLSTYLEMAP
  5
6BDE
102
{ACAD_REACTORS
330
6BDD
102
}
330
6BDD
100
AcDbCellStyleMap
 90
        3
300
CELLSTYLE
  1
TABLEFORMAT_BEGIN
 90
        5
170
     1
 91
        0
 92
    32768
 62
   257
 93
        1
300
CONTENTFORMAT
  1
CONTENTFORMAT_BEGIN
 90
        0
 91
        0
 92
      512
 93
        0
300

 40
0.0
140
1.0
 94
        5
 62
     0
340
F
144
6.0
309
CONTENTFORMAT_END
171
     1
301
MARGIN
  1
CELLMARGIN_BEGIN
 40
1.5
 40
1.5
 40
1.5
 40
1.5
 40
4.5
 40
4.5
309
CELLMARGIN_END
 94
        6
 95
        1
302
GRIDFORMAT
  1
GRIDFORMAT_BEGIN
 90
        0
 91
        1
 62
     0
 92
       -2
340
0
 93
        0
 40
1.125
309
GRIDFORMAT_END
 95
        2
302
GRIDFORMAT
  1
GRIDFORMAT_BEGIN
 90
        0
 91
        1
 62
     0
 92
       -2
340
0
 93
        0
 40
1.125
309
GRIDFORMAT_END
 95
        4
302
GRIDFORMAT
  1
GRIDFORMAT_BEGIN
 90
        0
 91
        1
 62
     0
 92
       -2
340
0
 93
        0
 40
1.125
309
GRIDFORMAT_END
 95
        8
302
GRIDFORMAT
  1
GRIDFORMAT_BEGIN
 90
        0
 91
        1
 62
     0
 92
       -2
340
0
 93
        0
 40
1.125
309
GRIDFORMAT_END
 95
       16
302
GRIDFORMAT
  1
GRIDFORMAT_BEGIN
 90
        0
 91
        1
 62
     0
 92
       -2
340
0
 93
        0
 40
1.125
309
GRIDFORMAT_END
 95
       32
302
GRIDFORMAT
  1
GRIDFORMAT_BEGIN
 90
        0
 91
        1
 62
     0
 92
       -2
340
0
 93
        0
 40
1.125
309
GRIDFORMAT_END
309
TABLEFORMAT_END
  1
CELLSTYLE_BEGIN
 90
        1
 91
        1
300
_TITLE
309
CELLSTYLE_END
300
CELLSTYLE
  1
TABLEFORMAT_BEGIN
 90
        5
170
     1
 91
        0
 92
        0
 62
   257
 93
        1
300
CONTENTFORMAT
  1
CONTENTFORMAT_BEGIN
 90
        0
 91
        0
 92
      512
 93
        0
300

 40
0.0
140
1.0
 94
        5
 62
     0
340
F
144
4.5
309
CONTENTFORMAT_END
171
     1
301
MARGIN
  1
CELLMARGIN_BEGIN
 40
1.5
 40
1.5
 40
1.5
 40
1.5
 40
4.5
 40
4.5
309
CELLMARGIN_END
 94
        6
 95
        1
302
GRIDFORMAT
  1
GRIDFORMAT_BEGIN
 90
        0
 91
        1
 62
     0
 92
       -2
340
0
 93
        0
 40
1.125
309
GRIDFORMAT_END
 95
        2
302
GRIDFORMAT
  1
GRIDFORMAT_BEGIN
 90
        0
 91
        1
 62
     0
 92
       -2
340
0
 93
        0
 40
1.125
309
GRIDFORMAT_END
 95
        4
302
GRIDFORMAT
  1
GRIDFORMAT_BEGIN
 90
        0
 91
        1
 62
     0
 92
       -2
340
0
 93
        0
 40
1.125
309
GRIDFORMAT_END
 95
        8
302
GRIDFORMAT
  1
GRIDFORMAT_BEGIN
 90
        0
 91
        1
 62
     0
 92
       -2
340
0
 93
        0
 40
1.125
309
GRIDFORMAT_END
 95
       16
302
GRIDFORMAT
  1
GRIDFORMAT_BEGIN
 90
        0
 91
        1
 62
     0
 92
       -2
340
0
 93
        0
 40
1.125
309
GRIDFORMAT_END
 95
       32
302
GRIDFORMAT
  1
GRIDFORMAT_BEGIN
 90
        0
 91
        1
 62
     0
 92
       -2
340
0
 93
        0
 40
1.125
309
GRIDFORMAT_END
309
TABLEFORMAT_END
  1
CELLSTYLE_BEGIN
 90
        2
 91
        1
300
_HEADER
309
CELLSTYLE_END
300
CELLSTYLE
  1
TABLEFORMAT_BEGIN
 90
        5
170
     1
 91
        0
 92
        0
 62
   257
 93
        1
300
CONTENTFORMAT
  1
CONTENTFORMAT_BEGIN
 90
        0
 91
        0
 92
      512
 93
        0
300

 40
0.0
140
1.0
 94
        2
 62
     0
340
F
144
4.5
309
CONTENTFORMAT_END
171
     1
301
MARGIN
  1
CELLMARGIN_BEGIN
 40
1.5
 40
1.5
 40
1.5
 40
1.5
 40
4.5
 40
4.5
309
CELLMARGIN_END
 94
        6
 95
        1
302
GRIDFORMAT
  1
GRIDFORMAT_BEGIN
 90
        0
 91
        1
 62
     0
 92
       -2
340
0
 93
        0
 40
1.125
309
GRIDFORMAT_END
 95
        2
302
GRIDFORMAT
  1
GRIDFORMAT_BEGIN
 90
        0
 91
        1
 62
     0
 92
       -2
340
0
 93
        0
 40
1.125
309
GRIDFORMAT_END
 95
        4
302
GRIDFORMAT
  1
GRIDFORMAT_BEGIN
 90
        0
 91
        1
 62
     0
 92
       -2
340
0
 93
        0
 40
1.125
309
GRIDFORMAT_END
 95
        8
302
GRIDFORMAT
  1
GRIDFORMAT_BEGIN
 90
        0
 91
        1
 62
     0
 92
       -2
340
0
 93
        0
 40
1.125
309
GRIDFORMAT_END
 95
       16
302
GRIDFORMAT
  1
GRIDFORMAT_BEGIN
 90
        0
 91
        1
 62
     0
 92
       -2
340
0
 93
        0
 40
1.125
309
GRIDFORMAT_END
 95
       32
302
GRIDFORMAT
  1
GRIDFORMAT_BEGIN
 90
        0
 91
        1
 62
     0
 92
       -2
340
0
 93
        0
 40
1.125
309
GRIDFORMAT_END
309
TABLEFORMAT_END
  1
CELLSTYLE_BEGIN
 90
        3
 91
        2
300
_DATA
309
CELLSTYLE_END
  0
XRECORD
  5
6BF3
102
{ACAD_REACTORS
330
6BF2
102
}
330
6BF2
100
AcDbXrecord
280
     1
102
RTVSPost2010Prop28
280
     1
102
RTVSPost2010PropOp28
 70
     1
102
RTVSPost2010Prop29
280
     1
102
RTVSPost2010PropOp29
 70
     1
102
RTVSPost2010Prop30
280
     0
102
RTVSPost2010PropOp30
 70
     1
102
RTVSPost2010Prop31
280
     0
102
RTVSPost2010PropOp31
 70
     1
102
RTVSPost2010Prop32
280
     0
102
RTVSPost2010PropOp32
 70
     1
102
RTVSPost2010Prop33
280
     0
102
RTVSPost2010PropOp33
 70
     1
102
RTVSPost2010Prop34
280
     0
102
RTVSPost2010PropOp34
 70
     1
102
RTVSPost2010Prop35
280
     0
102
RTVSPost2010PropOp35
 70
     1
102
RTVSPost2010Prop36
280
     0
102
RTVSPost2010PropOp36
 70
     1
102
RTVSPost2010Prop37
 90
       50
102
RTVSPost2010PropOp37
 70
     1
102
RTVSPost2010Prop38
140
0.0
102
RTVSPost2010PropOp38
 70
     1
102
RTVSPost2010Prop39
140
1.0
102
RTVSPost2010PropOp39
 70
     1
102
RTVSPost2010Prop40
 90
        0
102
RTVSPost2010PropOp40
 70
     1
102
RTVSPost2010Prop41ColorIndex
 90
       18
102
RTVSPost2010Prop41ColorRGB
 90
        0
102
RTVSPost2010PropOp41
 70
     1
102
RTVSPost2010Prop42
 90
       50
102
RTVSPost2010PropOp42
 70
     1
102
RTVSPost2010Prop43
 90
        3
102
RTVSPost2010PropOp43
 70
     1
102
RTVSPost2010Prop44ColorIndex
 90
        5
102
RTVSPost2010Prop44ColorRGB
 90
      255
102
RTVSPost2010PropOp44
 70
     1
102
RTVSPost2010Prop45
280
     0
102
RTVSPost2010PropOp45
 70
     1
102
RTVSPost2010Prop46
 90
       50
102
RTVSPost2010PropOp46
 70
     1
102
RTVSPost2010Prop47
 90
       50
102
RTVSPost2010PropOp47
 70
     1
102
RTVSPost2010Prop48
 90
       50
102
RTVSPost2010PropOp48
 70
     1
102
RTVSPost2010Prop49
280
     0
102
RTVSPost2010PropOp49
 70
     1
102
RTVSPost2010Prop50
 90
       50
102
RTVSPost2010PropOp50
 70
     1
102
RTVSPost2010Prop51ColorIndex
 90
      256
102
RTVSPost2010Prop51ColorRGB
 90
-16777216
102
RTVSPost2010PropOp51
 70
     0
102
RTVSPost2010Prop52
140
1.0
102
RTVSPost2010PropOp52
 70
     0
102
RTVSPost2010Prop53
 90
        2
102
RTVSPost2010PropOp53
 70
     1
102
RTVSPost2010Prop54
  1
strokes_ogs.tif
102
RTVSPost2010PropOp54
 70
     1
102
RTVSPost2010Prop55
280
     0
102
RTVSPost2010PropOp55
 70
     1
102
RTVSPost2010Prop56
140
1.0
102
RTVSPost2010PropOp56
 70
     1
102
RTVSPost2010Prop57
140
1.0
102
RTVSPost2010PropOp57
 70
     1
  0
XRECORD
  5
6BF1
102
{ACAD_REACTORS
330
6BF0
102
}
330
6BF0
100
AcDbXrecord
280
     1
102
RTVSPost2010Prop28
280
     0
102
RTVSPost2010PropOp28
 70
     1
102
RTVSPost2010Prop29
280
     1
102
RTVSPost2010PropOp29
 70
     1
102
RTVSPost2010Prop30
280
     1
102
RTVSPost2010PropOp30
 70
     1
102
RTVSPost2010Prop31
280
     0
102
RTVSPost2010PropOp31
 70
     1
102
RTVSPost2010Prop32
280
     0
102
RTVSPost2010PropOp32
 70
     1
102
RTVSPost2010Prop33
280
     0
102
RTVSPost2010PropOp33
 70
     1
102
RTVSPost2010Prop34
280
     0
102
RTVSPost2010PropOp34
 70
     1
102
RTVSPost2010Prop35
280
     0
102
RTVSPost2010PropOp35
 70
     1
102
RTVSPost2010Prop36
280
     0
102
RTVSPost2010PropOp36
 70
     1
102
RTVSPost2010Prop37
 90
       50
102
RTVSPost2010PropOp37
 70
     1
102
RTVSPost2010Prop38
140
0.0
102
RTVSPost2010PropOp38
 70
     1
102
RTVSPost2010Prop39
140
1.0
102
RTVSPost2010PropOp39
 70
     1
102
RTVSPost2010Prop40
 90
        0
102
RTVSPost2010PropOp40
 70
     1
102
RTVSPost2010Prop41ColorIndex
 90
       18
102
RTVSPost2010Prop41ColorRGB
 90
        0
102
RTVSPost2010PropOp41
 70
     1
102
RTVSPost2010Prop42
 90
       50
102
RTVSPost2010PropOp42
 70
     1
102
RTVSPost2010Prop43
 90
        3
102
RTVSPost2010PropOp43
 70
     1
102
RTVSPost2010Prop44ColorIndex
 90
        5
102
RTVSPost2010Prop44ColorRGB
 90
      255
102
RTVSPost2010PropOp44
 70
     1
102
RTVSPost2010Prop45
280
     0
102
RTVSPost2010PropOp45
 70
     1
102
RTVSPost2010Prop46
 90
       50
102
RTVSPost2010PropOp46
 70
     1
102
RTVSPost2010Prop47
 90
       50
102
RTVSPost2010PropOp47
 70
     1
102
RTVSPost2010Prop48
 90
       50
102
RTVSPost2010PropOp48
 70
     1
102
RTVSPost2010Prop49
280
     0
102
RTVSPost2010PropOp49
 70
     1
102
RTVSPost2010Prop50
 90
       50
102
RTVSPost2010PropOp50
 70
     1
102
RTVSPost2010Prop51ColorIndex
 90
      256
102
RTVSPost2010Prop51ColorRGB
 90
-16777216
102
RTVSPost2010PropOp51
 70
     0
102
RTVSPost2010Prop52
140
1.0
102
RTVSPost2010PropOp52
 70
     0
102
RTVSPost2010Prop53
 90
        2
102
RTVSPost2010PropOp53
 70
     1
102
RTVSPost2010Prop54
  1
strokes_ogs.tif
102
RTVSPost2010PropOp54
 70
     1
102
RTVSPost2010Prop55
280
     0
102
RTVSPost2010PropOp55
 70
     1
102
RTVSPost2010Prop56
140
1.0
102
RTVSPost2010PropOp56
 70
     1
102
RTVSPost2010Prop57
140
1.0
102
RTVSPost2010PropOp57
 70
     1
  0
XRECORD
  5
6BFF
102
{ACAD_REACTORS
330
6BFE
102
}
330
6BFE
100
AcDbXrecord
280
     1
102
RTVSPost2010Prop28
280
     0
102
RTVSPost2010PropOp28
 70
     1
102
RTVSPost2010Prop29
280
     1
102
RTVSPost2010PropOp29
 70
     1
102
RTVSPost2010Prop30
280
     1
102
RTVSPost2010PropOp30
 70
     1
102
RTVSPost2010Prop31
280
     0
102
RTVSPost2010PropOp31
 70
     1
102
RTVSPost2010Prop32
280
     0
102
RTVSPost2010PropOp32
 70
     1
102
RTVSPost2010Prop33
280
     0
102
RTVSPost2010PropOp33
 70
     1
102
RTVSPost2010Prop34
280
     0
102
RTVSPost2010PropOp34
 70
     1
102
RTVSPost2010Prop35
280
     0
102
RTVSPost2010PropOp35
 70
     1
102
RTVSPost2010Prop36
280
     0
102
RTVSPost2010PropOp36
 70
     1
102
RTVSPost2010Prop37
 90
       50
102
RTVSPost2010PropOp37
 70
     1
102
RTVSPost2010Prop38
140
0.0
102
RTVSPost2010PropOp38
 70
     1
102
RTVSPost2010Prop39
140
1.0
102
RTVSPost2010PropOp39
 70
     1
102
RTVSPost2010Prop40
 90
        0
102
RTVSPost2010PropOp40
 70
     1
102
RTVSPost2010Prop41ColorIndex
 90
       18
102
RTVSPost2010Prop41ColorRGB
 90
        0
102
RTVSPost2010PropOp41
 70
     1
102
RTVSPost2010Prop42
 90
       50
102
RTVSPost2010PropOp42
 70
     1
102
RTVSPost2010Prop43
 90
        3
102
RTVSPost2010PropOp43
 70
     1
102
RTVSPost2010Prop44ColorIndex
 90
        5
102
RTVSPost2010Prop44ColorRGB
 90
      255
102
RTVSPost2010PropOp44
 70
     1
102
RTVSPost2010Prop45
280
     0
102
RTVSPost2010PropOp45
 70
     1
102
RTVSPost2010Prop46
 90
       50
102
RTVSPost2010PropOp46
 70
     1
102
RTVSPost2010Prop47
 90
       50
102
RTVSPost2010PropOp47
 70
     1
102
RTVSPost2010Prop48
 90
       50
102
RTVSPost2010PropOp48
 70
     1
102
RTVSPost2010Prop49
280
     0
102
RTVSPost2010PropOp49
 70
     1
102
RTVSPost2010Prop50
 90
       50
102
RTVSPost2010PropOp50
 70
     1
102
RTVSPost2010Prop51ColorIndex
 90
      256
102
RTVSPost2010Prop51ColorRGB
 90
-16777216
102
RTVSPost2010PropOp51
 70
     0
102
RTVSPost2010Prop52
140
1.0
102
RTVSPost2010PropOp52
 70
     0
102
RTVSPost2010Prop53
 90
        2
102
RTVSPost2010PropOp53
 70
     1
102
RTVSPost2010Prop54
  1
strokes_ogs.tif
102
RTVSPost2010PropOp54
 70
     1
102
RTVSPost2010Prop55
280
     0
102
RTVSPost2010PropOp55
 70
     1
102
RTVSPost2010Prop56
140
1.0
102
RTVSPost2010PropOp56
 70
     1
102
RTVSPost2010Prop57
140
1.0
102
RTVSPost2010PropOp57
 70
     1
  0
XRECORD
  5
6C07
102
{ACAD_REACTORS
330
6C06
102
}
330
6C06
100
AcDbXrecord
280
     1
102
RTVSPost2010Prop28
280
     0
102
RTVSPost2010PropOp28
 70
     1
102
RTVSPost2010Prop29
280
     1
102
RTVSPost2010PropOp29
 70
     1
102
RTVSPost2010Prop30
280
     1
102
RTVSPost2010PropOp30
 70
     1
102
RTVSPost2010Prop31
280
     0
102
RTVSPost2010PropOp31
 70
     1
102
RTVSPost2010Prop32
280
     0
102
RTVSPost2010PropOp32
 70
     1
102
RTVSPost2010Prop33
280
     0
102
RTVSPost2010PropOp33
 70
     1
102
RTVSPost2010Prop34
280
     0
102
RTVSPost2010PropOp34
 70
     1
102
RTVSPost2010Prop35
280
     0
102
RTVSPost2010PropOp35
 70
     1
102
RTVSPost2010Prop36
280
     0
102
RTVSPost2010PropOp36
 70
     1
102
RTVSPost2010Prop37
 90
       50
102
RTVSPost2010PropOp37
 70
     1
102
RTVSPost2010Prop38
140
0.0
102
RTVSPost2010PropOp38
 70
     1
102
RTVSPost2010Prop39
140
1.0
102
RTVSPost2010PropOp39
 70
     1
102
RTVSPost2010Prop40
 90
        0
102
RTVSPost2010PropOp40
 70
     1
102
RTVSPost2010Prop41ColorIndex
 90
       18
102
RTVSPost2010Prop41ColorRGB
 90
        0
102
RTVSPost2010PropOp41
 70
     1
102
RTVSPost2010Prop42
 90
       50
102
RTVSPost2010PropOp42
 70
     1
102
RTVSPost2010Prop43
 90
        3
102
RTVSPost2010PropOp43
 70
     1
102
RTVSPost2010Prop44ColorIndex
 90
        5
102
RTVSPost2010Prop44ColorRGB
 90
      255
102
RTVSPost2010PropOp44
 70
     1
102
RTVSPost2010Prop45
280
     0
102
RTVSPost2010PropOp45
 70
     1
102
RTVSPost2010Prop46
 90
       50
102
RTVSPost2010PropOp46
 70
     1
102
RTVSPost2010Prop47
 90
       50
102
RTVSPost2010PropOp47
 70
     1
102
RTVSPost2010Prop48
 90
       50
102
RTVSPost2010PropOp48
 70
     1
102
RTVSPost2010Prop49
280
     0
102
RTVSPost2010PropOp49
 70
     1
102
RTVSPost2010Prop50
 90
       50
102
RTVSPost2010PropOp50
 70
     1
102
RTVSPost2010Prop51ColorIndex
 90
      256
102
RTVSPost2010Prop51ColorRGB
 90
-16777216
102
RTVSPost2010PropOp51
 70
     0
102
RTVSPost2010Prop52
140
1.0
102
RTVSPost2010PropOp52
 70
     0
102
RTVSPost2010Prop53
 90
        2
102
RTVSPost2010PropOp53
 70
     1
102
RTVSPost2010Prop54
  1
strokes_ogs.tif
102
RTVSPost2010PropOp54
 70
     1
102
RTVSPost2010Prop55
280
     0
102
RTVSPost2010PropOp55
 70
     1
102
RTVSPost2010Prop56
140
1.0
102
RTVSPost2010PropOp56
 70
     1
102
RTVSPost2010Prop57
140
1.0
102
RTVSPost2010PropOp57
 70
     1
  0
XRECORD
  5
6BF9
102
{ACAD_REACTORS
330
6BF8
102
}
330
6BF8
100
AcDbXrecord
280
     1
102
RTVSPost2010Prop28
280
     0
102
RTVSPost2010PropOp28
 70
     1
102
RTVSPost2010Prop29
280
     1
102
RTVSPost2010PropOp29
 70
     1
102
RTVSPost2010Prop30
280
     1
102
RTVSPost2010PropOp30
 70
     1
102
RTVSPost2010Prop31
280
     0
102
RTVSPost2010PropOp31
 70
     1
102
RTVSPost2010Prop32
280
     0
102
RTVSPost2010PropOp32
 70
     1
102
RTVSPost2010Prop33
280
     0
102
RTVSPost2010PropOp33
 70
     1
102
RTVSPost2010Prop34
280
     0
102
RTVSPost2010PropOp34
 70
     1
102
RTVSPost2010Prop35
280
     0
102
RTVSPost2010PropOp35
 70
     1
102
RTVSPost2010Prop36
280
     0
102
RTVSPost2010PropOp36
 70
     1
102
RTVSPost2010Prop37
 90
       50
102
RTVSPost2010PropOp37
 70
     1
102
RTVSPost2010Prop38
140
0.0
102
RTVSPost2010PropOp38
 70
     1
102
RTVSPost2010Prop39
140
1.0
102
RTVSPost2010PropOp39
 70
     1
102
RTVSPost2010Prop40
 90
        0
102
RTVSPost2010PropOp40
 70
     1
102
RTVSPost2010Prop41ColorIndex
 90
       18
102
RTVSPost2010Prop41ColorRGB
 90
        0
102
RTVSPost2010PropOp41
 70
     1
102
RTVSPost2010Prop42
 90
       50
102
RTVSPost2010PropOp42
 70
     1
102
RTVSPost2010Prop43
 90
        3
102
RTVSPost2010PropOp43
 70
     1
102
RTVSPost2010Prop44ColorIndex
 90
        5
102
RTVSPost2010Prop44ColorRGB
 90
      255
102
RTVSPost2010PropOp44
 70
     1
102
RTVSPost2010Prop45
280
     0
102
RTVSPost2010PropOp45
 70
     1
102
RTVSPost2010Prop46
 90
       50
102
RTVSPost2010PropOp46
 70
     1
102
RTVSPost2010Prop47
 90
       50
102
RTVSPost2010PropOp47
 70
     1
102
RTVSPost2010Prop48
 90
       50
102
RTVSPost2010PropOp48
 70
     1
102
RTVSPost2010Prop49
280
     0
102
RTVSPost2010PropOp49
 70
     1
102
RTVSPost2010Prop50
 90
       50
102
RTVSPost2010PropOp50
 70
     1
102
RTVSPost2010Prop51ColorIndex
 90
      256
102
RTVSPost2010Prop51ColorRGB
 90
-16777216
102
RTVSPost2010PropOp51
 70
     0
102
RTVSPost2010Prop52
140
1.0
102
RTVSPost2010PropOp52
 70
     0
102
RTVSPost2010Prop53
 90
        2
102
RTVSPost2010PropOp53
 70
     1
102
RTVSPost2010Prop54
  1
strokes_ogs.tif
102
RTVSPost2010PropOp54
 70
     1
102
RTVSPost2010Prop55
280
     0
102
RTVSPost2010PropOp55
 70
     1
102
RTVSPost2010Prop56
140
1.0
102
RTVSPost2010PropOp56
 70
     1
102
RTVSPost2010Prop57
140
1.0
102
RTVSPost2010PropOp57
 70
     1
  0
XRECORD
  5
6BFD
102
{ACAD_REACTORS
330
6BFC
102
}
330
6BFC
100
AcDbXrecord
280
     1
102
RTVSPost2010Prop28
280
     0
102
RTVSPost2010PropOp28
 70
     1
102
RTVSPost2010Prop29
280
     1
102
RTVSPost2010PropOp29
 70
     1
102
RTVSPost2010Prop30
280
     1
102
RTVSPost2010PropOp30
 70
     1
102
RTVSPost2010Prop31
280
     0
102
RTVSPost2010PropOp31
 70
     1
102
RTVSPost2010Prop32
280
     0
102
RTVSPost2010PropOp32
 70
     1
102
RTVSPost2010Prop33
280
     0
102
RTVSPost2010PropOp33
 70
     1
102
RTVSPost2010Prop34
280
     0
102
RTVSPost2010PropOp34
 70
     1
102
RTVSPost2010Prop35
280
     0
102
RTVSPost2010PropOp35
 70
     1
102
RTVSPost2010Prop36
280
     0
102
RTVSPost2010PropOp36
 70
     1
102
RTVSPost2010Prop37
 90
       50
102
RTVSPost2010PropOp37
 70
     1
102
RTVSPost2010Prop38
140
0.0
102
RTVSPost2010PropOp38
 70
     1
102
RTVSPost2010Prop39
140
1.0
102
RTVSPost2010PropOp39
 70
     1
102
RTVSPost2010Prop40
 90
        0
102
RTVSPost2010PropOp40
 70
     1
102
RTVSPost2010Prop41ColorIndex
 90
       18
102
RTVSPost2010Prop41ColorRGB
 90
        0
102
RTVSPost2010PropOp41
 70
     1
102
RTVSPost2010Prop42
 90
       50
102
RTVSPost2010PropOp42
 70
     1
102
RTVSPost2010Prop43
 90
        3
102
RTVSPost2010PropOp43
 70
     1
102
RTVSPost2010Prop44ColorIndex
 90
        5
102
RTVSPost2010Prop44ColorRGB
 90
      255
102
RTVSPost2010PropOp44
 70
     1
102
RTVSPost2010Prop45
280
     0
102
RTVSPost2010PropOp45
 70
     1
102
RTVSPost2010Prop46
 90
       50
102
RTVSPost2010PropOp46
 70
     1
102
RTVSPost2010Prop47
 90
       50
102
RTVSPost2010PropOp47
 70
     1
102
RTVSPost2010Prop48
 90
       50
102
RTVSPost2010PropOp48
 70
     1
102
RTVSPost2010Prop49
280
     0
102
RTVSPost2010PropOp49
 70
     1
102
RTVSPost2010Prop50
 90
       50
102
RTVSPost2010PropOp50
 70
     1
102
RTVSPost2010Prop51ColorIndex
 90
      256
102
RTVSPost2010Prop51ColorRGB
 90
-16777216
102
RTVSPost2010PropOp51
 70
     0
102
RTVSPost2010Prop52
140
1.0
102
RTVSPost2010PropOp52
 70
     0
102
RTVSPost2010Prop53
 90
        2
102
RTVSPost2010PropOp53
 70
     1
102
RTVSPost2010Prop54
  1
strokes_ogs.tif
102
RTVSPost2010PropOp54
 70
     1
102
RTVSPost2010Prop55
280
     0
102
RTVSPost2010PropOp55
 70
     1
102
RTVSPost2010Prop56
140
1.0
102
RTVSPost2010PropOp56
 70
     1
102
RTVSPost2010Prop57
140
1.0
102
RTVSPost2010PropOp57
 70
     1
  0
XRECORD
  5
6C17
102
{ACAD_REACTORS
330
6C16
102
}
330
6C16
100
AcDbXrecord
280
     1
102
RTVSPost2010Prop28
280
     0
102
RTVSPost2010PropOp28
 70
     1
102
RTVSPost2010Prop29
280
     1
102
RTVSPost2010PropOp29
 70
     1
102
RTVSPost2010Prop30
280
     1
102
RTVSPost2010PropOp30
 70
     1
102
RTVSPost2010Prop31
280
     0
102
RTVSPost2010PropOp31
 70
     1
102
RTVSPost2010Prop32
280
     0
102
RTVSPost2010PropOp32
 70
     1
102
RTVSPost2010Prop33
280
     0
102
RTVSPost2010PropOp33
 70
     1
102
RTVSPost2010Prop34
280
     0
102
RTVSPost2010PropOp34
 70
     1
102
RTVSPost2010Prop35
280
     0
102
RTVSPost2010PropOp35
 70
     1
102
RTVSPost2010Prop36
280
     0
102
RTVSPost2010PropOp36
 70
     1
102
RTVSPost2010Prop37
 90
       50
102
RTVSPost2010PropOp37
 70
     1
102
RTVSPost2010Prop38
140
0.0
102
RTVSPost2010PropOp38
 70
     1
102
RTVSPost2010Prop39
140
1.0
102
RTVSPost2010PropOp39
 70
     1
102
RTVSPost2010Prop40
 90
        0
102
RTVSPost2010PropOp40
 70
     1
102
RTVSPost2010Prop41ColorIndex
 90
       18
102
RTVSPost2010Prop41ColorRGB
 90
        0
102
RTVSPost2010PropOp41
 70
     1
102
RTVSPost2010Prop42
 90
       50
102
RTVSPost2010PropOp42
 70
     1
102
RTVSPost2010Prop43
 90
        3
102
RTVSPost2010PropOp43
 70
     1
102
RTVSPost2010Prop44ColorIndex
 90
        5
102
RTVSPost2010Prop44ColorRGB
 90
      255
102
RTVSPost2010PropOp44
 70
     1
102
RTVSPost2010Prop45
280
     0
102
RTVSPost2010PropOp45
 70
     1
102
RTVSPost2010Prop46
 90
       50
102
RTVSPost2010PropOp46
 70
     1
102
RTVSPost2010Prop47
 90
       50
102
RTVSPost2010PropOp47
 70
     1
102
RTVSPost2010Prop48
 90
       50
102
RTVSPost2010PropOp48
 70
     1
102
RTVSPost2010Prop49
280
     0
102
RTVSPost2010PropOp49
 70
     1
102
RTVSPost2010Prop50
 90
       50
102
RTVSPost2010PropOp50
 70
     1
102
RTVSPost2010Prop51ColorIndex
 90
      256
102
RTVSPost2010Prop51ColorRGB
 90
-16777216
102
RTVSPost2010PropOp51
 70
     0
102
RTVSPost2010Prop52
140
1.0
102
RTVSPost2010PropOp52
 70
     0
102
RTVSPost2010Prop53
 90
        2
102
RTVSPost2010PropOp53
 70
     1
102
RTVSPost2010Prop54
  1
strokes_ogs.tif
102
RTVSPost2010PropOp54
 70
     1
102
RTVSPost2010Prop55
280
     0
102
RTVSPost2010PropOp55
 70
     1
102
RTVSPost2010Prop56
140
1.0
102
RTVSPost2010PropOp56
 70
     1
102
RTVSPost2010Prop57
140
1.0
102
RTVSPost2010PropOp57
 70
     1
  0
XRECORD
  5
6C05
102
{ACAD_REACTORS
330
6C04
102
}
330
6C04
100
AcDbXrecord
280
     1
102
RTVSPost2010Prop28
280
     0
102
RTVSPost2010PropOp28
 70
     1
102
RTVSPost2010Prop29
280
     1
102
RTVSPost2010PropOp29
 70
     1
102
RTVSPost2010Prop30
280
     1
102
RTVSPost2010PropOp30
 70
     1
102
RTVSPost2010Prop31
280
     0
102
RTVSPost2010PropOp31
 70
     1
102
RTVSPost2010Prop32
280
     0
102
RTVSPost2010PropOp32
 70
     1
102
RTVSPost2010Prop33
280
     0
102
RTVSPost2010PropOp33
 70
     1
102
RTVSPost2010Prop34
280
     0
102
RTVSPost2010PropOp34
 70
     1
102
RTVSPost2010Prop35
280
     0
102
RTVSPost2010PropOp35
 70
     1
102
RTVSPost2010Prop36
280
     0
102
RTVSPost2010PropOp36
 70
     1
102
RTVSPost2010Prop37
 90
       50
102
RTVSPost2010PropOp37
 70
     1
102
RTVSPost2010Prop38
140
0.0
102
RTVSPost2010PropOp38
 70
     1
102
RTVSPost2010Prop39
140
1.0
102
RTVSPost2010PropOp39
 70
     1
102
RTVSPost2010Prop40
 90
        0
102
RTVSPost2010PropOp40
 70
     1
102
RTVSPost2010Prop41ColorIndex
 90
       18
102
RTVSPost2010Prop41ColorRGB
 90
        0
102
RTVSPost2010PropOp41
 70
     1
102
RTVSPost2010Prop42
 90
       50
102
RTVSPost2010PropOp42
 70
     1
102
RTVSPost2010Prop43
 90
        3
102
RTVSPost2010PropOp43
 70
     1
102
RTVSPost2010Prop44ColorIndex
 90
        5
102
RTVSPost2010Prop44ColorRGB
 90
      255
102
RTVSPost2010PropOp44
 70
     1
102
RTVSPost2010Prop45
280
     0
102
RTVSPost2010PropOp45
 70
     1
102
RTVSPost2010Prop46
 90
       50
102
RTVSPost2010PropOp46
 70
     1
102
RTVSPost2010Prop47
 90
       50
102
RTVSPost2010PropOp47
 70
     1
102
RTVSPost2010Prop48
 90
       50
102
RTVSPost2010PropOp48
 70
     1
102
RTVSPost2010Prop49
280
     0
102
RTVSPost2010PropOp49
 70
     1
102
RTVSPost2010Prop50
 90
       50
102
RTVSPost2010PropOp50
 70
     1
102
RTVSPost2010Prop51ColorIndex
 90
      256
102
RTVSPost2010Prop51ColorRGB
 90
-16777216
102
RTVSPost2010PropOp51
 70
     0
102
RTVSPost2010Prop52
140
1.0
102
RTVSPost2010PropOp52
 70
     0
102
RTVSPost2010Prop53
 90
        2
102
RTVSPost2010PropOp53
 70
     1
102
RTVSPost2010Prop54
  1
strokes_ogs.tif
102
RTVSPost2010PropOp54
 70
     1
102
RTVSPost2010Prop55
280
     0
102
RTVSPost2010PropOp55
 70
     1
102
RTVSPost2010Prop56
140
1.0
102
RTVSPost2010PropOp56
 70
     1
102
RTVSPost2010Prop57
140
1.0
102
RTVSPost2010PropOp57
 70
     1
  0
XRECORD
  5
6BE9
102
{ACAD_REACTORS
330
6BE8
102
}
330
6BE8
100
AcDbXrecord
280
     1
102
RTVSPost2010Prop28
280
     0
102
RTVSPost2010PropOp28
 70
     1
102
RTVSPost2010Prop29
280
     1
102
RTVSPost2010PropOp29
 70
     1
102
RTVSPost2010Prop30
280
     1
102
RTVSPost2010PropOp30
 70
     1
102
RTVSPost2010Prop31
280
     0
102
RTVSPost2010PropOp31
 70
     1
102
RTVSPost2010Prop32
280
     0
102
RTVSPost2010PropOp32
 70
     1
102
RTVSPost2010Prop33
280
     0
102
RTVSPost2010PropOp33
 70
     1
102
RTVSPost2010Prop34
280
     0
102
RTVSPost2010PropOp34
 70
     1
102
RTVSPost2010Prop35
280
     0
102
RTVSPost2010PropOp35
 70
     1
102
RTVSPost2010Prop36
280
     0
102
RTVSPost2010PropOp36
 70
     1
102
RTVSPost2010Prop37
 90
       50
102
RTVSPost2010PropOp37
 70
     1
102
RTVSPost2010Prop38
140
0.0
102
RTVSPost2010PropOp38
 70
     1
102
RTVSPost2010Prop39
140
1.0
102
RTVSPost2010PropOp39
 70
     1
102
RTVSPost2010Prop40
 90
        0
102
RTVSPost2010PropOp40
 70
     1
102
RTVSPost2010Prop41ColorIndex
 90
       18
102
RTVSPost2010Prop41ColorRGB
 90
        0
102
RTVSPost2010PropOp41
 70
     1
102
RTVSPost2010Prop42
 90
       50
102
RTVSPost2010PropOp42
 70
     1
102
RTVSPost2010Prop43
 90
        3
102
RTVSPost2010PropOp43
 70
     1
102
RTVSPost2010Prop44ColorIndex
 90
        5
102
RTVSPost2010Prop44ColorRGB
 90
      255
102
RTVSPost2010PropOp44
 70
     1
102
RTVSPost2010Prop45
280
     0
102
RTVSPost2010PropOp45
 70
     1
102
RTVSPost2010Prop46
 90
       50
102
RTVSPost2010PropOp46
 70
     1
102
RTVSPost2010Prop47
 90
       50
102
RTVSPost2010PropOp47
 70
     1
102
RTVSPost2010Prop48
 90
       50
102
RTVSPost2010PropOp48
 70
     1
102
RTVSPost2010Prop49
280
     0
102
RTVSPost2010PropOp49
 70
     1
102
RTVSPost2010Prop50
 90
       50
102
RTVSPost2010PropOp50
 70
     1
102
RTVSPost2010Prop51ColorIndex
 90
      256
102
RTVSPost2010Prop51ColorRGB
 90
-16777216
102
RTVSPost2010PropOp51
 70
     0
102
RTVSPost2010Prop52
140
1.0
102
RTVSPost2010PropOp52
 70
     0
102
RTVSPost2010Prop53
 90
        2
102
RTVSPost2010PropOp53
 70
     1
102
RTVSPost2010Prop54
  1
strokes_ogs.tif
102
RTVSPost2010PropOp54
 70
     1
102
RTVSPost2010Prop55
280
     0
102
RTVSPost2010PropOp55
 70
     1
102
RTVSPost2010Prop56
140
1.0
102
RTVSPost2010PropOp56
 70
     1
102
RTVSPost2010Prop57
140
1.0
102
RTVSPost2010PropOp57
 70
     1
  0
XRECORD
  5
6BEB
102
{ACAD_REACTORS
330
6BEA
102
}
330
6BEA
100
AcDbXrecord
280
     1
102
RTVSPost2010Prop28
280
     0
102
RTVSPost2010PropOp28
 70
     1
102
RTVSPost2010Prop29
280
     1
102
RTVSPost2010PropOp29
 70
     1
102
RTVSPost2010Prop30
280
     1
102
RTVSPost2010PropOp30
 70
     1
102
RTVSPost2010Prop31
280
     0
102
RTVSPost2010PropOp31
 70
     1
102
RTVSPost2010Prop32
280
     0
102
RTVSPost2010PropOp32
 70
     1
102
RTVSPost2010Prop33
280
     0
102
RTVSPost2010PropOp33
 70
     1
102
RTVSPost2010Prop34
280
     0
102
RTVSPost2010PropOp34
 70
     1
102
RTVSPost2010Prop35
280
     0
102
RTVSPost2010PropOp35
 70
     1
102
RTVSPost2010Prop36
280
     0
102
RTVSPost2010PropOp36
 70
     1
102
RTVSPost2010Prop37
 90
       50
102
RTVSPost2010PropOp37
 70
     1
102
RTVSPost2010Prop38
140
0.0
102
RTVSPost2010PropOp38
 70
     1
102
RTVSPost2010Prop39
140
1.0
102
RTVSPost2010PropOp39
 70
     1
102
RTVSPost2010Prop40
 90
        0
102
RTVSPost2010PropOp40
 70
     1
102
RTVSPost2010Prop41ColorIndex
 90
       18
102
RTVSPost2010Prop41ColorRGB
 90
        0
102
RTVSPost2010PropOp41
 70
     1
102
RTVSPost2010Prop42
 90
       50
102
RTVSPost2010PropOp42
 70
     1
102
RTVSPost2010Prop43
 90
        3
102
RTVSPost2010PropOp43
 70
     1
102
RTVSPost2010Prop44ColorIndex
 90
        5
102
RTVSPost2010Prop44ColorRGB
 90
      255
102
RTVSPost2010PropOp44
 70
     1
102
RTVSPost2010Prop45
280
     0
102
RTVSPost2010PropOp45
 70
     1
102
RTVSPost2010Prop46
 90
       50
102
RTVSPost2010PropOp46
 70
     1
102
RTVSPost2010Prop47
 90
       50
102
RTVSPost2010PropOp47
 70
     1
102
RTVSPost2010Prop48
 90
       50
102
RTVSPost2010PropOp48
 70
     1
102
RTVSPost2010Prop49
280
     0
102
RTVSPost2010PropOp49
 70
     1
102
RTVSPost2010Prop50
 90
       50
102
RTVSPost2010PropOp50
 70
     1
102
RTVSPost2010Prop51ColorIndex
 90
      256
102
RTVSPost2010Prop51ColorRGB
 90
-16777216
102
RTVSPost2010PropOp51
 70
     0
102
RTVSPost2010Prop52
140
1.0
102
RTVSPost2010PropOp52
 70
     0
102
RTVSPost2010Prop53
 90
        2
102
RTVSPost2010PropOp53
 70
     1
102
RTVSPost2010Prop54
  1
strokes_ogs.tif
102
RTVSPost2010PropOp54
 70
     1
102
RTVSPost2010Prop55
280
     0
102
RTVSPost2010PropOp55
 70
     1
102
RTVSPost2010Prop56
140
1.0
102
RTVSPost2010PropOp56
 70
     1
102
RTVSPost2010Prop57
140
1.0
102
RTVSPost2010PropOp57
 70
     1
  0
XRECORD
  5
6BED
102
{ACAD_REACTORS
330
6BEC
102
}
330
6BEC
100
AcDbXrecord
280
     1
102
RTVSPost2010Prop28
280
     0
102
RTVSPost2010PropOp28
 70
     1
102
RTVSPost2010Prop29
280
     1
102
RTVSPost2010PropOp29
 70
     1
102
RTVSPost2010Prop30
280
     1
102
RTVSPost2010PropOp30
 70
     1
102
RTVSPost2010Prop31
280
     0
102
RTVSPost2010PropOp31
 70
     1
102
RTVSPost2010Prop32
280
     0
102
RTVSPost2010PropOp32
 70
     1
102
RTVSPost2010Prop33
280
     0
102
RTVSPost2010PropOp33
 70
     1
102
RTVSPost2010Prop34
280
     0
102
RTVSPost2010PropOp34
 70
     1
102
RTVSPost2010Prop35
280
     0
102
RTVSPost2010PropOp35
 70
     1
102
RTVSPost2010Prop36
280
     0
102
RTVSPost2010PropOp36
 70
     1
102
RTVSPost2010Prop37
 90
       50
102
RTVSPost2010PropOp37
 70
     1
102
RTVSPost2010Prop38
140
0.0
102
RTVSPost2010PropOp38
 70
     1
102
RTVSPost2010Prop39
140
1.0
102
RTVSPost2010PropOp39
 70
     1
102
RTVSPost2010Prop40
 90
        0
102
RTVSPost2010PropOp40
 70
     1
102
RTVSPost2010Prop41ColorIndex
 90
       18
102
RTVSPost2010Prop41ColorRGB
 90
        0
102
RTVSPost2010PropOp41
 70
     1
102
RTVSPost2010Prop42
 90
       50
102
RTVSPost2010PropOp42
 70
     1
102
RTVSPost2010Prop43
 90
        3
102
RTVSPost2010PropOp43
 70
     1
102
RTVSPost2010Prop44ColorIndex
 90
        5
102
RTVSPost2010Prop44ColorRGB
 90
      255
102
RTVSPost2010PropOp44
 70
     1
102
RTVSPost2010Prop45
280
     0
102
RTVSPost2010PropOp45
 70
     1
102
RTVSPost2010Prop46
 90
       50
102
RTVSPost2010PropOp46
 70
     1
102
RTVSPost2010Prop47
 90
       50
102
RTVSPost2010PropOp47
 70
     1
102
RTVSPost2010Prop48
 90
       50
102
RTVSPost2010PropOp48
 70
     1
102
RTVSPost2010Prop49
280
     0
102
RTVSPost2010PropOp49
 70
     1
102
RTVSPost2010Prop50
 90
       50
102
RTVSPost2010PropOp50
 70
     1
102
RTVSPost2010Prop51ColorIndex
 90
      256
102
RTVSPost2010Prop51ColorRGB
 90
-16777216
102
RTVSPost2010PropOp51
 70
     0
102
RTVSPost2010Prop52
140
1.0
102
RTVSPost2010PropOp52
 70
     0
102
RTVSPost2010Prop53
 90
        2
102
RTVSPost2010PropOp53
 70
     1
102
RTVSPost2010Prop54
  1
strokes_ogs.tif
102
RTVSPost2010PropOp54
 70
     1
102
RTVSPost2010Prop55
280
     0
102
RTVSPost2010PropOp55
 70
     1
102
RTVSPost2010Prop56
140
1.0
102
RTVSPost2010PropOp56
 70
     1
102
RTVSPost2010Prop57
140
1.0
102
RTVSPost2010PropOp57
 70
     1
  0
XRECORD
  5
6BEF
102
{ACAD_REACTORS
330
6BEE
102
}
330
6BEE
100
AcDbXrecord
280
     1
102
RTVSPost2010Prop28
280
     0
102
RTVSPost2010PropOp28
 70
     1
102
RTVSPost2010Prop29
280
     1
102
RTVSPost2010PropOp29
 70
     1
102
RTVSPost2010Prop30
280
     1
102
RTVSPost2010PropOp30
 70
     1
102
RTVSPost2010Prop31
280
     0
102
RTVSPost2010PropOp31
 70
     1
102
RTVSPost2010Prop32
280
     0
102
RTVSPost2010PropOp32
 70
     1
102
RTVSPost2010Prop33
280
     0
102
RTVSPost2010PropOp33
 70
     1
102
RTVSPost2010Prop34
280
     0
102
RTVSPost2010PropOp34
 70
     1
102
RTVSPost2010Prop35
280
     0
102
RTVSPost2010PropOp35
 70
     1
102
RTVSPost2010Prop36
280
     0
102
RTVSPost2010PropOp36
 70
     1
102
RTVSPost2010Prop37
 90
       50
102
RTVSPost2010PropOp37
 70
     1
102
RTVSPost2010Prop38
140
0.0
102
RTVSPost2010PropOp38
 70
     1
102
RTVSPost2010Prop39
140
1.0
102
RTVSPost2010PropOp39
 70
     1
102
RTVSPost2010Prop40
 90
        0
102
RTVSPost2010PropOp40
 70
     1
102
RTVSPost2010Prop41ColorIndex
 90
       18
102
RTVSPost2010Prop41ColorRGB
 90
        0
102
RTVSPost2010PropOp41
 70
     1
102
RTVSPost2010Prop42
 90
       50
102
RTVSPost2010PropOp42
 70
     1
102
RTVSPost2010Prop43
 90
        3
102
RTVSPost2010PropOp43
 70
     1
102
RTVSPost2010Prop44ColorIndex
 90
        5
102
RTVSPost2010Prop44ColorRGB
 90
      255
102
RTVSPost2010PropOp44
 70
     1
102
RTVSPost2010Prop45
280
     0
102
RTVSPost2010PropOp45
 70
     1
102
RTVSPost2010Prop46
 90
       50
102
RTVSPost2010PropOp46
 70
     1
102
RTVSPost2010Prop47
 90
       50
102
RTVSPost2010PropOp47
 70
     1
102
RTVSPost2010Prop48
 90
       50
102
RTVSPost2010PropOp48
 70
     1
102
RTVSPost2010Prop49
280
     0
102
RTVSPost2010PropOp49
 70
     1
102
RTVSPost2010Prop50
 90
       50
102
RTVSPost2010PropOp50
 70
     1
102
RTVSPost2010Prop51ColorIndex
 90
      256
102
RTVSPost2010Prop51ColorRGB
 90
-16777216
102
RTVSPost2010PropOp51
 70
     0
102
RTVSPost2010Prop52
140
1.0
102
RTVSPost2010PropOp52
 70
     0
102
RTVSPost2010Prop53
 90
        2
102
RTVSPost2010PropOp53
 70
     1
102
RTVSPost2010Prop54
  1
strokes_ogs.tif
102
RTVSPost2010PropOp54
 70
     1
102
RTVSPost2010Prop55
280
     0
102
RTVSPost2010PropOp55
 70
     1
102
RTVSPost2010Prop56
140
1.0
102
RTVSPost2010PropOp56
 70
     1
102
RTVSPost2010Prop57
140
1.0
102
RTVSPost2010PropOp57
 70
     1
  0
XRECORD
  5
6BF7
102
{ACAD_REACTORS
330
6BF6
102
}
330
6BF6
100
AcDbXrecord
280
     1
102
RTVSPost2010Prop28
280
     0
102
RTVSPost2010PropOp28
 70
     1
102
RTVSPost2010Prop29
280
     1
102
RTVSPost2010PropOp29
 70
     1
102
RTVSPost2010Prop30
280
     1
102
RTVSPost2010PropOp30
 70
     1
102
RTVSPost2010Prop31
280
     0
102
RTVSPost2010PropOp31
 70
     1
102
RTVSPost2010Prop32
280
     0
102
RTVSPost2010PropOp32
 70
     1
102
RTVSPost2010Prop33
280
     0
102
RTVSPost2010PropOp33
 70
     1
102
RTVSPost2010Prop34
280
     0
102
RTVSPost2010PropOp34
 70
     1
102
RTVSPost2010Prop35
280
     0
102
RTVSPost2010PropOp35
 70
     1
102
RTVSPost2010Prop36
280
     0
102
RTVSPost2010PropOp36
 70
     1
102
RTVSPost2010Prop37
 90
       50
102
RTVSPost2010PropOp37
 70
     1
102
RTVSPost2010Prop38
140
0.0
102
RTVSPost2010PropOp38
 70
     1
102
RTVSPost2010Prop39
140
1.0
102
RTVSPost2010PropOp39
 70
     1
102
RTVSPost2010Prop40
 90
        0
102
RTVSPost2010PropOp40
 70
     1
102
RTVSPost2010Prop41ColorIndex
 90
       18
102
RTVSPost2010Prop41ColorRGB
 90
        0
102
RTVSPost2010PropOp41
 70
     1
102
RTVSPost2010Prop42
 90
       50
102
RTVSPost2010PropOp42
 70
     1
102
RTVSPost2010Prop43
 90
        3
102
RTVSPost2010PropOp43
 70
     1
102
RTVSPost2010Prop44ColorIndex
 90
        5
102
RTVSPost2010Prop44ColorRGB
 90
      255
102
RTVSPost2010PropOp44
 70
     1
102
RTVSPost2010Prop45
280
     0
102
RTVSPost2010PropOp45
 70
     1
102
RTVSPost2010Prop46
 90
       50
102
RTVSPost2010PropOp46
 70
     1
102
RTVSPost2010Prop47
 90
       50
102
RTVSPost2010PropOp47
 70
     1
102
RTVSPost2010Prop48
 90
       50
102
RTVSPost2010PropOp48
 70
     1
102
RTVSPost2010Prop49
280
     0
102
RTVSPost2010PropOp49
 70
     1
102
RTVSPost2010Prop50
 90
       50
102
RTVSPost2010PropOp50
 70
     1
102
RTVSPost2010Prop51ColorIndex
 90
      256
102
RTVSPost2010Prop51ColorRGB
 90
-16777216
102
RTVSPost2010PropOp51
 70
     0
102
RTVSPost2010Prop52
140
1.0
102
RTVSPost2010PropOp52
 70
     0
102
RTVSPost2010Prop53
 90
        2
102
RTVSPost2010PropOp53
 70
     1
102
RTVSPost2010Prop54
  1
strokes_ogs.tif
102
RTVSPost2010PropOp54
 70
     1
102
RTVSPost2010Prop55
280
     0
102
RTVSPost2010PropOp55
 70
     1
102
RTVSPost2010Prop56
140
1.0
102
RTVSPost2010PropOp56
 70
     1
102
RTVSPost2010Prop57
140
1.0
102
RTVSPost2010PropOp57
 70
     1
  0
XRECORD
  5
6C13
102
{ACAD_REACTORS
330
6C12
102
}
330
6C12
100
AcDbXrecord
280
     1
102
RTVSPost2010Prop28
280
     0
102
RTVSPost2010PropOp28
 70
     1
102
RTVSPost2010Prop29
280
     1
102
RTVSPost2010PropOp29
 70
     1
102
RTVSPost2010Prop30
280
     1
102
RTVSPost2010PropOp30
 70
     1
102
RTVSPost2010Prop31
280
     0
102
RTVSPost2010PropOp31
 70
     1
102
RTVSPost2010Prop32
280
     0
102
RTVSPost2010PropOp32
 70
     1
102
RTVSPost2010Prop33
280
     0
102
RTVSPost2010PropOp33
 70
     1
102
RTVSPost2010Prop34
280
     0
102
RTVSPost2010PropOp34
 70
     1
102
RTVSPost2010Prop35
280
     0
102
RTVSPost2010PropOp35
 70
     1
102
RTVSPost2010Prop36
280
     0
102
RTVSPost2010PropOp36
 70
     1
102
RTVSPost2010Prop37
 90
       50
102
RTVSPost2010PropOp37
 70
     1
102
RTVSPost2010Prop38
140
0.0
102
RTVSPost2010PropOp38
 70
     1
102
RTVSPost2010Prop39
140
1.0
102
RTVSPost2010PropOp39
 70
     1
102
RTVSPost2010Prop40
 90
        0
102
RTVSPost2010PropOp40
 70
     1
102
RTVSPost2010Prop41ColorIndex
 90
       18
102
RTVSPost2010Prop41ColorRGB
 90
        0
102
RTVSPost2010PropOp41
 70
     1
102
RTVSPost2010Prop42
 90
       50
102
RTVSPost2010PropOp42
 70
     1
102
RTVSPost2010Prop43
 90
        3
102
RTVSPost2010PropOp43
 70
     1
102
RTVSPost2010Prop44ColorIndex
 90
        5
102
RTVSPost2010Prop44ColorRGB
 90
      255
102
RTVSPost2010PropOp44
 70
     1
102
RTVSPost2010Prop45
280
     0
102
RTVSPost2010PropOp45
 70
     1
102
RTVSPost2010Prop46
 90
       50
102
RTVSPost2010PropOp46
 70
     1
102
RTVSPost2010Prop47
 90
       50
102
RTVSPost2010PropOp47
 70
     1
102
RTVSPost2010Prop48
 90
       50
102
RTVSPost2010PropOp48
 70
     1
102
RTVSPost2010Prop49
280
     0
102
RTVSPost2010PropOp49
 70
     1
102
RTVSPost2010Prop50
 90
       50
102
RTVSPost2010PropOp50
 70
     1
102
RTVSPost2010Prop51ColorIndex
 90
      256
102
RTVSPost2010Prop51ColorRGB
 90
-16777216
102
RTVSPost2010PropOp51
 70
     0
102
RTVSPost2010Prop52
140
1.0
102
RTVSPost2010PropOp52
 70
     0
102
RTVSPost2010Prop53
 90
        2
102
RTVSPost2010PropOp53
 70
     1
102
RTVSPost2010Prop54
  1
strokes_ogs.tif
102
RTVSPost2010PropOp54
 70
     1
102
RTVSPost2010Prop55
280
     0
102
RTVSPost2010PropOp55
 70
     1
102
RTVSPost2010Prop56
140
1.0
102
RTVSPost2010PropOp56
 70
     1
102
RTVSPost2010Prop57
140
1.0
102
RTVSPost2010PropOp57
 70
     1
  0
XRECORD
  5
6C03
102
{ACAD_REACTORS
330
6C02
102
}
330
6C02
100
AcDbXrecord
280
     1
102
RTVSPost2010Prop28
280
     0
102
RTVSPost2010PropOp28
 70
     1
102
RTVSPost2010Prop29
280
     1
102
RTVSPost2010PropOp29
 70
     1
102
RTVSPost2010Prop30
280
     1
102
RTVSPost2010PropOp30
 70
     1
102
RTVSPost2010Prop31
280
     0
102
RTVSPost2010PropOp31
 70
     1
102
RTVSPost2010Prop32
280
     0
102
RTVSPost2010PropOp32
 70
     1
102
RTVSPost2010Prop33
280
     0
102
RTVSPost2010PropOp33
 70
     1
102
RTVSPost2010Prop34
280
     0
102
RTVSPost2010PropOp34
 70
     1
102
RTVSPost2010Prop35
280
     0
102
RTVSPost2010PropOp35
 70
     1
102
RTVSPost2010Prop36
280
     0
102
RTVSPost2010PropOp36
 70
     1
102
RTVSPost2010Prop37
 90
       50
102
RTVSPost2010PropOp37
 70
     1
102
RTVSPost2010Prop38
140
0.0
102
RTVSPost2010PropOp38
 70
     1
102
RTVSPost2010Prop39
140
1.0
102
RTVSPost2010PropOp39
 70
     1
102
RTVSPost2010Prop40
 90
        0
102
RTVSPost2010PropOp40
 70
     1
102
RTVSPost2010Prop41ColorIndex
 90
       18
102
RTVSPost2010Prop41ColorRGB
 90
        0
102
RTVSPost2010PropOp41
 70
     1
102
RTVSPost2010Prop42
 90
       50
102
RTVSPost2010PropOp42
 70
     1
102
RTVSPost2010Prop43
 90
        3
102
RTVSPost2010PropOp43
 70
     1
102
RTVSPost2010Prop44ColorIndex
 90
        5
102
RTVSPost2010Prop44ColorRGB
 90
      255
102
RTVSPost2010PropOp44
 70
     1
102
RTVSPost2010Prop45
280
     0
102
RTVSPost2010PropOp45
 70
     1
102
RTVSPost2010Prop46
 90
       50
102
RTVSPost2010PropOp46
 70
     1
102
RTVSPost2010Prop47
 90
       50
102
RTVSPost2010PropOp47
 70
     1
102
RTVSPost2010Prop48
 90
       50
102
RTVSPost2010PropOp48
 70
     1
102
RTVSPost2010Prop49
280
     0
102
RTVSPost2010PropOp49
 70
     1
102
RTVSPost2010Prop50
 90
       50
102
RTVSPost2010PropOp50
 70
     1
102
RTVSPost2010Prop51ColorIndex
 90
      256
102
RTVSPost2010Prop51ColorRGB
 90
-16777216
102
RTVSPost2010PropOp51
 70
     0
102
RTVSPost2010Prop52
140
1.0
102
RTVSPost2010PropOp52
 70
     0
102
RTVSPost2010Prop53
 90
        2
102
RTVSPost2010PropOp53
 70
     1
102
RTVSPost2010Prop54
  1
strokes_ogs.tif
102
RTVSPost2010PropOp54
 70
     1
102
RTVSPost2010Prop55
280
     0
102
RTVSPost2010PropOp55
 70
     1
102
RTVSPost2010Prop56
140
1.0
102
RTVSPost2010PropOp56
 70
     1
102
RTVSPost2010Prop57
140
1.0
102
RTVSPost2010PropOp57
 70
     1
  0
XRECORD
  5
6C15
102
{ACAD_REACTORS
330
6C14
102
}
330
6C14
100
AcDbXrecord
280
     1
102
RTVSPost2010Prop28
280
     0
102
RTVSPost2010PropOp28
 70
     1
102
RTVSPost2010Prop29
280
     1
102
RTVSPost2010PropOp29
 70
     1
102
RTVSPost2010Prop30
280
     1
102
RTVSPost2010PropOp30
 70
     1
102
RTVSPost2010Prop31
280
     0
102
RTVSPost2010PropOp31
 70
     1
102
RTVSPost2010Prop32
280
     0
102
RTVSPost2010PropOp32
 70
     1
102
RTVSPost2010Prop33
280
     0
102
RTVSPost2010PropOp33
 70
     1
102
RTVSPost2010Prop34
280
     0
102
RTVSPost2010PropOp34
 70
     1
102
RTVSPost2010Prop35
280
     0
102
RTVSPost2010PropOp35
 70
     1
102
RTVSPost2010Prop36
280
     0
102
RTVSPost2010PropOp36
 70
     1
102
RTVSPost2010Prop37
 90
       50
102
RTVSPost2010PropOp37
 70
     1
102
RTVSPost2010Prop38
140
0.0
102
RTVSPost2010PropOp38
 70
     1
102
RTVSPost2010Prop39
140
1.0
102
RTVSPost2010PropOp39
 70
     1
102
RTVSPost2010Prop40
 90
        0
102
RTVSPost2010PropOp40
 70
     1
102
RTVSPost2010Prop41ColorIndex
 90
       18
102
RTVSPost2010Prop41ColorRGB
 90
        0
102
RTVSPost2010PropOp41
 70
     1
102
RTVSPost2010Prop42
 90
       50
102
RTVSPost2010PropOp42
 70
     1
102
RTVSPost2010Prop43
 90
        3
102
RTVSPost2010PropOp43
 70
     1
102
RTVSPost2010Prop44ColorIndex
 90
        5
102
RTVSPost2010Prop44ColorRGB
 90
      255
102
RTVSPost2010PropOp44
 70
     1
102
RTVSPost2010Prop45
280
     0
102
RTVSPost2010PropOp45
 70
     1
102
RTVSPost2010Prop46
 90
       50
102
RTVSPost2010PropOp46
 70
     1
102
RTVSPost2010Prop47
 90
       50
102
RTVSPost2010PropOp47
 70
     1
102
RTVSPost2010Prop48
 90
       50
102
RTVSPost2010PropOp48
 70
     1
102
RTVSPost2010Prop49
280
     0
102
RTVSPost2010PropOp49
 70
     1
102
RTVSPost2010Prop50
 90
       50
102
RTVSPost2010PropOp50
 70
     1
102
RTVSPost2010Prop51ColorIndex
 90
      256
102
RTVSPost2010Prop51ColorRGB
 90
-16777216
102
RTVSPost2010PropOp51
 70
     0
102
RTVSPost2010Prop52
140
1.0
102
RTVSPost2010PropOp52
 70
     0
102
RTVSPost2010Prop53
 90
        2
102
RTVSPost2010PropOp53
 70
     1
102
RTVSPost2010Prop54
  1
strokes_ogs.tif
102
RTVSPost2010PropOp54
 70
     1
102
RTVSPost2010Prop55
280
     0
102
RTVSPost2010PropOp55
 70
     1
102
RTVSPost2010Prop56
140
1.0
102
RTVSPost2010PropOp56
 70
     1
102
RTVSPost2010Prop57
140
1.0
102
RTVSPost2010PropOp57
 70
     1
  0
XRECORD
  5
6BFB
102
{ACAD_REACTORS
330
6BFA
102
}
330
6BFA
100
AcDbXrecord
280
     1
102
RTVSPost2010Prop28
280
     0
102
RTVSPost2010PropOp28
 70
     1
102
RTVSPost2010Prop29
280
     1
102
RTVSPost2010PropOp29
 70
     1
102
RTVSPost2010Prop30
280
     1
102
RTVSPost2010PropOp30
 70
     1
102
RTVSPost2010Prop31
280
     0
102
RTVSPost2010PropOp31
 70
     1
102
RTVSPost2010Prop32
280
     0
102
RTVSPost2010PropOp32
 70
     1
102
RTVSPost2010Prop33
280
     0
102
RTVSPost2010PropOp33
 70
     1
102
RTVSPost2010Prop34
280
     0
102
RTVSPost2010PropOp34
 70
     1
102
RTVSPost2010Prop35
280
     0
102
RTVSPost2010PropOp35
 70
     1
102
RTVSPost2010Prop36
280
     0
102
RTVSPost2010PropOp36
 70
     1
102
RTVSPost2010Prop37
 90
       50
102
RTVSPost2010PropOp37
 70
     1
102
RTVSPost2010Prop38
140
0.0
102
RTVSPost2010PropOp38
 70
     1
102
RTVSPost2010Prop39
140
1.0
102
RTVSPost2010PropOp39
 70
     1
102
RTVSPost2010Prop40
 90
        0
102
RTVSPost2010PropOp40
 70
     1
102
RTVSPost2010Prop41ColorIndex
 90
       18
102
RTVSPost2010Prop41ColorRGB
 90
        0
102
RTVSPost2010PropOp41
 70
     1
102
RTVSPost2010Prop42
 90
       50
102
RTVSPost2010PropOp42
 70
     1
102
RTVSPost2010Prop43
 90
        3
102
RTVSPost2010PropOp43
 70
     1
102
RTVSPost2010Prop44ColorIndex
 90
        5
102
RTVSPost2010Prop44ColorRGB
 90
      255
102
RTVSPost2010PropOp44
 70
     1
102
RTVSPost2010Prop45
280
     0
102
RTVSPost2010PropOp45
 70
     1
102
RTVSPost2010Prop46
 90
       50
102
RTVSPost2010PropOp46
 70
     1
102
RTVSPost2010Prop47
 90
       50
102
RTVSPost2010PropOp47
 70
     1
102
RTVSPost2010Prop48
 90
       50
102
RTVSPost2010PropOp48
 70
     1
102
RTVSPost2010Prop49
280
     0
102
RTVSPost2010PropOp49
 70
     1
102
RTVSPost2010Prop50
 90
       50
102
RTVSPost2010PropOp50
 70
     1
102
RTVSPost2010Prop51ColorIndex
 90
      256
102
RTVSPost2010Prop51ColorRGB
 90
-16777216
102
RTVSPost2010PropOp51
 70
     0
102
RTVSPost2010Prop52
140
1.0
102
RTVSPost2010PropOp52
 70
     0
102
RTVSPost2010Prop53
 90
        2
102
RTVSPost2010PropOp53
 70
     1
102
RTVSPost2010Prop54
  1
strokes_ogs.tif
102
RTVSPost2010PropOp54
 70
     1
102
RTVSPost2010Prop55
280
     0
102
RTVSPost2010PropOp55
 70
     1
102
RTVSPost2010Prop56
140
1.0
102
RTVSPost2010PropOp56
 70
     1
102
RTVSPost2010Prop57
140
1.0
102
RTVSPost2010PropOp57
 70
     1
  0
XRECORD
  5
6C11
102
{ACAD_REACTORS
330
6C10
102
}
330
6C10
100
AcDbXrecord
280
     1
102
RTVSPost2010Prop28
280
     0
102
RTVSPost2010PropOp28
 70
     1
102
RTVSPost2010Prop29
280
     1
102
RTVSPost2010PropOp29
 70
     1
102
RTVSPost2010Prop30
280
     1
102
RTVSPost2010PropOp30
 70
     1
102
RTVSPost2010Prop31
280
     0
102
RTVSPost2010PropOp31
 70
     1
102
RTVSPost2010Prop32
280
     0
102
RTVSPost2010PropOp32
 70
     1
102
RTVSPost2010Prop33
280
     0
102
RTVSPost2010PropOp33
 70
     1
102
RTVSPost2010Prop34
280
     0
102
RTVSPost2010PropOp34
 70
     1
102
RTVSPost2010Prop35
280
     0
102
RTVSPost2010PropOp35
 70
     1
102
RTVSPost2010Prop36
280
     0
102
RTVSPost2010PropOp36
 70
     1
102
RTVSPost2010Prop37
 90
       50
102
RTVSPost2010PropOp37
 70
     1
102
RTVSPost2010Prop38
140
0.0
102
RTVSPost2010PropOp38
 70
     1
102
RTVSPost2010Prop39
140
1.0
102
RTVSPost2010PropOp39
 70
     1
102
RTVSPost2010Prop40
 90
        0
102
RTVSPost2010PropOp40
 70
     1
102
RTVSPost2010Prop41ColorIndex
 90
       18
102
RTVSPost2010Prop41ColorRGB
 90
        0
102
RTVSPost2010PropOp41
 70
     1
102
RTVSPost2010Prop42
 90
       50
102
RTVSPost2010PropOp42
 70
     1
102
RTVSPost2010Prop43
 90
        3
102
RTVSPost2010PropOp43
 70
     1
102
RTVSPost2010Prop44ColorIndex
 90
        5
102
RTVSPost2010Prop44ColorRGB
 90
      255
102
RTVSPost2010PropOp44
 70
     1
102
RTVSPost2010Prop45
280
     0
102
RTVSPost2010PropOp45
 70
     1
102
RTVSPost2010Prop46
 90
       50
102
RTVSPost2010PropOp46
 70
     1
102
RTVSPost2010Prop47
 90
       50
102
RTVSPost2010PropOp47
 70
     1
102
RTVSPost2010Prop48
 90
       50
102
RTVSPost2010PropOp48
 70
     1
102
RTVSPost2010Prop49
280
     0
102
RTVSPost2010PropOp49
 70
     1
102
RTVSPost2010Prop50
 90
       50
102
RTVSPost2010PropOp50
 70
     1
102
RTVSPost2010Prop51ColorIndex
 90
      256
102
RTVSPost2010Prop51ColorRGB
 90
-16777216
102
RTVSPost2010PropOp51
 70
     0
102
RTVSPost2010Prop52
140
1.0
102
RTVSPost2010PropOp52
 70
     0
102
RTVSPost2010Prop53
 90
        2
102
RTVSPost2010PropOp53
 70
     1
102
RTVSPost2010Prop54
  1
strokes_ogs.tif
102
RTVSPost2010PropOp54
 70
     1
102
RTVSPost2010Prop55
280
     0
102
RTVSPost2010PropOp55
 70
     1
102
RTVSPost2010Prop56
140
1.0
102
RTVSPost2010PropOp56
 70
     1
102
RTVSPost2010Prop57
140
1.0
102
RTVSPost2010PropOp57
 70
     1
  0
XRECORD
  5
6C0F
102
{ACAD_REACTORS
330
6C0E
102
}
330
6C0E
100
AcDbXrecord
280
     1
102
RTVSPost2010Prop28
280
     0
102
RTVSPost2010PropOp28
 70
     1
102
RTVSPost2010Prop29
280
     1
102
RTVSPost2010PropOp29
 70
     1
102
RTVSPost2010Prop30
280
     1
102
RTVSPost2010PropOp30
 70
     1
102
RTVSPost2010Prop31
280
     0
102
RTVSPost2010PropOp31
 70
     1
102
RTVSPost2010Prop32
280
     0
102
RTVSPost2010PropOp32
 70
     1
102
RTVSPost2010Prop33
280
     0
102
RTVSPost2010PropOp33
 70
     1
102
RTVSPost2010Prop34
280
     0
102
RTVSPost2010PropOp34
 70
     1
102
RTVSPost2010Prop35
280
     0
102
RTVSPost2010PropOp35
 70
     1
102
RTVSPost2010Prop36
280
     0
102
RTVSPost2010PropOp36
 70
     1
102
RTVSPost2010Prop37
 90
       50
102
RTVSPost2010PropOp37
 70
     1
102
RTVSPost2010Prop38
140
0.0
102
RTVSPost2010PropOp38
 70
     1
102
RTVSPost2010Prop39
140
1.0
102
RTVSPost2010PropOp39
 70
     1
102
RTVSPost2010Prop40
 90
        0
102
RTVSPost2010PropOp40
 70
     1
102
RTVSPost2010Prop41ColorIndex
 90
       18
102
RTVSPost2010Prop41ColorRGB
 90
        0
102
RTVSPost2010PropOp41
 70
     1
102
RTVSPost2010Prop42
 90
       50
102
RTVSPost2010PropOp42
 70
     1
102
RTVSPost2010Prop43
 90
        3
102
RTVSPost2010PropOp43
 70
     1
102
RTVSPost2010Prop44ColorIndex
 90
        5
102
RTVSPost2010Prop44ColorRGB
 90
      255
102
RTVSPost2010PropOp44
 70
     1
102
RTVSPost2010Prop45
280
     0
102
RTVSPost2010PropOp45
 70
     1
102
RTVSPost2010Prop46
 90
       50
102
RTVSPost2010PropOp46
 70
     1
102
RTVSPost2010Prop47
 90
       50
102
RTVSPost2010PropOp47
 70
     1
102
RTVSPost2010Prop48
 90
       50
102
RTVSPost2010PropOp48
 70
     1
102
RTVSPost2010Prop49
280
     0
102
RTVSPost2010PropOp49
 70
     1
102
RTVSPost2010Prop50
 90
       50
102
RTVSPost2010PropOp50
 70
     1
102
RTVSPost2010Prop51ColorIndex
 90
      256
102
RTVSPost2010Prop51ColorRGB
 90
-16777216
102
RTVSPost2010PropOp51
 70
     0
102
RTVSPost2010Prop52
140
1.0
102
RTVSPost2010PropOp52
 70
     0
102
RTVSPost2010Prop53
 90
        2
102
RTVSPost2010PropOp53
 70
     1
102
RTVSPost2010Prop54
  1
strokes_ogs.tif
102
RTVSPost2010PropOp54
 70
     1
102
RTVSPost2010Prop55
280
     0
102
RTVSPost2010PropOp55
 70
     1
102
RTVSPost2010Prop56
140
1.0
102
RTVSPost2010PropOp56
 70
     1
102
RTVSPost2010Prop57
140
1.0
102
RTVSPost2010PropOp57
 70
     1
  0
XRECORD
  5
6C09
102
{ACAD_REACTORS
330
6C08
102
}
330
6C08
100
AcDbXrecord
280
     1
102
RTVSPost2010Prop28
280
     0
102
RTVSPost2010PropOp28
 70
     1
102
RTVSPost2010Prop29
280
     1
102
RTVSPost2010PropOp29
 70
     1
102
RTVSPost2010Prop30
280
     1
102
RTVSPost2010PropOp30
 70
     1
102
RTVSPost2010Prop31
280
     0
102
RTVSPost2010PropOp31
 70
     1
102
RTVSPost2010Prop32
280
     0
102
RTVSPost2010PropOp32
 70
     1
102
RTVSPost2010Prop33
280
     0
102
RTVSPost2010PropOp33
 70
     1
102
RTVSPost2010Prop34
280
     0
102
RTVSPost2010PropOp34
 70
     1
102
RTVSPost2010Prop35
280
     0
102
RTVSPost2010PropOp35
 70
     1
102
RTVSPost2010Prop36
280
     0
102
RTVSPost2010PropOp36
 70
     1
102
RTVSPost2010Prop37
 90
       50
102
RTVSPost2010PropOp37
 70
     1
102
RTVSPost2010Prop38
140
0.0
102
RTVSPost2010PropOp38
 70
     1
102
RTVSPost2010Prop39
140
1.0
102
RTVSPost2010PropOp39
 70
     1
102
RTVSPost2010Prop40
 90
        0
102
RTVSPost2010PropOp40
 70
     1
102
RTVSPost2010Prop41ColorIndex
 90
       18
102
RTVSPost2010Prop41ColorRGB
 90
        0
102
RTVSPost2010PropOp41
 70
     1
102
RTVSPost2010Prop42
 90
       50
102
RTVSPost2010PropOp42
 70
     1
102
RTVSPost2010Prop43
 90
        3
102
RTVSPost2010PropOp43
 70
     1
102
RTVSPost2010Prop44ColorIndex
 90
        5
102
RTVSPost2010Prop44ColorRGB
 90
      255
102
RTVSPost2010PropOp44
 70
     1
102
RTVSPost2010Prop45
280
     0
102
RTVSPost2010PropOp45
 70
     1
102
RTVSPost2010Prop46
 90
       50
102
RTVSPost2010PropOp46
 70
     1
102
RTVSPost2010Prop47
 90
       50
102
RTVSPost2010PropOp47
 70
     1
102
RTVSPost2010Prop48
 90
       50
102
RTVSPost2010PropOp48
 70
     1
102
RTVSPost2010Prop49
280
     0
102
RTVSPost2010PropOp49
 70
     1
102
RTVSPost2010Prop50
 90
       50
102
RTVSPost2010PropOp50
 70
     1
102
RTVSPost2010Prop51ColorIndex
 90
      256
102
RTVSPost2010Prop51ColorRGB
 90
-16777216
102
RTVSPost2010PropOp51
 70
     0
102
RTVSPost2010Prop52
140
1.0
102
RTVSPost2010PropOp52
 70
     0
102
RTVSPost2010Prop53
 90
        2
102
RTVSPost2010PropOp53
 70
     1
102
RTVSPost2010Prop54
  1
strokes_ogs.tif
102
RTVSPost2010PropOp54
 70
     1
102
RTVSPost2010Prop55
280
     0
102
RTVSPost2010PropOp55
 70
     1
102
RTVSPost2010Prop56
140
1.0
102
RTVSPost2010PropOp56
 70
     1
102
RTVSPost2010Prop57
140
1.0
102
RTVSPost2010PropOp57
 70
     1
  0
XRECORD
  5
6C0B
102
{ACAD_REACTORS
330
6C0A
102
}
330
6C0A
100
AcDbXrecord
280
     1
102
RTVSPost2010Prop28
280
     0
102
RTVSPost2010PropOp28
 70
     1
102
RTVSPost2010Prop29
280
     1
102
RTVSPost2010PropOp29
 70
     1
102
RTVSPost2010Prop30
280
     1
102
RTVSPost2010PropOp30
 70
     1
102
RTVSPost2010Prop31
280
     0
102
RTVSPost2010PropOp31
 70
     1
102
RTVSPost2010Prop32
280
     0
102
RTVSPost2010PropOp32
 70
     1
102
RTVSPost2010Prop33
280
     0
102
RTVSPost2010PropOp33
 70
     1
102
RTVSPost2010Prop34
280
     0
102
RTVSPost2010PropOp34
 70
     1
102
RTVSPost2010Prop35
280
     0
102
RTVSPost2010PropOp35
 70
     1
102
RTVSPost2010Prop36
280
     0
102
RTVSPost2010PropOp36
 70
     1
102
RTVSPost2010Prop37
 90
       50
102
RTVSPost2010PropOp37
 70
     1
102
RTVSPost2010Prop38
140
0.0
102
RTVSPost2010PropOp38
 70
     1
102
RTVSPost2010Prop39
140
1.0
102
RTVSPost2010PropOp39
 70
     1
102
RTVSPost2010Prop40
 90
        0
102
RTVSPost2010PropOp40
 70
     1
102
RTVSPost2010Prop41ColorIndex
 90
       18
102
RTVSPost2010Prop41ColorRGB
 90
        0
102
RTVSPost2010PropOp41
 70
     1
102
RTVSPost2010Prop42
 90
       50
102
RTVSPost2010PropOp42
 70
     1
102
RTVSPost2010Prop43
 90
        3
102
RTVSPost2010PropOp43
 70
     1
102
RTVSPost2010Prop44ColorIndex
 90
        5
102
RTVSPost2010Prop44ColorRGB
 90
      255
102
RTVSPost2010PropOp44
 70
     1
102
RTVSPost2010Prop45
280
     0
102
RTVSPost2010PropOp45
 70
     1
102
RTVSPost2010Prop46
 90
       50
102
RTVSPost2010PropOp46
 70
     1
102
RTVSPost2010Prop47
 90
       50
102
RTVSPost2010PropOp47
 70
     1
102
RTVSPost2010Prop48
 90
       50
102
RTVSPost2010PropOp48
 70
     1
102
RTVSPost2010Prop49
280
     0
102
RTVSPost2010PropOp49
 70
     1
102
RTVSPost2010Prop50
 90
       50
102
RTVSPost2010PropOp50
 70
     1
102
RTVSPost2010Prop51ColorIndex
 90
      256
102
RTVSPost2010Prop51ColorRGB
 90
-16777216
102
RTVSPost2010PropOp51
 70
     0
102
RTVSPost2010Prop52
140
1.0
102
RTVSPost2010PropOp52
 70
     0
102
RTVSPost2010Prop53
 90
        2
102
RTVSPost2010PropOp53
 70
     1
102
RTVSPost2010Prop54
  1
strokes_ogs.tif
102
RTVSPost2010PropOp54
 70
     1
102
RTVSPost2010Prop55
280
     0
102
RTVSPost2010PropOp55
 70
     1
102
RTVSPost2010Prop56
140
1.0
102
RTVSPost2010PropOp56
 70
     1
102
RTVSPost2010Prop57
140
1.0
102
RTVSPost2010PropOp57
 70
     1
  0
XRECORD
  5
6C01
102
{ACAD_REACTORS
330
6C00
102
}
330
6C00
100
AcDbXrecord
280
     1
102
RTVSPost2010Prop28
280
     0
102
RTVSPost2010PropOp28
 70
     1
102
RTVSPost2010Prop29
280
     1
102
RTVSPost2010PropOp29
 70
     1
102
RTVSPost2010Prop30
280
     1
102
RTVSPost2010PropOp30
 70
     1
102
RTVSPost2010Prop31
280
     0
102
RTVSPost2010PropOp31
 70
     1
102
RTVSPost2010Prop32
280
     0
102
RTVSPost2010PropOp32
 70
     1
102
RTVSPost2010Prop33
280
     0
102
RTVSPost2010PropOp33
 70
     1
102
RTVSPost2010Prop34
280
     0
102
RTVSPost2010PropOp34
 70
     1
102
RTVSPost2010Prop35
280
     0
102
RTVSPost2010PropOp35
 70
     1
102
RTVSPost2010Prop36
280
     0
102
RTVSPost2010PropOp36
 70
     1
102
RTVSPost2010Prop37
 90
       50
102
RTVSPost2010PropOp37
 70
     1
102
RTVSPost2010Prop38
140
0.0
102
RTVSPost2010PropOp38
 70
     1
102
RTVSPost2010Prop39
140
1.0
102
RTVSPost2010PropOp39
 70
     1
102
RTVSPost2010Prop40
 90
        0
102
RTVSPost2010PropOp40
 70
     1
102
RTVSPost2010Prop41ColorIndex
 90
       18
102
RTVSPost2010Prop41ColorRGB
 90
        0
102
RTVSPost2010PropOp41
 70
     1
102
RTVSPost2010Prop42
 90
       50
102
RTVSPost2010PropOp42
 70
     1
102
RTVSPost2010Prop43
 90
        3
102
RTVSPost2010PropOp43
 70
     1
102
RTVSPost2010Prop44ColorIndex
 90
        5
102
RTVSPost2010Prop44ColorRGB
 90
      255
102
RTVSPost2010PropOp44
 70
     1
102
RTVSPost2010Prop45
280
     0
102
RTVSPost2010PropOp45
 70
     1
102
RTVSPost2010Prop46
 90
       50
102
RTVSPost2010PropOp46
 70
     1
102
RTVSPost2010Prop47
 90
       50
102
RTVSPost2010PropOp47
 70
     1
102
RTVSPost2010Prop48
 90
       50
102
RTVSPost2010PropOp48
 70
     1
102
RTVSPost2010Prop49
280
     0
102
RTVSPost2010PropOp49
 70
     1
102
RTVSPost2010Prop50
 90
       50
102
RTVSPost2010PropOp50
 70
     1
102
RTVSPost2010Prop51ColorIndex
 90
      256
102
RTVSPost2010Prop51ColorRGB
 90
-16777216
102
RTVSPost2010PropOp51
 70
     0
102
RTVSPost2010Prop52
140
1.0
102
RTVSPost2010PropOp52
 70
     0
102
RTVSPost2010Prop53
 90
        2
102
RTVSPost2010PropOp53
 70
     1
102
RTVSPost2010Prop54
  1
strokes_ogs.tif
102
RTVSPost2010PropOp54
 70
     1
102
RTVSPost2010Prop55
280
     0
102
RTVSPost2010PropOp55
 70
     1
102
RTVSPost2010Prop56
140
1.0
102
RTVSPost2010PropOp56
 70
     1
102
RTVSPost2010Prop57
140
1.0
102
RTVSPost2010PropOp57
 70
     1
  0
XRECORD
  5
6BF5
102
{ACAD_REACTORS
330
6BF4
102
}
330
6BF4
100
AcDbXrecord
280
     1
102
RTVSPost2010Prop28
280
     0
102
RTVSPost2010PropOp28
 70
     1
102
RTVSPost2010Prop29
280
     1
102
RTVSPost2010PropOp29
 70
     1
102
RTVSPost2010Prop30
280
     1
102
RTVSPost2010PropOp30
 70
     1
102
RTVSPost2010Prop31
280
     0
102
RTVSPost2010PropOp31
 70
     1
102
RTVSPost2010Prop32
280
     0
102
RTVSPost2010PropOp32
 70
     1
102
RTVSPost2010Prop33
280
     0
102
RTVSPost2010PropOp33
 70
     1
102
RTVSPost2010Prop34
280
     0
102
RTVSPost2010PropOp34
 70
     1
102
RTVSPost2010Prop35
280
     0
102
RTVSPost2010PropOp35
 70
     1
102
RTVSPost2010Prop36
280
     0
102
RTVSPost2010PropOp36
 70
     1
102
RTVSPost2010Prop37
 90
       50
102
RTVSPost2010PropOp37
 70
     1
102
RTVSPost2010Prop38
140
0.0
102
RTVSPost2010PropOp38
 70
     1
102
RTVSPost2010Prop39
140
1.0
102
RTVSPost2010PropOp39
 70
     1
102
RTVSPost2010Prop40
 90
        0
102
RTVSPost2010PropOp40
 70
     1
102
RTVSPost2010Prop41ColorIndex
 90
       18
102
RTVSPost2010Prop41ColorRGB
 90
        0
102
RTVSPost2010PropOp41
 70
     1
102
RTVSPost2010Prop42
 90
       50
102
RTVSPost2010PropOp42
 70
     1
102
RTVSPost2010Prop43
 90
        3
102
RTVSPost2010PropOp43
 70
     1
102
RTVSPost2010Prop44ColorIndex
 90
        5
102
RTVSPost2010Prop44ColorRGB
 90
      255
102
RTVSPost2010PropOp44
 70
     1
102
RTVSPost2010Prop45
280
     0
102
RTVSPost2010PropOp45
 70
     1
102
RTVSPost2010Prop46
 90
       50
102
RTVSPost2010PropOp46
 70
     1
102
RTVSPost2010Prop47
 90
       50
102
RTVSPost2010PropOp47
 70
     1
102
RTVSPost2010Prop48
 90
       50
102
RTVSPost2010PropOp48
 70
     1
102
RTVSPost2010Prop49
280
     0
102
RTVSPost2010PropOp49
 70
     1
102
RTVSPost2010Prop50
 90
       50
102
RTVSPost2010PropOp50
 70
     1
102
RTVSPost2010Prop51ColorIndex
 90
      256
102
RTVSPost2010Prop51ColorRGB
 90
-16777216
102
RTVSPost2010PropOp51
 70
     0
102
RTVSPost2010Prop52
140
1.0
102
RTVSPost2010PropOp52
 70
     0
102
RTVSPost2010Prop53
 90
        2
102
RTVSPost2010PropOp53
 70
     1
102
RTVSPost2010Prop54
  1
strokes_ogs.tif
102
RTVSPost2010PropOp54
 70
     1
102
RTVSPost2010Prop55
280
     0
102
RTVSPost2010PropOp55
 70
     1
102
RTVSPost2010Prop56
140
1.0
102
RTVSPost2010PropOp56
 70
     1
102
RTVSPost2010Prop57
140
1.0
102
RTVSPost2010PropOp57
 70
     1
  0
XRECORD
  5
6C0D
102
{ACAD_REACTORS
330
6C0C
102
}
330
6C0C
100
AcDbXrecord
280
     1
102
RTVSPost2010Prop28
280
     0
102
RTVSPost2010PropOp28
 70
     1
102
RTVSPost2010Prop29
280
     1
102
RTVSPost2010PropOp29
 70
     1
102
RTVSPost2010Prop30
280
     1
102
RTVSPost2010PropOp30
 70
     1
102
RTVSPost2010Prop31
280
     0
102
RTVSPost2010PropOp31
 70
     1
102
RTVSPost2010Prop32
280
     0
102
RTVSPost2010PropOp32
 70
     1
102
RTVSPost2010Prop33
280
     0
102
RTVSPost2010PropOp33
 70
     1
102
RTVSPost2010Prop34
280
     0
102
RTVSPost2010PropOp34
 70
     1
102
RTVSPost2010Prop35
280
     0
102
RTVSPost2010PropOp35
 70
     1
102
RTVSPost2010Prop36
280
     0
102
RTVSPost2010PropOp36
 70
     1
102
RTVSPost2010Prop37
 90
       50
102
RTVSPost2010PropOp37
 70
     1
102
RTVSPost2010Prop38
140
0.0
102
RTVSPost2010PropOp38
 70
     1
102
RTVSPost2010Prop39
140
1.0
102
RTVSPost2010PropOp39
 70
     1
102
RTVSPost2010Prop40
 90
        0
102
RTVSPost2010PropOp40
 70
     1
102
RTVSPost2010Prop41ColorIndex
 90
       18
102
RTVSPost2010Prop41ColorRGB
 90
        0
102
RTVSPost2010PropOp41
 70
     1
102
RTVSPost2010Prop42
 90
       50
102
RTVSPost2010PropOp42
 70
     1
102
RTVSPost2010Prop43
 90
        3
102
RTVSPost2010PropOp43
 70
     1
102
RTVSPost2010Prop44ColorIndex
 90
        5
102
RTVSPost2010Prop44ColorRGB
 90
      255
102
RTVSPost2010PropOp44
 70
     1
102
RTVSPost2010Prop45
280
     0
102
RTVSPost2010PropOp45
 70
     1
102
RTVSPost2010Prop46
 90
       50
102
RTVSPost2010PropOp46
 70
     1
102
RTVSPost2010Prop47
 90
       50
102
RTVSPost2010PropOp47
 70
     1
102
RTVSPost2010Prop48
 90
       50
102
RTVSPost2010PropOp48
 70
     1
102
RTVSPost2010Prop49
280
     0
102
RTVSPost2010PropOp49
 70
     1
102
RTVSPost2010Prop50
 90
       50
102
RTVSPost2010PropOp50
 70
     1
102
RTVSPost2010Prop51ColorIndex
 90
      256
102
RTVSPost2010Prop51ColorRGB
 90
-16777216
102
RTVSPost2010PropOp51
 70
     0
102
RTVSPost2010Prop52
140
1.0
102
RTVSPost2010PropOp52
 70
     0
102
RTVSPost2010Prop53
 90
        2
102
RTVSPost2010PropOp53
 70
     1
102
RTVSPost2010Prop54
  1
strokes_ogs.tif
102
RTVSPost2010PropOp54
 70
     1
102
RTVSPost2010Prop55
280
     0
102
RTVSPost2010PropOp55
 70
     1
102
RTVSPost2010Prop56
140
1.0
102
RTVSPost2010PropOp56
 70
     1
102
RTVSPost2010Prop57
140
1.0
102
RTVSPost2010PropOp57
 70
     1
  0
ENDSEC
  0
EOF
