  0
SECTION
  2
HEADER
  9
$ACADVER
  1
AC1018
  9
$ACADMAINTVER
 70
     0
  9
$DWGCODEPAGE
  3
ANSI_1252
  9
$INSBASE
 10
0.0
 20
0.0
 30
0.0
  9
$EXTMIN
 10
20.37131731772491
 20
49.27960967750325
 30
0.0
  9
$EXTMAX
 10
98.1159868810811
 20
75.92140483419301
 30
0.0
  9
$LIMMIN
 10
0.0
 20
0.0
  9
$LIMMAX
 10
420.0
 20
297.0
  9
$ORTHOMODE
 70
     0
  9
$REGENMODE
 70
     1
  9
$FILLMODE
 70
     1
  9
$QTEXTMODE
 70
     0
  9
$MIRRTEXT
 70
     1
  9
$LTSCALE
 40
0.04
  9
$ATTMODE
 70
     1
  9
$TEXTSIZE
 40
0.09375
  9
$TRACEWID
 40
1.0
  9
$TEXTSTYLE
  7
STYLE1
  9
$CLAYER
  8
0
  9
$CELTYPE
  6
BYLAYER
  9
$CECOLOR
 62
   256
  9
$CELTSCALE
 40
1.0
  9
$DISPSILH
 70
     0
  9
$DIMSCALE
 40
1.0
  9
$DIMASZ
 40
0.18
  9
$DIMEXO
 40
0.0625
  9
$DIMDLI
 40
0.38
  9
$DIMRND
 40
0.0
  9
$DIMDLE
 40
0.0
  9
$DIMEXE
 40
0.18
  9
$DIMTP
 40
0.0
  9
$DIMTM
 40
0.0
  9
$DIMTXT
 40
2.0
  9
$DIMCEN
 40
0.09
  9
$DIMTSZ
 40
0.0
  9
$DIMTOL
 70
     0
  9
$DIMLIM
 70
     0
  9
$DIMTIH
 70
     0
  9
$DIMTOH
 70
     0
  9
$DIMSE1
 70
     0
  9
$DIMSE2
 70
     0
  9
$DIMTAD
 70
     0
  9
$DIMZIN
 70
     0
  9
$DIMBLK
  1

  9
$DIMASO
 70
     1
  9
$DIMSHO
 70
     1
  9
$DIMPOST
  1

  9
$DIMAPOST
  1

  9
$DIMALT
 70
     0
  9
$DIMALTD
 70
     2
  9
$DIMALTF
 40
25.4
  9
$DIMLFAC
 40
1.0
  9
$DIMTOFL
 70
     0
  9
$DIMTVP
 40
0.0
  9
$DIMTIX
 70
     0
  9
$DIMSOXD
 70
     0
  9
$DIMSAH
 70
     0
  9
$DIMBLK1
  1

  9
$DIMBLK2
  1

  9
$DIMSTYLE
  2
STANDARD
  9
$DIMCLRD
 70
     0
  9
$DIMCLRE
 70
     0
  9
$DIMCLRT
 70
     0
  9
$DIMTFAC
 40
1.0
  9
$DIMGAP
 40
0.09
  9
$DIMJUST
 70
     0
  9
$DIMSD1
 70
     0
  9
$DIMSD2
 70
     0
  9
$DIMTOLJ
 70
     1
  9
$DIMTZIN
 70
     0
  9
$DIMALTZ
 70
     0
  9
$DIMALTTZ
 70
     0
  9
$DIMUPT
 70
     0
  9
$DIMDEC
 70
     4
  9
$DIMTDEC
 70
     4
  9
$DIMALTU
 70
     2
  9
$DIMALTTD
 70
     2
  9
$DIMTXSTY
  7
STANDARD
  9
$DIMAUNIT
 70
     0
  9
$DIMADEC
 70
     0
  9
$DIMALTRND
 40
0.0
  9
$DIMAZIN
 70
     0
  9
$DIMDSEP
 70
    46
  9
$DIMATFIT
 70
     3
  9
$DIMFRAC
 70
     0
  9
$DIMLDRBLK
  1

  9
$DIMLUNIT
 70
     2
  9
$DIMLWD
 70
    -2
  9
$DIMLWE
 70
    -2
  9
$DIMTMOVE
 70
     0
  9
$LUNITS
 70
     4
  9
$LUPREC
 70
     4
  9
$SKETCHINC
 40
1.0
  9
$FILLETRAD
 40
0.125
  9
$AUNITS
 70
     0
  9
$AUPREC
 70
     0
  9
$MENU
  1
.
  9
$ELEVATION
 40
0.0
  9
$PELEVATION
 40
0.0
  9
$THICKNESS
 40
0.0
  9
$LIMCHECK
 70
     0
  9
$CHAMFERA
 40
10.0
  9
$CHAMFERB
 40
10.0
  9
$CHAMFERC
 40
20.0
  9
$CHAMFERD
 40
0.0
  9
$SKPOLY
 70
     0
  9
$TDCREATE
 40
2451158.474098033
  9
$TDUCREATE
 40
2451158.640764699
  9
$TDUPDATE
 40
2453488.685819665
  9
$TDUUPDATE
 40
2453488.852486331
  9
$TDINDWG
 40
0.9099481134
  9
$TDUSRTIMER
 40
0.9099481134
  9
$USRTIMER
 70
     1
  9
$ANGBASE
 50
0.0
  9
$ANGDIR
 70
     0
  9
$PDMODE
 70
     3
  9
$PDSIZE
 40
0.25
  9
$PLINEWID
 40
0.0
  9
$SPLFRAME
 70
     0
  9
$SPLINETYPE
 70
     6
  9
$SPLINESEGS
 70
     8
  9
$HANDSEED
  5
48AD
  9
$SURFTAB1
 70
     6
  9
$SURFTAB2
 70
     6
  9
$SURFTYPE
 70
     6
  9
$SURFU
 70
     6
  9
$SURFV
 70
     6
  9
$UCSBASE
  2

  9
$UCSNAME
  2

  9
$UCSORG
 10
0.0
 20
0.0
 30
0.0
  9
$UCSXDIR
 10
1.0
 20
0.0
 30
0.0
  9
$UCSYDIR
 10
0.0
 20
1.0
 30
0.0
  9
$UCSORTHOREF
  2

  9
$UCSORTHOVIEW
 70
     0
  9
$UCSORGTOP
 10
0.0
 20
0.0
 30
0.0
  9
$UCSORGBOTTOM
 10
0.0
 20
0.0
 30
0.0
  9
$UCSORGLEFT
 10
0.0
 20
0.0
 30
0.0
  9
$UCSORGRIGHT
 10
0.0
 20
0.0
 30
0.0
  9
$UCSORGFRONT
 10
0.0
 20
0.0
 30
0.0
  9
$UCSORGBACK
 10
0.0
 20
0.0
 30
0.0
  9
$PUCSBASE
  2

  9
$PUCSNAME
  2

  9
$PUCSORG
 10
0.0
 20
0.0
 30
0.0
  9
$PUCSXDIR
 10
1.0
 20
0.0
 30
0.0
  9
$PUCSYDIR
 10
0.0
 20
1.0
 30
0.0
  9
$PUCSORTHOREF
  2

  9
$PUCSORTHOVIEW
 70
     0
  9
$PUCSORGTOP
 10
0.0
 20
0.0
 30
0.0
  9
$PUCSORGBOTTOM
 10
0.0
 20
0.0
 30
0.0
  9
$PUCSORGLEFT
 10
0.0
 20
0.0
 30
0.0
  9
$PUCSORGRIGHT
 10
0.0
 20
0.0
 30
0.0
  9
$PUCSORGFRONT
 10
0.0
 20
0.0
 30
0.0
  9
$PUCSORGBACK
 10
0.0
 20
0.0
 30
0.0
  9
$USERI1
 70
     0
  9
$USERI2
 70
     0
  9
$USERI3
 70
     0
  9
$USERI4
 70
     0
  9
$USERI5
 70
     0
  9
$USERR1
 40
0.0
  9
$USERR2
 40
0.0
  9
$USERR3
 40
0.0
  9
$USERR4
 40
0.0
  9
$USERR5
 40
0.0
  9
$WORLDVIEW
 70
     1
  9
$SHADEDGE
 70
     3
  9
$SHADEDIF
 70
    70
  9
$TILEMODE
 70
     1
  9
$MAXACTVP
 70
    48
  9
$PINSBASE
 10
0.0
 20
0.0
 30
0.0
  9
$PLIMCHECK
 70
     0
  9
$PEXTMIN
 10
26.66076962115563
 20
20.31135699206658
 30
-0.0015258207003583
  9
$PEXTMAX
 10
240.039213369355
 20
182.8886381005154
 30
0.0000000349246037
  9
$PLIMMIN
 10
-6.350006103515625
 20
-6.349999904632568
  9
$PLIMMAX
 10
273.0499877929688
 20
209.5499939918518
  9
$UNITMODE
 70
     0
  9
$VISRETAIN
 70
     1
  9
$PLINEGEN
 70
     0
  9
$PSLTSCALE
 70
     1
  9
$TREEDEPTH
 70
  3020
  9
$CMLSTYLE
  2
STANDARD
  9
$CMLJUST
 70
     0
  9
$CMLSCALE
 40
20.0
  9
$PROXYGRAPHICS
 70
     1
  9
$MEASUREMENT
 70
     1
  9
$CELWEIGHT
370
    -1
  9
$ENDCAPS
280
     0
  9
$JOINSTYLE
280
     0
  9
$LWDISPLAY
290
     0
  9
$INSUNITS
 70
     0
  9
$HYPERLINKBASE
  1

  9
$STYLESHEET
  1

  9
$XEDIT
290
     1
  9
$CEPSNTYPE
380
     0
  9
$PSTYLEMODE
290
     1
  9
$FINGERPRINTGUID
  2
{D9A0EA57-ACFE-4C24-92E0-F27F11621814}
  9
$VERSIONGUID
  2
{0C32E2A8-5EC5-48F3-899D-DE36F6328DF4}
  9
$EXTNAMES
290
     1
  9
$PSVPSCALE
 40
0.0
  9
$OLESTARTUP
290
     0
  9
$SORTENTS
280
    96
  9
$INDEXCTL
280
     0
  9
$HIDETEXT
280
     0
  9
$XCLIPFRAME
290
     0
  9
$HALOGAP
280
     0
  9
$OBSCOLOR
 70
   257
  9
$OBSLTYPE
280
     0
  9
$INTERSECTIONDISPLAY
280
     0
  9
$INTERSECTIONCOLOR
 70
   257
  9
$DIMASSOC
280
     1
  9
$PROJECTNAME
  1

  0
ENDSEC
  0
SECTION
  2
CLASSES
  0
CLASS
  1
RASTERVARIABLES
  2
AcDbRasterVariables
  3
ISM
 90
        0
 91
        1
280
     0
281
     0
  0
CLASS
  1
IMAGEDEF
  2
AcDbRasterImageDef
  3
ISM
 90
        0
 91
        6
280
     0
281
     0
  0
CLASS
  1
IMAGEDEF_REACTOR
  2
AcDbRasterImageDefReactor
  3
ISM
 90
        1
 91
        0
280
     0
281
     0
  0
CLASS
  1
IMAGE
  2
AcDbRasterImage
  3
ISM
 90
      127
 91
        0
280
     0
281
     1
  0
CLASS
  1
DICTIONARYVAR
  2
AcDbDictionaryVar
  3
ObjectDBX Classes
 90
        0
 91
        1
280
     0
281
     0
  0
CLASS
  1
ACDBDICTIONARYWDFLT
  2
AcDbDictionaryWithDefault
  3
ObjectDBX Classes
 90
        0
 91
        1
280
     0
281
     0
  0
ENDSEC
  0
SECTION
  2
TABLES
  0
TABLE
  2
VPORT
  5
8
330
0
100
AcDbSymbolTable
 70
     2
  0
VPORT
  5
48AC
330
8
100
AcDbSymbolTableRecord
100
AcDbViewportTableRecord
  2
*Active
 70
     0
 10
0.0
 20
0.0
 11
1.0
 21
1.0
 12
59.79163794800833
 22
61.18162785288232
 13
0.0
 23
0.0
 14
10.0
 24
10.0
 15
10.0
 25
10.0
 16
0.0
 26
0.0
 36
1.0
 17
0.0
 27
0.0
 37
0.0
 40
52.44620156847798
 41
1.977142857142856
 42
50.0
 43
0.0
 44
0.0
 50
0.0
 51
0.0
 71
     0
 72
   100
 73
     1
 74
     1
 75
     0
 76
     0
 77
     0
 78
     0
281
     0
 65
     1
110
0.0
120
0.0
130
0.0
111
1.0
121
0.0
131
0.0
112
0.0
122
1.0
132
0.0
 79
     0
146
0.0
  0
ENDTAB
  0
TABLE
  2
LTYPE
  5
5
330
0
100
AcDbSymbolTable
 70
     2
  0
LTYPE
  5
12
330
5
100
AcDbSymbolTableRecord
100
AcDbLinetypeTableRecord
  2
BYBLOCK
 70
     0
  3

 72
    65
 73
     0
 40
0.0
  0
LTYPE
  5
13
330
5
100
AcDbSymbolTableRecord
100
AcDbLinetypeTableRecord
  2
BYLAYER
 70
     0
  3

 72
    65
 73
     0
 40
0.0
  0
LTYPE
  5
14
330
5
100
AcDbSymbolTableRecord
100
AcDbLinetypeTableRecord
  2
CONTINUOUS
 70
     0
  3
Solid line
 72
    65
 73
     0
 40
0.0
  0
LTYPE
  5
3F94
330
5
100
AcDbSymbolTableRecord
100
AcDbLinetypeTableRecord
  2
DASHED
 70
     0
  3
Dashed __ __ __ __ __ __ __ __ __ __ __ __ __ _
 72
    65
 73
     2
 40
19.05
 49
12.7
 74
     0
 49
-6.349999999999999
 74
     0
  0
ENDTAB
  0
TABLE
  2
LAYER
  5
2
330
0
100
AcDbSymbolTable
 70
     3
  0
LAYER
  5
E
330
2
100
AcDbSymbolTableRecord
100
AcDbLayerTableRecord
  2
0
 70
     0
 62
     7
  6
CONTINUOUS
370
    -3
390
3BB6
  0
LAYER
  5
3BC1
330
2
100
AcDbSymbolTableRecord
100
AcDbLayerTableRecord
  2
Defpoints
 70
     0
 62
     7
  6
CONTINUOUS
290
     0
370
    -3
390
3BB6
  0
LAYER
  5
4865
330
2
100
AcDbSymbolTableRecord
100
AcDbLayerTableRecord
  2
DIM
 70
     0
 62
    -3
  6
CONTINUOUS
370
    -3
390
3BB6
  0
ENDTAB
  0
TABLE
  2
STYLE
  5
3
330
0
100
AcDbSymbolTable
 70
     3
  0
STYLE
  5
F
330
3
100
AcDbSymbolTableRecord
100
AcDbTextStyleTableRecord
  2
STANDARD
 70
     0
 40
0.0
 41
1.0
 50
0.0
 71
     0
 42
2.5
  3
txt
  4

  0
STYLE
  5
36AA
330
3
100
AcDbSymbolTableRecord
100
AcDbTextStyleTableRecord
  2
STYLE1
 70
     0
 40
0.09375
 41
1.0
 50
0.0
 71
     0
 42
0.09375
  3
simplex.shx
  4

  0
STYLE
  5
3F93
330
3
100
AcDbSymbolTableRecord
100
AcDbTextStyleTableRecord
  2

 70
     1
 40
0.0
 41
1.0
 50
0.0
 71
     0
 42
0.09375
  3
ltypeshp.shx
  4

  0
ENDTAB
  0
TABLE
  2
VIEW
  5
6
330
0
100
AcDbSymbolTable
 70
     0
  0
ENDTAB
  0
TABLE
  2
UCS
  5
7
330
0
100
AcDbSymbolTable
 70
     0
  0
ENDTAB
  0
TABLE
  2
APPID
  5
9
330
0
100
AcDbSymbolTable
 70
     1
  0
APPID
  5
10
330
9
100
AcDbSymbolTableRecord
100
AcDbRegAppTableRecord
  2
ACAD
 70
     0
  0
ENDTAB
  0
TABLE
  2
DIMSTYLE
  5
A
330
0
100
AcDbSymbolTable
 70
     1
100
AcDbDimStyleTable
 71
     1
340
1D
  0
DIMSTYLE
105
1D
102
{ACAD_REACTORS
330
4769
330
483D
330
484B
102
}
330
A
100
AcDbSymbolTableRecord
100
AcDbDimStyleTableRecord
  2
STANDARD
 70
     0
 73
     0
 74
     0
140
2.0
340
F
  0
ENDTAB
  0
TABLE
  2
BLOCK_RECORD
  5
1
330
0
100
AcDbSymbolTable
 70
     4
  0
BLOCK_RECORD
  5
18
330
1
100
AcDbSymbolTableRecord
100
AcDbBlockTableRecord
  2
*MODEL_SPACE
340
3BBB
  0
BLOCK_RECORD
  5
464D
330
1
100
AcDbSymbolTableRecord
100
AcDbBlockTableRecord
  2
*Paper_Space
340
464E
  0
BLOCK_RECORD
  5
3B56
330
1
100
AcDbSymbolTableRecord
100
AcDbBlockTableRecord
  2
1097-7_E
340
0
  0
BLOCK_RECORD
  5
4794
330
1
100
AcDbSymbolTableRecord
100
AcDbBlockTableRecord
  2
*D1
340
0
  0
BLOCK_RECORD
  5
483E
330
1
100
AcDbSymbolTableRecord
100
AcDbBlockTableRecord
  2
*D2
340
0
  0
BLOCK_RECORD
  5
484C
330
1
100
AcDbSymbolTableRecord
100
AcDbBlockTableRecord
  2
*D3
340
0
  0
ENDTAB
  0
ENDSEC
  0
SECTION
  2
BLOCKS
  0
BLOCK
  5
19
330
18
100
AcDbEntity
  8
0
100
AcDbBlockBegin
  2
*MODEL_SPACE
 70
     0
 10
0.0
 20
0.0
 30
0.0
  3
*MODEL_SPACE
  1

  0
ENDBLK
  5
1A
330
18
100
AcDbEntity
  8
0
100
AcDbBlockEnd
  0
BLOCK
  5
464F
330
464D
100
AcDbEntity
 67
     1
  8
0
100
AcDbBlockBegin
  2
*Paper_Space
 70
     0
 10
0.0
 20
0.0
 30
0.0
  3
*Paper_Space
  1

  0
ENDBLK
  5
4650
330
464D
100
AcDbEntity
 67
     1
  8
0
100
AcDbBlockEnd
  0
BLOCK
  5
3B57
330
3B56
100
AcDbEntity
  8
0
100
AcDbBlockBegin
  2
1097-7_E
 70
     0
 10
0.0
 20
0.0
 30
0.0
  3
1097-7_E
  1

  0
LINE
  5
3B58
330
3B56
100
AcDbEntity
  8
0
100
AcDbLine
 10
3.5
 20
0.0000000000000053
 30
0.0
 11
3.499999999999998
 21
89.43749999999999
 31
0.0
  0
LINE
  5
3B59
330
3B56
100
AcDbEntity
  8
0
100
AcDbLine
 10
-3.5
 20
-0.0000000000000053
 30
0.0
 11
-3.5
 21
89.43749999999999
 31
0.0
  0
LINE
  5
3B5A
330
3B56
100
AcDbEntity
  8
0
100
AcDbLine
 10
-2.500000000000001
 20
14.125
 30
0.0
 11
-2.5
 21
82.62500000000001
 31
0.0
  0
LINE
  5
3B5B
330
3B56
100
AcDbEntity
  8
0
100
AcDbLine
 10
2.499999999999996
 20
14.12500000000001
 30
0.0
 11
2.500000000000001
 21
82.62500000000001
 31
0.0
  0
LINE
  5
3B5C
330
3B56
100
AcDbEntity
  8
0
100
AcDbLine
 10
1.499999999999998
 20
15.12500000000001
 30
0.0
 11
1.5
 21
81.62500000000001
 31
0.0
  0
LINE
  5
3B5D
330
3B56
100
AcDbEntity
  8
0
100
AcDbLine
 10
0.5
 20
15.125
 30
0.0
 11
0.5000000000000018
 21
81.62500000000001
 31
0.0
  0
LINE
  5
3B5E
330
3B56
100
AcDbEntity
  8
0
100
AcDbLine
 10
-0.5000000000000018
 20
15.125
 30
0.0
 11
-0.5
 21
81.62500000000001
 31
0.0
  0
LINE
  5
3B5F
330
3B56
100
AcDbEntity
  8
0
100
AcDbLine
 10
-1.500000000000001
 20
15.125
 30
0.0
 11
-1.5
 21
81.62500000000001
 31
0.0
  0
LINE
  5
3B60
330
3B56
100
AcDbEntity
  8
0
100
AcDbLine
 10
-3.5
 20
-0.0000000000000053
 30
0.0
 11
3.5
 21
0.0000000000000053
 31
0.0
  0
LINE
  5
3B61
330
3B56
100
AcDbEntity
  8
0
100
AcDbLine
 10
-2.937500000000005
 20
13.24999999999999
 30
0.0
 11
2.9375
 21
13.25
 31
0.0
  0
LINE
  5
3B62
330
3B56
100
AcDbEntity
  8
0
100
AcDbLine
 10
-2.500000000000001
 20
14.125
 30
0.0
 11
2.499999999999996
 21
14.12500000000001
 31
0.0
  0
LINE
  5
3B63
330
3B56
100
AcDbEntity
  8
0
100
AcDbLine
 10
-3.187500000000003
 20
12.99999999999999
 30
0.0
 11
3.1875
 21
13.00000000000001
 31
0.0
  0
LINE
  5
3B64
330
3B56
100
AcDbEntity
  8
0
100
AcDbLine
 10
-3.187500000000001
 20
-0.0000000000000053
 30
0.0
 11
-3.187500000000003
 21
12.99999999999999
 31
0.0
  0
ARC
  5
3B65
330
3B56
100
AcDbEntity
  8
0
100
AcDbCircle
 10
-3.778028086576522
 20
14.21713904328827
 30
0.0
 40
1.281345149979709
100
AcDbArc
 50
310.9934848747234
 51
355.8764127711199
  0
LINE
  5
3B66
330
3B56
100
AcDbEntity
  8
0
100
AcDbLine
 10
-2.937500000000005
 20
13.0
 30
0.0
 11
-2.937500000000005
 21
13.24999999999999
 31
0.0
  0
LINE
  5
3B67
330
3B56
100
AcDbEntity
  8
0
100
AcDbLine
 10
3.187500000000001
 20
0.0000000000000053
 30
0.0
 11
3.1875
 21
13.00000000000001
 31
0.0
  0
ARC
  5
3B68
330
3B56
100
AcDbEntity
  8
0
100
AcDbCircle
 10
3.778028086576519
 20
14.21713904328827
 30
0.0
 40
1.281345149979709
100
AcDbArc
 50
184.12358722888
 51
229.0065151252766
  0
LINE
  5
3B69
330
3B56
100
AcDbEntity
  8
0
100
AcDbLine
 10
2.937500000000001
 20
13.0
 30
0.0
 11
2.9375
 21
13.25
 31
0.0
  0
LINE
  5
3B6A
330
3B56
100
AcDbEntity
  8
0
100
AcDbLine
 10
-3.5
 20
89.43749999999999
 30
0.0
 11
3.499999999999998
 21
89.43749999999999
 31
0.0
  0
LINE
  5
3B6B
330
3B56
100
AcDbEntity
  8
0
100
AcDbLine
 10
-2.500000000000001
 20
83.68750000000002
 30
0.0
 11
2.499999999999998
 21
83.6875
 31
0.0
  0
LINE
  5
3B6C
330
3B56
100
AcDbEntity
  8
0
100
AcDbLine
 10
2.733133811154942
 20
82.81419568654792
 30
0.0
 11
-2.733133811154946
 21
82.8141956865479
 31
0.0
  0
LINE
  5
3B6D
330
3B56
100
AcDbEntity
  8
0
100
AcDbLine
 10
-3.062500000000001
 20
83.375
 30
0.0
 11
3.062499999999996
 21
83.375
 31
0.0
  0
LINE
  5
3B6E
330
3B56
100
AcDbEntity
  8
0
100
AcDbLine
 10
-2.75
 20
82.62500000000001
 30
0.0
 11
2.733133811154942
 21
82.62500000000001
 31
0.0
  0
LINE
  5
3B6F
330
3B56
100
AcDbEntity
  8
0
100
AcDbLine
 10
-3.500000000000001
 20
89.18750000000001
 30
0.0
 11
3.499999999999992
 21
89.18750000000001
 31
0.0
  0
LINE
  5
3B70
330
3B56
100
AcDbEntity
  8
0
100
AcDbLine
 10
-2.75
 20
87.8125
 30
0.0
 11
2.749999999999994
 21
87.8125
 31
0.0
  0
LINE
  5
3B71
330
3B56
100
AcDbEntity
  8
0
100
AcDbLine
 10
-2.75
 20
88.3125
 30
0.0
 11
2.749999999999994
 21
88.3125
 31
0.0
  0
ARC
  5
3B72
330
3B56
100
AcDbEntity
  8
0
100
AcDbCircle
 10
-2.75
 20
88.0625
 30
0.0
 40
0.25
100
AcDbArc
 50
90.0
 51
270.0
  0
ARC
  5
3B73
330
3B56
100
AcDbEntity
  8
0
100
AcDbCircle
 10
-2.501273046897312
 20
83.37542135397564
 30
0.0
 40
0.5612271112732353
100
AcDbArc
 50
180.0430161092873
 51
270.1299657044769
  0
LINE
  5
3B74
330
3B56
100
AcDbEntity
  8
0
100
AcDbLine
 10
-2.500000000000001
 20
83.6875
 30
0.0
 11
-2.500000000000001
 21
87.8125
 31
0.0
  0
ARC
  5
3B75
330
3B56
100
AcDbEntity
  8
0
100
AcDbCircle
 10
-2.500000000000001
 20
83.375
 30
0.0
 40
0.3125000000000071
100
AcDbArc
 50
90.0
 51
180.0
  0
ARC
  5
3B76
330
3B56
100
AcDbEntity
  8
0
100
AcDbCircle
 10
-2.733133811154946
 20
82.71959784327396
 30
0.0
 40
0.0945978432739558
100
AcDbArc
 50
90.0
 51
270.0
  0
POLYLINE
  5
3B77
330
3B56
100
AcDbEntity
  8
0
100
AcDb2dPolyline
 66
     1
 10
0.0
 20
0.0
 30
0.0
 70
     4
 75
     6
  0
VERTEX
  5
3B78
330
3B77
100
AcDbEntity
  8
0
100
AcDbVertex
100
AcDb2dVertex
 10
-2.749999999999998
 20
88.3125
 30
0.0
 70
    16
  0
VERTEX
  5
3B79
330
3B77
100
AcDbEntity
  8
0
100
AcDbVertex
100
AcDb2dVertex
 10
-2.749999999999998
 20
88.3125
 30
0.0
 70
     8
  0
VERTEX
  5
3B7A
330
3B77
100
AcDbEntity
  8
0
100
AcDbVertex
100
AcDb2dVertex
 10
-2.807897507381591
 20
88.3419806704442
 30
0.0
 70
     8
  0
VERTEX
  5
3B7B
330
3B77
100
AcDbEntity
  8
0
100
AcDbVertex
100
AcDb2dVertex
 10
-2.865894388711843
 20
88.37263457936595
 30
0.0
 70
     8
  0
VERTEX
  5
3B7C
330
3B77
100
AcDbEntity
  8
0
100
AcDbVertex
100
AcDb2dVertex
 10
-2.92367334149632
 20
88.40502979354431
 30
0.0
 70
     8
  0
VERTEX
  5
3B7D
330
3B77
100
AcDbEntity
  8
0
100
AcDbVertex
100
AcDb2dVertex
 10
-2.980917063240591
 20
88.43973437975842
 30
0.0
 70
     8
  0
VERTEX
  5
3B7E
330
3B77
100
AcDbEntity
  8
0
100
AcDbVertex
100
AcDb2dVertex
 10
-3.037308251450225
 20
88.47731640478732
 30
0.0
 70
     8
  0
VERTEX
  5
3B7F
330
3B77
100
AcDbEntity
  8
0
100
AcDbVertex
100
AcDb2dVertex
 10
-3.09252960363079
 20
88.5183439354102
 30
0.0
 70
     8
  0
VERTEX
  5
3B80
330
3B77
100
AcDbEntity
  8
0
100
AcDbVertex
100
AcDb2dVertex
 10
-3.146263817287856
 20
88.56338503840607
 30
0.0
 70
     8
  0
VERTEX
  5
3B81
330
3B77
100
AcDbEntity
  8
0
100
AcDbVertex
100
AcDb2dVertex
 10
-3.198193589926988
 20
88.61300778055399
 30
0.0
 70
     8
  0
VERTEX
  5
3B82
330
3B77
100
AcDbEntity
  8
0
100
AcDbVertex
100
AcDb2dVertex
 10
-3.247980924532152
 20
88.66767164124899
 30
0.0
 70
     8
  0
VERTEX
  5
3B83
330
3B77
100
AcDbEntity
  8
0
100
AcDbVertex
100
AcDb2dVertex
 10
-3.29520504600088
 20
88.72740175034918
 30
0.0
 70
     8
  0
VERTEX
  5
3B84
330
3B77
100
AcDbEntity
  8
0
100
AcDbVertex
100
AcDb2dVertex
 10
-3.339424484709098
 20
88.79211465032847
 30
0.0
 70
     8
  0
VERTEX
  5
3B85
330
3B77
100
AcDbEntity
  8
0
100
AcDbVertex
100
AcDb2dVertex
 10
-3.380197771032735
 20
88.86172688366084
 30
0.0
 70
     8
  0
VERTEX
  5
3B86
330
3B77
100
AcDbEntity
  8
0
100
AcDbVertex
100
AcDb2dVertex
 10
-3.417083435347716
 20
88.93615499282022
 30
0.0
 70
     8
  0
VERTEX
  5
3B87
330
3B77
100
AcDbEntity
  8
0
100
AcDbVertex
100
AcDb2dVertex
 10
-3.44964000802997
 20
89.01531552028059
 30
0.0
 70
     8
  0
VERTEX
  5
3B88
330
3B77
100
AcDbEntity
  8
0
100
AcDbVertex
100
AcDb2dVertex
 10
-3.477426019455421
 20
89.09912500851584
 30
0.0
 70
     8
  0
VERTEX
  5
3B89
330
3B77
100
AcDbEntity
  8
0
100
AcDbVertex
100
AcDb2dVertex
 10
-3.5
 20
89.18750000000001
 30
0.0
 70
     8
  0
VERTEX
  5
3B8A
330
3B77
100
AcDbEntity
  8
0
100
AcDbVertex
100
AcDb2dVertex
 10
-2.903978807757654
 20
88.39005575146257
 30
0.0
 70
    16
  0
VERTEX
  5
3B8B
330
3B77
100
AcDbEntity
  8
0
100
AcDbVertex
100
AcDb2dVertex
 10
-3.220825520725528
 20
88.55807758395435
 30
0.0
 70
    16
  0
VERTEX
  5
3B8C
330
3B77
100
AcDbEntity
  8
0
100
AcDbVertex
100
AcDb2dVertex
 10
-3.447144510499244
 20
88.9458202028447
 30
0.0
 70
    16
  0
VERTEX
  5
3B8D
330
3B77
100
AcDbEntity
  8
0
100
AcDbVertex
100
AcDb2dVertex
 10
-3.5
 20
89.18750000000001
 30
0.0
 70
    16
  0
SEQEND
  5
3B8E
330
3B77
100
AcDbEntity
  8
0
  0
LINE
  5
3B8F
330
3B56
100
AcDbEntity
  8
0
100
AcDbLine
 10
-3.500000000000001
 20
89.43749999999999
 30
0.0
 11
-3.500000000000001
 21
89.18750000000001
 31
0.0
  0
ARC
  5
3B90
330
3B56
100
AcDbEntity
  8
0
100
AcDbCircle
 10
2.749999999999994
 20
88.0625
 30
0.0
 40
0.25
100
AcDbArc
 50
270.0
 51
90.0
  0
LINE
  5
3B91
330
3B56
100
AcDbEntity
  8
0
100
AcDbLine
 10
2.5
 20
83.6875
 30
0.0
 11
2.499999999999998
 21
87.8125
 31
0.0
  0
ARC
  5
3B92
330
3B56
100
AcDbEntity
  8
0
100
AcDbCircle
 10
2.733133811154942
 20
82.71959784327396
 30
0.0
 40
0.0945978432739558
100
AcDbArc
 50
270.0
 51
90.0
  0
ARC
  5
3B93
330
3B56
100
AcDbEntity
  8
0
100
AcDbCircle
 10
2.501273046897308
 20
83.37542135397564
 30
0.0
 40
0.5612271112732353
100
AcDbArc
 50
269.8700342955231
 51
359.9569838907127
  0
ARC
  5
3B94
330
3B56
100
AcDbEntity
  8
0
100
AcDbCircle
 10
2.499999999999998
 20
83.375
 30
0.0
 40
0.3125000000000071
100
AcDbArc
 50
0.0
 51
90.0
  0
LINE
  5
3B95
330
3B56
100
AcDbEntity
  8
0
100
AcDbLine
 10
3.499999999999996
 20
89.43749999999999
 30
0.0
 11
3.499999999999992
 21
89.18750000000001
 31
0.0
  0
POLYLINE
  5
3B96
330
3B56
100
AcDbEntity
  8
0
100
AcDb2dPolyline
 66
     1
 10
0.0
 20
0.0
 30
0.0
 70
     4
 75
     6
  0
VERTEX
  5
3B97
330
3B96
100
AcDbEntity
  8
0
100
AcDbVertex
100
AcDb2dVertex
 10
2.749999999999994
 20
88.3125
 30
0.0
 70
    16
  0
VERTEX
  5
3B98
330
3B96
100
AcDbEntity
  8
0
100
AcDbVertex
100
AcDb2dVertex
 10
2.749999999999994
 20
88.3125
 30
0.0
 70
     8
  0
VERTEX
  5
3B99
330
3B96
100
AcDbEntity
  8
0
100
AcDbVertex
100
AcDb2dVertex
 10
2.807897507381587
 20
88.3419806704442
 30
0.0
 70
     8
  0
VERTEX
  5
3B9A
330
3B96
100
AcDbEntity
  8
0
100
AcDbVertex
100
AcDb2dVertex
 10
2.86589438871184
 20
88.37263457936595
 30
0.0
 70
     8
  0
VERTEX
  5
3B9B
330
3B96
100
AcDbEntity
  8
0
100
AcDbVertex
100
AcDb2dVertex
 10
2.923673341496316
 20
88.40502979354431
 30
0.0
 70
     8
  0
VERTEX
  5
3B9C
330
3B96
100
AcDbEntity
  8
0
100
AcDbVertex
100
AcDb2dVertex
 10
2.980917063240587
 20
88.43973437975842
 30
0.0
 70
     8
  0
VERTEX
  5
3B9D
330
3B96
100
AcDbEntity
  8
0
100
AcDbVertex
100
AcDb2dVertex
 10
3.037308251450221
 20
88.47731640478732
 30
0.0
 70
     8
  0
VERTEX
  5
3B9E
330
3B96
100
AcDbEntity
  8
0
100
AcDbVertex
100
AcDb2dVertex
 10
3.092529603630786
 20
88.5183439354102
 30
0.0
 70
     8
  0
VERTEX
  5
3B9F
330
3B96
100
AcDbEntity
  8
0
100
AcDbVertex
100
AcDb2dVertex
 10
3.146263817287852
 20
88.56338503840607
 30
0.0
 70
     8
  0
VERTEX
  5
3BA0
330
3B96
100
AcDbEntity
  8
0
100
AcDbVertex
100
AcDb2dVertex
 10
3.198193589926985
 20
88.61300778055399
 30
0.0
 70
     8
  0
VERTEX
  5
3BA1
330
3B96
100
AcDbEntity
  8
0
100
AcDbVertex
100
AcDb2dVertex
 10
3.247980924532148
 20
88.66767164124899
 30
0.0
 70
     8
  0
VERTEX
  5
3BA2
330
3B96
100
AcDbEntity
  8
0
100
AcDbVertex
100
AcDb2dVertex
 10
3.295205046000877
 20
88.72740175034918
 30
0.0
 70
     8
  0
VERTEX
  5
3BA3
330
3B96
100
AcDbEntity
  8
0
100
AcDbVertex
100
AcDb2dVertex
 10
3.339424484709095
 20
88.79211465032847
 30
0.0
 70
     8
  0
VERTEX
  5
3BA4
330
3B96
100
AcDbEntity
  8
0
100
AcDbVertex
100
AcDb2dVertex
 10
3.380197771032731
 20
88.86172688366084
 30
0.0
 70
     8
  0
VERTEX
  5
3BA5
330
3B96
100
AcDbEntity
  8
0
100
AcDbVertex
100
AcDb2dVertex
 10
3.417083435347713
 20
88.93615499282022
 30
0.0
 70
     8
  0
VERTEX
  5
3BA6
330
3B96
100
AcDbEntity
  8
0
100
AcDbVertex
100
AcDb2dVertex
 10
3.449640008029966
 20
89.01531552028059
 30
0.0
 70
     8
  0
VERTEX
  5
3BA7
330
3B96
100
AcDbEntity
  8
0
100
AcDbVertex
100
AcDb2dVertex
 10
3.477426019455418
 20
89.09912500851584
 30
0.0
 70
     8
  0
VERTEX
  5
3BA8
330
3B96
100
AcDbEntity
  8
0
100
AcDbVertex
100
AcDb2dVertex
 10
3.499999999999996
 20
89.18750000000001
 30
0.0
 70
     8
  0
VERTEX
  5
3BA9
330
3B96
100
AcDbEntity
  8
0
100
AcDbVertex
100
AcDb2dVertex
 10
2.903978807757651
 20
88.39005575146257
 30
0.0
 70
    16
  0
VERTEX
  5
3BAA
330
3B96
100
AcDbEntity
  8
0
100
AcDbVertex
100
AcDb2dVertex
 10
3.220825520725524
 20
88.55807758395435
 30
0.0
 70
    16
  0
VERTEX
  5
3BAB
330
3B96
100
AcDbEntity
  8
0
100
AcDbVertex
100
AcDb2dVertex
 10
3.44714451049924
 20
88.9458202028447
 30
0.0
 70
    16
  0
VERTEX
  5
3BAC
330
3B96
100
AcDbEntity
  8
0
100
AcDbVertex
100
AcDb2dVertex
 10
3.499999999999996
 20
89.18750000000001
 30
0.0
 70
    16
  0
SEQEND
  5
3BAD
330
3B96
100
AcDbEntity
  8
0
  0
ENDBLK
  5
3BAE
330
3B56
100
AcDbEntity
  8
0
100
AcDbBlockEnd
  0
BLOCK
  5
479F
330
4794
100
AcDbEntity
  8
0
100
AcDbBlockBegin
  2
*D1
 70
     1
 10
0.0
 20
0.0
 30
0.0
  3
*D1
  1

  0
LINE
  5
4884
330
4794
100
AcDbEntity
  8
DIM
 62
     0
370
    -2
100
AcDbLine
 10
20.37393551724681
 20
63.16668589527753
 30
0.0
 11
20.37393551724681
 21
50.09960967750327
 31
0.0
  0
LINE
  5
4885
330
4794
100
AcDbEntity
  8
DIM
 62
     0
370
    -2
100
AcDbLine
 10
83.12391693700758
 20
64.67709012304974
 30
0.0
 11
83.12391693700758
 21
50.09960967750327
 31
0.0
  0
LINE
  5
4886
330
4794
100
AcDbEntity
  8
DIM
 62
     0
370
    -2
100
AcDbLine
 10
20.55393551724681
 20
50.27960967750327
 30
0.0
 11
45.99225956046051
 21
50.27960967750327
 31
0.0
  0
LINE
  5
4887
330
4794
100
AcDbEntity
  8
DIM
 62
     0
370
    -2
100
AcDbLine
 10
82.94391693700758
 20
50.27960967750327
 30
0.0
 11
57.50559289379385
 21
50.27960967750327
 31
0.0
  0
SOLID
  5
4888
330
4794
100
AcDbEntity
  8
DIM
 62
     0
100
AcDbTrace
 10
20.55393551724681
 20
50.30960967750327
 30
0.0
 11
20.55393551724681
 21
50.24960967750327
 31
0.0
 12
20.37393551724681
 22
50.27960967750327
 32
0.0
 13
20.37393551724681
 23
50.27960967750327
 33
0.0
  0
SOLID
  5
4889
330
4794
100
AcDbEntity
  8
DIM
 62
     0
100
AcDbTrace
 10
82.94391693700758
 20
50.30960967750327
 30
0.0
 11
82.94391693700758
 21
50.24960967750327
 31
0.0
 12
83.12391693700758
 22
50.27960967750327
 32
0.0
 13
83.12391693700758
 23
50.27960967750327
 33
0.0
  0
MTEXT
  5
488A
330
4794
100
AcDbEntity
  8
DIM
 62
     0
100
AcDbMText
 10
51.74892622712718
 20
50.27960967750327
 30
0.0
 40
2.0
 41
0.0
 71
     5
 72
     1
  1
\A1;62.7500
 73
     1
 44
1.0
  0
POINT
  5
488B
330
4794
100
AcDbEntity
  8
Defpoints
 62
     0
100
AcDbPoint
 10
20.37393551724681
 20
63.22918589527753
 30
0.0
  0
POINT
  5
488C
330
4794
100
AcDbEntity
  8
Defpoints
 62
     0
100
AcDbPoint
 10
83.12391693700758
 20
64.73959012304973
 30
0.0
  0
POINT
  5
488D
330
4794
100
AcDbEntity
  8
Defpoints
 62
     0
100
AcDbPoint
 10
83.12391693700758
 20
50.27960967750327
 30
0.0
  0
ENDBLK
  5
47A0
330
4794
100
AcDbEntity
  8
0
100
AcDbBlockEnd
  0
BLOCK
  5
4849
330
483E
100
AcDbEntity
  8
0
100
AcDbBlockBegin
  2
*D2
 70
     1
 10
0.0
 20
0.0
 30
0.0
  3
*D2
  1

  0
LINE
  5
4898
330
483E
100
AcDbEntity
  8
DIM
 62
     0
370
    -2
100
AcDbLine
 10
92.14216821821608
 20
68.57478283000642
 30
0.0
 11
92.14216821821608
 21
75.101404834193
 31
0.0
  0
LINE
  5
4899
330
483E
100
AcDbEntity
  8
DIM
 62
     0
370
    -2
100
AcDbLine
 10
91.14216821821608
 20
68.57478283000642
 30
0.0
 11
91.14216821821608
 21
75.101404834193
 31
0.0
  0
LINE
  5
489A
330
483E
100
AcDbEntity
  8
DIM
 62
     0
370
    -2
100
AcDbLine
 10
91.96216821821607
 20
74.92140483419301
 30
0.0
 11
91.32216821821609
 21
74.92140483419301
 31
0.0
  0
LINE
  5
489B
330
483E
100
AcDbEntity
  8
DIM
 62
     0
370
    -2
100
AcDbLine
 10
91.14216821821608
 20
74.92140483419301
 30
0.0
 11
90.96216821821609
 21
74.92140483419301
 31
0.0
  0
SOLID
  5
489C
330
483E
100
AcDbEntity
  8
DIM
 62
     0
100
AcDbTrace
 10
91.96216821821607
 20
74.95140483419302
 30
0.0
 11
91.96216821821607
 21
74.89140483419301
 31
0.0
 12
92.14216821821608
 22
74.92140483419301
 32
0.0
 13
92.14216821821608
 23
74.92140483419301
 33
0.0
  0
SOLID
  5
489D
330
483E
100
AcDbEntity
  8
DIM
 62
     0
100
AcDbTrace
 10
91.32216821821609
 20
74.95140483419302
 30
0.0
 11
91.32216821821609
 21
74.89140483419301
 31
0.0
 12
91.14216821821608
 22
74.92140483419301
 32
0.0
 13
91.14216821821608
 23
74.92140483419301
 33
0.0
  0
MTEXT
  5
489E
330
483E
100
AcDbEntity
  8
DIM
 62
     0
100
AcDbMText
 10
86.87216821821609
 20
74.92140483419301
 30
0.0
 40
2.0
 41
0.0
 71
     5
 72
     1
  1
\A1;1.0000
 73
     1
 44
1.0
  0
POINT
  5
489F
330
483E
100
AcDbEntity
  8
Defpoints
 62
     0
100
AcDbPoint
 10
92.14216821821608
 20
68.51228283000643
 30
0.0
  0
POINT
  5
48A0
330
483E
100
AcDbEntity
  8
Defpoints
 62
     0
100
AcDbPoint
 10
91.14216821821608
 20
68.51228283000643
 30
0.0
  0
POINT
  5
48A1
330
483E
100
AcDbEntity
  8
Defpoints
 62
     0
100
AcDbPoint
 10
91.14216821821608
 20
74.92140483419301
 30
0.0
  0
ENDBLK
  5
484A
330
483E
100
AcDbEntity
  8
0
100
AcDbBlockEnd
  0
BLOCK
  5
4857
330
484C
100
AcDbEntity
  8
0
100
AcDbBlockBegin
  2
*D3
 70
     1
 10
0.0
 20
0.0
 30
0.0
  3
*D3
  1

  0
LINE
  5
488E
330
484C
100
AcDbEntity
  8
DIM
 62
     0
370
    -2
100
AcDbLine
 10
92.20466821821608
 20
68.51228283000643
 30
0.0
 11
97.29598688108112
 21
68.51228283000641
 31
0.0
  0
LINE
  5
488F
330
484C
100
AcDbEntity
  8
DIM
 62
     0
370
    -2
100
AcDbLine
 10
92.20466821821608
 20
60.51228283000643
 30
0.0
 11
97.29598688108112
 21
60.51228283000643
 31
0.0
  0
LINE
  5
4890
330
484C
100
AcDbEntity
  8
DIM
 62
     0
370
    -2
100
AcDbLine
 10
97.11598688108111
 20
68.3322828300064
 30
0.0
 11
97.11598688108111
 21
60.69228283000643
 31
0.0
  0
LINE
  5
4891
330
484C
100
AcDbEntity
  8
DIM
 62
     0
370
    -2
100
AcDbLine
 10
97.11598688108111
 20
60.51228283000643
 30
0.0
 11
97.11598688108111
 21
60.33228283000642
 31
0.0
  0
SOLID
  5
4892
330
484C
100
AcDbEntity
  8
DIM
 62
     0
100
AcDbTrace
 10
97.08598688108111
 20
68.3322828300064
 30
0.0
 11
97.14598688108111
 21
68.3322828300064
 31
0.0
 12
97.11598688108111
 22
68.51228283000641
 32
0.0
 13
97.11598688108111
 23
68.51228283000641
 33
0.0
  0
SOLID
  5
4893
330
484C
100
AcDbEntity
  8
DIM
 62
     0
100
AcDbTrace
 10
97.08598688108111
 20
60.69228283000643
 30
0.0
 11
97.14598688108111
 21
60.69228283000643
 31
0.0
 12
97.11598688108111
 22
60.51228283000643
 32
0.0
 13
97.11598688108111
 23
60.51228283000643
 33
0.0
  0
MTEXT
  5
4894
330
484C
100
AcDbEntity
  8
DIM
 62
     0
100
AcDbMText
 10
97.11598688108111
 20
55.90894949667311
 30
0.0
 40
2.0
 41
0.0
 71
     5
 72
     1
  1
\A1;8.0000
 11
0.0000000000000001
 21
1.0
 31
0.0
 73
     1
 44
1.0
  0
POINT
  5
4895
330
484C
100
AcDbEntity
  8
Defpoints
 62
     0
100
AcDbPoint
 10
92.14216821821608
 20
68.51228283000643
 30
0.0
  0
POINT
  5
4896
330
484C
100
AcDbEntity
  8
Defpoints
 62
     0
100
AcDbPoint
 10
92.14216821821608
 20
60.51228283000643
 30
0.0
  0
POINT
  5
4897
330
484C
100
AcDbEntity
  8
Defpoints
 62
     0
100
AcDbPoint
 10
97.11598688108111
 20
60.51228283000643
 30
0.0
  0
ENDBLK
  5
4858
330
484C
100
AcDbEntity
  8
0
100
AcDbBlockEnd
  0
ENDSEC
  0
SECTION
  2
ENTITIES
  0
DIMENSION
  5
4769
330
18
100
AcDbEntity
  8
DIM
100
AcDbDimension
  2
*D1
 10
83.12391693700758
 20
50.27960967750327
 30
0.0
 11
51.74892622712718
 21
50.27960967750327
 31
0.0
 70
    32
 71
     5
 42
62.74998141976077
  3
STANDARD
100
AcDbAlignedDimension
 13
20.37393551724681
 23
63.22918589527753
 33
0.0
 14
83.12391693700758
 24
64.73959012304973
 34
0.0
100
AcDbRotatedDimension
  0
LINE
  5
476B
330
18
100
AcDbEntity
  8
0
100
AcDbLine
 10
20.37298422073567
 20
67.51228283000642
 30
0.0
 11
83.12295733239082
 21
67.51228283000642
 31
0.0
  0
LWPOLYLINE
  5
476E
330
18
100
AcDbEntity
  8
0
100
AcDbPolyline
 90
      505
 70
     0
 43
0.0
 10
67.73393054840548
 20
63.42045725869973
 10
67.7442001278499
 20
63.33934573688179
 10
67.74994445170387
 20
63.26862262943769
 10
67.75166510204164
 20
63.207043089658
 10
67.74986366093739
 20
63.15336227083334
 10
67.74504171046526
 20
63.10633532625431
 10
67.73770083269948
 20
63.06471740921152
 10
67.72834260971425
 20
63.02726367299555
 10
67.71746862358369
 20
62.99272927089699
 10
67.70552533727239
 20
62.96010620747608
 10
67.69273873730594
 20
62.92933389237145
 10
67.6792796911003
 20
62.90058858649132
 10
67.6653190660714
 20
62.87404655074396
 10
67.65102772963522
 20
62.84988404603756
 10
67.63657654920769
 20
62.82827733328041
 10
67.62213639220476
 20
62.80940267338071
 10
67.60787812604241
 20
62.79343632724672
 10
67.59395332669194
 20
62.78048662178521
 10
67.58043640434644
 20
62.77039014789711
 10
67.56738247775448
 20
62.76291556248185
 10
67.55484666566449
 20
62.7578315224389
 10
67.54288408682493
 20
62.75490668466772
 10
67.53154985998432
 20
62.75390970606775
 10
67.52089910389116
 20
62.75460924353843
 10
67.51098693729395
 20
62.75677395397926
 10
67.50184826878755
 20
62.76021105147309
 10
67.49343716635252
 20
62.7648819788365
 10
67.48568748781568
 20
62.77078673606948
 10
67.47853309100399
 20
62.77792532317203
 10
67.47190783374435
 20
62.78629774014418
 10
67.4657455738637
 20
62.79590398698589
 10
67.45998016918886
 20
62.80674406369719
 10
67.45454547754683
 20
62.81881797027805
 10
67.44934044825988
 20
62.83208898565717
 10
67.44412439663195
 20
62.84637350447792
 10
67.43862172946245
 20
62.86145120031233
 10
67.43255685355075
 20
62.87710174673244
 10
67.42565417569622
 20
62.89310481731028
 10
67.41763810269819
 20
62.90924008561794
 10
67.40823304135611
 20
62.92528722522741
 10
67.3971633984693
 20
62.94102590971077
 10
67.38421421129792
 20
62.95623948458551
 10
67.36941303894534
 20
62.97072598315104
 10
67.35284807097563
 20
62.98428711065227
 10
67.33460749695294
 20
62.99672457233405
 10
67.31477950644142
 20
63.0078400734413
 10
67.29345228900519
 20
63.01743531921889
 10
67.27071403420834
 20
63.02531201491169
 10
67.24665293161504
 20
63.0312718657646
 10
67.2212616320046
 20
63.03503028242962
 10
67.19415063101731
 20
63.03595749718728
 10
67.16483488550865
 20
63.03333744772524
 10
67.13282935233412
 20
63.02645407173115
 10
67.09764898834915
 20
63.01459130689266
 10
67.0588087504093
 20
62.99703309089742
 10
67.01582359537002
 20
62.97306336143308
 10
66.96820848008681
 20
62.9419660561873
 10
66.91556655097929
 20
62.90328583307292
 10
66.85785371272354
 20
62.85761023090349
 10
66.79511405955984
 20
62.80578750871773
 10
66.72739168572842
 20
62.74866592555439
 10
66.65473068546948
 20
62.68709374045221
 10
66.57717515302329
 20
62.62191921244992
 10
66.49476918263008
 20
62.55399060058626
 10
66.40755686853009
 20
62.48415616389995
 10
66.31578991857306
 20
62.41324763669958
 10
66.22055049504668
 20
62.34203065437309
 10
66.12312837384812
 20
62.27125432757826
 10
66.02481333087458
 20
62.20166776697285
 10
65.92689514202326
 20
62.13402008321464
 10
65.83066358319134
 20
62.06906038696142
 10
65.737408430276
 20
62.00753778887095
 10
65.64841945917445
 20
61.95020139960103
 10
65.5644814451567
 20
61.89750813055775
 10
65.48435916098412
 20
61.84874609614064
 10
65.40631237879089
 20
61.80291121149756
 10
65.32860087071117
 20
61.75899939177634
 10
65.24948440887921
 20
61.71600655212484
 10
65.16722276542916
 20
61.67292860769093
 10
65.08007571249521
 20
61.62876147362244
 10
64.98630302221158
 20
61.58250106506724
 10
64.88453257802483
 20
61.5334020944921
 10
64.77486470863119
 20
61.48175446363938
 10
64.65776785403924
 20
61.42810687157039
 10
64.53371045425758
 20
61.37300801734645
 10
64.40316094929483
 20
61.31700660002883
 10
64.26658777915955
 20
61.26065131867884
 10
64.12445938386039
 20
61.20449087235778
 10
63.97724420340594
 20
61.14907396012693
 10
63.82549874798686
 20
61.0948904381646
 10
63.67013180852209
 20
61.04219479111701
 10
63.51214024611269
 20
60.99118266074739
 10
63.35252092185967
 20
60.94204968881897
 10
63.19227069686403
 20
60.89499151709496
 10
63.03238643222687
 20
60.85020378733858
 10
62.87386498904915
 20
60.80788214131307
 10
62.71770322843193
 20
60.76822222078165
 10
62.56459719181812
 20
60.73136376676308
 10
62.41403964201828
 20
60.69722291729843
 10
62.26522252218493
 20
60.66565990968431
 10
62.11733777547044
 20
60.6365349812173
 10
61.96957734502734
 20
60.60970836919402
 10
61.82113317400806
 20
60.58504031091107
 10
61.67119720556507
 20
60.56239104366507
 10
61.51896138285084
 20
60.54162080475261
 10
61.36405793635407
 20
60.52260536060382
 10
61.20788024590851
 20
60.50528259418292
 10
61.0522619786841
 20
60.48960591758763
 10
60.89903680185078
 20
60.47552874291572
 10
60.75003838257857
 20
60.46300448226486
 10
60.6071003880374
 20
60.45198654773286
 10
60.47205648539729
 20
60.44242835141741
 10
60.34674034182813
 20
60.43428330541625
 10
60.23204996304662
 20
60.42753084943242
 10
60.12514070895605
 20
60.42225453359021
 10
60.02223227800637
 20
60.41856393561916
 10
59.91954436864757
 20
60.41656863324887
 10
59.81329667932967
 20
60.4163782042089
 10
59.69970890850259
 20
60.41810222622882
 10
59.57500075461634
 20
60.42185027703821
 10
59.43539191612091
 20
60.42773193436663
 10
59.27814658799349
 20
60.43585151187975
 10
59.10470695132029
 20
60.44629226698747
 10
58.91755968371474
 20
60.45913219303584
 10
58.71919146279027
 20
60.47444928337083
 10
58.51208896616034
 20
60.49232153133847
 10
58.29873887143837
 20
60.51282693028477
 10
58.08162785623779
 20
60.53604347355573
 10
57.86324259817202
 20
60.56204915449736
 10
57.64567511674807
 20
60.59090925849517
 10
57.42943879904692
 20
60.62263823909271
 10
57.21465237404301
 20
60.657237841873
 10
57.00143457071098
 20
60.6947098124191
 10
56.78990411802522
 20
60.73505589631405
 10
56.58017974496031
 20
60.77827783914089
 10
56.37238018049075
 20
60.82437738648266
 10
56.16662415359104
 20
60.87335628392239
 10
55.96306691421077
 20
60.9252009804199
 10
55.7620097961997
 20
60.97983673844202
 10
55.56379065438269
 20
61.03717352383232
 10
55.36874734358457
 20
61.09712130243439
 10
55.17721771863019
 20
61.15959004009181
 10
54.98953963434438
 20
61.22448970264817
 10
54.80605094555194
 20
61.29173025594706
 10
54.62708950707777
 20
61.36122166583206
 10
54.45300443530329
 20
61.43281012382719
 10
54.2841898928362
 20
61.50608672417829
 10
54.1210513038409
 20
61.58057878681164
 10
53.96399409248164
 20
61.65581363165348
 10
53.81342368292281
 20
61.73131857863012
 10
53.66974549932876
 20
61.8066209476678
 10
53.53336496586376
 20
61.88124805869279
 10
53.4046875066922
 20
61.95472723163137
 10
53.28390081803592
 20
62.02670583217468
 10
53.17032168434693
 20
62.09731140907331
 10
53.0630491621348
 20
62.16679155684271
 10
52.96118230790908
 20
62.23539386999836
 10
52.86382017817934
 20
62.30336594305569
 10
52.77006182945508
 20
62.37095537053019
 10
52.67900631824591
 20
62.43840974693729
 10
52.58975270106136
 20
62.50597666679246
 10
52.50168533322806
 20
62.57368614187139
 10
52.41532976534129
 20
62.64069785299064
 10
52.33149684681332
 20
62.70595389822705
 10
52.25099742705643
 20
62.76839637565739
 10
52.174642355483
 20
62.8269673833585
 10
52.1032424815053
 20
62.88060901940717
 10
52.03760865453566
 20
62.92826338188021
 10
51.97855172398641
 20
62.96887256885442
 10
51.9265934863296
 20
63.00168254375419
 10
51.88109952627641
 20
63.02715473139425
 10
51.84114637559772
 20
63.04605442193687
 10
51.80581056606449
 20
63.05914690554436
 10
51.7741686294476
 20
63.06719747237901
 10
51.74529709751794
 20
63.0709714126031
 10
51.71827250204649
 20
63.07123401637894
 10
51.69217137480409
 20
63.06875057386882
 10
51.66627946723008
 20
63.06418684790301
 10
51.64071940943713
 20
63.05781049198372
 10
51.61582305120643
 20
63.04978963228109
 10
51.591922242319
 20
63.04029239496534
 10
51.569348832556
 20
63.02948690620661
 10
51.54843467169846
 20
63.0175412921751
 10
51.52951160952756
 20
63.00462367904098
 10
51.51291149582433
 20
62.99090219297442
 10
51.49887185590471
 20
62.97653518462412
 10
51.48725291722378
 20
62.96164190255298
 10
51.47782058277154
 20
62.94633181980241
 10
51.47034075553781
 20
62.93071440941382
 10
51.46457933851257
 20
62.91489914442863
 10
51.46030223468574
 20
62.89899549788824
 10
51.45727534704718
 20
62.88311294283409
 10
51.45526457858689
 20
62.86736095230757
 10
51.45405049723319
 20
62.85184991439598
 10
51.45347233066836
 20
62.83669387736993
 10
51.45338397151307
 20
62.82200780454594
 10
51.45363931238808
 20
62.80790665924047
 10
51.45409224591405
 20
62.79450540477006
 10
51.45459666471175
 20
62.78191900445118
 10
51.45500646140185
 20
62.7702624216003
 10
51.45517552860505
 20
62.75965061953396
 10
51.4549800953063
 20
62.75016127993069
 10
51.4543857359475
 20
62.74172295791727
 10
51.45338036133474
 20
62.7342269269825
 10
51.45195188227412
 20
62.72756446061525
 10
51.45008820957176
 20
62.72162683230433
 10
51.44777725403375
 20
62.71630531553856
 10
51.44500692646621
 20
62.71149118380679
 10
51.44176513767527
 20
62.70707571059785
 10
51.43803576900659
 20
62.70299647880332
 10
51.43378658396442
 20
62.69937630892596
 10
51.42898131659251
 20
62.69638433087127
 10
51.42358370093466
 20
62.69418967454475
 10
51.4175574710347
 20
62.69296146985192
 10
51.41086636093639
 20
62.69286884669829
 10
51.40347410468354
 20
62.69408093498936
 10
51.39534443631996
 20
62.69676686463065
 10
51.38646325250849
 20
62.70106757704286
 10
51.37690510038847
 20
62.70701125970738
 10
51.36676668971823
 20
62.71459791162083
 10
51.35614473025615
 20
62.7238275317798
 10
51.3451359317606
 20
62.73470011918089
 10
51.33383700398994
 20
62.7472156728207
 10
51.32234465670252
 20
62.76137419169584
 10
51.31075559965676
 20
62.77717567480288
 10
51.29916654261099
 20
62.79461206767585
 10
51.28767419532358
 20
62.81364310199839
 10
51.27637526755293
 20
62.8342204559915
 10
51.26536646905738
 20
62.85629580787626
 10
51.25474450959529
 20
62.87982083587367
 10
51.24460609892506
 20
62.90474721820477
 10
51.23504794680505
 20
62.93102663309062
 10
51.22616676299359
 20
62.95861075875224
 10
51.21806530157512
 20
62.98743516564933
 10
51.21087049393818
 20
63.01737099319611
 10
51.20471531579735
 20
63.0482732730455
 10
51.19973274286715
 20
63.07999703685045
 10
51.19605575086222
 20
63.11239731626383
 10
51.19381731549708
 20
63.14532914293853
 10
51.19315041248634
 20
63.17864754852749
 10
51.19418801754454
 20
63.2122075646836
 10
51.1973492064719
 20
63.24616422587146
 10
51.20419745541117
 20
63.28187257780241
 10
51.21658234059072
 20
63.32098766899948
 10
51.23635343823889
 20
63.36516454798569
 10
51.26536032458408
 20
63.41605826328409
 10
51.30545257585465
 20
63.4753238634177
 10
51.35847976827895
 20
63.54461639690953
 10
51.42629147808539
 20
63.62559091228265
 10
51.50979637527567
 20
63.71901855760934
 10
51.60613950494499
 20
63.82213487915898
 10
51.71152500596188
 20
63.93129152275022
 10
51.82215701719488
 20
64.04284013420175
 10
51.93423967751254
 20
64.1531323593322
 10
52.04397712578339
 20
64.25851984396023
 10
52.14757350087596
 20
64.35535423390451
 10
52.24123294165882
 20
64.43998717498368
 10
52.32207027123572
 20
64.50967032094976
 10
52.39084304965151
 20
64.56525535728824
 10
52.44921952118624
 20
64.60849397741791
 10
52.49886793011991
 20
64.6411378747576
 10
52.54145652073261
 20
64.66493874272616
 10
52.57865353730436
 20
64.6816482747424
 10
52.61212722411525
 20
64.69301816422515
 10
52.64354582544532
 20
64.70080010459321
 10
52.67428745620921
 20
64.70646390753896
 10
52.70456971385992
 20
64.71035185784872
 10
52.73432006648501
 20
64.71252435858239
 10
52.76346598217213
 20
64.71304181279984
 10
52.79193492900883
 20
64.71196462356092
 10
52.81965437508275
 20
64.70935319392551
 10
52.84655178848142
 20
64.70526792695349
 10
52.87255463729248
 20
64.69976922570474
 10
52.89759038951319
 20
64.69293762764815
 10
52.92158651277963
 20
64.68493420788878
 10
52.94447047463756
 20
64.67594017594071
 10
52.96616974263277
 20
64.66613674131801
 10
52.98661178431099
 20
64.6557051135348
 10
53.00572406721805
 20
64.6448265021051
 10
53.02343405889964
 20
64.63368211654304
 10
53.03966922690162
 20
64.6224531663627
 10
53.05436912742171
 20
64.61129468636312
 10
53.0675216712661
 20
64.6002570124833
 10
53.07912685789297
 20
64.58936430594715
 10
53.08918468676044
 20
64.57864072797867
 10
53.0976951573267
 20
64.56811043980177
 10
53.10465826904996
 20
64.5577976026404
 10
53.11007402138837
 20
64.54772637771853
 10
53.11394241380011
 20
64.53792092626009
 10
53.11628560863336
 20
64.52840138261837
 10
53.11721441979634
 20
64.51917177366405
 10
53.11686182408728
 20
64.51023209939712
 10
53.11536079830435
 20
64.50158235981756
 10
53.11284431924583
 20
64.49322255492539
 10
53.10944536370995
 20
64.48515268472061
 10
53.10529690849489
 20
64.47737274920321
 10
53.10053193039887
 20
64.46988274837321
 10
53.09523908062075
 20
64.46268066879524
 10
53.0893297079617
 20
64.4557564432927
 10
53.08267083562346
 20
64.44909799125359
 10
53.07512948680784
 20
64.44269323206595
 10
53.06657268471663
 20
64.43653008511778
 10
53.05686745255156
 20
64.43059646979714
 10
53.04588081351446
 20
64.42488030549204
 10
53.03347979080709
 20
64.41936951159049
 10
53.01960394026605
 20
64.41403187312726
 10
53.00448294826734
 20
64.40875463772389
 10
52.98841903382181
 20
64.40340491864867
 10
52.97171441594021
 20
64.39784982916989
 10
52.95467131363345
 20
64.39195648255583
 10
52.93759194591229
 20
64.38559199207476
 10
52.92077853178756
 20
64.37862347099498
 10
52.90453329027012
 20
64.37091803258477
 10
52.88911814441235
 20
64.36235688410395
 10
52.874633833433
 20
64.35287760877861
 10
52.86114080059243
 20
64.34243188382637
 10
52.84869948915096
 20
64.33097138646489
 10
52.83737034236895
 20
64.3184477939118
 10
52.82721380350674
 20
64.30481278338473
 10
52.81829031582464
 20
64.29001803210131
 10
52.81066032258302
 20
64.2740152172792
 10
52.80440441497625
 20
64.25674796239468
 10
52.79968377593498
 20
64.23812767595883
 10
52.79667973632385
 20
64.21805771274138
 10
52.79557362700754
 20
64.19644142751207
 10
52.79654677885072
 20
64.17318217504065
 10
52.79978052271805
 20
64.14818331009684
 10
52.80545618947422
 20
64.12134818745037
 10
52.81375510998387
 20
64.09258016187101
 10
52.82496136928639
 20
64.06174231936614
 10
52.83977006911996
 20
64.0285366708939
 10
52.85897906539753
 20
63.99262495865005
 10
52.883386214032
 20
63.95366892483037
 10
52.91378937093626
 20
63.91133031163065
 10
52.95098639202323
 20
63.86527086124669
 10
52.99577513320583
 20
63.81515231587425
 10
53.04895345039696
 20
63.76063641770912
 10
53.11108548412467
 20
63.70154195718146
 10
53.18180051337765
 20
63.63831591765904
 10
53.26049410175972
 20
63.57156233074395
 10
53.34656181287472
 20
63.5018852280383
 10
53.43939921032646
 20
63.42988864114424
 10
53.53840185771879
 20
63.35617660166386
 10
53.64296531865551
 20
63.28135314119931
 10
53.75248515674047
 20
63.2060222913527
 10
53.86634487636459
 20
63.13076468018135
 10
53.98387974506703
 20
63.05606732156333
 10
54.1044129711741
 20
62.98239382583196
 10
54.22726776301214
 20
62.91020780332053
 10
54.35176732890736
 20
62.83997286436232
 10
54.47723487718611
 20
62.77215261929061
 10
54.60299361617464
 20
62.70721067843871
 10
54.72836675419928
 20
62.6456106521399
 10
54.85283970331472
 20
62.58766307975115
 10
54.97654669048955
 20
62.53306621672408
 10
55.0997841464207
 20
62.48136524753403
 10
55.2228485018052
 20
62.43210535665627
 10
55.34603618734
 20
62.38483172856615
 10
55.46964363372214
 20
62.33908954773898
 10
55.5939672716485
 20
62.29442399865004
 10
55.71930353181617
 20
62.25038026577466
 10
55.84570324063792
 20
62.20666213976963
 10
55.97223480738975
 20
62.16360783601759
 10
56.09772103706356
 20
62.12171417608267
 10
56.22098473465117
 20
62.08147798152901
 10
56.34084870514443
 20
62.04339607392073
 10
56.4561357535352
 20
62.00796527482197
 10
56.5656686848153
 20
61.97568240579682
 10
56.66827030397662
 20
61.94704428840945
 10
56.76308724913366
 20
61.92243492930021
 10
56.85056149089157
 20
61.9017870754145
 10
56.93145883297816
 20
61.88492065877397
 10
57.00654507912124
 20
61.87165561140023
 10
57.07658603304859
 20
61.86181186531493
 10
57.14234749848809
 20
61.85520935253971
 10
57.20459527916748
 20
61.8516680050962
 10
57.2640951788146
 20
61.85100775500602
 10
57.32144031989265
 20
61.85308604838333
 10
57.37653309980637
 20
61.85791038771212
 10
57.42910323469589
 20
61.86552578956892
 10
57.47888044070133
 20
61.87597727053022
 10
57.52559443396284
 20
61.88930984717253
 10
57.56897493062053
 20
61.90556853607237
 10
57.60875164681454
 20
61.92479835380623
 10
57.64465429868498
 20
61.94704431695064
 10
57.67647641948478
 20
61.97230642505961
 10
57.70426681091791
 20
62.00040460959737
 10
57.72813809180114
 20
62.03111378500563
 10
57.74820288095123
 20
62.06420886572612
 10
57.76457379718501
 20
62.09946476620056
 10
57.77736345931923
 20
62.13665640087071
 10
57.78668448617063
 20
62.17555868417825
 10
57.792649496556
 20
62.21594653056495
 10
57.79538612479117
 20
62.2577149001259
 10
57.79508206718837
 20
62.30123893556971
 10
57.79194003555879
 20
62.34701382525835
 10
57.78616274171373
 20
62.39553475755382
 10
57.7779528974644
 20
62.44729692081811
 10
57.76751321462212
 20
62.50279550341318
 10
57.75504640499807
 20
62.56252569370101
 10
57.74075518040354
 20
62.62698268004361
 10
57.72486102245258
 20
62.69647407950437
 10
57.70766049197042
 20
62.77055722395253
 10
57.68946891958509
 20
62.84860187395866
 10
57.67060163592459
 20
62.92997779009342
 10
57.65137397161698
 20
63.01405473292743
 10
57.63210125729024
 20
63.10020246303133
 10
57.61309882357243
 20
63.18779074097571
 10
57.59468200109159
 20
63.27618932733126
 10
57.5771189492127
 20
63.3648450099625
 10
57.56048914224874
 20
63.45351268590984
 10
57.54482488324971
 20
63.54202427950763
 10
57.53015847526548
 20
63.63021171509018
 10
57.51652222134609
 20
63.71790691699183
 10
57.50394842454146
 20
63.80494180954693
 10
57.49246938790157
 20
63.8911483170898
 10
57.48211741447637
 20
63.97635836395477
 10
57.47290286142659
 20
64.06042443560932
 10
57.46474830235626
 20
64.1432812620534
 10
57.45755436498019
 20
64.22488413442014
 10
57.45122167701313
 20
64.30518834384256
 10
57.4456508661699
 20
64.3841491814538
 10
57.44074256016529
 20
64.46172193838697
 10
57.4363973867141
 20
64.53786190577512
 10
57.4325159735311
 20
64.61252437475136
 10
57.42894997378503
 20
64.68570669594718
 10
57.42535514246018
 20
64.75757445798774
 10
57.4213382599948
 20
64.82833530899654
 10
57.41650610682711
 20
64.89819689709711
 10
57.41046546339536
 20
64.96736687041302
 10
57.40282311013777
 20
65.03605287706776
 10
57.39318582749258
 20
65.10446256518489
 10
57.381160395898
 20
65.17280358288793
 10
57.36637857075278
 20
65.2412547608505
 10
57.3485720072975
 20
65.30987965994647
 10
57.32749733573328
 20
65.37871302359983
 10
57.30291118626118
 20
65.44778959523451
 10
57.27457018908232
 20
65.51714411827449
 10
57.24223097439779
 20
65.58681133614371
 10
57.20565017240868
 20
65.65682599226616
 10
57.16458441331609
 20
65.72722283006581
 10
57.11887145058737
 20
65.79792078021551
 10
57.06867353075521
 20
65.86837552238387
 10
57.01423402361843
 20
65.93792692348843
 10
56.95579629897598
 20
66.00591485044671
 10
56.8936037266268
 20
66.07167917017623
 10
56.82789967636971
 20
66.1345597495945
 10
56.75892751800367
 20
66.19389645561907
 10
56.68693062132761
 20
66.24902915516746
 10
56.61223927395153
 20
66.29944537652071
 10
56.53553143472996
 20
66.34522329341404
 10
56.45757198032857
 20
66.38658874094615
 10
56.37912578741302
 20
66.42376755421572
 10
56.30095773264894
 20
66.45698556832155
 10
56.22383269270203
 20
66.4864686183623
 10
56.14851554423794
 20
66.5124425394367
 10
56.0757711639223
 20
66.53513316664348
 10
56.00617610639134
 20
66.55477212570774
 10
55.93955363816341
 20
66.57161420486025
 10
55.87553870372739
 20
66.58591998295816
 10
55.81376624757221
 20
66.59795003885857
 10
55.75387121418676
 20
66.60796495141868
 10
55.69548854805997
 20
66.61622529949561
 10
55.6382531936807
 20
66.62299166194653
 10
55.58180009553787
 20
66.62852461762856
 10
55.52593223946875
 20
66.63306447815068
 10
55.47112477670388
 20
66.63677048612926
 10
55.41802089982226
 20
66.63978161693248
 10
55.36726380140279
 20
66.64223684592849
 10
55.31949667402446
 20
66.64427514848552
 10
55.27536271026614
 20
66.6460354999717
 10
55.23550510270684
 20
66.64765687575524
 10
55.20056704392546
 20
66.64927825120432
 10
55.1710034043812
 20
66.65104728768245
 10
55.14651576605419
 20
66.6531463905346
 10
55.12661738880475
 20
66.65576665110101
 10
55.11082153249327
 20
66.65909916072205
 10
55.09864145698013
 20
66.66333501073793
 10
55.0895904221257
 20
66.66866529248901
 10
55.08318168779028
 20
66.67528109731552
 10
55.07892851383424
 20
66.68337351655776
 10
55.0764919205143
 20
66.69314811812208
 10
55.07612396967234
 20
66.70486837617879
 10
55.07822448354655
 20
66.71881224146426
 10
55.08319328437515
 20
66.73525766471484
 10
55.09143019439637
 20
66.75448259666691
 10
55.10333503584838
 20
66.77676498805681
 10
55.11930763096944
 20
66.80238278962093
 10
55.13974780199772
 20
66.83161395209561
 10
55.16498149092813
 20
66.86460903210184
 10
55.19503911878235
 20
66.90100900979913
 10
55.22987722633878
 20
66.94032747123163
 10
55.26945235437578
 20
66.98207800244346
 10
55.31372104367168
 20
67.02577418947874
 10
55.36263983500489
 20
67.07092961838163
 10
55.4161652691538
 20
67.11705787519623
 10
55.47425388689674
 20
67.1636725459667
 10
55.53681876997111
 20
67.21036828572984
 10
55.60359916395015
 20
67.25706402549296
 10
55.67429085536613
 20
67.30375976525609
 10
55.74858963075133
 20
67.35045550501921
 10
55.826191276638
 20
67.39715124478234
 10
55.90679157955841
 20
67.44384698454545
 10
55.9900863260448
 20
67.49054272430858
 10
56.01335631569756
 20
67.50322417004653
  0
LINE
  5
476F
330
18
100
AcDbEntity
  8
0
100
AcDbLine
 10
81.94855033046136
 20
63.34222877707007
 30
0.0
 11
83.10708310392355
 21
64.49933554459566
 31
0.0
  0
LWPOLYLINE
  5
4770
330
18
100
AcDbEntity
  8
0
100
AcDbPolyline
 90
       25
 70
     0
 43
0.0
 10
57.22333039966993
 20
67.51287257310335
 10
57.32247000636269
 20
67.47701278389991
 10
57.41060969389368
 20
67.44187536204542
 10
57.48881802628442
 20
67.4075796550492
 10
57.55816356755648
 20
67.3742450104206
 10
57.61971488173143
 20
67.34199077566898
 10
57.67454053283081
 20
67.3109362983037
 10
57.72370908487621
 20
67.28120092583409
 10
57.76828910188916
 20
67.25290400576952
 10
57.80926271979942
 20
67.22607380458135
 10
57.84726636216924
 20
67.20037426458898
 10
57.88285002446908
 20
67.17537824707385
 10
57.91656370216944
 20
67.15065861331739
 10
57.94895739074069
 20
67.12578822460105
 10
57.98058108565333
 20
67.10033994220623
 10
58.01198478237778
 20
67.0738866274144
 10
58.04371847638449
 20
67.04600114150695
 10
58.0762881631812
 20
67.01633486405722
 10
58.11002383842469
 20
66.98485324780614
 10
58.14521149780902
 20
66.95160026378649
 10
58.18213713702827
 20
66.91661988303109
 10
58.22108675177649
 20
66.87995607657272
 10
58.26234633774774
 20
66.8416528154442
 10
58.30620189063608
 20
66.80175407067834
 10
58.32156875893701
 20
66.78812560456837
  0
LWPOLYLINE
  5
4771
330
18
100
AcDbEntity
  8
0
100
AcDbPolyline
 90
       25
 70
     0
 43
0.0
 10
58.32156875893701
 20
66.78812560456837
 10
58.35466537434784
 20
66.81061403614612
 10
58.42859784314859
 20
66.86167811221631
 10
58.50528972463785
 20
66.91525476459651
 10
58.58287731884137
 20
66.9698866961773
 10
58.65949692578496
 20
67.02411660984916
 10
58.73328484549443
 20
67.0764872085026
 10
58.80237737799552
 20
67.12554119502816
 10
58.86491082331406
 20
67.16982127231631
 10
58.91951176325294
 20
67.20822975660976
 10
58.96676790672371
 20
67.24110741755949
 10
59.00775724441491
 20
67.2691546381687
 10
59.04355776701518
 20
67.29307180144052
 10
59.07524746521315
 20
67.31355929037815
 10
59.10390432969745
 20
67.33131748798472
 10
59.13060635115669
 20
67.34704677726341
 10
59.15643152027946
 20
67.36144754121738
 10
59.182663682962
 20
67.3752390068017
 10
59.21141010593064
 20
67.38921577677904
 10
59.24498391111942
 20
67.40419129786397
 10
59.28569822046232
 20
67.4209790167711
 10
59.33586615589328
 20
67.440392380215
 10
59.39780083934628
 20
67.46324483491024
 10
59.47381539275531
 20
67.49034982757141
 10
59.51079550600553
 20
67.50322417004653
  0
ARC
  5
4772
330
18
100
AcDbEntity
  8
0
100
AcDbCircle
 10
66.37025491305594
 20
64.31237442183079
 30
0.0
 40
0.327085602209658
100
AcDbArc
 50
54.17075525918982
 51
102.0673499923455
  0
LWPOLYLINE
  5
4773
330
18
100
AcDbEntity
  8
0
100
AcDbPolyline
 90
        3
 70
     0
 43
0.0
 10
73.63549889326579
 20
61.0781399878512
 10
73.67935444615418
 20
61.11803873261707
 10
73.69472131445506
 20
61.13166719872705
  0
ARC
  5
4774
330
18
100
AcDbEntity
  8
0
100
AcDbCircle
 10
75.41227644414144
 20
61.2830406637368
 30
0.0
 40
1.01484218452794
100
AcDbArc
 50
238.6273911569441
 51
307.0315651434517
  0
LWPOLYLINE
  5
4775
330
18
100
AcDbEntity
  8
0
100
AcDbPolyline
 90
       25
 70
     0
 43
0.0
 10
73.69472131445506
 20
61.13166719872705
 10
73.72781792986593
 20
61.10917876714928
 10
73.80175039866668
 20
61.05811469107911
 10
73.87844228015594
 20
61.00453803869889
 10
73.95602987435946
 20
60.94990610711811
 10
74.03264948130305
 20
60.89567619344625
 10
74.10643740101251
 20
60.84330559479281
 10
74.1755299335136
 20
60.79425160826724
 10
74.23806337883213
 20
60.74997153097909
 10
74.29266431877102
 20
60.71156304668566
 10
74.3399204622418
 20
60.67868538573592
 10
74.38090979993297
 20
60.65063816512672
 10
74.41671032253326
 20
60.62672100185489
 10
74.44840002073124
 20
60.60623351291726
 10
74.47705688521553
 20
60.58847531531069
 10
74.5037589066748
 20
60.57274602603198
 10
74.52958407579759
 20
60.55834526207801
 10
74.55581623848008
 20
60.5445537964937
 10
74.58456266144871
 20
60.53057702651637
 10
74.61813646663753
 20
60.51560150543143
 10
74.65885077598038
 20
60.4988137865243
 10
74.70901871141137
 20
60.47940042308042
 10
74.77095339486436
 20
60.45654796838517
 10
74.84696794827337
 20
60.429442975724
 10
74.8839480615236
 20
60.41656863324887
  0
ARC
  5
4776
330
18
100
AcDbEntity
  8
0
100
AcDbCircle
 10
72.00781237276335
 20
62.45793726750901
 30
0.0
 40
2.133823784190373
100
AcDbArc
 50
253.0720400834187
 51
319.7119036606982
  0
LWPOLYLINE
  5
4777
330
18
100
AcDbEntity
  8
0
100
AcDbPolyline
 90
      385
 70
     0
 43
0.0
 10
66.57539777494327
 20
64.57756402622535
 10
66.52687000097029
 20
64.60009331766582
 10
66.48335059521061
 20
64.61685681887982
 10
66.44407828548779
 20
64.62849517322585
 10
66.40829179962534
 20
64.6356490240624
 10
66.37522986544674
 20
64.63895901474796
 10
66.34413121077551
 20
64.63906578864104
 10
66.31423456343521
 20
64.63660998910014
 10
66.28477865124931
 20
64.63223225948375
 10
66.25516692182334
 20
64.6264931627863
 10
66.22546170189072
 20
64.61963294054594
 10
66.19589003796704
 20
64.61181175393676
 10
66.16667897656771
 20
64.60318976413288
 10
66.1380555642082
 20
64.59392713230835
 10
66.11024684740403
 20
64.58418401963729
 10
66.08347987267068
 20
64.57412058729378
 10
66.05798168652359
 20
64.56389699645192
 10
66.03394149439239
 20
64.55365561246971
 10
66.01139713736293
 20
64.54346761744085
 10
65.99034861543525
 20
64.53338639764294
 10
65.97079592860933
 20
64.52346533935358
 10
65.95273907688516
 20
64.51375782885039
 10
65.9361780602628
 20
64.50431725241097
 10
65.92111287874219
 20
64.49519699631292
 10
65.90754353232334
 20
64.48645044683388
 10
65.8954655691032
 20
64.47811764368203
 10
65.88485672956629
 20
64.47018524028798
 10
65.87569030229414
 20
64.4626265435129
 10
65.86793957586824
 20
64.45541486021801
 10
65.86157783887009
 20
64.4485234972645
 10
65.85657837988117
 20
64.44192576151357
 10
65.85291448748299
 20
64.43559495982642
 10
65.850559450257
 20
64.42950439906423
 10
65.8495043643068
 20
64.42360959043935
 10
65.84981155582397
 20
64.41779486256876
 10
65.85156115852226
 20
64.41192674842056
 10
65.85483330611535
 20
64.40587178096286
 10
65.85970813231696
 20
64.39949649316379
 10
65.86626577084072
 20
64.39266741799144
 10
65.87458635540039
 20
64.38525108841395
 10
65.88475001970964
 20
64.37711403739941
 10
65.89675676358784
 20
64.36816283801437
 10
65.91028605127724
 20
64.35846422371901
 10
65.92493721312563
 20
64.34812496807196
 10
65.94030957948091
 20
64.33725184463182
 10
65.95600248069101
 20
64.32595162695722
 10
65.97161524710372
 20
64.31433108860677
 10
65.986747209067
 20
64.30249700313911
 10
66.00099769692866
 20
64.29055614411282
 10
66.01404617493094
 20
64.27858414270104
 10
66.02589264289318
 20
64.266532060535
 10
66.03661723452908
 20
64.2543198168604
 10
66.04630008355238
 20
64.24186733092295
 10
66.05502132367674
 20
64.22909452196839
 10
66.06286108861583
 20
64.21592130924243
 10
66.0698995120834
 20
64.20226761199081
 10
66.07621672779311
 20
64.18805334945921
 10
66.08187506211724
 20
64.17322068562168
 10
66.08686561206233
 20
64.1578007633654
 10
66.09116166729359
 20
64.14184697030584
 10
66.0947365174761
 20
64.12541269405847
 10
66.09756345227502
 20
64.10855132223876
 10
66.0996157613555
 20
64.0913162424622
 10
66.10086673438271
 20
64.07376084234425
 10
66.10128966102172
 20
64.0559385095004
 10
66.10064859194429
 20
64.03772467505766
 10
66.0978706218483
 20
64.01828294418912
 10
66.09167360643822
 20
63.99659896557946
 10
66.08077540141852
 20
63.9716583879133
 10
66.06389386249365
 20
63.94244685987531
 10
66.03974684536805
 20
63.90795003015011
 10
66.00705220574617
 20
63.86715354742236
 10
65.96452779933253
 20
63.81904306037672
 10
65.91126544051667
 20
63.76298682386931
 10
65.84785277842877
 20
63.69988351744225
 10
65.77525142088413
 20
63.6310144268091
 10
65.69442297569799
 20
63.55766083768349
 10
65.60632905068565
 20
63.48110403577901
 10
65.51193125366243
 20
63.40262530680921
 10
65.41219119244357
 20
63.32350593648774
 10
65.30807047484438
 20
63.24502721052816
 10
65.20046393031449
 20
63.16826576473808
 10
65.08999927484095
 20
63.09347963530108
 10
64.97723744604498
 20
63.02072220849481
 10
64.86273938154801
 20
62.95004687059684
 10
64.74706601897134
 20
62.88150700788478
 10
64.63077829593633
 20
62.81515600663627
 10
64.5144371500643
 20
62.75104725312889
 10
64.39860351897658
 20
62.68923413364024
 10
64.28370478374386
 20
62.6297566879343
 10
64.16963409923386
 20
62.57260156972037
 10
64.0561510637637
 20
62.51774208619412
 10
63.94301527565048
 20
62.46515154455121
 10
63.8299863332113
 20
62.41480325198731
 10
63.71682383476325
 20
62.36667051569806
 10
63.60328737862336
 20
62.32072664287915
 10
63.4891365631088
 20
62.27694494072625
 10
63.37417995719965
 20
62.23527647170668
 10
63.25842201252805
 20
62.1955833193747
 10
63.14191615138923
 20
62.1577053225562
 10
63.02471579607837
 20
62.12148232007706
 10
62.90687436889065
 20
62.08675415076323
 10
62.78844529212125
 20
62.05336065344059
 10
62.66948198806538
 20
62.02114166693506
 10
62.55003787901824
 20
61.98993703007255
 10
62.43025097325294
 20
61.95964886656144
 10
62.31059762295474
 20
61.93042843963986
 10
62.19163876628675
 20
61.90248929742849
 10
62.07393534141213
 20
61.87604498804795
 10
61.9580482864941
 20
61.85130905961885
 10
61.84453853969573
 20
61.82849506026184
 10
61.73396703918026
 20
61.80781653809757
 10
61.62689472311082
 20
61.78948704124664
 10
61.52370890597212
 20
61.77368007745258
 10
61.42410240753498
 20
61.76040899295028
 10
61.32759442389174
 20
61.74964709359756
 10
61.23370415113475
 20
61.74136768525222
 10
61.14195078535641
 20
61.73554407377205
 10
61.05185352264903
 20
61.73214956501484
 10
60.96293155910501
 20
61.73115746483841
 10
60.87470409081668
 20
61.73254107910051
 10
60.78681051471786
 20
61.73631820294833
 10
60.69937103110817
 20
61.7426845886864
 10
60.61262604112872
 20
61.75188047790863
 10
60.52681594592054
 20
61.76414611220891
 10
60.44218114662477
 20
61.77972173318116
 10
60.35896204438248
 20
61.79884758241929
 10
60.27739904033476
 20
61.82176390151718
 10
60.19773253562267
 20
61.84871093206875
 10
60.12014950909212
 20
61.87980434607021
 10
60.04462325040826
 20
61.91466153712712
 10
59.97107362694102
 20
61.9527753292473
 10
59.89942050606039
 20
61.99363854643865
 10
59.8295837551363
 20
62.036744012709
 10
59.76148324153872
 20
62.08158455206621
 10
59.6950388326376
 20
62.12765298851813
 10
59.63017039580289
 20
62.17444214607263
 10
59.56684676870636
 20
62.22156496942301
 10
59.5052326702269
 20
62.26911488600446
 10
59.44554178954535
 20
62.31730544393762
 10
59.38798781584242
 20
62.36635019134308
 10
59.33278443829883
 20
62.41646267634152
 10
59.28014534609542
 20
62.46785644705354
 10
59.23028422841288
 20
62.5207450515998
 10
59.18341477443198
 20
62.57534203810092
 10
59.13967499170348
 20
62.63187875021489
 10
59.09890016125809
 20
62.69065771374912
 10
59.06084988249658
 20
62.75199925004841
 10
59.02528375481971
 20
62.81622368045754
 10
58.99196137762814
 20
62.88365132632127
 10
58.96064235032269
 20
62.95460250898442
 10
58.93108627230407
 20
63.02939754979174
 10
58.90305274297304
 20
63.10835677008802
 10
58.87635923583829
 20
63.1916492282586
 10
58.8510547208404
 20
63.27883893085095
 10
58.82724604202792
 20
63.36933862145315
 10
58.80504004344943
 20
63.46256104365322
 10
58.78454356915344
 20
63.5579189410392
 10
58.76586346318855
 20
63.65482505719916
 10
58.74910656960325
 20
63.75269213572112
 10
58.73437973244614
 20
63.85093292019314
 10
58.72181650745518
 20
63.94904913255898
 10
58.711657297126
 20
64.04689840818533
 10
58.70416921564371
 20
64.14442736079454
 10
58.69961937719333
 20
64.24158260410904
 10
58.69827489595995
 20
64.33831075185121
 10
58.70040288612859
 20
64.43455841774343
 10
58.70627046188438
 20
64.53027221550811
 10
58.71614473741235
 20
64.62539875886763
 10
58.73031063414869
 20
64.71990690588248
 10
58.74912430253409
 20
64.81385449196544
 10
58.77295970026031
 20
64.90732159686739
 10
58.80219078501916
 20
65.00038830033921
 10
58.83719151450244
 20
65.09313468213179
 10
58.87833584640191
 20
65.185640821996
 10
58.92599773840942
 20
65.27798679968272
 10
58.9805511482167
 20
65.37025269494282
 10
59.04205840174455
 20
65.46229169345034
 10
59.10933529782951
 20
65.55304940457194
 10
59.18088600353712
 20
65.64124454359741
 10
59.25521468593294
 20
65.72559582581658
 10
59.33082551208244
 20
65.80482196651923
 10
59.4062226490512
 20
65.8776416809952
 10
59.47991026390472
 20
65.94277368453425
 10
59.5503925237086
 20
65.99893669242624
 10
59.61650748672445
 20
66.04521423014915
 10
59.67842877599863
 20
66.08214906393363
 10
59.73666390577367
 20
66.1106487701986
 10
59.79172039029202
 20
66.13162092536287
 10
59.84410574379624
 20
66.14597310584537
 10
59.89432748052878
 20
66.15461288806492
 10
59.94289311473218
 20
66.15844784844042
 10
59.99031016064895
 20
66.15838556339074
 10
60.03695022959872
 20
66.15522919638815
 10
60.08264132121003
 20
66.14936425911858
 10
60.12707553218858
 20
66.14107185032139
 10
60.16994495924006
 20
66.13063306873595
 10
60.21094169907012
 20
66.11832901310155
 10
60.24975784838448
 20
66.1044407821576
 10
60.28608550388886
 20
66.08924947464342
 10
60.31961676228889
 20
66.07303618929835
 10
60.35012488527712
 20
66.0560772762114
 10
60.37770779449326
 20
66.03863009087018
 10
60.40254457656384
 20
66.02094724011195
 10
60.42481431811544
 20
66.00328133077397
 10
60.44469610577457
 20
65.98588496969348
 10
60.46236902616778
 20
65.96901076370776
 10
60.47801216592159
 20
65.95291131965403
 10
60.49180461166259
 20
65.9378392443696
 10
60.50391823914259
 20
65.92398446742373
 10
60.51449608061446
 20
65.91128620931403
 10
60.52367395745635
 20
65.89962101327012
 10
60.53158769104651
 20
65.88886542252163
 10
60.53837310276308
 20
65.87889598029822
 10
60.54416601398422
 20
65.86958922982947
 10
60.54910224608813
 20
65.86082171434506
 10
60.55331762045298
 20
65.85246997707457
 10
60.55690703930977
 20
65.84442301735456
 10
60.55980172830072
 20
65.83661965894902
 10
60.56189199392094
 20
65.82901118172884
 10
60.5630681426655
 20
65.82154886556492
 10
60.56322048102944
 20
65.81418399032815
 10
60.56223931550786
 20
65.80686783588942
 10
60.56001495259582
 20
65.79955168211964
 10
60.55643769878839
 20
65.79218680888965
 10
60.55139989197197
 20
65.78469201592858
 10
60.54480199559812
 20
65.77685618239825
 10
60.53654650450973
 20
65.76843570731859
 10
60.5265359135497
 20
65.75918698970965
 10
60.51467271756095
 20
65.74886642859138
 10
60.50085941138638
 20
65.73723042298381
 10
60.48499848986879
 20
65.72403537190691
 10
60.46699244785119
 20
65.70903767438068
 10
60.44683519143051
 20
65.69208913974764
 10
60.42488627172023
 20
65.67342321864035
 10
60.40159665108783
 20
65.6533687720139
 10
60.37741729190088
 20
65.63225466082343
 10
60.35279915652694
 20
65.61040974602398
 10
60.3281932073335
 20
65.5881628885707
 10
60.30405040668814
 20
65.56584294941862
 10
60.28082171695833
 20
65.54377878952291
 10
60.25889309716394
 20
65.52220182952464
 10
60.23839049293362
 20
65.50095372880914
 10
60.21937484654831
 20
65.47977870644773
 10
60.20190710028892
 20
65.45842098151175
 10
60.18604819643645
 20
65.43662477307252
 10
60.17185907727181
 20
65.41413430020139
 10
60.1594006850759
 20
65.3906937819697
 10
60.14873396212971
 20
65.36604743744874
 10
60.1398914112359
 20
65.34002880616957
 10
60.13279177728416
 20
65.31282870950187
 10
60.12732536568591
 20
65.28472728927505
 10
60.12338248185253
 20
65.25600468731846
 10
60.12085343119548
 20
65.22694104546154
 10
60.1196285191262
 20
65.19781650553364
 10
60.11959805105608
 20
65.16891120936417
 10
60.12065233239653
 20
65.14050529878251
 10
60.1227466725389
 20
65.11275508480213
 10
60.12609639679407
 20
65.08532155517286
 10
60.13098183445285
 20
65.0577418668286
 10
60.13768331480603
 20
65.02955317670324
 10
60.14648116714438
 20
65.00029264173074
 10
60.15765572075874
 20
64.96949741884494
 10
60.17148730493985
 20
64.93670466497978
 10
60.18825624897856
 20
64.90145153706918
 10
60.20809865491825
 20
64.86347210322382
 10
60.23057371581272
 20
64.82328807626164
 10
60.25509639746839
 20
64.78161808017748
 10
60.28108166569167
 20
64.73918073896602
 10
60.307944486289
 20
64.69669467662206
 10
60.33509982506672
 20
64.65487851714034
 10
60.36196264783135
 20
64.61445088451565
 10
60.38794792038921
 20
64.57613040274273
 10
60.41260061605505
 20
64.54040833460066
 10
60.43598573817662
 20
64.5068664980057
 10
60.45829829760993
 20
64.4748593496585
 10
60.47973330521107
 20
64.44374134625963
 10
60.50048577183602
 20
64.41286694450972
 10
60.52075070834083
 20
64.38159060110933
 10
60.54072312558158
 20
64.34926677275908
 10
60.56059803441424
 20
64.31524991615958
 10
60.58050747346752
 20
64.27908124900806
 10
60.60033159246057
 20
64.24104903298816
 10
60.61988756888514
 20
64.20162829078016
 10
60.63899258023309
 20
64.16129404506439
 10
60.65746380399616
 20
64.12052131852111
 10
60.67511841766611
 20
64.07978513383063
 10
60.6917735987348
 20
64.0395605136732
 10
60.70724652469392
 20
64.00032248072912
 10
60.72139703162058
 20
63.96249124718505
 10
60.73425558993282
 20
63.92626778325301
 10
60.74589532863387
 20
63.89179824865141
 10
60.756389376727
 20
63.85922880309861
 10
60.7658108632156
 20
63.82870560631301
 10
60.77423291710288
 20
63.80037481801301
 10
60.78172866739214
 20
63.77438259791699
 10
60.78837124308665
 20
63.75087510574336
 10
60.79425002413955
 20
63.72993151115839
 10
60.79951939430321
 20
63.71136302361996
 10
60.80434998827987
 20
63.69491386253391
 10
60.80891244077172
 20
63.68032824730603
 10
60.81337738648102
 20
63.66735039734211
 10
60.81791546010993
 20
63.65572453204794
 10
60.82269729636067
 20
63.64519487082936
 10
60.8278935299355
 20
63.63550563309212
 10
60.8336524505935
 20
63.62645787839269
 10
60.84003296832126
 20
63.61808002688996
 10
60.84707164816223
 20
63.61045733889351
 10
60.85480505515988
 20
63.6036750747129
 10
60.8632697543577
 20
63.59781849465767
 10
60.87250231079915
 20
63.59297285903739
 10
60.88253928952769
 20
63.5892234281616
 10
60.89341725558678
 20
63.58665546233986
 10
60.90519918174564
 20
63.5853724920277
 10
60.91805367167641
 20
63.58555112826451
 10
60.93217573677689
 20
63.58738625223566
 10
60.94776038844502
 20
63.59107274512652
 10
60.9650026380786
 20
63.59680548812246
 10
60.98409749707554
 20
63.60477936240883
 10
61.00523997683366
 20
63.615189249171
 10
61.02862508875086
 20
63.62823002959434
 10
61.05437877755278
 20
63.64404177442632
 10
61.0823507212763
 20
63.66254531266276
 10
61.11232153128606
 20
63.68360666286161
 10
61.14407181894677
 20
63.7070918435808
 10
61.17738219562305
 20
63.73286687337828
 10
61.21203327267962
 20
63.76079777081196
 10
61.24780566148111
 20
63.79075055443979
 10
61.28447997339222
 20
63.8225912428197
 10
61.321849008306
 20
63.85621630493873
 10
61.35975432022934
 20
63.89164401150029
 10
61.39804965169742
 20
63.92892308363688
 10
61.43658874524554
 20
63.96810224248103
 10
61.47522534340895
 20
64.00923020916522
 10
61.51381318872289
 20
64.05235570482196
 10
61.55220602372261
 20
64.0975274505838
 10
61.59025759094338
 20
64.14479416758322
 10
61.62781553865623
 20
64.19414773646763
 10
61.66470313807533
 20
64.24535267594406
 10
61.70073756615064
 20
64.29811666423451
 10
61.73573599983214
 20
64.35214737956089
 10
61.76951561606975
 20
64.40715250014517
 10
61.80189359181349
 20
64.4628397042093
 10
61.83268710401327
 20
64.51891666997521
 10
61.86171332961905
 20
64.57509107566488
 10
61.88880772774135
 20
64.63119240010176
 10
61.91387888613268
 20
64.68753732451522
 10
61.93685367470611
 20
64.74456433073621
 10
61.95765896337474
 20
64.80271190059561
 10
61.97622162205161
 20
64.86241851592433
 10
61.99246852064976
 20
64.92412265855328
 10
62.00632652908227
 20
64.98826281031337
 10
62.01772251726222
 20
65.0552774530355
 10
62.02658741797558
 20
65.12542642785419
 10
62.03286841549996
 20
65.19825501311849
 10
62.03651675698591
 20
65.27312984648109
 10
62.03748368958396
 20
65.34941756559459
 10
62.03572046044466
 20
65.4264848081117
 10
62.03117831671848
 20
65.50369821168505
 10
62.02380850555605
 20
65.58042441396733
 10
62.01356227410782
 20
65.6560300526112
 10
62.00035267060837
 20
65.73007823266421
 10
61.98393994762816
 20
65.80291792875356
 10
61.96404615882165
 20
65.87509458290131
 10
61.94039335784334
 20
65.94715363712954
 10
61.91270359834766
 20
66.01964053346037
 10
61.8806989339891
 20
66.09310071391584
 10
61.84410141842214
 20
66.16807962051808
 10
61.8026331053012
 20
66.24512269528913
 10
61.75617170450866
 20
66.32453877930212
 10
61.70521755083806
 20
66.40569030983431
 10
61.65042663531085
 20
66.48770312321406
 10
61.59245494894849
 20
66.56970305576962
 10
61.53195848277242
 20
66.65081594382934
 10
61.46959322780404
 20
66.73016762372151
 10
61.40601517506478
 20
66.80688393177442
 10
61.34188031557612
 20
66.88009070431643
 10
61.27702209990416
 20
66.94957285400992
 10
61.20798381679373
 20
67.01775159885389
 10
61.13048621453437
 20
67.08770723318138
 10
61.04025004141561
 20
67.16252005132547
 10
60.93299604572697
 20
67.24527034761926
 10
60.80444497575799
 20
67.33903841639584
 10
60.65031757979814
 20
67.44690455198824
 10
60.56745227124118
 20
67.50322417004653
  0
LWPOLYLINE
  5
4778
330
18
100
AcDbEntity
  8
0
100
AcDbPolyline
 90
      505
 70
     0
 43
0.0
 10
83.10708310392357
 20
64.49933554459566
 10
83.11735268336796
 20
64.58044706641361
 10
83.12309700722195
 20
64.65117017385771
 10
83.12481765755972
 20
64.7127497136374
 10
83.12301621645543
 20
64.76643053246206
 10
83.11819426598335
 20
64.81345747704108
 10
83.1108533882176
 20
64.8550753940839
 10
83.10149516523233
 20
64.89252913029985
 10
83.09062117910182
 20
64.92706353239842
 10
83.07867789279045
 20
64.95968659581932
 10
83.065891292824
 20
64.99045891092396
 10
83.0524322466184
 20
65.01920421680407
 10
83.03847162158948
 20
65.04574625255145
 10
83.02418028515331
 20
65.06990875725783
 10
83.00972910472578
 20
65.091515470015
 10
82.99528894772286
 20
65.11039012991469
 10
82.98103068156049
 20
65.12635647604868
 10
82.96710588221003
 20
65.13930618151018
 10
82.95358895986456
 20
65.14940265539829
 10
82.94053503327258
 20
65.15687724081356
 10
82.92799922118256
 20
65.1619612808565
 10
82.91603664234299
 20
65.16488611862769
 10
82.90470241550238
 20
65.16588309722767
 10
82.89405165940925
 20
65.16518355975697
 10
82.88413949281205
 20
65.16301884931614
 10
82.87500082430566
 20
65.15958175182231
 10
82.86658972187057
 20
65.1549108244589
 10
82.85884004333375
 20
65.14900606722592
 10
82.85168564652208
 20
65.14186748012336
 10
82.84506038926243
 20
65.13349506315122
 10
82.83889812938177
 20
65.12388881630951
 10
82.83313272470698
 20
65.11304873959821
 10
82.82769803306488
 20
65.10097483301734
 10
82.82249300377793
 20
65.08770381763823
 10
82.81727695215005
 20
65.07341929881748
 10
82.81177428498054
 20
65.05834160298308
 10
82.80570940906885
 20
65.04269105656297
 10
82.7988067312143
 20
65.02668798598512
 10
82.79079065821628
 20
65.01055271767747
 10
82.78138559687418
 20
64.99450557806799
 10
82.77031595398737
 20
64.97876689358463
 10
82.75736676681601
 20
64.9635533187099
 10
82.74256559446339
 20
64.94906682014437
 10
82.7260006264937
 20
64.93550569264313
 10
82.70776005247105
 20
64.92306823096135
 10
82.68793206195951
 20
64.91195272985409
 10
82.66660484452328
 20
64.90235748407652
 10
82.64386658972645
 20
64.89448078838371
 10
82.61980548713315
 20
64.8885209375308
 10
82.59441418752265
 20
64.88476252086579
 10
82.56730318653538
 20
64.88383530610812
 10
82.53798744102674
 20
64.88645535557016
 10
82.50598190785217
 20
64.89333873156425
 10
82.47080154386722
 20
64.90520149640274
 10
82.43196130592737
 20
64.92275971239799
 10
82.38897615088808
 20
64.94672944186231
 10
82.34136103560492
 20
64.97782674710809
 10
82.28871910649734
 20
65.01650697022248
 10
82.23100626824161
 20
65.06218257239192
 10
82.16826661507793
 20
65.11400529457768
 10
82.10054424124649
 20
65.17112687774101
 10
82.02788324098758
 20
65.23269906284319
 10
81.95032770854139
 20
65.29787359084548
 10
81.86792173814815
 20
65.36580220270915
 10
81.7807094240482
 20
65.43563663939545
 10
81.68894247409113
 20
65.50654516659581
 10
81.59370305056473
 20
65.5777621489223
 10
81.49628092936621
 20
65.64853847571715
 10
81.39796588639264
 20
65.71812503632256
 10
81.30004769754135
 20
65.78577272008075
 10
81.20381613870941
 20
65.85073241633399
 10
81.1105609857941
 20
65.91225501442446
 10
81.02157201469252
 20
65.96959140369438
 10
80.93763400067476
 20
66.02228467273765
 10
80.85751171650221
 20
66.07104670715476
 10
80.77946493430896
 20
66.11688159179784
 10
80.70175342622926
 20
66.16079341151906
 10
80.62263696439726
 20
66.20378625117057
 10
80.54037532094724
 20
66.24686419560447
 10
80.4532282680133
 20
66.29103132967296
 10
80.35945557772967
 20
66.33729173822818
 10
80.25768513354291
 20
66.3863907088033
 10
80.14801726414926
 20
66.43803833965602
 10
80.03092040955731
 20
66.49168593172501
 10
79.90686300977564
 20
66.54678478594895
 10
79.77631350481292
 20
66.60278620326659
 10
79.63974033467764
 20
66.65914148461657
 10
79.49761193937849
 20
66.71530193093762
 10
79.35039675892401
 20
66.77071884316848
 10
79.19865130350494
 20
66.82490236513081
 10
79.04328436404016
 20
66.8775980121784
 10
78.88529280163075
 20
66.92861014254801
 10
78.72567347737775
 20
66.97774311447642
 10
78.56542325238215
 20
67.02480128620044
 10
78.40553898774494
 20
67.06958901595682
 10
78.24701754456723
 20
67.11191066198233
 10
78.09085578395002
 20
67.15157058251375
 10
77.93774974733619
 20
67.18842903653232
 10
77.78719219753634
 20
67.22256988599697
 10
77.63837507770301
 20
67.25413289361111
 10
77.49049033098851
 20
67.2832578220781
 10
77.34272990054545
 20
67.31008443410138
 10
77.19428572952615
 20
67.33475249238434
 10
77.04434976108314
 20
67.35740175963034
 10
76.89211393836894
 20
67.37817199854281
 10
76.73721049187216
 20
67.39718744269158
 10
76.58103280142658
 20
67.41451020911249
 10
76.42541453420219
 20
67.43018688570777
 10
76.27218935736886
 20
67.44426406037971
 10
76.12319093809666
 20
67.45678832103052
 10
75.9802529435555
 20
67.46780625556255
 10
75.84520904091537
 20
67.47736445187801
 10
75.71989289734623
 20
67.48550949787915
 10
75.60520251856466
 20
67.49226195386299
 10
75.49829326447412
 20
67.49753826970518
 10
75.39538483352444
 20
67.50122886767624
 10
75.29269692416566
 20
67.50322417004653
 10
75.18644923484774
 20
67.50341459908651
 10
75.07286146402067
 20
67.50169057706656
 10
74.94815331013445
 20
67.4979425262572
 10
74.80854447163899
 20
67.49206086892877
 10
74.65129914351156
 20
67.48394129141566
 10
74.47785950683838
 20
67.47350053630793
 10
74.29071223923283
 20
67.46066061025956
 10
74.09234401830834
 20
67.44534351992458
 10
73.88524152167841
 20
67.42747127195693
 10
73.67189142695643
 20
67.40696587301063
 10
73.45478041175586
 20
67.38374932973967
 10
73.23639515369013
 20
67.35774364879805
 10
73.01882767226615
 20
67.32888354480023
 10
72.80259135456498
 20
67.2971545642027
 10
72.5878049295611
 20
67.26255496142241
 10
72.37458712622904
 20
67.2250829908763
 10
72.16305667354328
 20
67.18473690698136
 10
71.95333230047838
 20
67.14151496415451
 10
71.74553273600882
 20
67.09541541681275
 10
71.53977670910913
 20
67.04643651937302
 10
71.33621946972883
 20
66.99459182287549
 10
71.13516235171779
 20
66.93995606485339
 10
70.93694320990079
 20
66.88261927946308
 10
70.74189989910263
 20
66.82267150086102
 10
70.55037027414826
 20
66.76020276320361
 10
70.36269218986243
 20
66.69530310064724
 10
70.17920350107003
 20
66.62806254734835
 10
70.00024206259586
 20
66.55857113746336
 10
69.82615699082135
 20
66.48698267946821
 10
69.65734244835428
 20
66.4137060791171
 10
69.49420385935894
 20
66.33921401648378
 10
69.33714664799973
 20
66.26397917164192
 10
69.18657623844089
 20
66.18847422466529
 10
69.04289805484683
 20
66.11317185562761
 10
68.90651752138182
 20
66.03854474460263
 10
68.77784006221027
 20
65.96506557166404
 10
68.65705337355399
 20
65.89308697112073
 10
68.54347423986502
 20
65.82248139422211
 10
68.43620171765289
 20
65.7530012464527
 10
68.33433486342717
 20
65.68439893329705
 10
68.23697273369742
 20
65.6164268602397
 10
68.14321438497316
 20
65.54883743276521
 10
68.05215887376398
 20
65.48138305635811
 10
67.96290525657942
 20
65.41381613650294
 10
67.87483788874616
 20
65.34610666142402
 10
67.78848232085938
 20
65.27909495030477
 10
67.70464940233138
 20
65.21383890506836
 10
67.62414998257452
 20
65.151396427638
 10
67.54779491100106
 20
65.0928254199369
 10
67.47639503702337
 20
65.03918378388823
 10
67.41076121005374
 20
64.99152942141519
 10
67.35170427950449
 20
64.95092023444098
 10
67.2997460418477
 20
64.9181102595412
 10
67.25425208179448
 20
64.89263807190116
 10
67.2142989311158
 20
64.87373838135853
 10
67.17896312158257
 20
64.86064589775105
 10
67.14732118496565
 20
64.8525953309164
 10
67.11844965303602
 20
64.84882139069231
 10
67.09142505756455
 20
64.84855878691647
 10
67.06532393032216
 20
64.85104222942658
 10
67.03943202274814
 20
64.8556059553924
 10
67.01387196495521
 20
64.86198231131169
 10
66.98897560672451
 20
64.87000317101432
 10
66.96507479783708
 20
64.87950040833005
 10
66.94250138807406
 20
64.89030589708878
 10
66.92158722721655
 20
64.9022515111203
 10
66.90266416504563
 20
64.91516912425443
 10
66.8860640513424
 20
64.92889061032099
 10
66.87202441142277
 20
64.94325761867128
 10
66.86040547274188
 20
64.95815090074242
 10
66.85097313828961
 20
64.973460983493
 10
66.8434933110559
 20
64.98907839388159
 10
66.83773189403064
 20
65.00489365886679
 10
66.8334547902038
 20
65.02079730540716
 10
66.83042790256528
 20
65.03667986046131
 10
66.82841713410496
 20
65.05243185098783
 10
66.82720305275127
 20
65.06794288889942
 10
66.82662488618643
 20
65.08309892592547
 10
66.82653652703115
 20
65.09778499874946
 10
66.82679186790614
 20
65.11188614405492
 10
66.82724480143216
 20
65.12528739852534
 10
66.82774922022983
 20
65.13787379884423
 10
66.82815901691991
 20
65.14953038169508
 10
66.82832808412311
 20
65.16014218376144
 10
66.82813265082439
 20
65.16963152336471
 10
66.82753829146559
 20
65.17806984537815
 10
66.82653291685281
 20
65.18556587631289
 10
66.82510443779219
 20
65.19222834268015
 10
66.82324076508982
 20
65.19816597099108
 10
66.82092980955184
 20
65.20348748775685
 10
66.81815948198431
 20
65.20830161948861
 10
66.81491769319333
 20
65.21271709269756
 10
66.81118832452466
 20
65.2167963244921
 10
66.8069391394825
 20
65.22041649436944
 10
66.8021338721106
 20
65.22340847242414
 10
66.79673625645275
 20
65.22560312875066
 10
66.79071002655277
 20
65.22683133344348
 10
66.78401891645447
 20
65.22692395659712
 10
66.7766266602016
 20
65.22571186830603
 10
66.76849699183802
 20
65.22302593866474
 10
66.75961580802656
 20
65.21872522625256
 10
66.75005765590654
 20
65.21278154358802
 10
66.73991924523632
 20
65.20519489167458
 10
66.72929728577421
 20
65.1959652715156
 10
66.71828848727867
 20
65.18509268411452
 10
66.706989559508
 20
65.1725771304747
 10
66.6954972122206
 20
65.15841861159957
 10
66.68390815517486
 20
65.14261712849251
 10
66.67231909812906
 20
65.12518073561955
 10
66.66082675084168
 20
65.10614970129701
 10
66.64952782307101
 20
65.08557234730389
 10
66.63851902457546
 20
65.06349699541914
 10
66.62789706511339
 20
65.03997196742173
 10
66.61775865444312
 20
65.01504558509063
 10
66.60820050232311
 20
64.98876617020478
 10
66.59931931851168
 20
64.96118204454316
 10
66.59121785709321
 20
64.93235763764609
 10
66.58402304945626
 20
64.9024218100993
 10
66.57786787131541
 20
64.8715195302499
 10
66.57288529838523
 20
64.83979576644497
 10
66.56920830638028
 20
64.80739548703159
 10
66.56696987101515
 20
64.77446366035687
 10
66.5663029680044
 20
64.74114525476792
 10
66.56734057306261
 20
64.7075852386118
 10
66.57050176198997
 20
64.67362857742394
 10
66.57735001092925
 20
64.63792022549299
 10
66.58973489610878
 20
64.59880513429593
 10
66.60950599375695
 20
64.55462825530971
 10
66.63851288010215
 20
64.5037345400113
 10
66.67860513137272
 20
64.44446893987771
 10
66.73163232379701
 20
64.37517640638588
 10
66.79944403360346
 20
64.29420189101275
 10
66.88294893079376
 20
64.20077424568606
 10
66.97929206046307
 20
64.09765792413643
 10
67.08467756147996
 20
63.98850128054518
 10
67.19530957271295
 20
63.87695266909365
 10
67.30739223303061
 20
63.76666044396321
 10
67.41712968130146
 20
63.66127295933518
 10
67.52072605639404
 20
63.5644385693909
 10
67.6143854971769
 20
63.47980562831173
 10
67.69522282675381
 20
63.41012248234564
 10
67.7639956051696
 20
63.35453744600717
 10
67.82237207670431
 20
63.3112988258775
 10
67.87202048563798
 20
63.2786549285378
 10
67.91460907625065
 20
63.25485406056924
 10
67.95180609282244
 20
63.23814452855301
 10
67.98527977963335
 20
63.22677463907027
 10
68.01669838096339
 20
63.21899269870218
 10
68.04744001172728
 20
63.21332889575645
 10
68.07772226937799
 20
63.20944094544667
 10
68.10747262200308
 20
63.20726844471301
 10
68.13661853769021
 20
63.20675099049558
 10
68.16508748452692
 20
63.20782817973449
 10
68.19280693060083
 20
63.21043960936989
 10
68.2197043439995
 20
63.21452487634191
 10
68.24570719281054
 20
63.22002357759066
 10
68.27074294503126
 20
63.22685517564725
 10
68.2947390682977
 20
63.23485859540662
 10
68.31762303015563
 20
63.24385262735469
 10
68.33932229815085
 20
63.25365606197738
 10
68.35976433982906
 20
63.26408768976062
 10
68.37887662273613
 20
63.2749663011903
 10
68.39658661441771
 20
63.28611068675236
 10
68.41282178241968
 20
63.29733963693271
 10
68.42752168293978
 20
63.30849811693228
 10
68.44067422678418
 20
63.31953579081211
 10
68.45227941341102
 20
63.33042849734824
 10
68.46233724227852
 20
63.34115207531674
 10
68.47084771284477
 20
63.35168236349364
 10
68.47781082456802
 20
63.361995200655
 10
68.48322657690644
 20
63.37206642557688
 10
68.48709496931817
 20
63.38187187703532
 10
68.48943816415143
 20
63.39139142067702
 10
68.49036697531442
 20
63.40062102963135
 10
68.49001437960535
 20
63.40956070389829
 10
68.48851335382242
 20
63.41821044347785
 10
68.4859968747639
 20
63.42657024837001
 10
68.48259791922799
 20
63.4346401185748
 10
68.47844946401295
 20
63.4424200540922
 10
68.47368448591698
 20
63.4499100549222
 10
68.46839163613885
 20
63.45711213450016
 10
68.46248226347976
 20
63.46403636000271
 10
68.45582339114153
 20
63.47069481204181
 10
68.4482820423259
 20
63.47709957122946
 10
68.43972524023468
 20
63.48326271817763
 10
68.43002000806965
 20
63.48919633349827
 10
68.41903336903254
 20
63.49491249780337
 10
68.40663234632515
 20
63.50042329170491
 10
68.39275649578413
 20
63.50576093016815
 10
68.37763550378543
 20
63.51103816557152
 10
68.36157158933989
 20
63.51638788464673
 10
68.34486697145829
 20
63.52194297412552
 10
68.32782386915153
 20
63.52783632073958
 10
68.31074450143036
 20
63.53420081122063
 10
68.29393108730562
 20
63.54116933230042
 10
68.27768584578819
 20
63.54887477071065
 10
68.26227069993044
 20
63.55743591919146
 10
68.24778638895107
 20
63.5669151945168
 10
68.2342933561105
 20
63.57736091946903
 10
68.22185204466904
 20
63.5888214168305
 10
68.21052289788704
 20
63.60134500938361
 10
68.20036635902482
 20
63.61498001991066
 10
68.1914428713427
 20
63.62977477119408
 10
68.18381287810109
 20
63.64577758601621
 10
68.17755697049434
 20
63.66304484090072
 10
68.17283633145307
 20
63.68166512733657
 10
68.16983229184194
 20
63.70173509055402
 10
68.16872618252563
 20
63.72335137578332
 10
68.1696993343688
 20
63.74661062825476
 10
68.17293307823615
 20
63.77160949319858
 10
68.17860874499229
 20
63.79844461584503
 10
68.18690766550194
 20
63.82721264142439
 10
68.19811392480445
 20
63.85805048392925
 10
68.21292262463804
 20
63.89125613240151
 10
68.23213162091559
 20
63.92716784464536
 10
68.25653876955008
 20
63.96612387846503
 10
68.28694192645435
 20
64.00846249166474
 10
68.32413894754129
 20
64.05452194204872
 10
68.36892768872388
 20
64.10464048742117
 10
68.42210600591503
 20
64.15915638558629
 10
68.48423803964275
 20
64.21825084611393
 10
68.55495306889571
 20
64.28147688563637
 10
68.63364665727781
 20
64.34823047255147
 10
68.7197143683928
 20
64.4179075752571
 10
68.81255176584453
 20
64.48990416215117
 10
68.91155441323687
 20
64.56361620163153
 10
69.01611787417357
 20
64.63843966209608
 10
69.12563771225856
 20
64.7137705119427
 10
69.23949743188265
 20
64.78902812311407
 10
69.35703230058509
 20
64.86372548173207
 10
69.47756552669218
 20
64.93739897746343
 10
69.60042031853018
 20
65.00958499997487
 10
69.72491988442545
 20
65.07981993893309
 10
69.85038743270419
 20
65.14764018400478
 10
69.9761461716927
 20
65.21258212485669
 10
70.10151930971736
 20
65.2741821511555
 10
70.2259922588328
 20
65.33212972354426
 10
70.34969924600762
 20
65.38672658657131
 10
70.47293670193877
 20
65.43842755576138
 10
70.59600105732326
 20
65.48768744663913
 10
70.71918874285806
 20
65.53496107472925
 10
70.8427961892402
 20
65.58070325555643
 10
70.96711982716659
 20
65.62536880464536
 10
71.09245608733425
 20
65.66941253752074
 10
71.21885579615599
 20
65.71313066352576
 10
71.34538736290784
 20
65.75618496727781
 10
71.47087359258162
 20
65.79807862721273
 10
71.59413729016922
 20
65.8383148217664
 10
71.71400126066251
 20
65.87639672937467
 10
71.82928830905325
 20
65.91182752847345
 10
71.93882124033336
 20
65.94411039749857
 10
72.04142285949472
 20
65.97274851488595
 10
72.13623980465172
 20
65.9973578739952
 10
72.22371404640964
 20
66.0180057278809
 10
72.30461138849623
 20
66.03487214452143
 10
72.37969763463931
 20
66.04813719189516
 10
72.44973858856667
 20
66.05798093798047
 10
72.51550005400615
 20
66.06458345075569
 10
72.57774783468554
 20
66.06812479819922
 10
72.63724773433267
 20
66.06878504828938
 10
72.69459287541073
 20
66.06670675491208
 10
72.74968565532444
 20
66.06188241558328
 10
72.80225579021396
 20
66.05426701372649
 10
72.8520329962194
 20
66.04381553276519
 10
72.89874698948093
 20
66.03048295612288
 10
72.94212748613862
 20
66.01422426722304
 10
72.9819042023326
 20
65.99499444948917
 10
73.01780685420306
 20
65.97274848634476
 10
73.04962897500286
 20
65.94748637823579
 10
73.07741936643596
 20
65.91938819369802
 10
73.10129064731923
 20
65.88867901828978
 10
73.12135543646931
 20
65.85558393756929
 10
73.13772635270311
 20
65.82032803709484
 10
73.1505160148373
 20
65.7831364024247
 10
73.15983704168871
 20
65.74423411911715
 10
73.16580205207405
 20
65.70384627273046
 10
73.16853868030924
 20
65.6620779031695
 10
73.16823462270645
 20
65.61855386772569
 10
73.16509259107687
 20
65.57277897803706
 10
73.15931529723179
 20
65.52425804574157
 10
73.1511054529825
 20
65.47249588247729
 10
73.1406657701402
 20
65.41699729988224
 10
73.12819896051613
 20
65.35726710959439
 10
73.1139077359216
 20
65.2928101232518
 10
73.09801357797066
 20
65.22331872379102
 10
73.08081304748847
 20
65.14923557934287
 10
73.06262147510316
 20
65.07119092933675
 10
73.04375419144268
 20
64.98981501320198
 10
73.02452652713504
 20
64.90573807036797
 10
73.00525381280832
 20
64.81959034026409
 10
72.98625137909052
 20
64.73200206231968
 10
72.96783455660968
 20
64.64360347596414
 10
72.95027150473078
 20
64.5549477933329
 10
72.9336416977668
 20
64.46628011738555
 10
72.91797743876776
 20
64.37776852378778
 10
72.90331103078357
 20
64.28958108820522
 10
72.88967477686417
 20
64.20188588630357
 10
72.87710098005954
 20
64.11485099374847
 10
72.86562194341964
 20
64.02864448620561
 10
72.85526996999442
 20
63.94343443934062
 10
72.84605541694467
 20
63.85936836768607
 10
72.83790085787433
 20
63.77651154124199
 10
72.83070692049827
 20
63.69490866887527
 10
72.8243742325312
 20
63.61460445945283
 10
72.81880342168796
 20
63.53564362184159
 10
72.81389511568336
 20
63.45807086490843
 10
72.80954994223217
 20
63.38193089752028
 10
72.80566852904917
 20
63.30726842854404
 10
72.80210252930311
 20
63.23408610734821
 10
72.79850769797824
 20
63.16221834530766
 10
72.79449081551286
 20
63.09145749429887
 10
72.78965866234518
 20
63.02159590619829
 10
72.78361801891346
 20
62.95242593288239
 10
72.77597566565585
 20
62.88373992622765
 10
72.76633838301066
 20
62.81533023811052
 10
72.75431295141608
 20
62.74698922040747
 10
72.73953112627086
 20
62.67853804244491
 10
72.72172456281558
 20
62.60991314334893
 10
72.70064989125135
 20
62.54107977969558
 10
72.67606374177926
 20
62.4720032080609
 10
72.64772274460042
 20
62.40264868502092
 10
72.61538352991586
 20
62.33298146715169
 10
72.57880272792675
 20
62.26296681102923
 10
72.53773696883413
 20
62.1925699732296
 10
72.49202400610545
 20
62.1218720230799
 10
72.44182608627326
 20
62.05141728091153
 10
72.38738657913652
 20
61.98186587980697
 10
72.32894885449407
 20
61.9138779528487
 10
72.26675628214486
 20
61.84811363311919
 10
72.20105223188778
 20
61.78523305370091
 10
72.13208007352176
 20
61.72589634767634
 10
72.06008317684569
 20
61.67076364812794
 10
71.98539182946959
 20
61.62034742677469
 10
71.90868399024802
 20
61.57456950988137
 10
71.83072453584665
 20
61.53320406234927
 10
71.7522783429311
 20
61.49602524907966
 10
71.67411028816704
 20
61.46280723497386
 10
71.59698524822011
 20
61.43332418493312
 10
71.52166809975603
 20
61.4073502638587
 10
71.44892371944038
 20
61.38465963665193
 10
71.37932866190941
 20
61.36502067758766
 10
71.31270619368149
 20
61.34817859843515
 10
71.24869125924544
 20
61.33387282033726
 10
71.18691880309032
 20
61.32184276443684
 10
71.12702376970486
 20
61.31182785187673
 10
71.06864110357806
 20
61.3035675037998
 10
71.01140574919878
 20
61.29680114134888
 10
70.95495265105596
 20
61.29126818566685
 10
70.89908479498681
 20
61.28672832514472
 10
70.84427733222198
 20
61.28302231716614
 10
70.79117345534033
 20
61.28001118636293
 10
70.74041635692087
 20
61.27755595736691
 10
70.69264922954253
 20
61.27551765480989
 10
70.64851526578422
 20
61.27375730332371
 10
70.60865765822493
 20
61.27213592754017
 10
70.57371959944354
 20
61.2705145520911
 10
70.54415595989929
 20
61.26874551561297
 10
70.51966832157225
 20
61.26664641276082
 10
70.49976994432284
 20
61.26402615219439
 10
70.48397408801136
 20
61.26069364257336
 10
70.47179401249822
 20
61.25645779255747
 10
70.46274297764376
 20
61.2511275108064
 10
70.45633424330834
 20
61.24451170597989
 10
70.45208106935231
 20
61.23641928673763
 10
70.44964447603238
 20
61.22664468517332
 10
70.44927652519041
 20
61.21492442711661
 10
70.45137703906462
 20
61.20098056183115
 10
70.45634583989325
 20
61.18453513858057
 10
70.46458274991445
 20
61.16531020662851
 10
70.47648759136646
 20
61.14302781523859
 10
70.49246018648751
 20
61.11741001367448
 10
70.51290035751581
 20
61.0881788511998
 10
70.5381340464462
 20
61.05518377119357
 10
70.56819167430044
 20
61.01878379349627
 10
70.60302978185685
 20
60.97946533206378
 10
70.64260490989386
 20
60.93771480085195
 10
70.68687359918975
 20
60.89401861381666
 10
70.73579239052299
 20
60.84886318491379
 10
70.78931782467188
 20
60.80273492809918
 10
70.84740644241484
 20
60.7561202573287
 10
70.90997132548918
 20
60.70942451756558
 10
70.97675171946822
 20
60.66272877780245
 10
71.04744341088419
 20
60.61603303803932
 10
71.12174218626941
 20
60.56933729827619
 10
71.19934383215611
 20
60.52264155851307
 10
71.27994413507647
 20
60.47594581874995
 10
71.36323888156288
 20
60.42925007898682
 10
71.38650887121565
 20
60.41656863324887
  0
LWPOLYLINE
  5
4779
330
18
100
AcDbEntity
  8
0
100
AcDbPolyline
 90
      384
 70
     0
 43
0.0
 10
81.94855033046135
 20
63.34222877707006
 10
81.90002255648836
 20
63.31969948562957
 10
81.85650315072868
 20
63.30293598441558
 10
81.81723084100587
 20
63.29129763006955
 10
81.78144435514342
 20
63.284143779233
 10
81.7483824209648
 20
63.28083378854743
 10
81.7172837662936
 20
63.28072701465434
 10
81.68738711895329
 20
63.28318281419527
 10
81.65793120676738
 20
63.28756054381165
 10
81.62831947734138
 20
63.2932996405091
 10
81.59861425740881
 20
63.30015986274947
 10
81.56904259348509
 20
63.30798104935864
 10
81.5398315320858
 20
63.31660303916253
 10
81.5112081197263
 20
63.32586567098705
 10
81.4833994029221
 20
63.33560878365812
 10
81.45663242818875
 20
63.34567221600162
 10
81.4311342420417
 20
63.35589580684349
 10
81.40709404991048
 20
63.3661371908257
 10
81.38454969288103
 20
63.37632518585455
 10
81.36350117095336
 20
63.38640640565246
 10
81.34394848412741
 20
63.39632746394182
 10
81.32589163240327
 20
63.40603497444502
 10
81.30933061578087
 20
63.41547555088443
 10
81.29426543426026
 20
63.42459580698248
 10
81.28069608784143
 20
63.43334235646152
 10
81.26861812462129
 20
63.44167515961338
 10
81.25800928508434
 20
63.44960756300743
 10
81.24884285781222
 20
63.4571662597825
 10
81.24109213138632
 20
63.4643779430774
 10
81.23473039438817
 20
63.4712693060309
 10
81.22973093539924
 20
63.47786704178183
 10
81.22606704300105
 20
63.48419784346899
 10
81.22371200577511
 20
63.49028840423118
 10
81.22265691982487
 20
63.49618321285605
 10
81.22296411134207
 20
63.50199794072665
 10
81.22471371404037
 20
63.50786605487485
 10
81.22798586163346
 20
63.51392102233253
 10
81.23286068783505
 20
63.52029631013161
 10
81.23941832635884
 20
63.52712538530396
 10
81.24773891091846
 20
63.53454171488146
 10
81.25790257522771
 20
63.54267876589599
 10
81.26990931910595
 20
63.55162996528104
 10
81.28343860679532
 20
63.56132857957639
 10
81.29808976864371
 20
63.57166783522345
 10
81.31346213499901
 20
63.58254095866358
 10
81.3291550362091
 20
63.59384117633818
 10
81.34476780262181
 20
63.60546171468861
 10
81.35989976458507
 20
63.61729580015628
 10
81.37415025244676
 20
63.62923665918258
 10
81.38719873044903
 20
63.64120866059435
 10
81.39904519841124
 20
63.6532607427604
 10
81.40976979004717
 20
63.665472986435
 10
81.41945263907048
 20
63.67792547237245
 10
81.42817387919484
 20
63.69069828132701
 10
81.4360136441339
 20
63.70387149405297
 10
81.44305206760149
 20
63.71752519130461
 10
81.44936928331118
 20
63.73173945383619
 10
81.4550276176353
 20
63.74657211767371
 10
81.46001816758042
 20
63.76199203992999
 10
81.46431422281166
 20
63.77794583298956
 10
81.46788907299416
 20
63.79438010923694
 10
81.47071600779311
 20
63.81124148105665
 10
81.4727683168736
 20
63.8284765608332
 10
81.47401928990076
 20
63.84603196095115
 10
81.47444221653978
 20
63.86385429379499
 10
81.47380114746239
 20
63.88206812823774
 10
81.47102317736639
 20
63.90150985910628
 10
81.4648261619563
 20
63.92319383771594
 10
81.45392795693661
 20
63.9481344153821
 10
81.43704641801173
 20
63.9773459434201
 10
81.4128994008861
 20
64.01184277314531
 10
81.38020476126426
 20
64.05263925587305
 10
81.33768035485061
 20
64.10074974291868
 10
81.28441799603475
 20
64.1568059794261
 10
81.22100533394684
 20
64.21990928585316
 10
81.1484039764022
 20
64.28877837648629
 10
81.06757553121607
 20
64.3621319656119
 10
80.97948160620372
 20
64.43868876751641
 10
80.88508380918051
 20
64.51716749648619
 10
80.78534374796166
 20
64.59628686680767
 10
80.68122303036252
 20
64.67476559276724
 10
80.5736164858326
 20
64.75152703855733
 10
80.46315183035899
 20
64.82631316799431
 10
80.35039000156306
 20
64.89907059480059
 10
80.23589193706611
 20
64.96974593269857
 10
80.12021857448942
 20
65.03828579541061
 10
80.00393085145443
 20
65.10463679665912
 10
79.88758970558237
 20
65.1687455501665
 10
79.77175607449467
 20
65.23055866965515
 10
79.65685733926195
 20
65.29003611536109
 10
79.54278665475197
 20
65.34719123357503
 10
79.42930361928178
 20
65.40205071710127
 10
79.3161678311686
 20
65.45464125874419
 10
79.20313888872939
 20
65.5049895513081
 10
79.08997639028131
 20
65.55312228759735
 10
78.97643993414149
 20
65.59906616041624
 10
78.86228911862692
 20
65.64284786256916
 10
78.74733251271772
 20
65.68451633158871
 10
78.63157456804613
 20
65.7242094839207
 10
78.51506870690731
 20
65.76208748073921
 10
78.39786835159644
 20
65.79831048321834
 10
78.28002692440873
 20
65.83303865253218
 10
78.16159784763936
 20
65.86643214985482
 10
78.04263454358348
 20
65.89865113636034
 10
77.9231904345363
 20
65.92985577322285
 10
77.80340352877106
 20
65.96014393673397
 10
77.68375017847282
 20
65.98936436365554
 10
77.56479132180482
 20
66.01730350586691
 10
77.44708789693023
 20
66.04374781524746
 10
77.33120084201217
 20
66.06848374367655
 10
77.21769109521382
 20
66.09129774303356
 10
77.10711959469835
 20
66.11197626519784
 10
77.00004727862888
 20
66.13030576204876
 10
76.8968614614902
 20
66.14611272584284
 10
76.79725496305308
 20
66.15938381034514
 10
76.70074697940979
 20
66.17014570969785
 10
76.60685670665285
 20
66.17842511804318
 10
76.51510334087451
 20
66.18424872952335
 10
76.4250060781671
 20
66.18764323828057
 10
76.33608411462311
 20
66.18863533845701
 10
76.24785664633477
 20
66.18725172419489
 10
76.15996307023593
 20
66.18347460034709
 10
76.07252358662624
 20
66.177108214609
 10
75.98577859664679
 20
66.16791232538678
 10
75.89996850143865
 20
66.15564669108649
 10
75.81533370214287
 20
66.14007107011424
 10
75.73211459990057
 20
66.12094522087613
 10
75.65055159585284
 20
66.09802890177824
 10
75.57088509114077
 20
66.07108187122666
 10
75.49330206461019
 20
66.03998845722519
 10
75.41777580592636
 20
66.00513126616829
 10
75.34422618245914
 20
65.96701747404809
 10
75.27257306157844
 20
65.92615425685676
 10
75.20273631065442
 20
65.88304879058641
 10
75.13463579705683
 20
65.8382082512292
 10
75.06819138815565
 20
65.79213981477727
 10
75.00332295132096
 20
65.74535065722277
 10
74.93999932422442
 20
65.69822783387238
 10
74.87838522574496
 20
65.65067791729093
 10
74.81869434506343
 20
65.60248735935778
 10
74.76114037136048
 20
65.5534426119523
 10
74.70593699381692
 20
65.50333012695387
 10
74.6532979016135
 20
65.45193635624184
 10
74.60343678393098
 20
65.3990477516956
 10
74.55656732995004
 20
65.34445076519448
 10
74.51282754722152
 20
65.28791405308052
 10
74.47205271677619
 20
65.22913508954627
 10
74.43400243801466
 20
65.16779355324699
 10
74.39843631033777
 20
65.10356912283786
 10
74.36511393314623
 20
65.03614147697412
 10
74.33379490584077
 20
64.96519029431098
 10
74.30423882782218
 20
64.89039525350367
 10
74.27620529849114
 20
64.81143603320738
 10
74.24951179135638
 20
64.72814357503679
 10
74.22420727635849
 20
64.64095387244445
 10
74.20039859754601
 20
64.55045418184226
 10
74.1781925989675
 20
64.45723175964218
 10
74.15769612467153
 20
64.3618738622562
 10
74.13901601870662
 20
64.26496774609624
 10
74.12225912512133
 20
64.16710066757429
 10
74.10753228796423
 20
64.06885988310225
 10
74.09496906297325
 20
63.97074367073642
 10
74.0848098526441
 20
63.87289439511008
 10
74.07732177116179
 20
63.77536544250086
 10
74.0727719327114
 20
63.67821019918636
 10
74.07142745147803
 20
63.5814820514442
 10
74.07355544164669
 20
63.48523438555197
 10
74.07942301740245
 20
63.3895205877873
 10
74.08929729293046
 20
63.29439404442776
 10
74.10346318966675
 20
63.19988589741292
 10
74.12227685805214
 20
63.10593831132996
 10
74.14611225577836
 20
63.01247120642802
 10
74.17534334053725
 20
62.91940450295619
 10
74.2103440700205
 20
62.8266581211636
 10
74.25148840192
 20
62.7341519812994
 10
74.29915029392749
 20
62.64180600361268
 10
74.35370370373478
 20
62.54954010835258
 10
74.41521095726264
 20
62.45750110984506
 10
74.48248785334759
 20
62.36674339872346
 10
74.55403855905522
 20
62.27854825969799
 10
74.62836724145098
 20
62.19419697747883
 10
74.70397806760054
 20
62.11497083677617
 10
74.7793752045693
 20
62.04215112230021
 10
74.85306281942282
 20
61.97701911876114
 10
74.92354507922668
 20
61.92085611086916
 10
74.98966004224254
 20
61.87457857314626
 10
75.0515813315167
 20
61.83764373936178
 10
75.10981646129176
 20
61.80914403309682
 10
75.16487294581013
 20
61.78817187793253
 10
75.21725829931433
 20
61.77381969745005
 10
75.26748003604687
 20
61.76517991523049
 10
75.31604567025026
 20
61.76134495485499
 10
75.36346271616702
 20
61.76140723990467
 10
75.41010278511681
 20
61.76456360690726
 10
75.45579387672813
 20
61.77042854417682
 10
75.50022808770667
 20
61.77872095297401
 10
75.54309751475816
 20
61.78915973455946
 10
75.58409425458823
 20
61.80146379019385
 10
75.62291040390256
 20
61.81535202113781
 10
75.65923805940696
 20
61.830543328652
 10
75.69276931780698
 20
61.84675661399706
 10
75.72327744079517
 20
61.86371552708401
 10
75.75086035001134
 20
61.88116271242522
 10
75.77569713208193
 20
61.89884556318346
 10
75.79796687363352
 20
61.91651147252144
 10
75.8178486612926
 20
61.93390783360192
 10
75.83552158168585
 20
61.95078203958765
 10
75.85116472143969
 20
61.96688148364137
 10
75.86495716718068
 20
61.98195355892583
 10
75.87707079466065
 20
61.99580833587168
 10
75.88764863613253
 20
62.00850659398138
 10
75.89682651297444
 20
62.02017179002528
 10
75.9047402465646
 20
62.03092738077376
 10
75.91152565828116
 20
62.04089682299719
 10
75.91731856950231
 20
62.05020357346593
 10
75.9222548016062
 20
62.05897108895036
 10
75.92647017597108
 20
62.06732282622083
 10
75.93005959482785
 20
62.07536978594085
 10
75.93295428381877
 20
62.08317314434639
 10
75.93504454943903
 20
62.09078162156656
 10
75.93622069818358
 20
62.09824393773049
 10
75.93637303654755
 20
62.10560881296725
 10
75.93539187102596
 20
62.11292496740599
 10
75.93316750811391
 20
62.12024112117577
 10
75.92959025430648
 20
62.12760599440574
 10
75.92455244749006
 20
62.13510078736681
 10
75.91795455111618
 20
62.14293662089716
 10
75.90969906002782
 20
62.15135709597682
 10
75.89968846906781
 20
62.16060581358576
 10
75.88782527307902
 20
62.17092637470402
 10
75.87401196690446
 20
62.18256238031159
 10
75.85815104538689
 20
62.1957574313885
 10
75.84014500336927
 20
62.21075512891473
 10
75.81998774694857
 20
62.22770366354777
 10
75.79803882723831
 20
62.24636958465506
 10
75.77474920660591
 20
62.26642403128149
 10
75.75056984741897
 20
62.28753814247198
 10
75.725951712045
 20
62.30938305727142
 10
75.70134576285159
 20
62.33162991472472
 10
75.6772029622062
 20
62.35394985387678
 10
75.65397427247645
 20
62.37601401377251
 10
75.63204565268204
 20
62.39759097377078
 10
75.61154304845169
 20
62.41883907448627
 10
75.59252740206637
 20
62.44001409684768
 10
75.57505965580702
 20
62.46137182178365
 10
75.55920075195452
 20
62.48316803022287
 10
75.54501163278988
 20
62.50565850309401
 10
75.53255324059398
 20
62.52909902132571
 10
75.52188651764777
 20
62.55374536584666
 10
75.51304396675401
 20
62.57976399712584
 10
75.50594433280227
 20
62.60696409379352
 10
75.50047792120398
 20
62.63506551402036
 10
75.49653503737058
 20
62.66378811597693
 10
75.49400598671358
 20
62.69285175783387
 10
75.49278107464427
 20
62.72197629776176
 10
75.49275060657416
 20
62.75088159393124
 10
75.4938048879146
 20
62.7792875045129
 10
75.49589922805701
 20
62.80703771849327
 10
75.49924895231214
 20
62.83447124812254
 10
75.50413438997093
 20
62.86205093646681
 10
75.51083587032413
 20
62.89023962659214
 10
75.51963372266246
 20
62.91950016156467
 10
75.5308082762768
 20
62.95029538445046
 10
75.54463986045793
 20
62.98308813831562
 10
75.56140880449665
 20
63.01834126622622
 10
75.58125121043636
 20
63.0563207000716
 10
75.6037262713308
 20
63.09650472703374
 10
75.62824895298648
 20
63.13817472311793
 10
75.65423422120976
 20
63.18061206432939
 10
75.68109704180709
 20
63.22309812667334
 10
75.70825238058482
 20
63.26491428615506
 10
75.73511520334943
 20
63.30534191877975
 10
75.7611004759073
 20
63.34366240055267
 10
75.78575317157315
 20
63.37938446869475
 10
75.8091382936947
 20
63.4129263052897
 10
75.83145085312803
 20
63.44493345363691
 10
75.85288586072916
 20
63.47605145703577
 10
75.87363832735412
 20
63.50692585878569
 10
75.89390326385892
 20
63.53820220218608
 10
75.91387568109964
 20
63.57052603053632
 10
75.93375058993233
 20
63.6045428871358
 10
75.95366002898559
 20
63.64071155428734
 10
75.97348414797865
 20
63.67874377030725
 10
75.99304012440324
 20
63.71816451251524
 10
76.01214513575119
 20
63.75849875823101
 10
76.03061635951426
 20
63.79927148477428
 10
76.04827097318419
 20
63.84000766946478
 10
76.06492615425288
 20
63.88023228962221
 10
76.08039908021203
 20
63.91947032256627
 10
76.09454958713867
 20
63.95730155611035
 10
76.10740814545088
 20
63.99352502004239
 10
76.11904788415192
 20
64.027994554644
 10
76.12954193224512
 20
64.06056400019679
 10
76.1389634187337
 20
64.09108719698238
 10
76.14738547262098
 20
64.11941798528239
 10
76.15488122291022
 20
64.14541020537841
 10
76.16152379860475
 20
64.16891769755205
 10
76.16740257965762
 20
64.18986129213703
 10
76.1726719498213
 20
64.20842977967544
 10
76.17750254379794
 20
64.2248789407615
 10
76.18206499628981
 20
64.23946455598937
 10
76.18652994199911
 20
64.2524424059533
 10
76.19106801562799
 20
64.26406827124745
 10
76.19584985187876
 20
64.27459793246605
 10
76.2010460854536
 20
64.28428717020328
 10
76.20680500611159
 20
64.29333492490272
 10
76.21318552383936
 20
64.30171277640543
 10
76.2202242036803
 20
64.30933546440188
 10
76.22795761067795
 20
64.3161177285825
 10
76.23642230987577
 20
64.32197430863773
 10
76.24565486631725
 20
64.32681994425802
 10
76.25569184504576
 20
64.33056937513381
 10
76.26656981110485
 20
64.33313734095555
 10
76.27835173726372
 20
64.3344203112677
 10
76.29120622719447
 20
64.3342416750309
 10
76.30532829229498
 20
64.33240655105973
 10
76.32091294396309
 20
64.32872005816888
 10
76.33815519359671
 20
64.32298731517295
 10
76.35725005259361
 20
64.31501344088657
 10
76.37839253235172
 20
64.30460355412439
 10
76.40177764426892
 20
64.29156277370106
 10
76.42753133307087
 20
64.27575102886908
 10
76.45550327679437
 20
64.25724749063263
 10
76.48547408680416
 20
64.23618614043379
 10
76.51722437446484
 20
64.21270095971459
 10
76.55053475114114
 20
64.18692592991712
 10
76.5851858281977
 20
64.15899503248344
 10
76.6209582169992
 20
64.12904224885561
 10
76.65763252891029
 20
64.09720156047569
 10
76.69500156382405
 20
64.06357649835666
 10
76.73290687574743
 20
64.02814879179512
 10
76.77120220721549
 20
63.99086971965852
 10
76.80974130076363
 20
63.95169056081439
 10
76.84837789892704
 20
63.91056259413019
 10
76.88696574424099
 20
63.86743709847343
 10
76.92535857924069
 20
63.8222653527116
 10
76.96341014646144
 20
63.7749986357122
 10
77.00096809417431
 20
63.72564506682778
 10
77.03785569359339
 20
63.67444012735134
 10
77.07389012166874
 20
63.62167613906089
 10
77.10888855535024
 20
63.56764542373452
 10
77.14266817158781
 20
63.51264030315023
 10
77.17504614733157
 20
63.4569530990861
 10
77.20583965953133
 20
63.4008761333202
 10
77.23486588513712
 20
63.34470172763051
 10
77.26196028325944
 20
63.28860040319365
 10
77.28703144165075
 20
63.23225547878018
 10
77.31000623022421
 20
63.17522847255919
 10
77.33081151889283
 20
63.1170809026998
 10
77.34937417756967
 20
63.05737428737106
 10
77.36562107616783
 20
62.99567014474212
 10
77.37947908460035
 20
62.93152999298204
 10
77.39087507278028
 20
62.86451535025991
 10
77.39973997349363
 20
62.79436637544121
 10
77.40602097101806
 20
62.72153779017689
 10
77.40966931250401
 20
62.64666295681433
 10
77.41063624510203
 20
62.57037523770081
 10
77.40887301596273
 20
62.49330799518372
 10
77.40433087223657
 20
62.41609459161035
 10
77.39696106107413
 20
62.33936838932807
 10
77.38671482962591
 20
62.2637627506842
 10
77.37350522612647
 20
62.18971457063119
 10
77.35709250314624
 20
62.11687487454184
 10
77.33719871433975
 20
62.0446982203941
 10
77.31354591336141
 20
61.97263916616586
 10
77.2858561538657
 20
61.90015226983504
 10
77.25385148950717
 20
61.82669208937955
 10
77.21725397394017
 20
61.75171318277733
 10
77.17578566081929
 20
61.67467010800629
 10
77.12932426002677
 20
61.59525402399329
 10
77.07837010635614
 20
61.51410249346109
 10
77.02357919082897
 20
61.43208968008135
 10
76.96560750446661
 20
61.35008974752578
 10
76.90511103829049
 20
61.26897685946607
 10
76.8427457833221
 20
61.18962517957391
 10
76.77916773058287
 20
61.11290887152098
 10
76.7150328710942
 20
61.03970209897898
 10
76.65017465542224
 20
60.97021994928548
 10
76.5811363723118
 20
60.90204120444152
 10
76.50363877005246
 20
60.83208557011403
 10
76.41340259693369
 20
60.75727275196993
 10
76.30614860124502
 20
60.67452245567613
 10
76.17759753127605
 20
60.58075438689957
 10
76.02347013531638
 20
60.47288825130728
  0
LINE
  5
477A
330
18
100
AcDbEntity
  8
0
100
AcDbLine
 10
51.12671723569995
 20
63.34222877707007
 30
0.0
 11
52.28525000916214
 21
64.49933554459566
 31
0.0
  0
LWPOLYLINE
  5
477B
330
18
100
AcDbEntity
  8
0
100
AcDbPolyline
 90
      384
 70
     0
 43
0.0
 10
51.12671723569993
 20
63.34222877707006
 10
51.07818946172693
 20
63.31969948562957
 10
51.03467005596726
 20
63.30293598441558
 10
50.99539774624444
 20
63.29129763006955
 10
50.95961126038198
 20
63.284143779233
 10
50.92654932620337
 20
63.28083378854743
 10
50.89545067153219
 20
63.28072701465434
 10
50.86555402419186
 20
63.28318281419527
 10
50.83609811200595
 20
63.28756054381165
 10
50.80648638257997
 20
63.2932996405091
 10
50.7767811626474
 20
63.30015986274947
 10
50.7472094987237
 20
63.30798104935864
 10
50.71799843732437
 20
63.31660303916253
 10
50.68937502496487
 20
63.32586567098705
 10
50.6615663081607
 20
63.33560878365812
 10
50.63479933342732
 20
63.34567221600162
 10
50.60930114728027
 20
63.35589580684349
 10
50.58526095514903
 20
63.3661371908257
 10
50.56271659811959
 20
63.37632518585455
 10
50.54166807619189
 20
63.38640640565246
 10
50.522115389366
 20
63.39632746394182
 10
50.50405853764185
 20
63.40603497444502
 10
50.48749752101945
 20
63.41547555088443
 10
50.47243233949885
 20
63.42459580698248
 10
50.45886299308
 20
63.43334235646152
 10
50.44678502985984
 20
63.44167515961338
 10
50.43617619032294
 20
63.44960756300743
 10
50.42700976305081
 20
63.4571662597825
 10
50.4192590366249
 20
63.4643779430774
 10
50.41289729962675
 20
63.4712693060309
 10
50.40789784063782
 20
63.47786704178183
 10
50.40423394823964
 20
63.48419784346899
 10
50.40187891101367
 20
63.49028840423118
 10
50.40082382506343
 20
63.49618321285605
 10
50.40113101658064
 20
63.50199794072665
 10
50.40288061927894
 20
63.50786605487485
 10
50.40615276687203
 20
63.51392102233253
 10
50.41102759307362
 20
63.52029631013161
 10
50.41758523159739
 20
63.52712538530396
 10
50.42590581615703
 20
63.53454171488146
 10
50.43606948046628
 20
63.54267876589599
 10
50.44807622434452
 20
63.55162996528104
 10
50.46160551203389
 20
63.56132857957639
 10
50.47625667388228
 20
63.57166783522345
 10
50.49162904023758
 20
63.58254095866358
 10
50.50732194144765
 20
63.59384117633818
 10
50.52293470786039
 20
63.60546171468861
 10
50.53806666982365
 20
63.61729580015628
 10
50.55231715768533
 20
63.62923665918258
 10
50.56536563568759
 20
63.64120866059435
 10
50.57721210364983
 20
63.6532607427604
 10
50.58793669528575
 20
63.665472986435
 10
50.59761954430904
 20
63.67792547237245
 10
50.6063407844334
 20
63.69069828132701
 10
50.6141805493725
 20
63.70387149405297
 10
50.62121897284004
 20
63.71752519130461
 10
50.62753618854976
 20
63.73173945383619
 10
50.63319452287389
 20
63.74657211767371
 10
50.63818507281899
 20
63.76199203992999
 10
50.64248112805024
 20
63.77794583298956
 10
50.64605597823274
 20
63.79438010923694
 10
50.64888291303168
 20
63.81124148105665
 10
50.65093522211217
 20
63.8284765608332
 10
50.65218619513934
 20
63.84603196095115
 10
50.65260912177837
 20
63.86385429379499
 10
50.65196805270096
 20
63.88206812823774
 10
50.64919008260496
 20
63.90150985910628
 10
50.64299306719489
 20
63.92319383771594
 10
50.6320948621752
 20
63.9481344153821
 10
50.61521332325029
 20
63.9773459434201
 10
50.59106630612468
 20
64.01184277314531
 10
50.55837166650284
 20
64.05263925587305
 10
50.51584726008918
 20
64.10074974291868
 10
50.46258490127333
 20
64.1568059794261
 10
50.39917223918544
 20
64.21990928585316
 10
50.32657088164077
 20
64.28877837648629
 10
50.24574243645464
 20
64.3621319656119
 10
50.1576485114423
 20
64.43868876751641
 10
50.06325071441906
 20
64.51716749648619
 10
49.96351065320023
 20
64.59628686680767
 10
49.85938993560103
 20
64.67476559276724
 10
49.75178339107117
 20
64.75152703855733
 10
49.64131873559758
 20
64.82631316799431
 10
49.52855690680165
 20
64.89907059480059
 10
49.41405884230466
 20
64.96974593269857
 10
49.29838547972799
 20
65.03828579541061
 10
49.182097756693
 20
65.10463679665912
 10
49.06575661082095
 20
65.1687455501665
 10
48.94992297973324
 20
65.23055866965515
 10
48.83502424450051
 20
65.29003611536109
 10
48.72095355999053
 20
65.34719123357503
 10
48.60747052452035
 20
65.40205071710127
 10
48.49433473640713
 20
65.45464125874419
 10
48.38130579396797
 20
65.5049895513081
 10
48.26814329551989
 20
65.55312228759735
 10
48.15460683938002
 20
65.59906616041624
 10
48.04045602386547
 20
65.64284786256916
 10
47.92549941795629
 20
65.68451633158871
 10
47.80974147328472
 20
65.7242094839207
 10
47.69323561214588
 20
65.76208748073921
 10
47.57603525683502
 20
65.79831048321834
 10
47.45819382964731
 20
65.83303865253218
 10
47.33976475287792
 20
65.86643214985482
 10
47.22080144882204
 20
65.89865113636034
 10
47.1013573397749
 20
65.92985577322285
 10
46.98157043400962
 20
65.96014393673397
 10
46.86191708371139
 20
65.98936436365554
 10
46.74295822704341
 20
66.01730350586691
 10
46.6252548021688
 20
66.04374781524746
 10
46.50936774725075
 20
66.06848374367655
 10
46.39585800045239
 20
66.09129774303356
 10
46.28528649993691
 20
66.11197626519784
 10
46.17821418386748
 20
66.13030576204876
 10
46.07502836672876
 20
66.14611272584284
 10
45.97542186829162
 20
66.15938381034514
 10
45.87891388464838
 20
66.17014570969785
 10
45.78502361189142
 20
66.17842511804318
 10
45.69327024611307
 20
66.18424872952335
 10
45.60317298340568
 20
66.18764323828057
 10
45.51425101986168
 20
66.18863533845701
 10
45.42602355157334
 20
66.18725172419489
 10
45.33812997547451
 20
66.18347460034709
 10
45.25069049186482
 20
66.177108214609
 10
45.16394550188535
 20
66.16791232538678
 10
45.0781354066772
 20
66.15564669108649
 10
44.99350060738144
 20
66.14007107011424
 10
44.91028150513915
 20
66.12094522087613
 10
44.82871850109141
 20
66.09802890177824
 10
44.74905199637933
 20
66.07108187122666
 10
44.67146896984877
 20
66.03998845722519
 10
44.59594271116491
 20
66.00513126616829
 10
44.5223930876977
 20
65.96701747404809
 10
44.45073996681705
 20
65.92615425685676
 10
44.38090321589295
 20
65.88304879058641
 10
44.31280270229537
 20
65.8382082512292
 10
44.24635829339426
 20
65.79213981477727
 10
44.18148985655952
 20
65.74535065722277
 10
44.11816622946298
 20
65.69822783387238
 10
44.05655213098355
 20
65.65067791729093
 10
43.99686125030199
 20
65.60248735935778
 10
43.93930727659905
 20
65.5534426119523
 10
43.8841038990555
 20
65.50333012695387
 10
43.83146480685208
 20
65.45193635624184
 10
43.78160368916955
 20
65.3990477516956
 10
43.73473423518865
 20
65.34445076519448
 10
43.69099445246012
 20
65.28791405308052
 10
43.65021962201477
 20
65.22913508954627
 10
43.61216934325324
 20
65.16779355324699
 10
43.57660321557634
 20
65.10356912283786
 10
43.54328083838479
 20
65.03614147697412
 10
43.51196181107936
 20
64.96519029431098
 10
43.48240573306074
 20
64.89039525350367
 10
43.4543722037297
 20
64.81143603320738
 10
43.42767869659494
 20
64.72814357503679
 10
43.40237418159705
 20
64.64095387244445
 10
43.37856550278458
 20
64.55045418184226
 10
43.35635950420608
 20
64.45723175964218
 10
43.33586302991008
 20
64.3618738622562
 10
43.31718292394518
 20
64.26496774609624
 10
43.30042603035991
 20
64.16710066757429
 10
43.28569919320279
 20
64.06885988310225
 10
43.27313596821182
 20
63.97074367073642
 10
43.26297675788267
 20
63.87289439511008
 10
43.25548867640036
 20
63.77536544250086
 10
43.25093883794998
 20
63.67821019918636
 10
43.24959435671659
 20
63.5814820514442
 10
43.25172234688525
 20
63.48523438555197
 10
43.25758992264105
 20
63.3895205877873
 10
43.26746419816902
 20
63.29439404442776
 10
43.28163009490534
 20
63.19988589741292
 10
43.30044376329074
 20
63.10593831132996
 10
43.32427916101695
 20
63.01247120642802
 10
43.35351024577581
 20
62.91940450295619
 10
43.3885109752591
 20
62.8266581211636
 10
43.42965530715859
 20
62.7341519812994
 10
43.47731719916607
 20
62.64180600361268
 10
43.53187060897337
 20
62.54954010835258
 10
43.5933778625012
 20
62.45750110984506
 10
43.66065475858617
 20
62.36674339872346
 10
43.73220546429378
 20
62.27854825969799
 10
43.8065341466896
 20
62.19419697747883
 10
43.8821449728391
 20
62.11497083677617
 10
43.95754210980786
 20
62.04215112230021
 10
44.0312297246614
 20
61.97701911876114
 10
44.10171198446526
 20
61.92085611086916
 10
44.16782694748111
 20
61.87457857314626
 10
44.2297482367553
 20
61.83764373936178
 10
44.28798336653032
 20
61.80914403309682
 10
44.34303985104867
 20
61.78817187793253
 10
44.39542520455289
 20
61.77381969745005
 10
44.44564694128546
 20
61.76517991523049
 10
44.49421257548885
 20
61.76134495485499
 10
44.5416296214056
 20
61.76140723990467
 10
44.58826969035536
 20
61.76456360690726
 10
44.63396078196669
 20
61.77042854417682
 10
44.67839499294523
 20
61.77872095297401
 10
44.7212644199967
 20
61.78915973455946
 10
44.76226115982679
 20
61.80146379019385
 10
44.80107730914115
 20
61.81535202113781
 10
44.83740496464551
 20
61.830543328652
 10
44.87093622304554
 20
61.84675661399706
 10
44.90144434603377
 20
61.86371552708401
 10
44.92902725524991
 20
61.88116271242522
 10
44.9538640373205
 20
61.89884556318346
 10
44.97613377887209
 20
61.91651147252144
 10
44.99601556653121
 20
61.93390783360192
 10
45.01368848692443
 20
61.95078203958765
 10
45.02933162667825
 20
61.96688148364137
 10
45.04312407241926
 20
61.98195355892583
 10
45.05523769989923
 20
61.99580833587168
 10
45.06581554137111
 20
62.00850659398138
 10
45.074993418213
 20
62.02017179002528
 10
45.08290715180315
 20
62.03092738077376
 10
45.08969256351972
 20
62.04089682299719
 10
45.09548547474088
 20
62.05020357346593
 10
45.1004217068448
 20
62.05897108895036
 10
45.10463708120964
 20
62.06732282622083
 10
45.10822650006643
 20
62.07536978594085
 10
45.11112118905738
 20
62.08317314434639
 10
45.11321145467761
 20
62.09078162156656
 10
45.11438760342215
 20
62.09824393773049
 10
45.11453994178608
 20
62.10560881296725
 10
45.11355877626452
 20
62.11292496740599
 10
45.11133441335249
 20
62.12024112117577
 10
45.10775715954506
 20
62.12760599440574
 10
45.10271935272863
 20
62.13510078736681
 10
45.09612145635477
 20
62.14293662089716
 10
45.0878659652664
 20
62.15135709597682
 10
45.07785537430637
 20
62.16060581358576
 10
45.06599217831761
 20
62.17092637470402
 10
45.05217887214302
 20
62.18256238031159
 10
45.03631795062545
 20
62.1957574313885
 10
45.01831190860786
 20
62.21075512891473
 10
44.99815465218715
 20
62.22770366354777
 10
44.97620573247687
 20
62.24636958465506
 10
44.95291611184447
 20
62.26642403128149
 10
44.92873675265753
 20
62.28753814247198
 10
44.90411861728357
 20
62.30938305727142
 10
44.87951266809015
 20
62.33162991472472
 10
44.85536986744477
 20
62.35394985387678
 10
44.832141177715
 20
62.37601401377251
 10
44.81021255792058
 20
62.39759097377078
 10
44.78970995369027
 20
62.41883907448627
 10
44.77069430730495
 20
62.44001409684768
 10
44.75322656104561
 20
62.46137182178365
 10
44.7373676571931
 20
62.48316803022287
 10
44.72317853802844
 20
62.50565850309401
 10
44.71072014583255
 20
62.52909902132571
 10
44.70005342288637
 20
62.55374536584666
 10
44.69121087199257
 20
62.57976399712584
 10
44.6841112380408
 20
62.60696409379352
 10
44.67864482644255
 20
62.63506551402036
 10
44.67470194260918
 20
62.66378811597693
 10
44.67217289195215
 20
62.69285175783387
 10
44.67094797988285
 20
62.72197629776176
 10
44.67091751181272
 20
62.75088159393124
 10
44.67197179315318
 20
62.7792875045129
 10
44.67406613329554
 20
62.80703771849327
 10
44.6774158575507
 20
62.83447124812254
 10
44.68230129520949
 20
62.86205093646681
 10
44.68900277556269
 20
62.89023962659214
 10
44.69780062790104
 20
62.91950016156467
 10
44.70897518151538
 20
62.95029538445046
 10
44.72280676569651
 20
62.98308813831562
 10
44.73957570973523
 20
63.01834126622622
 10
44.75941811567491
 20
63.0563207000716
 10
44.78189317656936
 20
63.09650472703374
 10
44.80641585822505
 20
63.13817472311793
 10
44.83240112644832
 20
63.18061206432939
 10
44.85926394704562
 20
63.22309812667334
 10
44.88641928582338
 20
63.26491428615506
 10
44.913282108588
 20
63.30534191877975
 10
44.93926738114587
 20
63.34366240055267
 10
44.96392007681174
 20
63.37938446869475
 10
44.98730519893327
 20
63.4129263052897
 10
45.0096177583666
 20
63.44493345363691
 10
45.03105276596772
 20
63.47605145703577
 10
45.05180523259268
 20
63.50692585878569
 10
45.07207016909748
 20
63.53820220218608
 10
45.09204258633821
 20
63.57052603053632
 10
45.11191749517089
 20
63.6045428871358
 10
45.13182693422417
 20
63.64071155428734
 10
45.15165105321721
 20
63.67874377030725
 10
45.17120702964182
 20
63.71816451251524
 10
45.19031204098975
 20
63.75849875823101
 10
45.20878326475281
 20
63.79927148477428
 10
45.22643787842278
 20
63.84000766946478
 10
45.24309305949145
 20
63.88023228962221
 10
45.25856598545058
 20
63.91947032256627
 10
45.27271649237724
 20
63.95730155611035
 10
45.28557505068945
 20
63.99352502004239
 10
45.29721478939051
 20
64.027994554644
 10
45.30770883748366
 20
64.06056400019679
 10
45.31713032397227
 20
64.09108719698238
 10
45.32555237785954
 20
64.11941798528239
 10
45.33304812814878
 20
64.14541020537841
 10
45.33969070384332
 20
64.16891769755205
 10
45.3455694848962
 20
64.18986129213703
 10
45.35083885505986
 20
64.20842977967544
 10
45.35566944903652
 20
64.2248789407615
 10
45.36023190152838
 20
64.23946455598937
 10
45.36469684723767
 20
64.2524424059533
 10
45.36923492086656
 20
64.26406827124745
 10
45.37401675711733
 20
64.27459793246605
 10
45.37921299069217
 20
64.28428717020328
 10
45.38497191135014
 20
64.29333492490272
 10
45.39135242907792
 20
64.30171277640543
 10
45.39839110891889
 20
64.30933546440188
 10
45.40612451591652
 20
64.3161177285825
 10
45.41458921511436
 20
64.32197430863773
 10
45.4238217715558
 20
64.32681994425802
 10
45.43385875028433
 20
64.33056937513381
 10
45.44473671634343
 20
64.33313734095555
 10
45.4565186425023
 20
64.3344203112677
 10
45.46937313243305
 20
64.3342416750309
 10
45.48349519753354
 20
64.33240655105973
 10
45.49907984920166
 20
64.32872005816888
 10
45.51632209883525
 20
64.32298731517295
 10
45.53541695783219
 20
64.31501344088657
 10
45.55655943759032
 20
64.30460355412439
 10
45.5799445495075
 20
64.29156277370106
 10
45.60569823830944
 20
64.27575102886908
 10
45.63367018203293
 20
64.25724749063263
 10
45.66364099204272
 20
64.23618614043379
 10
45.69539127970343
 20
64.21270095971459
 10
45.7287016563797
 20
64.18692592991712
 10
45.76335273343628
 20
64.15899503248344
 10
45.79912512223775
 20
64.12904224885561
 10
45.83579943414886
 20
64.09720156047569
 10
45.87316846906265
 20
64.06357649835666
 10
45.91107378098596
 20
64.02814879179512
 10
45.94936911245407
 20
63.99086971965852
 10
45.9879082060022
 20
63.95169056081439
 10
46.0265448041656
 20
63.91056259413019
 10
46.06513264947955
 20
63.86743709847343
 10
46.10352548447927
 20
63.8222653527116
 10
46.14157705170003
 20
63.7749986357122
 10
46.17913499941288
 20
63.72564506682778
 10
46.21602259883196
 20
63.67444012735134
 10
46.2520570269073
 20
63.62167613906089
 10
46.28705546058879
 20
63.56764542373452
 10
46.32083507682641
 20
63.51264030315023
 10
46.35321305257014
 20
63.4569530990861
 10
46.38400656476991
 20
63.4008761333202
 10
46.4130327903757
 20
63.34470172763051
 10
46.440127188498
 20
63.28860040319365
 10
46.46519834688933
 20
63.23225547878018
 10
46.48817313546278
 20
63.17522847255919
 10
46.5089784241314
 20
63.1170809026998
 10
46.52754108280825
 20
63.05737428737106
 10
46.54378798140641
 20
62.99567014474212
 10
46.55764598983893
 20
62.93152999298204
 10
46.56904197801887
 20
62.86451535025991
 10
46.57790687873223
 20
62.79436637544121
 10
46.58418787625662
 20
62.72153779017689
 10
46.58783621774255
 20
62.64666295681433
 10
46.58880315034062
 20
62.57037523770081
 10
46.5870399212013
 20
62.49330799518372
 10
46.58249777747513
 20
62.41609459161035
 10
46.57512796631269
 20
62.33936838932807
 10
46.56488173486448
 20
62.2637627506842
 10
46.55167213136501
 20
62.18971457063119
 10
46.5352594083848
 20
62.11687487454184
 10
46.51536561957831
 20
62.0446982203941
 10
46.49171281859998
 20
61.97263916616586
 10
46.46402305910431
 20
61.90015226983504
 10
46.43201839474577
 20
61.82669208937955
 10
46.39542087917879
 20
61.75171318277733
 10
46.35395256605788
 20
61.67467010800629
 10
46.30749116526532
 20
61.59525402399329
 10
46.25653701159472
 20
61.51410249346109
 10
46.20174609606752
 20
61.43208968008135
 10
46.14377440970515
 20
61.35008974752578
 10
46.08327794352907
 20
61.26897685946607
 10
46.02091268856068
 20
61.18962517957391
 10
45.95733463582143
 20
61.11290887152098
 10
45.89319977633278
 20
61.03970209897898
 10
45.82834156066082
 20
60.97021994928548
 10
45.75930327755038
 20
60.90204120444152
 10
45.68180567529101
 20
60.83208557011403
 10
45.59156950217226
 20
60.75727275196993
 10
45.48431550648364
 20
60.67452245567613
 10
45.35576443651462
 20
60.58075438689957
 10
45.20163704055494
 20
60.47288825130728
  0
LWPOLYLINE
  5
477C
330
18
100
AcDbEntity
  8
0
100
AcDbPolyline
 90
        3
 70
     0
 43
0.0
 10
42.81366579850439
 20
61.0781399878512
 10
42.85752135139276
 20
61.11803873261707
 10
42.87288821969366
 20
61.13166719872705
  0
ARC
  5
477D
330
18
100
AcDbEntity
  8
0
100
AcDbCircle
 10
44.59044334938001
 20
61.2830406637368
 30
0.0
 40
1.01484218452794
100
AcDbArc
 50
238.6273911569441
 51
307.0315651434517
  0
ARC
  5
477E
330
18
100
AcDbEntity
  8
0
100
AcDbCircle
 10
41.18597927800192
 20
62.45793726750901
 30
0.0
 40
2.133823784190373
100
AcDbArc
 50
253.0720400834187
 51
319.7119036606982
  0
ARC
  5
477F
330
18
100
AcDbEntity
  8
0
100
AcDbCircle
 10
50.9215743738126
 20
63.60741838146462
 30
0.0
 40
0.327085602209658
100
AcDbArc
 50
257.9326500076545
 51
305.8292447408098
  0
LWPOLYLINE
  5
4780
330
18
100
AcDbEntity
  8
0
100
AcDbPolyline
 90
       25
 70
     0
 43
0.0
 10
42.87288821969366
 20
61.13166719872705
 10
42.90598483510451
 20
61.10917876714928
 10
42.97991730390524
 20
61.05811469107911
 10
43.05660918539451
 20
61.00453803869889
 10
43.13419677959802
 20
60.94990610711811
 10
43.21081638654162
 20
60.89567619344625
 10
43.28460430625108
 20
60.84330559479281
 10
43.35369683875216
 20
60.79425160826724
 10
43.41623028407071
 20
60.74997153097909
 10
43.47083122400961
 20
60.71156304668566
 10
43.51808736748035
 20
60.67868538573592
 10
43.55907670517156
 20
60.65063816512672
 10
43.59487722777183
 20
60.62672100185489
 10
43.62656692596981
 20
60.60623351291726
 10
43.65522379045412
 20
60.58847531531069
 10
43.68192581191333
 20
60.57274602603198
 10
43.70775098103613
 20
60.55834526207801
 10
43.73398314371865
 20
60.5445537964937
 10
43.76272956668731
 20
60.53057702651637
 10
43.79630337187609
 20
60.51560150543143
 10
43.83701768121897
 20
60.4988137865243
 10
43.88718561664995
 20
60.47940042308042
 10
43.94912030010292
 20
60.45654796838517
 10
44.02513485351197
 20
60.429442975724
 10
44.0621149667622
 20
60.41656863324887
  0
LWPOLYLINE
  5
4781
330
18
100
AcDbEntity
  8
0
100
AcDbPolyline
 90
      505
 70
     0
 43
0.0
 10
52.28525000916213
 20
64.49933554459566
 10
52.29551958860654
 20
64.58044706641361
 10
52.30126391246052
 20
64.65117017385771
 10
52.30298456279831
 20
64.7127497136374
 10
52.30118312169402
 20
64.76643053246206
 10
52.2963611712219
 20
64.81345747704108
 10
52.28902029345615
 20
64.8550753940839
 10
52.2796620704709
 20
64.89252913029985
 10
52.26878808434035
 20
64.92706353239842
 10
52.25684479802906
 20
64.95968659581932
 10
52.2440581980626
 20
64.99045891092396
 10
52.23059915185695
 20
65.01920421680407
 10
52.21663852682807
 20
65.04574625255145
 10
52.20234719039188
 20
65.06990875725783
 10
52.18789600996434
 20
65.091515470015
 10
52.17345585296142
 20
65.11039012991469
 10
52.15919758679904
 20
65.12635647604868
 10
52.1452727874486
 20
65.13930618151018
 10
52.13175586510312
 20
65.14940265539829
 10
52.11870193851115
 20
65.15687724081356
 10
52.10616612642114
 20
65.1619612808565
 10
52.09420354758158
 20
65.16488611862769
 10
52.08286932074098
 20
65.16588309722767
 10
52.07221856464783
 20
65.16518355975697
 10
52.06230639805061
 20
65.16301884931614
 10
52.05316772954422
 20
65.15958175182231
 10
52.04475662710916
 20
65.1549108244589
 10
52.03700694857233
 20
65.14900606722592
 10
52.02985255176066
 20
65.14186748012336
 10
52.02322729450102
 20
65.13349506315122
 10
52.01706503462034
 20
65.12388881630951
 10
52.01129962994551
 20
65.11304873959821
 10
52.00586493830349
 20
65.10097483301734
 10
52.00065990901651
 20
65.08770381763823
 10
51.9954438573886
 20
65.07341929881748
 10
51.98994119021911
 20
65.05834160298308
 10
51.98387631430741
 20
65.04269105656297
 10
51.97697363645287
 20
65.02668798598512
 10
51.96895756345487
 20
65.01055271767747
 10
51.95955250211277
 20
64.99450557806799
 10
51.94848285922595
 20
64.97876689358463
 10
51.93553367205456
 20
64.9635533187099
 10
51.92073249970196
 20
64.94906682014437
 10
51.90416753173229
 20
64.93550569264313
 10
51.8859269577096
 20
64.92306823096135
 10
51.8660989671981
 20
64.91195272985409
 10
51.84477174976184
 20
64.90235748407652
 10
51.822033494965
 20
64.89448078838371
 10
51.79797239237169
 20
64.8885209375308
 10
51.77258109276126
 20
64.88476252086579
 10
51.74547009177397
 20
64.88383530610812
 10
51.71615434626531
 20
64.88645535557016
 10
51.68414881309075
 20
64.89333873156425
 10
51.64896844910581
 20
64.90520149640274
 10
51.61012821116596
 20
64.92275971239799
 10
51.56714305612667
 20
64.94672944186231
 10
51.51952794084346
 20
64.97782674710809
 10
51.46688601173593
 20
65.01650697022248
 10
51.4091731734802
 20
65.06218257239192
 10
51.34643352031651
 20
65.11400529457768
 10
51.27871114648506
 20
65.17112687774101
 10
51.20605014622614
 20
65.23269906284319
 10
51.12849461377995
 20
65.29787359084548
 10
51.04608864338675
 20
65.36580220270915
 10
50.95887632928676
 20
65.43563663939545
 10
50.86710937932973
 20
65.50654516659581
 10
50.77186995580332
 20
65.5777621489223
 10
50.67444783460476
 20
65.64853847571715
 10
50.57613279163123
 20
65.71812503632256
 10
50.4782146027799
 20
65.78577272008075
 10
50.38198304394799
 20
65.85073241633399
 10
50.28872789103266
 20
65.91225501442446
 10
50.1997389199311
 20
65.96959140369438
 10
50.11580090591336
 20
66.02228467273765
 10
50.03567862174076
 20
66.07104670715476
 10
49.95763183954753
 20
66.11688159179784
 10
49.87992033146782
 20
66.16079341151906
 10
49.80080386963585
 20
66.20378625117057
 10
49.7185422261858
 20
66.24686419560447
 10
49.63139517325187
 20
66.29103132967296
 10
49.53762248296822
 20
66.33729173822818
 10
49.43585203878148
 20
66.3863907088033
 10
49.32618416938784
 20
66.43803833965602
 10
49.20908731479589
 20
66.49168593172501
 10
49.08502991501425
 20
66.54678478594895
 10
48.95448041005149
 20
66.60278620326659
 10
48.8179072399162
 20
66.65914148461657
 10
48.67577884461707
 20
66.71530193093762
 10
48.52856366416258
 20
66.77071884316848
 10
48.37681820874351
 20
66.82490236513081
 10
48.22145126927875
 20
66.8775980121784
 10
48.06345970686933
 20
66.92861014254801
 10
47.90384038261631
 20
66.97774311447642
 10
47.7435901576207
 20
67.02480128620044
 10
47.58370589298352
 20
67.06958901595682
 10
47.4251844498058
 20
67.11191066198233
 10
47.26902268918858
 20
67.15157058251375
 10
47.11591665257476
 20
67.18842903653232
 10
46.96535910277493
 20
67.22256988599697
 10
46.81654198294158
 20
67.25413289361111
 10
46.66865723622708
 20
67.2832578220781
 10
46.52089680578399
 20
67.31008443410138
 10
46.3724526347647
 20
67.33475249238434
 10
46.22251666632172
 20
67.35740175963034
 10
46.0702808436075
 20
67.37817199854281
 10
45.91537739711074
 20
67.39718744269158
 10
45.75919970666515
 20
67.41451020911249
 10
45.60358143944075
 20
67.43018688570777
 10
45.45035626260744
 20
67.44426406037971
 10
45.30135784333523
 20
67.45678832103052
 10
45.15841984879407
 20
67.46780625556255
 10
45.02337594615393
 20
67.47736445187801
 10
44.8980598025848
 20
67.48550949787915
 10
44.78336942380328
 20
67.49226195386299
 10
44.67646016971268
 20
67.49753826970518
 10
44.57355173876303
 20
67.50122886767624
 10
44.47086382940422
 20
67.50322417004653
 10
44.36461614008631
 20
67.50341459908651
 10
44.25102836925924
 20
67.50169057706656
 10
44.12632021537301
 20
67.4979425262572
 10
43.98671137687755
 20
67.49206086892877
 10
43.82946604875014
 20
67.48394129141566
 10
43.65602641207694
 20
67.47350053630793
 10
43.4688791444714
 20
67.46066061025956
 10
43.27051092354692
 20
67.44534351992458
 10
43.063408426917
 20
67.42747127195693
 10
42.85005833219502
 20
67.40696587301063
 10
42.63294731699444
 20
67.38374932973967
 10
42.41456205892869
 20
67.35774364879805
 10
42.19699457750474
 20
67.32888354480023
 10
41.98075825980356
 20
67.2971545642027
 10
41.76597183479969
 20
67.26255496142241
 10
41.55275403146763
 20
67.2250829908763
 10
41.34122357878188
 20
67.18473690698136
 10
41.13149920571697
 20
67.14151496415451
 10
40.92369964124741
 20
67.09541541681275
 10
40.7179436143477
 20
67.04643651937302
 10
40.51438637496743
 20
66.99459182287549
 10
40.31332925695639
 20
66.93995606485339
 10
40.11511011513937
 20
66.88261927946308
 10
39.92006680434125
 20
66.82267150086102
 10
39.72853717938686
 20
66.76020276320361
 10
39.54085909510104
 20
66.69530310064724
 10
39.35737040630863
 20
66.62806254734835
 10
39.17840896783445
 20
66.55857113746336
 10
39.00432389605995
 20
66.48698267946821
 10
38.83550935359288
 20
66.4137060791171
 10
38.67237076459756
 20
66.33921401648378
 10
38.51531355323832
 20
66.26397917164192
 10
38.3647431436795
 20
66.18847422466529
 10
38.22106496008543
 20
66.11317185562761
 10
38.08468442662044
 20
66.03854474460263
 10
37.95600696744887
 20
65.96506557166404
 10
37.83522027879259
 20
65.89308697112073
 10
37.7216411451036
 20
65.82248139422211
 10
37.61436862289148
 20
65.7530012464527
 10
37.51250176866576
 20
65.68439893329705
 10
37.415139638936
 20
65.6164268602397
 10
37.32138129021176
 20
65.54883743276521
 10
37.23032577900257
 20
65.48138305635811
 10
37.14107216181802
 20
65.41381613650294
 10
37.05300479398474
 20
65.34610666142402
 10
36.96664922609796
 20
65.27909495030477
 10
36.88281630756998
 20
65.21383890506836
 10
36.80231688781311
 20
65.151396427638
 10
36.72596181623968
 20
65.0928254199369
 10
36.65456194226197
 20
65.03918378388823
 10
36.58892811529233
 20
64.99152942141519
 10
36.52987118474309
 20
64.95092023444098
 10
36.47791294708628
 20
64.9181102595412
 10
36.43241898703309
 20
64.89263807190116
 10
36.3924658363544
 20
64.87373838135853
 10
36.35713002682116
 20
64.86064589775105
 10
36.32548809020426
 20
64.8525953309164
 10
36.29661655827462
 20
64.84882139069231
 10
36.26959196280315
 20
64.84855878691647
 10
36.24349083556075
 20
64.85104222942658
 10
36.21759892798674
 20
64.8556059553924
 10
36.19203887019381
 20
64.86198231131169
 10
36.1671425119631
 20
64.87000317101432
 10
36.14324170307567
 20
64.87950040833005
 10
36.12066829331265
 20
64.89030589708878
 10
36.09975413245513
 20
64.9022515111203
 10
36.0808310702842
 20
64.91516912425443
 10
36.06423095658099
 20
64.92889061032099
 10
36.05019131666136
 20
64.94325761867128
 10
36.03857237798048
 20
64.95815090074242
 10
36.0291400435282
 20
64.973460983493
 10
36.02166021629449
 20
64.98907839388159
 10
36.01589879926925
 20
65.00489365886679
 10
36.01162169544241
 20
65.02079730540716
 10
36.00859480780386
 20
65.03667986046131
 10
36.00658403934355
 20
65.05243185098783
 10
36.00536995798986
 20
65.06794288889942
 10
36.00479179142502
 20
65.08309892592547
 10
36.00470343226974
 20
65.09778499874946
 10
36.00495877314474
 20
65.11188614405492
 10
36.00541170667073
 20
65.12528739852534
 10
36.00591612546842
 20
65.13787379884423
 10
36.00632592215851
 20
65.14953038169508
 10
36.00649498936172
 20
65.16014218376144
 10
36.00629955606299
 20
65.16963152336471
 10
36.00570519670418
 20
65.17806984537815
 10
36.00469982209141
 20
65.18556587631289
 10
36.00327134303079
 20
65.19222834268015
 10
36.00140767032844
 20
65.19816597099108
 10
35.99909671479043
 20
65.20348748775685
 10
35.99632638722289
 20
65.20830161948861
 10
35.99308459843193
 20
65.21271709269756
 10
35.98935522976327
 20
65.2167963244921
 10
35.98510604472108
 20
65.22041649436944
 10
35.98030077734918
 20
65.22340847242414
 10
35.97490316169134
 20
65.22560312875066
 10
35.96887693179137
 20
65.22683133344348
 10
35.96218582169306
 20
65.22692395659712
 10
35.95479356544021
 20
65.22571186830603
 10
35.94666389707662
 20
65.22302593866474
 10
35.93778271326517
 20
65.21872522625256
 10
35.92822456114515
 20
65.21278154358802
 10
35.91808615047491
 20
65.20519489167458
 10
35.90746419101281
 20
65.1959652715156
 10
35.89645539251726
 20
65.18509268411452
 10
35.88515646474661
 20
65.1725771304747
 10
35.87366411745922
 20
65.15841861159957
 10
35.86207506041343
 20
65.14261712849251
 10
35.85048600336766
 20
65.12518073561955
 10
35.83899365608027
 20
65.10614970129701
 10
35.8276947283096
 20
65.08557234730389
 10
35.81668592981406
 20
65.06349699541914
 10
35.80606397035197
 20
65.03997196742173
 10
35.79592555968174
 20
65.01504558509063
 10
35.7863674075617
 20
64.98876617020478
 10
35.77748622375027
 20
64.96118204454316
 10
35.7693847623318
 20
64.93235763764609
 10
35.76218995469485
 20
64.9024218100993
 10
35.75603477655401
 20
64.8715195302499
 10
35.75105220362382
 20
64.83979576644497
 10
35.74737521161888
 20
64.80739548703159
 10
35.74513677625375
 20
64.77446366035687
 10
35.744469873243
 20
64.74114525476792
 10
35.74550747830121
 20
64.7075852386118
 10
35.74866866722857
 20
64.67362857742394
 10
35.75551691616785
 20
64.63792022549299
 10
35.76790180134738
 20
64.59880513429593
 10
35.78767289899557
 20
64.55462825530971
 10
35.81667978534075
 20
64.5037345400113
 10
35.85677203661131
 20
64.44446893987771
 10
35.90979922903563
 20
64.37517640638588
 10
35.97761093884206
 20
64.29420189101275
 10
36.06111583603234
 20
64.20077424568606
 10
36.15745896570165
 20
64.09765792413643
 10
36.26284446671856
 20
63.98850128054518
 10
36.37347647795156
 20
63.87695266909365
 10
36.48555913826921
 20
63.76666044396321
 10
36.59529658654005
 20
63.66127295933518
 10
36.69889296163264
 20
63.5644385693909
 10
36.79255240241548
 20
63.47980562831173
 10
36.87338973199241
 20
63.41012248234564
 10
36.9421625104082
 20
63.35453744600717
 10
37.00053898194291
 20
63.3112988258775
 10
37.05018739087658
 20
63.2786549285378
 10
37.09277598148928
 20
63.25485406056924
 10
37.12997299806103
 20
63.23814452855301
 10
37.16344668487193
 20
63.22677463907027
 10
37.19486528620199
 20
63.21899269870218
 10
37.22560691696586
 20
63.21332889575645
 10
37.25588917461659
 20
63.20944094544667
 10
37.28563952724169
 20
63.20726844471301
 10
37.3147854429288
 20
63.20675099049558
 10
37.34325438976551
 20
63.20782817973449
 10
37.37097383583944
 20
63.21043960936989
 10
37.3978712492381
 20
63.21452487634191
 10
37.42387409804914
 20
63.22002357759066
 10
37.44890985026986
 20
63.22685517564725
 10
37.4729059735363
 20
63.23485859540662
 10
37.49578993539423
 20
63.24385262735469
 10
37.51748920338945
 20
63.25365606197738
 10
37.53793124506767
 20
63.26408768976062
 10
37.55704352797472
 20
63.2749663011903
 10
37.57475351965632
 20
63.28611068675236
 10
37.59098868765827
 20
63.29733963693271
 10
37.60568858817838
 20
63.30849811693228
 10
37.61884113202278
 20
63.31953579081211
 10
37.63044631864962
 20
63.33042849734824
 10
37.64050414751711
 20
63.34115207531674
 10
37.64901461808338
 20
63.35168236349364
 10
37.65597772980662
 20
63.361995200655
 10
37.66139348214505
 20
63.37206642557688
 10
37.66526187455678
 20
63.38187187703532
 10
37.66760506939002
 20
63.39139142067702
 10
37.668533880553
 20
63.40062102963135
 10
37.66818128484394
 20
63.40956070389829
 10
37.66668025906103
 20
63.41821044347785
 10
37.66416378000251
 20
63.42657024837001
 10
37.66076482446661
 20
63.4346401185748
 10
37.65661636925155
 20
63.4424200540922
 10
37.65185139115556
 20
63.4499100549222
 10
37.64655854137744
 20
63.45711213450016
 10
37.64064916871836
 20
63.46403636000271
 10
37.63399029638012
 20
63.47069481204181
 10
37.6264489475645
 20
63.47709957122946
 10
37.61789214547328
 20
63.48326271817763
 10
37.60818691330824
 20
63.48919633349827
 10
37.59720027427113
 20
63.49491249780337
 10
37.58479925156375
 20
63.50042329170491
 10
37.57092340102273
 20
63.50576093016815
 10
37.55580240902401
 20
63.51103816557152
 10
37.53973849457847
 20
63.51638788464673
 10
37.52303387669689
 20
63.52194297412552
 10
37.50599077439011
 20
63.52783632073958
 10
37.48891140666895
 20
63.53420081122063
 10
37.47209799254424
 20
63.54116933230042
 10
37.45585275102679
 20
63.54887477071065
 10
37.44043760516902
 20
63.55743591919146
 10
37.42595329418968
 20
63.5669151945168
 10
37.41246026134911
 20
63.57736091946903
 10
37.40001894990764
 20
63.5888214168305
 10
37.38868980312563
 20
63.60134500938361
 10
37.37853326426341
 20
63.61498001991066
 10
37.36960977658132
 20
63.62977477119408
 10
37.3619797833397
 20
63.64577758601621
 10
37.35572387573294
 20
63.66304484090072
 10
37.35100323669166
 20
63.68166512733657
 10
37.34799919708053
 20
63.70173509055402
 10
37.34689308776422
 20
63.72335137578332
 10
37.34786623960739
 20
63.74661062825476
 10
37.35109998347473
 20
63.77160949319858
 10
37.35677565023089
 20
63.79844461584503
 10
37.36507457074053
 20
63.82721264142439
 10
37.37628083004305
 20
63.85805048392925
 10
37.39108952987662
 20
63.89125613240151
 10
37.4102985261542
 20
63.92716784464536
 10
37.43470567478868
 20
63.96612387846503
 10
37.46510883169295
 20
64.00846249166474
 10
37.5023058527799
 20
64.05452194204872
 10
37.5470945939625
 20
64.10464048742117
 10
37.60027291115362
 20
64.15915638558629
 10
37.66240494488133
 20
64.21825084611393
 10
37.73311997413431
 20
64.28147688563637
 10
37.81181356251639
 20
64.34823047255147
 10
37.8978812736314
 20
64.4179075752571
 10
37.99071867108313
 20
64.48990416215117
 10
38.08972131847547
 20
64.56361620163153
 10
38.19428477941219
 20
64.63843966209608
 10
38.30380461749715
 20
64.7137705119427
 10
38.41766433712125
 20
64.78902812311407
 10
38.5351992058237
 20
64.86372548173207
 10
38.65573243193077
 20
64.93739897746343
 10
38.7785872237688
 20
65.00958499997487
 10
38.90308678966403
 20
65.07981993893309
 10
39.02855433794278
 20
65.14764018400478
 10
39.15431307693132
 20
65.21258212485669
 10
39.27968621495594
 20
65.2741821511555
 10
39.40415916407139
 20
65.33212972354426
 10
39.52786615124622
 20
65.38672658657131
 10
39.65110360717736
 20
65.43842755576138
 10
39.77416796256186
 20
65.48768744663913
 10
39.89735564809667
 20
65.53496107472925
 10
40.02096309447878
 20
65.58070325555643
 10
40.14528673240517
 20
65.62536880464536
 10
40.27062299257286
 20
65.66941253752074
 10
40.39702270139459
 20
65.71313066352576
 10
40.52355426814643
 20
65.75618496727781
 10
40.64904049782022
 20
65.79807862721273
 10
40.77230419540781
 20
65.8383148217664
 10
40.89216816590109
 20
65.87639672937467
 10
41.00745521429186
 20
65.91182752847345
 10
41.11698814557196
 20
65.94411039749857
 10
41.21958976473329
 20
65.97274851488595
 10
41.31440670989031
 20
65.9973578739952
 10
41.40188095164823
 20
66.0180057278809
 10
41.48277829373481
 20
66.03487214452143
 10
41.55786453987789
 20
66.04813719189516
 10
41.62790549380525
 20
66.05798093798047
 10
41.69366695924474
 20
66.06458345075569
 10
41.75591473992414
 20
66.06812479819922
 10
41.81541463957124
 20
66.06878504828938
 10
41.8727597806493
 20
66.06670675491208
 10
41.92785256056303
 20
66.06188241558328
 10
41.98042269545254
 20
66.05426701372649
 10
42.03019990145799
 20
66.04381553276519
 10
42.0769138947195
 20
66.03048295612288
 10
42.1202943913772
 20
66.01422426722304
 10
42.16007110757119
 20
65.99499444948917
 10
42.19597375944164
 20
65.97274848634476
 10
42.22779588024141
 20
65.94748637823579
 10
42.25558627167454
 20
65.91938819369802
 10
42.27945755255779
 20
65.88867901828978
 10
42.2995223417079
 20
65.85558393756929
 10
42.31589325794167
 20
65.82032803709484
 10
42.32868292007588
 20
65.7831364024247
 10
42.33800394692727
 20
65.74423411911715
 10
42.34396895731266
 20
65.70384627273046
 10
42.34670558554785
 20
65.6620779031695
 10
42.34640152794503
 20
65.61855386772569
 10
42.34325949631545
 20
65.57277897803706
 10
42.33748220247038
 20
65.52425804574157
 10
42.32927235822106
 20
65.47249588247729
 10
42.31883267537878
 20
65.41699729988224
 10
42.30636586575473
 20
65.35726710959439
 10
42.29207464116019
 20
65.2928101232518
 10
42.27618048320925
 20
65.22331872379102
 10
42.25897995272708
 20
65.14923557934287
 10
42.24078838034174
 20
65.07119092933675
 10
42.22192109668124
 20
64.98981501320198
 10
42.20269343237362
 20
64.90573807036797
 10
42.1834207180469
 20
64.81959034026409
 10
42.1644182843291
 20
64.73200206231968
 10
42.14600146184825
 20
64.64360347596414
 10
42.12843840996936
 20
64.5549477933329
 10
42.11180860300539
 20
64.46628011738555
 10
42.09614434400634
 20
64.37776852378778
 10
42.08147793602214
 20
64.28958108820522
 10
42.06784168210274
 20
64.20188588630357
 10
42.05526788529811
 20
64.11485099374847
 10
42.04378884865821
 20
64.02864448620561
 10
42.03343687523299
 20
63.94343443934062
 10
42.02422232218324
 20
63.85936836768607
 10
42.01606776311291
 20
63.77651154124199
 10
42.00887382573684
 20
63.69490866887527
 10
42.00254113776979
 20
63.61460445945283
 10
41.99697032692656
 20
63.53564362184159
 10
41.99206202092194
 20
63.45807086490843
 10
41.98771684747073
 20
63.38193089752028
 10
41.98383543428775
 20
63.30726842854404
 10
41.98026943454168
 20
63.23408610734821
 10
41.97667460321681
 20
63.16221834530766
 10
41.97265772075144
 20
63.09145749429887
 10
41.96782556758377
 20
63.02159590619829
 10
41.96178492415202
 20
62.95242593288239
 10
41.95414257089441
 20
62.88373992622765
 10
41.94450528824921
 20
62.81533023811052
 10
41.93247985665466
 20
62.74698922040747
 10
41.91769803150943
 20
62.67853804244491
 10
41.89989146805416
 20
62.60991314334893
 10
41.87881679648992
 20
62.54107977969558
 10
41.85423064701784
 20
62.4720032080609
 10
41.82588964983898
 20
62.40264868502092
 10
41.79355043515445
 20
62.33298146715169
 10
41.75696963316533
 20
62.26296681102923
 10
41.71590387407273
 20
62.1925699732296
 10
41.67019091134405
 20
62.1218720230799
 10
41.61999299151186
 20
62.05141728091153
 10
41.56555348437509
 20
61.98186587980697
 10
41.50711575973264
 20
61.9138779528487
 10
41.44492318738343
 20
61.84811363311919
 10
41.37921913712637
 20
61.78523305370091
 10
41.31024697876034
 20
61.72589634767634
 10
41.23825008208426
 20
61.67076364812794
 10
41.16355873470818
 20
61.62034742677469
 10
41.08685089548663
 20
61.57456950988137
 10
41.00889144108523
 20
61.53320406234927
 10
40.93044524816967
 20
61.49602524907966
 10
40.85227719340561
 20
61.46280723497386
 10
40.7751521534587
 20
61.43332418493312
 10
40.69983500499462
 20
61.4073502638587
 10
40.62709062467898
 20
61.38465963665193
 10
40.557495567148
 20
61.36502067758766
 10
40.49087309892006
 20
61.34817859843515
 10
40.42685816448406
 20
61.33387282033726
 10
40.36508570832889
 20
61.32184276443684
 10
40.30519067494345
 20
61.31182785187673
 10
40.24680800881663
 20
61.3035675037998
 10
40.18957265443737
 20
61.29680114134888
 10
40.13311955629456
 20
61.29126818566685
 10
40.07725170022541
 20
61.28672832514472
 10
40.02244423746056
 20
61.28302231716614
 10
39.96934036057893
 20
61.28001118636293
 10
39.91858326215947
 20
61.27755595736691
 10
39.87081613478112
 20
61.27551765480989
 10
39.82668217102281
 20
61.27375730332371
 10
39.78682456346351
 20
61.27213592754017
 10
39.75188650468214
 20
61.2705145520911
 10
39.72232286513787
 20
61.26874551561297
 10
39.69783522681085
 20
61.26664641276082
 10
39.67793684956142
 20
61.26402615219439
 10
39.66214099324996
 20
61.26069364257336
 10
39.64996091773682
 20
61.25645779255747
 10
39.64090988288236
 20
61.2511275108064
 10
39.63450114854694
 20
61.24451170597989
 10
39.63024797459091
 20
61.23641928673763
 10
39.62781138127097
 20
61.22664468517332
 10
39.62744343042901
 20
61.21492442711661
 10
39.62954394430322
 20
61.20098056183115
 10
39.63451274513183
 20
61.18453513858057
 10
39.64274965515304
 20
61.16531020662851
 10
39.65465449660506
 20
61.14302781523859
 10
39.67062709172611
 20
61.11741001367448
 10
39.69106726275439
 20
61.0881788511998
 10
39.7163009516848
 20
61.05518377119357
 10
39.74635857953904
 20
61.01878379349627
 10
39.78119668709546
 20
60.97946533206378
 10
39.82077181513243
 20
60.93771480085195
 10
39.86504050442834
 20
60.89401861381666
 10
39.91395929576157
 20
60.84886318491379
 10
39.96748472991047
 20
60.80273492809918
 10
40.02557334765342
 20
60.7561202573287
 10
40.08813823072777
 20
60.70942451756558
 10
40.15491862470682
 20
60.66272877780245
 10
40.22561031612279
 20
60.61603303803932
 10
40.299909091508
 20
60.56933729827619
 10
40.37751073739467
 20
60.52264155851307
 10
40.45811104031506
 20
60.47594581874995
 10
40.54140578680146
 20
60.42925007898682
 10
40.56467577645423
 20
60.41656863324887
  0
LWPOLYLINE
  5
4782
330
18
100
AcDbEntity
  8
0
100
AcDbPolyline
 90
       25
 70
     0
 43
0.0
 10
27.49973566417559
 20
66.78812560456837
 10
27.53283227958644
 20
66.81061403614612
 10
27.6067647483872
 20
66.86167811221631
 10
27.68345662987644
 20
66.91525476459651
 10
27.76104422407997
 20
66.9698866961773
 10
27.83766383102356
 20
67.02411660984916
 10
27.91145175073302
 20
67.0764872085026
 10
27.98054428323411
 20
67.12554119502816
 10
28.04307772855265
 20
67.16982127231631
 10
28.09767866849155
 20
67.20822975660976
 10
28.1449348119623
 20
67.24110741755949
 10
28.1859241496535
 20
67.2691546381687
 10
28.22172467225378
 20
67.29307180144052
 10
28.25341437045175
 20
67.31355929037815
 10
28.28207123493605
 20
67.33131748798472
 10
28.30877325639529
 20
67.34704677726341
 10
28.33459842551807
 20
67.36144754121738
 10
28.36083058820059
 20
67.3752390068017
 10
28.38957701116925
 20
67.38921577677904
 10
28.42315081635804
 20
67.40419129786397
 10
28.46386512570092
 20
67.4209790167711
 10
28.51403306113188
 20
67.440392380215
 10
28.57596774458487
 20
67.46324483491024
 10
28.65198229799391
 20
67.49034982757141
 10
28.68896241124413
 20
67.50322417004653
  0
LWPOLYLINE
  5
4783
330
18
100
AcDbEntity
  8
0
100
AcDbPolyline
 90
       25
 70
     0
 43
0.0
 10
26.40149730490852
 20
67.51287257310335
 10
26.50063691160131
 20
67.47701278389991
 10
26.58877659913228
 20
67.44187536204542
 10
26.66698493152302
 20
67.4075796550492
 10
26.73633047279508
 20
67.3742450104206
 10
26.79788178697002
 20
67.34199077566898
 10
26.85270743806941
 20
67.3109362983037
 10
26.90187599011481
 20
67.28120092583409
 10
26.94645600712776
 20
67.25290400576952
 10
26.98742962503802
 20
67.22607380458135
 10
27.02543326740784
 20
67.20037426458898
 10
27.06101692970769
 20
67.17537824707385
 10
27.09473060740803
 20
67.15065861331739
 10
27.12712429597929
 20
67.12578822460105
 10
27.15874799089193
 20
67.10033994220623
 10
27.19015168761638
 20
67.0738866274144
 10
27.22188538162309
 20
67.04600114150695
 10
27.2544550684198
 20
67.01633486405722
 10
27.28819074366329
 20
66.98485324780614
 10
27.32337840304762
 20
66.95160026378649
 10
27.36030404226686
 20
66.91661988303109
 10
27.39925365701509
 20
66.87995607657272
 10
27.44051324298633
 20
66.8416528154442
 10
27.48436879587468
 20
66.80175407067834
 10
27.49973566417559
 20
66.78812560456837
  0
LWPOLYLINE
  5
4784
330
18
100
AcDbEntity
  8
0
100
AcDbPolyline
 90
      385
 70
     0
 43
0.0
 10
35.75356468018187
 20
64.57756402622535
 10
35.70503690620888
 20
64.60009331766582
 10
35.66151750044921
 20
64.61685681887982
 10
35.6222451907264
 20
64.62849517322585
 10
35.58645870486393
 20
64.6356490240624
 10
35.55339677068533
 20
64.63895901474796
 10
35.52229811601412
 20
64.63906578864104
 10
35.4924014686738
 20
64.63660998910014
 10
35.46294555648791
 20
64.63223225948375
 10
35.43333382706193
 20
64.6264931627863
 10
35.40362860712934
 20
64.61963294054594
 10
35.37405694320563
 20
64.61181175393676
 10
35.3448458818063
 20
64.60318976413288
 10
35.3162224694468
 20
64.59392713230835
 10
35.28841375264263
 20
64.58418401963729
 10
35.26164677790927
 20
64.57412058729378
 10
35.2361485917622
 20
64.56389699645192
 10
35.21210839963098
 20
64.55365561246971
 10
35.18956404260152
 20
64.54346761744085
 10
35.16851552067384
 20
64.53338639764294
 10
35.14896283384792
 20
64.52346533935358
 10
35.13090598212378
 20
64.51375782885039
 10
35.11434496550139
 20
64.50431725241097
 10
35.09927978398079
 20
64.49519699631292
 10
35.08571043756194
 20
64.48645044683388
 10
35.07363247434178
 20
64.47811764368203
 10
35.06302363480488
 20
64.47018524028798
 10
35.05385720753273
 20
64.4626265435129
 10
35.04610648110684
 20
64.45541486021801
 10
35.03974474410869
 20
64.4485234972645
 10
35.03474528511976
 20
64.44192576151357
 10
35.03108139272157
 20
64.43559495982642
 10
35.02872635549561
 20
64.42950439906423
 10
35.02767126954538
 20
64.42360959043935
 10
35.02797846106258
 20
64.41779486256876
 10
35.02972806376086
 20
64.41192674842056
 10
35.03300021135396
 20
64.40587178096286
 10
35.03787503755555
 20
64.39949649316379
 10
35.04443267607933
 20
64.39266741799144
 10
35.052753260639
 20
64.38525108841395
 10
35.06291692494823
 20
64.37711403739941
 10
35.07492366882646
 20
64.36816283801437
 10
35.08845295651582
 20
64.35846422371901
 10
35.10310411836422
 20
64.34812496807196
 10
35.11847648471951
 20
64.33725184463182
 10
35.1341693859296
 20
64.32595162695722
 10
35.14978215234233
 20
64.31433108860677
 10
35.1649141143056
 20
64.30249700313911
 10
35.17916460216726
 20
64.29055614411282
 10
35.19221308016952
 20
64.27858414270104
 10
35.20405954813177
 20
64.266532060535
 10
35.21478413976769
 20
64.2543198168604
 10
35.22446698879098
 20
64.24186733092295
 10
35.23318822891532
 20
64.22909452196839
 10
35.24102799385443
 20
64.21592130924243
 10
35.248066417322
 20
64.20226761199081
 10
35.2543836330317
 20
64.18805334945921
 10
35.26004196735582
 20
64.17322068562168
 10
35.26503251730094
 20
64.1578007633654
 10
35.26932857253219
 20
64.14184697030584
 10
35.27290342271469
 20
64.12541269405847
 10
35.27573035751362
 20
64.10855132223876
 10
35.27778266659411
 20
64.0913162424622
 10
35.27903363962129
 20
64.07376084234425
 10
35.27945656626032
 20
64.0559385095004
 10
35.27881549718289
 20
64.03772467505766
 10
35.2760375270869
 20
64.01828294418912
 10
35.26984051167682
 20
63.99659896557946
 10
35.25894230665712
 20
63.9716583879133
 10
35.24206076773224
 20
63.94244685987531
 10
35.21791375060663
 20
63.90795003015011
 10
35.18521911098478
 20
63.86715354742236
 10
35.14269470457112
 20
63.81904306037672
 10
35.08943234575529
 20
63.76298682386931
 10
35.02601968366737
 20
63.69988351744225
 10
34.95341832612271
 20
63.6310144268091
 10
34.87258988093657
 20
63.55766083768349
 10
34.78449595592425
 20
63.48110403577901
 10
34.69009815890101
 20
63.40262530680921
 10
34.59035809768216
 20
63.32350593648774
 10
34.48623738008298
 20
63.24502721052816
 10
34.3786308355531
 20
63.16826576473808
 10
34.26816618007953
 20
63.09347963530108
 10
34.15540435128358
 20
63.02072220849481
 10
34.04090628678661
 20
62.95004687059684
 10
33.92523292420995
 20
62.88150700788478
 10
33.80894520117493
 20
62.81515600663627
 10
33.6926040553029
 20
62.75104725312889
 10
33.5767704242152
 20
62.68923413364024
 10
33.46187168898246
 20
62.6297566879343
 10
33.34780100447245
 20
62.57260156972037
 10
33.2343179690023
 20
62.51774208619412
 10
33.12118218088909
 20
62.46515154455121
 10
33.00815323844991
 20
62.41480325198731
 10
32.89499074000183
 20
62.36667051569806
 10
32.78145428386196
 20
62.32072664287915
 10
32.66730346834739
 20
62.27694494072625
 10
32.55234686243823
 20
62.23527647170668
 10
32.43658891776664
 20
62.1955833193747
 10
32.32008305662783
 20
62.1577053225562
 10
32.20288270131697
 20
62.12148232007706
 10
32.08504127412926
 20
62.08675415076323
 10
31.96661219735986
 20
62.05336065344059
 10
31.84764889330399
 20
62.02114166693506
 10
31.72820478425683
 20
61.98993703007255
 10
31.60841787849155
 20
61.95964886656144
 10
31.48876452819334
 20
61.93042843963986
 10
31.36980567152535
 20
61.90248929742849
 10
31.25210224665074
 20
61.87604498804795
 10
31.13621519173269
 20
61.85130905961885
 10
31.02270544493433
 20
61.82849506026184
 10
30.91213394441885
 20
61.80781653809757
 10
30.80506162834941
 20
61.78948704124664
 10
30.70187581121071
 20
61.77368007745258
 10
30.60226931277356
 20
61.76040899295028
 10
30.50576132913032
 20
61.74964709359756
 10
30.41187105637336
 20
61.74136768525222
 10
30.32011769059501
 20
61.73554407377205
 10
30.23002042788763
 20
61.73214956501484
 10
30.14109846434361
 20
61.73115746483841
 10
30.05287099605528
 20
61.73254107910051
 10
29.96497741995646
 20
61.73631820294833
 10
29.87753793634677
 20
61.7426845886864
 10
29.7907929463673
 20
61.75188047790863
 10
29.70498285115914
 20
61.76414611220891
 10
29.62034805186339
 20
61.77972173318116
 10
29.53712894962109
 20
61.79884758241929
 10
29.45556594557336
 20
61.82176390151718
 10
29.37589944086127
 20
61.84871093206875
 10
29.29831641433072
 20
61.87980434607021
 10
29.22279015564686
 20
61.91466153712712
 10
29.14924053217963
 20
61.9527753292473
 10
29.07758741129899
 20
61.99363854643865
 10
29.00775066037489
 20
62.036744012709
 10
28.93965014677732
 20
62.08158455206621
 10
28.87320573787619
 20
62.12765298851813
 10
28.80833730104148
 20
62.17444214607263
 10
28.74501367394493
 20
62.22156496942301
 10
28.6833995754655
 20
62.26911488600446
 10
28.62370869478395
 20
62.31730544393762
 10
28.566154721081
 20
62.36635019134308
 10
28.51095134353745
 20
62.41646267634152
 10
28.45831225133403
 20
62.46785644705354
 10
28.40845113365149
 20
62.5207450515998
 10
28.36158167967058
 20
62.57534203810092
 10
28.31784189694206
 20
62.63187875021489
 10
28.27706706649669
 20
62.69065771374912
 10
28.23901678773518
 20
62.75199925004841
 10
28.2034506600583
 20
62.81622368045754
 10
28.17012828286674
 20
62.88365132632127
 10
28.13880925556129
 20
62.95460250898442
 10
28.10925317754268
 20
63.02939754979174
 10
28.08121964821165
 20
63.10835677008802
 10
28.05452614107688
 20
63.1916492282586
 10
28.029221626079
 20
63.27883893085095
 10
28.00541294726652
 20
63.36933862145315
 10
27.98320694868803
 20
63.46256104365322
 10
27.96271047439204
 20
63.5579189410392
 10
27.94403036842713
 20
63.65482505719916
 10
27.92727347484185
 20
63.75269213572112
 10
27.91254663768473
 20
63.85093292019314
 10
27.89998341269377
 20
63.94904913255898
 10
27.88982420236461
 20
64.04689840818533
 10
27.8823361208823
 20
64.14442736079454
 10
27.87778628243192
 20
64.24158260410904
 10
27.87644180119853
 20
64.33831075185121
 10
27.87856979136718
 20
64.43455841774343
 10
27.88443736712297
 20
64.53027221550811
 10
27.89431164265095
 20
64.62539875886763
 10
27.90847753938729
 20
64.71990690588248
 10
27.92729120777268
 20
64.81385449196544
 10
27.9511266054989
 20
64.90732159686739
 10
27.98035769025775
 20
65.00038830033921
 10
28.01535841974103
 20
65.09313468213179
 10
28.05650275164052
 20
65.185640821996
 10
28.10416464364802
 20
65.27798679968272
 10
28.15871805345531
 20
65.37025269494282
 10
28.22022530698315
 20
65.46229169345034
 10
28.28750220306812
 20
65.55304940457194
 10
28.35905290877573
 20
65.64124454359741
 10
28.43338159117153
 20
65.72559582581658
 10
28.50899241732104
 20
65.80482196651923
 10
28.5843895542898
 20
65.8776416809952
 10
28.65807716914334
 20
65.94277368453425
 10
28.7285594289472
 20
65.99893669242624
 10
28.79467439196304
 20
66.04521423014915
 10
28.85659568123724
 20
66.08214906393363
 10
28.91483081101226
 20
66.1106487701986
 10
28.96988729553062
 20
66.13162092536287
 10
29.02227264903484
 20
66.14597310584537
 10
29.07249438576739
 20
66.15461288806492
 10
29.12106001997078
 20
66.15844784844042
 10
29.16847706588754
 20
66.15838556339074
 10
29.21511713483731
 20
66.15522919638815
 10
29.26080822644863
 20
66.14936425911858
 10
29.30524243742717
 20
66.14107185032139
 10
29.34811186447865
 20
66.13063306873595
 10
29.38910860430872
 20
66.11832901310155
 10
29.42792475362309
 20
66.1044407821576
 10
29.46425240912745
 20
66.08924947464342
 10
29.49778366752749
 20
66.07303618929835
 10
29.52829179051572
 20
66.0560772762114
 10
29.55587469973186
 20
66.03863009087018
 10
29.58071148180244
 20
66.02094724011195
 10
29.60298122335404
 20
66.00328133077397
 10
29.62286301101316
 20
65.98588496969348
 10
29.64053593140637
 20
65.96901076370776
 10
29.65617907116019
 20
65.95291131965403
 10
29.66997151690121
 20
65.9378392443696
 10
29.68208514438117
 20
65.92398446742373
 10
29.69266298585305
 20
65.91128620931403
 10
29.70184086269496
 20
65.89962101327012
 10
29.70975459628511
 20
65.88886542252163
 10
29.71654000800167
 20
65.87889598029822
 10
29.72233291922281
 20
65.86958922982947
 10
29.72726915132672
 20
65.86082171434506
 10
29.73148452569158
 20
65.85246997707457
 10
29.73507394454836
 20
65.84442301735456
 10
29.73796863353932
 20
65.83661965894902
 10
29.74005889915954
 20
65.82901118172884
 10
29.74123504790408
 20
65.82154886556492
 10
29.74138738626803
 20
65.81418399032815
 10
29.74040622074646
 20
65.80686783588942
 10
29.73818185783443
 20
65.79955168211964
 10
29.73460460402699
 20
65.79218680888965
 10
29.72956679721057
 20
65.78469201592858
 10
29.72296890083672
 20
65.77685618239825
 10
29.71471340974833
 20
65.76843570731859
 10
29.70470281878831
 20
65.75918698970965
 10
29.69283962279956
 20
65.74886642859138
 10
29.67902631662496
 20
65.73723042298381
 10
29.6631653951074
 20
65.72403537190691
 10
29.64515935308979
 20
65.70903767438068
 10
29.6250020966691
 20
65.69208913974764
 10
29.60305317695882
 20
65.67342321864035
 10
29.57976355632642
 20
65.6533687720139
 10
29.55558419713947
 20
65.63225466082343
 10
29.53096606176552
 20
65.61040974602398
 10
29.50636011257209
 20
65.5881628885707
 10
29.48221731192671
 20
65.56584294941862
 10
29.45898862219694
 20
65.54377878952291
 10
29.43706000240253
 20
65.52220182952464
 10
29.4165573981722
 20
65.50095372880914
 10
29.3975417517869
 20
65.47977870644773
 10
29.38007400552752
 20
65.45842098151175
 10
29.36421510167505
 20
65.43662477307252
 10
29.3500259825104
 20
65.41413430020139
 10
29.33756759031449
 20
65.3906937819697
 10
29.32690086736831
 20
65.36604743744874
 10
29.3180583164745
 20
65.34002880616957
 10
29.31095868252276
 20
65.31282870950187
 10
29.30549227092448
 20
65.28472728927505
 10
29.30154938709112
 20
65.25600468731846
 10
29.29902033643409
 20
65.22694104546154
 10
29.29779542436479
 20
65.19781650553364
 10
29.29776495629467
 20
65.16891120936417
 10
29.29881923763512
 20
65.14050529878251
 10
29.30091357777748
 20
65.11275508480213
 10
29.30426330203266
 20
65.08532155517286
 10
29.30914873969145
 20
65.0577418668286
 10
29.31585022004462
 20
65.02955317670324
 10
29.32464807238299
 20
65.00029264173074
 10
29.33582262599733
 20
64.96949741884494
 10
29.34965421017846
 20
64.93670466497978
 10
29.36642315421716
 20
64.90145153706918
 10
29.38626556015685
 20
64.86347210322382
 10
29.40874062105131
 20
64.82328807626164
 10
29.43326330270699
 20
64.78161808017748
 10
29.45924857093027
 20
64.73918073896602
 10
29.48611139152758
 20
64.69669467662206
 10
29.51326673030533
 20
64.65487851714034
 10
29.54012955306994
 20
64.61445088451565
 10
29.56611482562782
 20
64.57613040274273
 10
29.59076752129367
 20
64.54040833460066
 10
29.61415264341522
 20
64.5068664980057
 10
29.63646520284855
 20
64.4748593496585
 10
29.65790021044965
 20
64.44374134625963
 10
29.67865267707461
 20
64.41286694450972
 10
29.69891761357942
 20
64.38159060110933
 10
29.71889003082017
 20
64.34926677275908
 10
29.73876493965283
 20
64.31524991615958
 10
29.75867437870612
 20
64.27908124900806
 10
29.77849849769917
 20
64.24104903298816
 10
29.79805447412374
 20
64.20162829078016
 10
29.81715948547169
 20
64.16129404506439
 10
29.83563070923475
 20
64.12052131852111
 10
29.85328532290472
 20
64.07978513383063
 10
29.86994050397339
 20
64.0395605136732
 10
29.88541342993253
 20
64.00032248072912
 10
29.89956393685918
 20
63.96249124718505
 10
29.9124224951714
 20
63.92626778325301
 10
29.92406223387245
 20
63.89179824865141
 10
29.93455628196561
 20
63.85922880309861
 10
29.94397776845421
 20
63.82870560631301
 10
29.95239982234148
 20
63.80037481801301
 10
29.95989557263073
 20
63.77438259791699
 10
29.96653814832525
 20
63.75087510574336
 10
29.97241692937815
 20
63.72993151115839
 10
29.97768629954181
 20
63.71136302361996
 10
29.98251689351846
 20
63.69491386253391
 10
29.98707934601032
 20
63.68032824730603
 10
29.9915442917196
 20
63.66735039734211
 10
29.99608236534851
 20
63.65572453204794
 10
30.00086420159927
 20
63.64519487082936
 10
30.0060604351741
 20
63.63550563309212
 10
30.0118193558321
 20
63.62645787839269
 10
30.01819987355985
 20
63.61808002688996
 10
30.02523855340083
 20
63.61045733889351
 10
30.03297196039847
 20
63.6036750747129
 10
30.04143665959629
 20
63.59781849465767
 10
30.05066921603775
 20
63.59297285903739
 10
30.06070619476628
 20
63.5892234281616
 10
30.07158416082538
 20
63.58665546233986
 10
30.08336608698425
 20
63.5853724920277
 10
30.096220576915
 20
63.58555112826451
 10
30.11034264201549
 20
63.58738625223566
 10
30.1259272936836
 20
63.59107274512652
 10
30.1431695433172
 20
63.59680548812246
 10
30.16226440231414
 20
63.60477936240883
 10
30.18340688207226
 20
63.615189249171
 10
30.20679199398946
 20
63.62823002959434
 10
30.23254568279138
 20
63.64404177442632
 10
30.26051762651488
 20
63.66254531266276
 10
30.29048843652466
 20
63.68360666286161
 10
30.32223872418537
 20
63.7070918435808
 10
30.35554910086165
 20
63.73286687337828
 10
30.39020017791822
 20
63.76079777081196
 10
30.42597256671971
 20
63.79075055443979
 10
30.46264687863081
 20
63.8225912428197
 10
30.5000159135446
 20
63.85621630493873
 10
30.53792122546792
 20
63.89164401150029
 10
30.57621655693602
 20
63.92892308363688
 10
30.61475565048415
 20
63.96810224248103
 10
30.65339224864754
 20
64.00923020916522
 10
30.69198009396148
 20
64.05235570482196
 10
30.73037292896121
 20
64.0975274505838
 10
30.76842449618198
 20
64.14479416758322
 10
30.80598244389483
 20
64.19414773646763
 10
30.84287004331392
 20
64.24535267594406
 10
30.87890447138924
 20
64.29811666423451
 10
30.91390290507073
 20
64.35214737956089
 10
30.94768252130835
 20
64.40715250014517
 10
30.98006049705208
 20
64.4628397042093
 10
31.01085400925186
 20
64.51891666997521
 10
31.03988023485764
 20
64.57509107566488
 10
31.06697463297994
 20
64.63119240010176
 10
31.09204579137128
 20
64.68753732451522
 10
31.11502057994472
 20
64.74456433073621
 10
31.13582586861335
 20
64.80271190059561
 10
31.15438852729019
 20
64.86241851592433
 10
31.17063542588834
 20
64.92412265855328
 10
31.18449343432086
 20
64.98826281031337
 10
31.19588942250081
 20
65.0552774530355
 10
31.20475432321417
 20
65.12542642785419
 10
31.21103532073856
 20
65.19825501311849
 10
31.2146836622245
 20
65.27312984648109
 10
31.21565059482255
 20
65.34941756559459
 10
31.21388736568325
 20
65.4264848081117
 10
31.20934522195708
 20
65.50369821168505
 10
31.20197541079464
 20
65.58042441396733
 10
31.19172917934643
 20
65.6560300526112
 10
31.17851957584696
 20
65.73007823266421
 10
31.16210685286675
 20
65.80291792875356
 10
31.14221306406026
 20
65.87509458290131
 10
31.11856026308192
 20
65.94715363712954
 10
31.09087050358625
 20
66.01964053346037
 10
31.0588658392277
 20
66.09310071391584
 10
31.02226832366073
 20
66.16807962051808
 10
30.98080001053981
 20
66.24512269528913
 10
30.93433860974726
 20
66.32453877930212
 10
30.88338445607666
 20
66.40569030983431
 10
30.82859354054946
 20
66.48770312321406
 10
30.77062185418709
 20
66.56970305576962
 10
30.710125388011
 20
66.65081594382934
 10
30.64776013304262
 20
66.73016762372151
 10
30.58418208030338
 20
66.80688393177442
 10
30.52004722081471
 20
66.88009070431643
 10
30.45518900514276
 20
66.94957285400992
 10
30.38615072203233
 20
67.01775159885389
 10
30.30865311977297
 20
67.08770723318138
 10
30.2184169466542
 20
67.16252005132547
 10
30.11116295096556
 20
67.24527034761926
 10
29.98261188099656
 20
67.33903841639584
 10
29.82848448503674
 20
67.44690455198824
 10
29.74561917647976
 20
67.50322417004653
  0
LWPOLYLINE
  5
4785
330
18
100
AcDbEntity
  8
0
100
AcDbPolyline
 90
      505
 70
     0
 43
0.0
 10
36.91209745364405
 20
63.42045725869973
 10
36.92236703308847
 20
63.33934573688179
 10
36.92811135694247
 20
63.26862262943769
 10
36.92983200728024
 20
63.207043089658
 10
36.92803056617597
 20
63.15336227083334
 10
36.92320861570385
 20
63.10633532625431
 10
36.91586773793808
 20
63.06471740921152
 10
36.90650951495283
 20
63.02726367299555
 10
36.8956355288223
 20
62.99272927089699
 10
36.88369224251098
 20
62.96010620747608
 10
36.87090564254453
 20
62.92933389237145
 10
36.85744659633889
 20
62.90058858649132
 10
36.84348597131
 20
62.87404655074396
 10
36.82919463487382
 20
62.84988404603756
 10
36.81474345444629
 20
62.82827733328041
 10
36.80030329744336
 20
62.80940267338071
 10
36.78604503128099
 20
62.79343632724672
 10
36.77212023193054
 20
62.78048662178521
 10
36.75860330958507
 20
62.77039014789711
 10
36.74554938299309
 20
62.76291556248185
 10
36.73301357090307
 20
62.7578315224389
 10
36.72105099206352
 20
62.75490668466772
 10
36.70971676522292
 20
62.75390970606775
 10
36.69906600912977
 20
62.75460924353843
 10
36.68915384253254
 20
62.75677395397926
 10
36.68001517402615
 20
62.76021105147309
 10
36.6716040715911
 20
62.7648819788365
 10
36.66385439305427
 20
62.77078673606948
 10
36.6566999962426
 20
62.77792532317203
 10
36.65007473898297
 20
62.78629774014418
 10
36.64391247910228
 20
62.79590398698589
 10
36.63814707442746
 20
62.80674406369719
 10
36.63271238278543
 20
62.81881797027805
 10
36.62750735349846
 20
62.83208898565717
 10
36.62229130187055
 20
62.84637350447792
 10
36.61678863470105
 20
62.86145120031233
 10
36.61072375878935
 20
62.87710174673244
 10
36.60382108093481
 20
62.89310481731028
 10
36.5958050079368
 20
62.90924008561794
 10
36.5863999465947
 20
62.92528722522741
 10
36.57533030370789
 20
62.94102590971077
 10
36.56238111653652
 20
62.95623948458551
 10
36.54757994418392
 20
62.97072598315104
 10
36.53101497621421
 20
62.98428711065227
 10
36.51277440219156
 20
62.99672457233405
 10
36.49294641168003
 20
63.0078400734413
 10
36.47161919424379
 20
63.01743531921889
 10
36.44888093944696
 20
63.02531201491169
 10
36.42481983685364
 20
63.0312718657646
 10
36.3994285372432
 20
63.03503028242962
 10
36.37231753625591
 20
63.03595749718728
 10
36.34300179074724
 20
63.03333744772524
 10
36.31099625757269
 20
63.02645407173115
 10
36.27581589358775
 20
63.01459130689266
 10
36.23697565564789
 20
62.99703309089742
 10
36.19399050060862
 20
62.97306336143308
 10
36.1463753853254
 20
62.9419660561873
 10
36.09373345621789
 20
62.90328583307292
 10
36.03602061796214
 20
62.85761023090349
 10
35.97328096479845
 20
62.80578750871773
 10
35.90555859096701
 20
62.74866592555439
 10
35.83289759070807
 20
62.68709374045221
 10
35.75534205826189
 20
62.62191921244992
 10
35.67293608786869
 20
62.55399060058626
 10
35.58572377376871
 20
62.48415616389995
 10
35.49395682381167
 20
62.41324763669958
 10
35.39871740028527
 20
62.34203065437309
 10
35.30129527908671
 20
62.27125432757826
 10
35.20298023611316
 20
62.20166776697285
 10
35.10506204726186
 20
62.13402008321464
 10
35.00883048842993
 20
62.06906038696142
 10
34.91557533551459
 20
62.00753778887095
 10
34.82658636441305
 20
61.95020139960103
 10
34.7426483503953
 20
61.89750813055775
 10
34.66252606622271
 20
61.84874609614064
 10
34.58447928402947
 20
61.80291121149756
 10
34.50676777594977
 20
61.75899939177634
 10
34.4276513141178
 20
61.71600655212484
 10
34.34538967066774
 20
61.67292860769093
 10
34.25824261773381
 20
61.62876147362244
 10
34.16446992745017
 20
61.58250106506724
 10
34.06269948326343
 20
61.5334020944921
 10
33.95303161386978
 20
61.48175446363938
 10
33.83593475927784
 20
61.42810687157039
 10
33.71187735949617
 20
61.37300801734645
 10
33.58132785453343
 20
61.31700660002883
 10
33.44475468439815
 20
61.26065131867884
 10
33.30262628909899
 20
61.20449087235778
 10
33.15541110864453
 20
61.14907396012693
 10
33.00366565322545
 20
61.0948904381646
 10
32.84829871376068
 20
61.04219479111701
 10
32.69030715135128
 20
60.99118266074739
 10
32.53068782709827
 20
60.94204968881897
 10
32.37043760210264
 20
60.89499151709496
 10
32.21055333746547
 20
60.85020378733858
 10
32.05203189428775
 20
60.80788214131307
 10
31.89587013367052
 20
60.76822222078165
 10
31.74276409705672
 20
60.73136376676308
 10
31.59220654725688
 20
60.69722291729843
 10
31.44338942742351
 20
60.66565990968431
 10
31.29550468070903
 20
60.6365349812173
 10
31.14774425026593
 20
60.60970836919402
 10
30.99930007924665
 20
60.58504031091107
 10
30.84936411080366
 20
60.56239104366507
 10
30.69712828808944
 20
60.54162080475261
 10
30.54222484159267
 20
60.52260536060382
 10
30.3860471511471
 20
60.50528259418292
 10
30.23042888392269
 20
60.48960591758763
 10
30.07720370708939
 20
60.47552874291572
 10
29.92820528781717
 20
60.46300448226486
 10
29.78526729327601
 20
60.45198654773286
 10
29.65022339063587
 20
60.44242835141741
 10
29.52490724706674
 20
60.43428330541625
 10
29.41021686828521
 20
60.42753084943242
 10
29.30330761419463
 20
60.42225453359021
 10
29.20039918324497
 20
60.41856393561916
 10
29.09771127388616
 20
60.41656863324887
 10
28.99146358456826
 20
60.4163782042089
 10
28.87787581374119
 20
60.41810222622882
 10
28.75316765985495
 20
60.42185027703821
 10
28.6135588213595
 20
60.42773193436663
 10
28.45631349323209
 20
60.43585151187975
 10
28.28287385655889
 20
60.44629226698747
 10
28.09572658895334
 20
60.45913219303584
 10
27.89735836802887
 20
60.47444928337083
 10
27.69025587139894
 20
60.49232153133847
 10
27.47690577667696
 20
60.51282693028477
 10
27.25979476147639
 20
60.53604347355573
 10
27.04140950341063
 20
60.56204915449736
 10
26.82384202198667
 20
60.59090925849517
 10
26.6076057042855
 20
60.62263823909271
 10
26.39281927928162
 20
60.657237841873
 10
26.17960147594957
 20
60.6947098124191
 10
25.96807102326382
 20
60.73505589631405
 10
25.75834665019891
 20
60.77827783914089
 10
25.55054708572935
 20
60.82437738648266
 10
25.34479105882964
 20
60.87335628392239
 10
25.14123381944936
 20
60.9252009804199
 10
24.94017670143831
 20
60.97983673844202
 10
24.74195755962129
 20
61.03717352383232
 10
24.54691424882316
 20
61.09712130243439
 10
24.35538462386877
 20
61.15959004009181
 10
24.16770653958295
 20
61.22448970264817
 10
23.98421785079054
 20
61.29173025594706
 10
23.80525641231637
 20
61.36122166583206
 10
23.63117134054187
 20
61.43281012382719
 10
23.46235679807479
 20
61.50608672417829
 10
23.29921820907947
 20
61.58057878681164
 10
23.14216099772023
 20
61.65581363165348
 10
22.99159058816141
 20
61.73131857863012
 10
22.84791240456734
 20
61.8066209476678
 10
22.71153187110236
 20
61.88124805869279
 10
22.58285441193079
 20
61.95472723163137
 10
22.4620677232745
 20
62.02670583217468
 10
22.34848858958552
 20
62.09731140907331
 10
22.2412160673734
 20
62.16679155684271
 10
22.13934921314768
 20
62.23539386999836
 10
22.04198708341792
 20
62.30336594305569
 10
21.94822873469367
 20
62.37095537053019
 10
21.85717322348448
 20
62.43840974693729
 10
21.76791960629993
 20
62.50597666679246
 10
21.67985223846665
 20
62.57368614187139
 10
21.59349667057988
 20
62.64069785299064
 10
21.50966375205189
 20
62.70595389822705
 10
21.42916433229502
 20
62.76839637565739
 10
21.35280926072159
 20
62.8269673833585
 10
21.28140938674388
 20
62.88060901940717
 10
21.21577555977425
 20
62.92826338188021
 10
21.156718629225
 20
62.96887256885442
 10
21.1047603915682
 20
63.00168254375419
 10
21.05926643151499
 20
63.02715473139425
 10
21.01931328083631
 20
63.04605442193687
 10
20.98397747130307
 20
63.05914690554436
 10
20.95233553468617
 20
63.06719747237901
 10
20.92346400275652
 20
63.0709714126031
 10
20.89643940728506
 20
63.07123401637894
 10
20.87033828004267
 20
63.06875057386882
 10
20.84444637246865
 20
63.06418684790301
 10
20.81888631467572
 20
63.05781049198372
 10
20.79398995644501
 20
63.04978963228109
 10
20.77008914755758
 20
63.04029239496534
 10
20.74751573779457
 20
63.02948690620661
 10
20.72660157693705
 20
63.0175412921751
 10
20.70767851476613
 20
63.00462367904098
 10
20.69107840106291
 20
62.99090219297442
 10
20.67703876114329
 20
62.97653518462412
 10
20.66541982246238
 20
62.96164190255298
 10
20.65598748801011
 20
62.94633181980241
 10
20.6485076607764
 20
62.93071440941382
 10
20.64274624375116
 20
62.91489914442863
 10
20.63846913992432
 20
62.89899549788824
 10
20.63544225228578
 20
62.88311294283409
 10
20.63343148382548
 20
62.86736095230757
 10
20.63221740247177
 20
62.85184991439598
 10
20.63163923590694
 20
62.83669387736993
 10
20.63155087675165
 20
62.82200780454594
 10
20.63180621762666
 20
62.80790665924047
 10
20.63225915115264
 20
62.79450540477006
 10
20.63276356995033
 20
62.78191900445118
 10
20.63317336664042
 20
62.7702624216003
 10
20.63334243384363
 20
62.75965061953396
 10
20.63314700054489
 20
62.75016127993069
 10
20.63255264118609
 20
62.74172295791727
 10
20.63154726657333
 20
62.7342269269825
 10
20.6301187875127
 20
62.72756446061525
 10
20.62825511481034
 20
62.72162683230433
 10
20.62594415927234
 20
62.71630531553856
 10
20.6231738317048
 20
62.71149118380679
 10
20.61993204291385
 20
62.70707571059785
 10
20.61620267424518
 20
62.70299647880332
 10
20.611953489203
 20
62.69937630892596
 10
20.60714822183109
 20
62.69638433087127
 10
20.60175060617325
 20
62.69418967454475
 10
20.59572437627328
 20
62.69296146985192
 10
20.58903326617498
 20
62.69286884669829
 10
20.58164100992213
 20
62.69408093498936
 10
20.57351134155853
 20
62.69676686463065
 10
20.56463015774708
 20
62.70106757704286
 10
20.55507200562705
 20
62.70701125970738
 10
20.54493359495682
 20
62.71459791162083
 10
20.53431163549473
 20
62.7238275317798
 10
20.52330283699918
 20
62.73470011918089
 10
20.51200390922852
 20
62.7472156728207
 10
20.50051156194112
 20
62.76137419169584
 10
20.48892250489535
 20
62.77717567480288
 10
20.47733344784958
 20
62.79461206767585
 10
20.46584110056218
 20
62.81364310199839
 10
20.45454217279152
 20
62.8342204559915
 10
20.44353337429597
 20
62.85629580787626
 10
20.43291141483388
 20
62.87982083587367
 10
20.42277300416365
 20
62.90474721820477
 10
20.41321485204362
 20
62.93102663309062
 10
20.40433366823218
 20
62.95861075875224
 10
20.39623220681371
 20
62.98743516564933
 10
20.38903739917676
 20
63.01737099319611
 10
20.38288222103592
 20
63.0482732730455
 10
20.37789964810574
 20
63.07999703685045
 10
20.37422265610079
 20
63.11239731626383
 10
20.37198422073567
 20
63.14532914293853
 10
20.37131731772491
 20
63.17864754852749
 10
20.37235492278313
 20
63.2122075646836
 10
20.37551611171049
 20
63.24616422587146
 10
20.38236436064976
 20
63.28187257780241
 10
20.3947492458293
 20
63.32098766899948
 10
20.41452034347748
 20
63.36516454798569
 10
20.44352722982266
 20
63.41605826328409
 10
20.48361948109322
 20
63.4753238634177
 10
20.53664667351754
 20
63.54461639690953
 10
20.60445838332397
 20
63.62559091228265
 10
20.68796328051426
 20
63.71901855760934
 10
20.78430641018357
 20
63.82213487915898
 10
20.88969191120046
 20
63.93129152275022
 10
21.00032392243347
 20
64.04284013420175
 10
21.11240658275112
 20
64.1531323593322
 10
21.22214403102196
 20
64.25851984396023
 10
21.32574040611455
 20
64.35535423390451
 10
21.4193998468974
 20
64.43998717498368
 10
21.50023717647432
 20
64.50967032094976
 10
21.56900995489011
 20
64.56525535728824
 10
21.62738642642482
 20
64.60849397741791
 10
21.67703483535849
 20
64.6411378747576
 10
21.71962342597119
 20
64.66493874272616
 10
21.75682044254295
 20
64.6816482747424
 10
21.79029412935384
 20
64.69301816422515
 10
21.8217127306839
 20
64.70080010459321
 10
21.85245436144779
 20
64.70646390753896
 10
21.8827366190985
 20
64.71035185784872
 10
21.91248697172361
 20
64.71252435858239
 10
21.94163288741072
 20
64.71304181279984
 10
21.97010183424743
 20
64.71196462356092
 10
21.99782128032134
 20
64.70935319392551
 10
22.02471869372001
 20
64.70526792695349
 10
22.05072154253107
 20
64.69976922570474
 10
22.07575729475177
 20
64.69293762764815
 10
22.09975341801822
 20
64.68493420788878
 10
22.12263737987614
 20
64.67594017594071
 10
22.14433664787136
 20
64.66613674131801
 10
22.16477868954958
 20
64.6557051135348
 10
22.18389097245663
 20
64.6448265021051
 10
22.20160096413824
 20
64.63368211654304
 10
22.21783613214018
 20
64.6224531663627
 10
22.2325360326603
 20
64.61129468636312
 10
22.24568857650469
 20
64.6002570124833
 10
22.25729376313154
 20
64.58936430594715
 10
22.26735159199902
 20
64.57864072797867
 10
22.27586206256529
 20
64.56811043980177
 10
22.28282517428854
 20
64.5577976026404
 10
22.28824092662696
 20
64.54772637771853
 10
22.29210931903869
 20
64.53792092626009
 10
22.29445251387194
 20
64.52840138261837
 10
22.29538132503492
 20
64.51917177366405
 10
22.29502872932584
 20
64.51023209939712
 10
22.29352770354294
 20
64.50158235981756
 10
22.29101122448442
 20
64.49322255492539
 10
22.28761226894853
 20
64.48515268472061
 10
22.28346381373347
 20
64.47737274920321
 10
22.27869883563747
 20
64.46988274837321
 10
22.27340598585934
 20
64.46268066879524
 10
22.26749661320027
 20
64.4557564432927
 10
22.26083774086204
 20
64.44909799125359
 10
22.25329639204641
 20
64.44269323206595
 10
22.2447395899552
 20
64.43653008511778
 10
22.23503435779015
 20
64.43059646979714
 10
22.22404771875304
 20
64.42488030549204
 10
22.21164669604567
 20
64.41936951159049
 10
22.19777084550464
 20
64.41403187312726
 10
22.18264985350593
 20
64.40875463772389
 10
22.16658593906039
 20
64.40340491864867
 10
22.1498813211788
 20
64.39784982916989
 10
22.13283821887203
 20
64.39195648255583
 10
22.11575885115087
 20
64.38559199207476
 10
22.09894543702615
 20
64.37862347099498
 10
22.0827001955087
 20
64.37091803258477
 10
22.06728504965093
 20
64.36235688410395
 10
22.05280073867159
 20
64.35287760877861
 10
22.03930770583101
 20
64.34243188382637
 10
22.02686639438955
 20
64.33097138646489
 10
22.01553724760754
 20
64.3184477939118
 10
22.00538070874533
 20
64.30481278338473
 10
21.99645722106323
 20
64.29001803210131
 10
21.98882722782162
 20
64.2740152172792
 10
21.98257132021485
 20
64.25674796239468
 10
21.97785068117358
 20
64.23812767595883
 10
21.97484664156245
 20
64.21805771274138
 10
21.97374053224613
 20
64.19644142751207
 10
21.97471368408931
 20
64.17318217504065
 10
21.97794742795665
 20
64.14818331009684
 10
21.9836230947128
 20
64.12134818745037
 10
21.99192201522245
 20
64.09258016187101
 10
22.00312827452496
 20
64.06174231936614
 10
22.01793697435855
 20
64.0285366708939
 10
22.03714597063612
 20
63.99262495865005
 10
22.06155311927059
 20
63.95366892483037
 10
22.09195627617485
 20
63.91133031163065
 10
22.12915329726181
 20
63.86527086124669
 10
22.17394203844441
 20
63.81515231587425
 10
22.22712035563553
 20
63.76063641770912
 10
22.28925238936325
 20
63.70154195718146
 10
22.35996741861622
 20
63.63831591765904
 10
22.43866100699831
 20
63.57156233074395
 10
22.5247287181133
 20
63.5018852280383
 10
22.61756611556505
 20
63.42988864114424
 10
22.71656876295738
 20
63.35617660166386
 10
22.8211322238941
 20
63.28135314119931
 10
22.93065206197906
 20
63.2060222913527
 10
23.04451178160316
 20
63.13076468018135
 10
23.16204665030561
 20
63.05606732156333
 10
23.28257987641269
 20
62.98239382583196
 10
23.40543466825072
 20
62.91020780332053
 10
23.52993423414595
 20
62.83997286436232
 10
23.6554017824247
 20
62.77215261929061
 10
23.78116052141322
 20
62.70721067843871
 10
23.90653365943786
 20
62.6456106521399
 10
24.03100660855331
 20
62.58766307975115
 10
24.15471359572812
 20
62.53306621672408
 10
24.27795105165928
 20
62.48136524753403
 10
24.40101540704379
 20
62.43210535665627
 10
24.52420309257859
 20
62.38483172856615
 10
24.64781053896071
 20
62.33908954773898
 10
24.7721341768871
 20
62.29442399865004
 10
24.89747043705478
 20
62.25038026577466
 10
25.02387014587651
 20
62.20666213976963
 10
25.15040171262836
 20
62.16360783601759
 10
25.27588794230215
 20
62.12171417608267
 10
25.39915163988976
 20
62.08147798152901
 10
25.51901561038302
 20
62.04339607392073
 10
25.63430265877379
 20
62.00796527482197
 10
25.7438355900539
 20
61.97568240579682
 10
25.84643720921523
 20
61.94704428840945
 10
25.94125415437226
 20
61.92243492930021
 10
26.02872839613017
 20
61.9017870754145
 10
26.10962573821675
 20
61.88492065877397
 10
26.18471198435984
 20
61.87165561140023
 10
26.25475293828719
 20
61.86181186531493
 10
26.32051440372667
 20
61.85520935253971
 10
26.38276218440607
 20
61.8516680050962
 10
26.4422620840532
 20
61.85100775500602
 10
26.49960722513124
 20
61.85308604838333
 10
26.55470000504497
 20
61.85791038771212
 10
26.60727013993449
 20
61.86552578956892
 10
26.65704734593994
 20
61.87597727053022
 10
26.70376133920144
 20
61.88930984717253
 10
26.74714183585914
 20
61.90556853607237
 10
26.78691855205313
 20
61.92479835380623
 10
26.82282120392358
 20
61.94704431695064
 10
26.85464332472337
 20
61.97230642505961
 10
26.88243371615649
 20
62.00040460959737
 10
26.90630499703973
 20
62.03111378500563
 10
26.92636978618983
 20
62.06420886572612
 10
26.94274070242361
 20
62.09946476620056
 10
26.95553036455783
 20
62.13665640087071
 10
26.96485139140922
 20
62.17555868417825
 10
26.97081640179459
 20
62.21594653056495
 10
26.97355303002978
 20
62.2577149001259
 10
26.97324897242697
 20
62.30123893556971
 10
26.9701069407974
 20
62.34701382525835
 10
26.96432964695233
 20
62.39553475755382
 10
26.95611980270301
 20
62.44729692081811
 10
26.94568011986071
 20
62.50279550341318
 10
26.93321331023666
 20
62.56252569370101
 10
26.91892208564214
 20
62.62698268004361
 10
26.90302792769118
 20
62.69647407950437
 10
26.88582739720903
 20
62.77055722395253
 10
26.86763582482369
 20
62.84860187395866
 10
26.84876854116319
 20
62.92997779009342
 10
26.82954087685557
 20
63.01405473292743
 10
26.81026816252884
 20
63.10020246303133
 10
26.79126572881104
 20
63.18779074097571
 10
26.77284890633019
 20
63.27618932733126
 10
26.7552858544513
 20
63.3648450099625
 10
26.73865604748735
 20
63.45351268590984
 10
26.72299178848829
 20
63.54202427950763
 10
26.70832538050408
 20
63.63021171509018
 10
26.69468912658469
 20
63.71790691699183
 10
26.68211532978006
 20
63.80494180954693
 10
26.67063629314017
 20
63.8911483170898
 10
26.66028431971494
 20
63.97635836395477
 10
26.65106976666518
 20
64.06042443560932
 10
26.64291520759486
 20
64.1432812620534
 10
26.63572127021879
 20
64.22488413442014
 10
26.62938858225173
 20
64.30518834384256
 10
26.6238177714085
 20
64.3841491814538
 10
26.61890946540389
 20
64.46172193838697
 10
26.61456429195269
 20
64.53786190577512
 10
26.61068287876969
 20
64.61252437475136
 10
26.60711687902363
 20
64.68570669594718
 10
26.60352204769876
 20
64.75757445798774
 10
26.5995051652334
 20
64.82833530899654
 10
26.5946730120657
 20
64.89819689709711
 10
26.58863236863395
 20
64.96736687041302
 10
26.58099001537636
 20
65.03605287706776
 10
26.57135273273116
 20
65.10446256518489
 10
26.5593273011366
 20
65.17280358288793
 10
26.54454547599137
 20
65.2412547608505
 10
26.5267389125361
 20
65.30987965994647
 10
26.50566424097188
 20
65.37871302359983
 10
26.48107809149978
 20
65.44778959523451
 10
26.45273709432093
 20
65.51714411827449
 10
26.42039787963639
 20
65.58681133614371
 10
26.38381707764728
 20
65.65682599226616
 10
26.34275131855468
 20
65.72722283006581
 10
26.29703835582598
 20
65.79792078021551
 10
26.24684043599379
 20
65.86837552238387
 10
26.19240092885703
 20
65.93792692348843
 10
26.13396320421459
 20
66.00591485044671
 10
26.07177063186538
 20
66.07167917017623
 10
26.00606658160831
 20
66.1345597495945
 10
25.93709442324227
 20
66.19389645561907
 10
25.86509752656621
 20
66.24902915516746
 10
25.79040617919012
 20
66.29944537652071
 10
25.71369833996856
 20
66.34522329341404
 10
25.63573888556718
 20
66.38658874094615
 10
25.55729269265162
 20
66.42376755421572
 10
25.47912463788755
 20
66.45698556832155
 10
25.40199959794064
 20
66.4864686183623
 10
25.32668244947654
 20
66.5124425394367
 10
25.2539380691609
 20
66.53513316664348
 10
25.18434301162994
 20
66.55477212570774
 10
25.117720543402
 20
66.57161420486025
 10
25.05370560896598
 20
66.58591998295816
 10
24.99193315281081
 20
66.59795003885857
 10
24.93203811942537
 20
66.60796495141868
 10
24.87365545329855
 20
66.61622529949561
 10
24.8164200989193
 20
66.62299166194653
 10
24.75996700077648
 20
66.62852461762856
 10
24.70409914470733
 20
66.63306447815068
 10
24.64929168194248
 20
66.63677048612926
 10
24.59618780506085
 20
66.63978161693248
 10
24.54543070664139
 20
66.64223684592849
 10
24.49766357926304
 20
66.64427514848552
 10
24.45352961550474
 20
66.6460354999717
 10
24.41367200794542
 20
66.64765687575524
 10
24.37873394916405
 20
66.64927825120432
 10
24.34917030961979
 20
66.65104728768245
 10
24.32468267129277
 20
66.6531463905346
 10
24.30478429404334
 20
66.65576665110101
 10
24.28898843773187
 20
66.65909916072205
 10
24.27680836221873
 20
66.66333501073793
 10
24.26775732736427
 20
66.66866529248901
 10
24.26134859302885
 20
66.67528109731552
 10
24.25709541907283
 20
66.68337351655776
 10
24.25465882575289
 20
66.69314811812208
 10
24.25429087491092
 20
66.70486837617879
 10
24.25639138878513
 20
66.71881224146426
 10
24.26136018961374
 20
66.73525766471484
 10
24.26959709963496
 20
66.75448259666691
 10
24.28150194108698
 20
66.77676498805681
 10
24.29747453620803
 20
66.80238278962093
 10
24.31791470723631
 20
66.83161395209561
 10
24.34314839616672
 20
66.86460903210184
 10
24.37320602402095
 20
66.90100900979913
 10
24.40804413157736
 20
66.94032747123163
 10
24.44761925961436
 20
66.98207800244346
 10
24.49188794891026
 20
67.02577418947874
 10
24.54080674024349
 20
67.07092961838163
 10
24.59433217439239
 20
67.11705787519623
 10
24.65242079213535
 20
67.1636725459667
 10
24.7149856752097
 20
67.21036828572984
 10
24.78176606918874
 20
67.25706402549296
 10
24.85245776060472
 20
67.30375976525609
 10
24.92675653598993
 20
67.35045550501921
 10
25.00435818187659
 20
67.39715124478234
 10
25.08495848479699
 20
67.44384698454545
 10
25.16825323128339
 20
67.49054272430858
 10
25.19152322093616
 20
67.50322417004653
  0
ARC
  5
4786
330
18
100
AcDbEntity
  8
0
100
AcDbCircle
 10
35.54842181829453
 20
64.31237442183079
 30
0.0
 40
0.327085602209658
100
AcDbArc
 50
54.17075525918982
 51
102.0673499923455
  0
LINE
  5
4825
330
18
100
AcDbEntity
  8
0
100
AcDbLine
 10
83.12295733239082
 20
67.51228283000642
 30
0.0
 11
83.12295733239082
 21
68.51228283000643
 31
0.0
  0
LINE
  5
4826
330
18
100
AcDbEntity
  8
0
100
AcDbLine
 10
83.12295733239082
 20
68.51228283000643
 30
0.0
 11
20.37295733239083
 21
68.51228283000643
 31
0.0
  0
LINE
  5
4835
330
18
100
AcDbEntity
  8
0
100
AcDbLine
 10
20.37298422073567
 20
67.51228283000642
 30
0.0
 11
20.37298422073567
 21
68.51228283000643
 31
0.0
  0
LINE
  5
4837
330
18
100
AcDbEntity
  8
0
100
AcDbLine
 10
92.14216821821608
 20
68.51228283000643
 30
0.0
 11
92.14216821821608
 21
60.51228283000643
 31
0.0
  0
LINE
  5
4838
330
18
100
AcDbEntity
  8
0
100
AcDbLine
 10
92.14216821821608
 20
60.51228283000643
 30
0.0
 11
91.14216821821608
 21
60.51228283000643
 31
0.0
  0
LINE
  5
4839
330
18
100
AcDbEntity
  8
0
100
AcDbLine
 10
91.14216821821608
 20
60.51228283000643
 30
0.0
 11
91.14216821821608
 21
68.51228283000643
 31
0.0
  0
LINE
  5
483A
330
18
100
AcDbEntity
  8
0
100
AcDbLine
 10
91.14216821821608
 20
68.51228283000643
 30
0.0
 11
92.14216821821608
 21
68.51228283000643
 31
0.0
  0
LINE
  5
483B
330
18
100
AcDbEntity
  8
0
100
AcDbLine
 10
92.14216821821608
 20
68.51228283000643
 30
0.0
 11
92.14216821821608
 21
67.51228283000642
 31
0.0
  0
LINE
  5
483C
330
18
100
AcDbEntity
  8
0
100
AcDbLine
 10
92.14216821821608
 20
67.51228283000642
 30
0.0
 11
91.14216821821608
 21
67.51228283000642
 31
0.0
  0
DIMENSION
  5
483D
330
18
100
AcDbEntity
  8
DIM
100
AcDbDimension
  2
*D2
 10
91.14216821821608
 20
74.92140483419301
 30
0.0
 11
86.87216821821609
 21
74.92140483419301
 31
0.0
 70
    32
 71
     5
  3
STANDARD
100
AcDbAlignedDimension
 13
92.14216821821608
 23
68.51228283000643
 33
0.0
 14
91.14216821821608
 24
68.51228283000643
 34
0.0
100
AcDbRotatedDimension
  0
DIMENSION
  5
484B
330
18
100
AcDbEntity
  8
DIM
100
AcDbDimension
  2
*D3
 10
97.11598688108111
 20
60.51228283000643
 30
0.0
 11
97.11598688108111
 21
55.90894949667311
 31
0.0
 70
    32
 71
     5
 42
7.999999999999992
  3
STANDARD
100
AcDbAlignedDimension
 13
92.14216821821608
 23
68.51228283000643
 33
0.0
 14
92.14216821821608
 24
60.51228283000643
 34
0.0
 50
90.0
100
AcDbRotatedDimension
  0
VIEWPORT
  5
4654
330
464D
100
AcDbEntity
 67
     1
  8
0
100
AcDbViewport
 10
133.3499908447265
 20
101.5999970436096
 30
0.0
 40
446.7317887782482
 41
228.4714005465898
 68
     2
 69
     1
 12
133.3499908447265
 22
101.5999970436096
 13
0.0
 23
0.0
 14
10.0
 24
10.0
 15
10.0
 25
10.0
 16
0.0
 26
0.0
 36
1.0
 17
0.0
 27
0.0
 37
0.0
 42
50.0
 43
0.0
 44
0.0
 45
228.4714005465898
 50
0.0
 51
0.0
 72
   100
 90
    32800
  1

281
     0
 71
     1
 74
     0
110
0.0
120
0.0
130
0.0
111
1.0
121
0.0
131
0.0
112
0.0
122
1.0
132
0.0
 79
     0
146
0.0
170
     0
  0
VIEWPORT
  5
4656
330
464D
100
AcDbEntity
 67
     1
  8
0
100
AcDbViewport
 10
133.3499939441681
 20
101.5999939441681
 30
0.0
 40
213.3599903106689
 41
162.5599903106689
 68
     1
 69
     2
 12
59.93023117249524
 22
61.19440573664949
 13
0.0
 23
0.0
 14
10.0
 24
10.0
 15
10.0
 25
10.0
 16
0.0
 26
0.0
 36
1.0
 17
0.0
 27
0.0
 37
0.0
 42
50.0
 43
0.0
 44
0.0
 45
68.89542954423951
 50
0.0
 51
0.0
 72
   100
 90
    32800
  1

281
     0
 71
     1
 74
     0
110
0.0
120
0.0
130
0.0
111
1.0
121
0.0
131
0.0
112
0.0
122
1.0
132
0.0
 79
     0
146
0.0
170
     0
  0
ENDSEC
  0
SECTION
  2
OBJECTS
  0
DICTIONARY
  5
C
330
0
100
AcDbDictionary
281
     1
  3
ACAD_COLOR
350
3BB8
  3
ACAD_GROUP
350
D
  3
ACAD_IMAGE_DICT
350
21
  3
ACAD_IMAGE_VARS
350
20
  3
ACAD_LAYOUT
350
3BB9
  3
ACAD_MATERIAL
350
3BB7
  3
ACAD_MLINESTYLE
350
1B
  3
ACAD_PLOTSETTINGS
350
3BBA
  3
ACAD_PLOTSTYLENAME
350
3BB5
  3
ACDBVARIABLEDICTIONARY
350
34D4
  0
DICTIONARY
  5
3BB8
102
{ACAD_REACTORS
330
C
102
}
330
C
100
AcDbDictionary
281
     1
  0
DICTIONARY
  5
D
102
{ACAD_REACTORS
330
C
102
}
330
C
100
AcDbDictionary
281
     1
  0
DICTIONARY
  5
21
102
{ACAD_REACTORS
330
C
102
}
330
C
100
AcDbDictionary
281
     1
  3
3304-1
350
22
  3
3304-1B
350
1C41
  3
3304-2
350
25
  3
3304-2B
350
1C44
  3
3304-3
350
28
  3
3304-3B
350
1C47
  0
RASTERVARIABLES
  5
20
102
{ACAD_REACTORS
330
C
102
}
330
C
100
AcDbRasterVariables
 90
        0
 70
     1
 71
     1
 72
     0
  0
DICTIONARY
  5
3BB9
102
{ACAD_REACTORS
330
C
102
}
330
C
100
AcDbDictionary
281
     1
  3
Layout1
350
464E
  3
Model
350
3BBB
  0
DICTIONARY
  5
3BB7
102
{ACAD_REACTORS
330
C
102
}
330
C
100
AcDbDictionary
281
     1
  0
DICTIONARY
  5
1B
102
{ACAD_REACTORS
330
C
102
}
330
C
100
AcDbDictionary
281
     1
  3
STANDARD
350
1C
  0
DICTIONARY
  5
3BBA
102
{ACAD_REACTORS
330
C
102
}
330
C
100
AcDbDictionary
281
     1
  0
ACDBDICTIONARYWDFLT
  5
3BB5
102
{ACAD_REACTORS
330
C
102
}
330
C
100
AcDbDictionary
281
     1
  3
Normal
350
3BB6
100
AcDbDictionaryWithDefault
340
3BB6
  0
DICTIONARY
  5
34D4
102
{ACAD_REACTORS
330
C
102
}
330
C
100
AcDbDictionary
281
     1
  3
SORTENTS
350
34D5
  0
IMAGEDEF
  5
22
102
{ACAD_REACTORS
330
21
102
}
330
21
100
AcDbRasterImageDef
 90
        0
  1
U:\TPDWG\MichelQ\3304-1.tif
 10
2243.0
 20
3009.0
 11
0.0705555555555556
 21
0.0705555555555556
280
     1
281
     5
  0
IMAGEDEF
  5
1C41
102
{ACAD_REACTORS
330
21
102
}
330
21
100
AcDbRasterImageDef
 90
        0
  1
U:\TPDWG\MichelQ\3304-1b.TIF
 10
2202.0
 20
2931.0
 11
0.0705555555555556
 21
0.0705555555555556
280
     1
281
     5
  0
IMAGEDEF
  5
25
102
{ACAD_REACTORS
330
21
102
}
330
21
100
AcDbRasterImageDef
 90
        0
  1
U:\TPDWG\MichelQ\3304-2.tif
 10
2243.0
 20
3009.0
 11
0.0705555555555556
 21
0.0705555555555556
280
     1
281
     5
  0
IMAGEDEF
  5
1C44
102
{ACAD_REACTORS
330
21
102
}
330
21
100
AcDbRasterImageDef
 90
        0
  1
U:\TPDWG\MichelQ\3304-2b.TIF
 10
2202.0
 20
2931.0
 11
0.0705555555555556
 21
0.0705555555555556
280
     1
281
     5
  0
IMAGEDEF
  5
28
102
{ACAD_REACTORS
330
21
102
}
330
21
100
AcDbRasterImageDef
 90
        0
  1
U:\TPDWG\MichelQ\3304-3.tif
 10
2243.0
 20
3009.0
 11
0.0705555555555556
 21
0.0705555555555556
280
     1
281
     5
  0
IMAGEDEF
  5
1C47
102
{ACAD_REACTORS
330
21
102
}
330
21
100
AcDbRasterImageDef
 90
        0
  1
U:\TPDWG\MichelQ\3304-3b.TIF
 10
2202.0
 20
2931.0
 11
0.0705555555555556
 21
0.0705555555555556
280
     1
281
     5
  0
LAYOUT
  5
464E
102
{ACAD_REACTORS
330
3BB9
102
}
330
3BB9
100
AcDbPlotSettings
  1

  2
none_device
  4
Letter_(8.50_x_11.00_Inches)
  6

 40
6.349999904632568
 41
6.349999904632568
 42
6.350006103515625
 43
6.350006103515625
 44
215.8999938964844
 45
279.3999938964844
 46
0.0
 47
0.0
 48
0.0
 49
0.0
140
0.0
141
0.0
142
1.0
143
1.0
 70
   688
 72
     1
 73
     1
 74
     5
  7

 75
    16
147
1.0
 76
     1
 77
     2
 78
   300
148
0.0
149
0.0
100
AcDbLayout
  1
Layout1
 70
     1
 71
     1
 10
-6.350006103515625
 20
-6.349999904632568
 11
273.0499877929688
 21
209.5499939918518
 12
0.0
 22
0.0
 32
0.0
 14
26.66076962115563
 24
20.31135699206658
 34
-0.0015258207003583
 15
240.039213369355
 25
182.8886381005154
 35
0.0000000349246037
146
0.0
 13
0.0
 23
0.0
 33
0.0
 16
1.0
 26
0.0
 36
0.0
 17
0.0
 27
1.0
 37
0.0
 76
     0
330
464D
331
4656
  0
LAYOUT
  5
3BBB
102
{ACAD_REACTORS
330
3BB9
102
}
330
3BB9
100
AcDbPlotSettings
  1

  2
None
  4

  6

 40
0.0
 41
0.0
 42
0.0
 43
0.0
 44
0.0
 45
0.0
 46
0.0
 47
0.0
 48
0.0
 49
0.0
140
0.0
141
0.0
142
1.0
143
1.0
 70
  1712
 72
     0
 73
     0
 74
     0
  7

 75
     0
147
1.0
 76
     0
 77
     2
 78
   300
148
0.0
149
0.0
100
AcDbLayout
  1
Model
 70
     1
 71
     0
 10
0.0
 20
0.0
 11
12.0
 21
9.0
 12
0.0
 22
0.0
 32
0.0
 14
0.0
 24
0.0
 34
0.0
 15
0.0
 25
0.0
 35
0.0
146
0.0
 13
0.0
 23
0.0
 33
0.0
 16
1.0
 26
0.0
 36
0.0
 17
0.0
 27
1.0
 37
0.0
 76
     0
330
18
  0
MLINESTYLE
  5
1C
102
{ACAD_REACTORS
330
1B
102
}
330
1B
100
AcDbMlineStyle
  2
STANDARD
 70
     0
  3

 62
   256
 51
90.0
 52
90.0
 71
     2
 49
0.5
 62
   256
  6
BYLAYER
 49
-0.5
 62
   256
  6
BYLAYER
  0
ACDBPLACEHOLDER
  5
3BB6
102
{ACAD_REACTORS
330
3BB5
102
}
330
3BB5
  0
DICTIONARYVAR
  5
34D5
102
{ACAD_REACTORS
330
34D4
102
}
330
34D4
100
DictionaryVariables
280
     0
  1
96
  0
ENDSEC
  0
EOF
