  0
SECTION
  2
HEADER
  9
$ACADVER
  1
AC1018
  9
$ACADMAINTVER
 70
     0
  9
$DWGCODEPAGE
  3
ANSI_1252
  9
$INSBASE
 10
0.0
 20
0.0
 30
0.0
  9
$EXTMIN
 10
2.919568296583403
 20
2.220903468018349
 30
0.0
  9
$EXTMAX
 10
83.98106805982882
 20
18.97440375498951
 30
0.0
  9
$LIMMIN
 10
0.0
 20
0.0
  9
$LIMMAX
 10
420.0
 20
297.0
  9
$ORTHOMODE
 70
     0
  9
$REGENMODE
 70
     1
  9
$FILLMODE
 70
     1
  9
$QTEXTMODE
 70
     0
  9
$MIRRTEXT
 70
     1
  9
$LTSCALE
 40
0.04
  9
$ATTMODE
 70
     1
  9
$TEXTSIZE
 40
4.0
  9
$TRACEWID
 40
1.0
  9
$TEXTSTYLE
  7
ITALICT
  9
$CLAYER
  8
0
  9
$CELTYPE
  6
BYLAYER
  9
$CECOLOR
 62
   256
  9
$CELTSCALE
 40
1.0
  9
$DISPSILH
 70
     0
  9
$DIMSCALE
 40
1.0
  9
$DIMASZ
 40
0.18
  9
$DIMEXO
 40
0.0625
  9
$DIMDLI
 40
0.38
  9
$DIMRND
 40
0.0
  9
$DIMDLE
 40
0.0
  9
$DIMEXE
 40
0.18
  9
$DIMTP
 40
0.0
  9
$DIMTM
 40
0.0
  9
$DIMTXT
 40
1.5
  9
$DIMCEN
 40
0.09
  9
$DIMTSZ
 40
0.0
  9
$DIMTOL
 70
     0
  9
$DIMLIM
 70
     0
  9
$DIMTIH
 70
     1
  9
$DIMTOH
 70
     1
  9
$DIMSE1
 70
     0
  9
$DIMSE2
 70
     0
  9
$DIMTAD
 70
     0
  9
$DIMZIN
 70
     0
  9
$DIMBLK
  1

  9
$DIMASO
 70
     1
  9
$DIMSHO
 70
     1
  9
$DIMPOST
  1

  9
$DIMAPOST
  1

  9
$DIMALT
 70
     0
  9
$DIMALTD
 70
     2
  9
$DIMALTF
 40
25.4
  9
$DIMLFAC
 40
1.0
  9
$DIMTOFL
 70
     0
  9
$DIMTVP
 40
0.0
  9
$DIMTIX
 70
     0
  9
$DIMSOXD
 70
     0
  9
$DIMSAH
 70
     0
  9
$DIMBLK1
  1

  9
$DIMBLK2
  1

  9
$DIMSTYLE
  2
STANDARD
  9
$DIMCLRD
 70
     0
  9
$DIMCLRE
 70
     0
  9
$DIMCLRT
 70
     0
  9
$DIMTFAC
 40
1.0
  9
$DIMGAP
 40
0.09
  9
$DIMJUST
 70
     0
  9
$DIMSD1
 70
     0
  9
$DIMSD2
 70
     0
  9
$DIMTOLJ
 70
     1
  9
$DIMTZIN
 70
     0
  9
$DIMALTZ
 70
     0
  9
$DIMALTTZ
 70
     0
  9
$DIMUPT
 70
     0
  9
$DIMDEC
 70
     4
  9
$DIMTDEC
 70
     4
  9
$DIMALTU
 70
     2
  9
$DIMALTTD
 70
     2
  9
$DIMTXSTY
  7
STANDARD
  9
$DIMAUNIT
 70
     0
  9
$DIMADEC
 70
     0
  9
$DIMALTRND
 40
0.0
  9
$DIMAZIN
 70
     0
  9
$DIMDSEP
 70
    46
  9
$DIMATFIT
 70
     3
  9
$DIMFRAC
 70
     0
  9
$DIMLDRBLK
  1

  9
$DIMLUNIT
 70
     2
  9
$DIMLWD
 70
    -2
  9
$DIMLWE
 70
    -2
  9
$DIMTMOVE
 70
     0
  9
$LUNITS
 70
     4
  9
$LUPREC
 70
     4
  9
$SKETCHINC
 40
1.0
  9
$FILLETRAD
 40
0.375
  9
$AUNITS
 70
     0
  9
$AUPREC
 70
     0
  9
$MENU
  1
.
  9
$ELEVATION
 40
0.0
  9
$PELEVATION
 40
0.0
  9
$THICKNESS
 40
0.0
  9
$LIMCHECK
 70
     0
  9
$CHAMFERA
 40
0.5625
  9
$CHAMFERB
 40
0.5625
  9
$CHAMFERC
 40
20.0
  9
$CHAMFERD
 40
0.0
  9
$SKPOLY
 70
     0
  9
$TDCREATE
 40
2451158.474098033
  9
$TDUCREATE
 40
2451158.640764699
  9
$TDUPDATE
 40
2453488.691449734
  9
$TDUUPDATE
 40
2453488.858116401
  9
$TDINDWG
 40
0.9574627778
  9
$TDUSRTIMER
 40
0.9574627778
  9
$USRTIMER
 70
     1
  9
$ANGBASE
 50
0.0
  9
$ANGDIR
 70
     0
  9
$PDMODE
 70
     3
  9
$PDSIZE
 40
0.25
  9
$PLINEWID
 40
0.0
  9
$SPLFRAME
 70
     0
  9
$SPLINETYPE
 70
     6
  9
$SPLINESEGS
 70
     8
  9
$HANDSEED
  5
4824
  9
$SURFTAB1
 70
     6
  9
$SURFTAB2
 70
     6
  9
$SURFTYPE
 70
     6
  9
$SURFU
 70
     6
  9
$SURFV
 70
     6
  9
$UCSBASE
  2

  9
$UCSNAME
  2

  9
$UCSORG
 10
0.0
 20
0.0
 30
0.0
  9
$UCSXDIR
 10
1.0
 20
0.0
 30
0.0
  9
$UCSYDIR
 10
0.0
 20
1.0
 30
0.0
  9
$UCSORTHOREF
  2

  9
$UCSORTHOVIEW
 70
     0
  9
$UCSORGTOP
 10
0.0
 20
0.0
 30
0.0
  9
$UCSORGBOTTOM
 10
0.0
 20
0.0
 30
0.0
  9
$UCSORGLEFT
 10
0.0
 20
0.0
 30
0.0
  9
$UCSORGRIGHT
 10
0.0
 20
0.0
 30
0.0
  9
$UCSORGFRONT
 10
0.0
 20
0.0
 30
0.0
  9
$UCSORGBACK
 10
0.0
 20
0.0
 30
0.0
  9
$PUCSBASE
  2

  9
$PUCSNAME
  2

  9
$PUCSORG
 10
0.0
 20
0.0
 30
0.0
  9
$PUCSXDIR
 10
1.0
 20
0.0
 30
0.0
  9
$PUCSYDIR
 10
0.0
 20
1.0
 30
0.0
  9
$PUCSORTHOREF
  2

  9
$PUCSORTHOVIEW
 70
     0
  9
$PUCSORGTOP
 10
0.0
 20
0.0
 30
0.0
  9
$PUCSORGBOTTOM
 10
0.0
 20
0.0
 30
0.0
  9
$PUCSORGLEFT
 10
0.0
 20
0.0
 30
0.0
  9
$PUCSORGRIGHT
 10
0.0
 20
0.0
 30
0.0
  9
$PUCSORGFRONT
 10
0.0
 20
0.0
 30
0.0
  9
$PUCSORGBACK
 10
0.0
 20
0.0
 30
0.0
  9
$USERI1
 70
     0
  9
$USERI2
 70
     0
  9
$USERI3
 70
     0
  9
$USERI4
 70
     0
  9
$USERI5
 70
     0
  9
$USERR1
 40
0.0
  9
$USERR2
 40
0.0
  9
$USERR3
 40
0.0
  9
$USERR4
 40
0.0
  9
$USERR5
 40
0.0
  9
$WORLDVIEW
 70
     1
  9
$SHADEDGE
 70
     3
  9
$SHADEDIF
 70
    70
  9
$TILEMODE
 70
     1
  9
$MAXACTVP
 70
    48
  9
$PINSBASE
 10
0.0
 20
0.0
 30
0.0
  9
$PLIMCHECK
 70
     0
  9
$PEXTMIN
 10
26.64733987609782
 20
20.31633067121299
 30
-0.0015258207003583
  9
$PEXTMAX
 10
240.0567634637198
 20
182.8968206270327
 30
0.0000000349246037
  9
$PLIMMIN
 10
-6.350006103515625
 20
-6.349999904632568
  9
$PLIMMAX
 10
273.0499877929688
 20
209.5499939918518
  9
$UNITMODE
 70
     0
  9
$VISRETAIN
 70
     1
  9
$PLINEGEN
 70
     0
  9
$PSLTSCALE
 70
     1
  9
$TREEDEPTH
 70
  3020
  9
$CMLSTYLE
  2
STANDARD
  9
$CMLJUST
 70
     0
  9
$CMLSCALE
 40
20.0
  9
$PROXYGRAPHICS
 70
     1
  9
$MEASUREMENT
 70
     1
  9
$CELWEIGHT
370
    -1
  9
$ENDCAPS
280
     0
  9
$JOINSTYLE
280
     0
  9
$LWDISPLAY
290
     0
  9
$INSUNITS
 70
     0
  9
$HYPERLINKBASE
  1

  9
$STYLESHEET
  1

  9
$XEDIT
290
     1
  9
$CEPSNTYPE
380
     0
  9
$PSTYLEMODE
290
     1
  9
$FINGERPRINTGUID
  2
{02D8BCD4-481C-46F1-8E06-DE7F676932C5}
  9
$VERSIONGUID
  2
{C526CE25-2AC7-44B7-8884-670338FE63B5}
  9
$EXTNAMES
290
     1
  9
$PSVPSCALE
 40
0.0
  9
$OLESTARTUP
290
     0
  9
$SORTENTS
280
    96
  9
$INDEXCTL
280
     0
  9
$HIDETEXT
280
     0
  9
$XCLIPFRAME
290
     0
  9
$HALOGAP
280
     0
  9
$OBSCOLOR
 70
   257
  9
$OBSLTYPE
280
     0
  9
$INTERSECTIONDISPLAY
280
     0
  9
$INTERSECTIONCOLOR
 70
   257
  9
$DIMASSOC
280
     1
  9
$PROJECTNAME
  1

  0
ENDSEC
  0
SECTION
  2
CLASSES
  0
CLASS
  1
RASTERVARIABLES
  2
AcDbRasterVariables
  3
ISM
 90
        0
 91
        1
280
     0
281
     0
  0
CLASS
  1
IMAGEDEF
  2
AcDbRasterImageDef
  3
ISM
 90
        0
 91
        6
280
     0
281
     0
  0
CLASS
  1
IMAGEDEF_REACTOR
  2
AcDbRasterImageDefReactor
  3
ISM
 90
        1
 91
        0
280
     0
281
     0
  0
CLASS
  1
IMAGE
  2
AcDbRasterImage
  3
ISM
 90
      127
 91
        0
280
     0
281
     1
  0
CLASS
  1
DICTIONARYVAR
  2
AcDbDictionaryVar
  3
ObjectDBX Classes
 90
        0
 91
        1
280
     0
281
     0
  0
CLASS
  1
ACDBDICTIONARYWDFLT
  2
AcDbDictionaryWithDefault
  3
ObjectDBX Classes
 90
        0
 91
        1
280
     0
281
     0
  0
ENDSEC
  0
SECTION
  2
TABLES
  0
TABLE
  2
VPORT
  5
8
330
0
100
AcDbSymbolTable
 70
     2
  0
VPORT
  5
4823
330
8
100
AcDbSymbolTableRecord
100
AcDbViewportTableRecord
  2
*Active
 70
     0
 10
0.0
 20
0.0
 11
1.0
 21
1.0
 12
44.709206949675
 22
8.064058745849788
 13
0.0
 23
0.0
 14
10.0
 24
10.0
 15
10.0
 25
10.0
 16
0.0
 26
0.0
 36
1.0
 17
0.0
 27
0.0
 37
0.0
 40
44.54287211134734
 41
1.977142857142857
 42
50.0
 43
0.0
 44
0.0
 50
0.0
 51
0.0
 71
     0
 72
   100
 73
     1
 74
     1
 75
     0
 76
     0
 77
     0
 78
     0
281
     0
 65
     1
110
0.0
120
0.0
130
0.0
111
1.0
121
0.0
131
0.0
112
0.0
122
1.0
132
0.0
 79
     0
146
0.0
  0
ENDTAB
  0
TABLE
  2
LTYPE
  5
5
330
0
100
AcDbSymbolTable
 70
     1
  0
LTYPE
  5
12
330
5
100
AcDbSymbolTableRecord
100
AcDbLinetypeTableRecord
  2
BYBLOCK
 70
     0
  3

 72
    65
 73
     0
 40
0.0
  0
LTYPE
  5
13
330
5
100
AcDbSymbolTableRecord
100
AcDbLinetypeTableRecord
  2
BYLAYER
 70
     0
  3

 72
    65
 73
     0
 40
0.0
  0
LTYPE
  5
14
330
5
100
AcDbSymbolTableRecord
100
AcDbLinetypeTableRecord
  2
CONTINUOUS
 70
     0
  3
Solid line
 72
    65
 73
     0
 40
0.0
  0
ENDTAB
  0
TABLE
  2
LAYER
  5
2
330
0
100
AcDbSymbolTable
 70
     3
  0
LAYER
  5
E
330
2
100
AcDbSymbolTableRecord
100
AcDbLayerTableRecord
  2
0
 70
     0
 62
     7
  6
CONTINUOUS
370
    -3
390
46E1
  0
LAYER
  5
46EC
330
2
100
AcDbSymbolTableRecord
100
AcDbLayerTableRecord
  2
Defpoints
 70
     0
 62
     7
  6
CONTINUOUS
290
     0
370
    -3
390
46E1
  0
LAYER
  5
47C9
330
2
100
AcDbSymbolTableRecord
100
AcDbLayerTableRecord
  2
DIM
 70
     0
 62
    -3
  6
CONTINUOUS
370
    -3
390
46E1
  0
ENDTAB
  0
TABLE
  2
STYLE
  5
3
330
0
100
AcDbSymbolTable
 70
     2
  0
STYLE
  5
F
330
3
100
AcDbSymbolTableRecord
100
AcDbTextStyleTableRecord
  2
STANDARD
 70
     0
 40
0.0
 41
1.0
 50
0.0
 71
     0
 42
2.5
  3
txt
  4

  0
STYLE
  5
3816
330
3
100
AcDbSymbolTableRecord
100
AcDbTextStyleTableRecord
  2
ITALICT
 70
     0
 40
4.0
 41
1.0
 50
0.0
 71
     0
 42
4.0
  3
italict.shx
  4

  0
ENDTAB
  0
TABLE
  2
VIEW
  5
6
330
0
100
AcDbSymbolTable
 70
     0
  0
ENDTAB
  0
TABLE
  2
UCS
  5
7
330
0
100
AcDbSymbolTable
 70
     0
  0
ENDTAB
  0
TABLE
  2
APPID
  5
9
330
0
100
AcDbSymbolTable
 70
     1
  0
APPID
  5
10
330
9
100
AcDbSymbolTableRecord
100
AcDbRegAppTableRecord
  2
ACAD
 70
     0
  0
ENDTAB
  0
TABLE
  2
DIMSTYLE
  5
A
330
0
100
AcDbSymbolTable
 70
     1
100
AcDbDimStyleTable
 71
     1
340
1D
  0
DIMSTYLE
105
1D
102
{ACAD_REACTORS
330
4718
330
4726
330
479D
330
47AB
102
}
330
A
100
AcDbSymbolTableRecord
100
AcDbDimStyleTableRecord
  2
STANDARD
 70
     0
140
1.5
340
F
  0
ENDTAB
  0
TABLE
  2
BLOCK_RECORD
  5
1
330
0
100
AcDbSymbolTable
 70
     5
  0
BLOCK_RECORD
  5
18
330
1
100
AcDbSymbolTableRecord
100
AcDbBlockTableRecord
  2
*MODEL_SPACE
340
46E6
  0
BLOCK_RECORD
  5
15
330
1
100
AcDbSymbolTableRecord
100
AcDbBlockTableRecord
  2
*PAPER_SPACE
340
46E7
  0
BLOCK_RECORD
  5
44F6
330
1
100
AcDbSymbolTableRecord
100
AcDbBlockTableRecord
  2
5507_E
340
0
  0
BLOCK_RECORD
  5
4719
330
1
100
AcDbSymbolTableRecord
100
AcDbBlockTableRecord
  2
*D1
340
0
  0
BLOCK_RECORD
  5
4727
330
1
100
AcDbSymbolTableRecord
100
AcDbBlockTableRecord
  2
*D2
340
0
  0
BLOCK_RECORD
  5
479E
330
1
100
AcDbSymbolTableRecord
100
AcDbBlockTableRecord
  2
*D3
340
0
  0
BLOCK_RECORD
  5
47AC
330
1
100
AcDbSymbolTableRecord
100
AcDbBlockTableRecord
  2
*D4
340
0
  0
ENDTAB
  0
ENDSEC
  0
SECTION
  2
BLOCKS
  0
BLOCK
  5
19
330
18
100
AcDbEntity
  8
0
100
AcDbBlockBegin
  2
*MODEL_SPACE
 70
     0
 10
0.0
 20
0.0
 30
0.0
  3
*MODEL_SPACE
  1

  0
ENDBLK
  5
1A
330
18
100
AcDbEntity
  8
0
100
AcDbBlockEnd
  0
BLOCK
  5
16
330
15
100
AcDbEntity
 67
     1
  8
0
100
AcDbBlockBegin
  2
*PAPER_SPACE
 70
     0
 10
0.0
 20
0.0
 30
0.0
  3
*PAPER_SPACE
  1

  0
ENDBLK
  5
17
330
15
100
AcDbEntity
 67
     1
  8
0
100
AcDbBlockEnd
  0
BLOCK
  5
46D0
330
44F6
100
AcDbEntity
  8
0
100
AcDbBlockBegin
  2
5507_E
 70
     0
 10
0.0
 20
0.0
 30
0.0
  3
5507_E
  1

  0
LINE
  5
46D1
330
44F6
100
AcDbEntity
  8
0
100
AcDbLine
 10
26.625
 20
1.0
 30
0.0
 11
26.625
 21
6.5
 31
0.0
  0
LINE
  5
46D2
330
44F6
100
AcDbEntity
  8
0
100
AcDbLine
 10
-26.625
 20
1.0
 30
0.0
 11
-26.625
 21
6.499999999999998
 31
0.0
  0
LINE
  5
46D3
330
44F6
100
AcDbEntity
  8
0
100
AcDbLine
 10
-27.625
 20
0.0
 30
0.0
 11
-27.625
 21
7.5
 31
0.0
  0
LINE
  5
46D4
330
44F6
100
AcDbEntity
  8
0
100
AcDbLine
 10
27.625
 20
0.0
 30
0.0
 11
27.625
 21
7.5
 31
0.0
  0
LINE
  5
46D5
330
44F6
100
AcDbEntity
  8
0
100
AcDbLine
 10
-26.625
 20
1.0
 30
0.0
 11
26.625
 21
1.0
 31
0.0
  0
LINE
  5
46D6
330
44F6
100
AcDbEntity
  8
0
100
AcDbLine
 10
-27.625
 20
0.0
 30
0.0
 11
27.625
 21
0.0
 31
0.0
  0
LWPOLYLINE
  5
46D7
330
44F6
100
AcDbEntity
  8
0
100
AcDbPolyline
 90
       75
 70
     0
 43
0.0
 10
0.0
 20
3.723180141182524
 10
0.1578980124904703
 20
4.019605916046243
 10
0.3297150298339559
 20
4.244937840949567
 10
0.5120040022713753
 20
4.408641669218637
 10
0.7013178800436748
 20
4.520183154179584
 10
0.89420961339178
 20
4.589028049158548
 10
1.08723215255663
 20
4.62464210748166
 10
1.276938447779158
 20
4.636491082475059
 10
1.459881449300297
 20
4.634040727464876
 10
1.633558068873732
 20
4.62516798141579
 10
1.799241064304148
 20
4.611394525846604
 10
1.959147154908997
 20
4.592653227914667
 10
2.115493060005697
 20
4.568876954777321
 10
2.270495498911714
 20
4.539998573591914
 10
2.426371190944472
 20
4.505950951515785
 10
2.585336855421417
 20
4.466666955706285
 10
2.749609211659979
 20
4.422079453320753
 10
2.921102699101844
 20
4.372401032305697
 10
3.100522637685557
 20
4.318963163764264
 10
3.288272067473933
 20
4.263377039588759
 10
3.484754028529756
 20
4.20725385167149
 10
3.690371560915828
 20
4.152204791904765
 10
3.905527704694947
 20
4.09984105218089
 10
4.130625499929898
 20
4.051773824392169
 10
4.366067986683482
 20
4.009614300430913
 10
4.611967120600077
 20
3.974660384895562
 10
4.867270519650425
 20
3.9469568332091
 10
5.13063471738684
 20
3.926235113500643
 10
5.40071624736165
 20
3.912226693899311
 10
5.676171643127169
 20
3.904663042534219
 10
5.955657438235732
 20
3.903275627534489
 10
6.237830166239646
 20
3.907795917029234
 10
6.521346360691239
 20
3.917955379147578
 10
6.80475059958411
 20
3.933507859632852
 10
7.086139638676975
 20
3.954296714685268
 10
7.363498278169821
 20
3.980187678119255
 10
7.634811318262634
 20
4.01104648374924
 10
7.89806355915541
 20
4.046738865389654
 10
8.151239801048149
 20
4.087130556854924
 10
8.392324844140823
 20
4.132087291959479
 10
8.619303488633441
 20
4.181474804517748
 10
8.831168134625983
 20
4.234890296389899
 10
9.030941581818474
 20
4.290856841619069
 10
9.222654229810927
 20
4.34762898229413
 10
9.410336478203362
 20
4.403461260503959
 10
9.598018726595796
 20
4.456608218337434
 10
9.789731374588249
 20
4.505324397883425
 10
9.989504821780741
 20
4.547864341230811
 10
10.20136946777329
 20
4.582482590468465
 10
10.4278331168157
 20
4.607545575978695
 10
10.66531319175702
 20
4.621867281317527
 10
10.8780422296402
 20
4.624057836571449
 10
11.03037112360724
 20
4.611394525846604
 10
11.19027721421209
 20
4.592653227914667
 10
11.34662311930879
 20
4.568876954777321
 10
11.50162555821481
 20
4.539998573591914
 10
11.65750125024757
 20
4.505950951515785
 10
11.81646691472451
 20
4.466666955706285
 10
11.98073927096308
 20
4.422079453320753
 10
12.15223275840494
 20
4.372401032305697
 10
12.33165269698865
 20
4.318963163764264
 10
12.51940212677703
 20
4.263377039588759
 10
12.71588408783285
 20
4.20725385167149
 10
12.92150162021892
 20
4.152204791904765
 10
13.13665776399804
 20
4.09984105218089
 10
13.36175555923299
 20
4.051773824392169
 10
13.59719804598658
 20
4.009614300430913
 10
13.84309717990317
 20
3.974660384895562
 10
14.09840057895352
 20
3.9469568332091
 10
14.36176477668993
 20
3.926235113500643
 10
14.63184630666475
 20
3.912226693899311
 10
14.90730170243027
 20
3.904663042534219
 10
15.18678749753883
 20
3.903275627534489
 10
15.46896022554274
 20
3.907795917029234
 10
15.75247641999434
 20
3.917955379147578
  0
LWPOLYLINE
  5
46D8
330
44F6
100
AcDbEntity
  8
0
100
AcDbPolyline
 90
       75
 70
     0
 43
0.0
 10
0.0
 20
3.723180141182524
 10
0.180317795292872
 20
4.006527128201469
 10
0.3690228484131026
 20
4.217917683232531
 10
0.5634093906963003
 20
4.367055488772979
 10
0.7607716534781233
 20
4.463644227320065
 10
0.9584038680941873
 20
4.517387581371057
 10
1.153600265880136
 20
4.537989233423214
 10
1.3436550781716
 20
4.535152865973799
 10
1.525862536304202
 20
4.518582161520066
 10
1.698335318943165
 20
4.496323835938781
 10
1.862459894071932
 20
4.469796738624657
 10
2.020441177003561
 20
4.438762752351911
 10
2.174484083051062
 20
4.402983759894755
 10
2.326793527527492
 20
4.362221644027401
 10
2.47957442574588
 20
4.316238287524065
 10
2.635031693019264
 20
4.264795573158959
 10
2.795370244660659
 20
4.207655383706295
 10
2.962515220070152
 20
4.144881830796784
 10
3.137272654995804
 20
4.077747941487109
 10
3.320168809272729
 20
4.00782897169045
 10
3.511729942736025
 20
3.936700177319991
 10
3.712482315220803
 20
3.865936814288909
 10
3.922952186562184
 20
3.797114138510387
 10
4.143665816595245
 20
3.731807405897599
 10
4.375149465155104
 20
3.671591872363732
 10
4.617614983484443
 20
3.617752920911602
 10
4.870016588456373
 20
3.570416442902573
 10
5.130994088351563
 20
3.529418456787654
 10
5.399187291450694
 20
3.494594981017847
 10
5.673236006034436
 20
3.465782034044156
 10
5.951780040383489
 20
3.442815634317591
 10
6.233459202778519
 20
3.425531800289151
 10
6.51691330150021
 20
3.413766550409842
 10
6.800672251697633
 20
3.407386859622306
 10
7.0828263959935
 20
3.406383528835698
 10
7.361356183878868
 20
3.410778315450826
 10
7.634242064844833
 20
3.42059297686848
 10
7.899464488382484
 20
3.435849270489462
 10
8.155003903982908
 20
3.456568953714569
 10
8.398840761137179
 20
3.482773783944599
 10
8.628955509336407
 20
3.514485518580347
 10
8.844312451788141
 20
3.551380373659704
 10
9.047811306565989
 20
3.591752399768934
 10
9.243335645460021
 20
3.633550106131385
 10
9.434769040260292
 20
3.674722001970417
 10
9.625995062756899
 20
3.713216596509381
 10
9.820897284739913
 20
3.746982398971628
 10
10.02335927799941
 20
3.773967918580515
 10
10.23726461432546
 20
3.792121664559397
 10
10.4649874575384
 20
3.799621281837072
 10
10.70286433957953
 20
3.79556095816414
 10
10.91512727669304
 20
3.781317095662302
 10
11.06602335952416
 20
3.756928090722359
 10
11.22400464245579
 20
3.725894104449613
 10
11.37804754850329
 20
3.690115111992458
 10
11.53035699297973
 20
3.649352996125106
 10
11.68313789119811
 20
3.603369639621767
 10
11.83859515847149
 20
3.551926925256662
 10
11.99893371011289
 20
3.494786735804
 10
12.16607868552239
 20
3.432013182894486
 10
12.34083612044803
 20
3.364879293584813
 10
12.52373227472496
 20
3.294960323788153
 10
12.71529340818826
 20
3.223831529417694
 10
12.91604578067304
 20
3.153068166386614
 10
13.12651565201442
 20
3.08424549060809
 10
13.34722928204748
 20
3.018938757995302
 10
13.57871293060734
 20
2.958723224461435
 10
13.82117844893668
 20
2.904884273009304
 10
14.07358005390861
 20
2.857547795000275
 10
14.3345575538038
 20
2.816549808885357
 10
14.60275075690293
 20
2.78172633311555
 10
14.87679947148668
 20
2.752913386141859
 10
15.15534350583573
 20
2.729946986415294
 10
15.43702266823075
 20
2.712663152386854
 10
15.72047676695244
 20
2.700897902507547
  0
LINE
  5
46D9
330
44F6
100
AcDbEntity
  8
0
100
AcDbLine
 10
-26.625
 20
6.499999999999998
 30
0.0
 11
26.625
 21
6.5
 31
0.0
  0
LINE
  5
46DA
330
44F6
100
AcDbEntity
  8
0
100
AcDbLine
 10
-27.625
 20
7.5
 30
0.0
 11
27.625
 21
7.5
 31
0.0
  0
LWPOLYLINE
  5
46DB
330
44F6
100
AcDbEntity
  8
0
100
AcDbPolyline
 90
       75
 70
     0
 43
0.0
 10
0.0
 20
3.723180141182524
 10
-0.180317795292872
 20
4.006527128201469
 10
-0.3690228484131026
 20
4.217917683232531
 10
-0.5634093906963003
 20
4.367055488772979
 10
-0.7607716534781233
 20
4.463644227320065
 10
-0.9584038680941873
 20
4.517387581371057
 10
-1.153600265880136
 20
4.537989233423214
 10
-1.3436550781716
 20
4.535152865973799
 10
-1.525862536304202
 20
4.518582161520066
 10
-1.698335318943165
 20
4.496323835938781
 10
-1.862459894071932
 20
4.469796738624657
 10
-2.020441177003561
 20
4.438762752351911
 10
-2.174484083051062
 20
4.402983759894755
 10
-2.326793527527492
 20
4.362221644027401
 10
-2.47957442574588
 20
4.316238287524065
 10
-2.635031693019264
 20
4.264795573158959
 10
-2.795370244660659
 20
4.207655383706295
 10
-2.962515220070152
 20
4.144881830796784
 10
-3.137272654995804
 20
4.077747941487109
 10
-3.320168809272729
 20
4.00782897169045
 10
-3.511729942736025
 20
3.936700177319991
 10
-3.712482315220803
 20
3.865936814288909
 10
-3.922952186562184
 20
3.797114138510387
 10
-4.143665816595245
 20
3.731807405897599
 10
-4.375149465155104
 20
3.671591872363732
 10
-4.617614983484443
 20
3.617752920911602
 10
-4.870016588456373
 20
3.570416442902573
 10
-5.130994088351563
 20
3.529418456787654
 10
-5.399187291450694
 20
3.494594981017847
 10
-5.673236006034436
 20
3.465782034044156
 10
-5.951780040383489
 20
3.442815634317591
 10
-6.233459202778519
 20
3.425531800289151
 10
-6.51691330150021
 20
3.413766550409842
 10
-6.800672251697633
 20
3.407386859622306
 10
-7.0828263959935
 20
3.406383528835698
 10
-7.361356183878868
 20
3.410778315450826
 10
-7.634242064844833
 20
3.42059297686848
 10
-7.899464488382484
 20
3.435849270489462
 10
-8.155003903982908
 20
3.456568953714569
 10
-8.398840761137179
 20
3.482773783944599
 10
-8.628955509336407
 20
3.514485518580347
 10
-8.844312451788141
 20
3.551380373659704
 10
-9.047811306565989
 20
3.591752399768934
 10
-9.243335645460021
 20
3.633550106131385
 10
-9.434769040260292
 20
3.674722001970417
 10
-9.625995062756899
 20
3.713216596509381
 10
-9.820897284739913
 20
3.746982398971628
 10
-10.02335927799941
 20
3.773967918580515
 10
-10.23726461432546
 20
3.792121664559397
 10
-10.46498745753839
 20
3.799621281837072
 10
-10.70286433957954
 20
3.79556095816414
 10
-10.91512727669304
 20
3.781317095662302
 10
-11.06602335952417
 20
3.756928090722359
 10
-11.22400464245579
 20
3.725894104449613
 10
-11.37804754850329
 20
3.690115111992458
 10
-11.53035699297973
 20
3.649352996125106
 10
-11.68313789119811
 20
3.603369639621767
 10
-11.83859515847149
 20
3.551926925256662
 10
-11.9989337101129
 20
3.494786735804
 10
-12.16607868552239
 20
3.432013182894486
 10
-12.34083612044803
 20
3.364879293584813
 10
-12.52373227472496
 20
3.294960323788153
 10
-12.71529340818826
 20
3.223831529417694
 10
-12.91604578067304
 20
3.153068166386614
 10
-13.12651565201442
 20
3.08424549060809
 10
-13.34722928204748
 20
3.018938757995302
 10
-13.57871293060733
 20
2.958723224461435
 10
-13.82117844893668
 20
2.904884273009304
 10
-14.07358005390861
 20
2.857547795000275
 10
-14.3345575538038
 20
2.816549808885357
 10
-14.60275075690293
 20
2.78172633311555
 10
-14.87679947148667
 20
2.752913386141859
 10
-15.15534350583572
 20
2.729946986415294
 10
-15.43702266823075
 20
2.712663152386854
 10
-15.72047676695244
 20
2.700897902507547
  0
LWPOLYLINE
  5
46DC
330
44F6
100
AcDbEntity
  8
0
100
AcDbPolyline
 90
       75
 70
     0
 43
0.0
 10
0.0
 20
3.723180141182524
 10
-0.1578980124904703
 20
4.019605916046243
 10
-0.3297150298339559
 20
4.244937840949567
 10
-0.5120040022713753
 20
4.408641669218637
 10
-0.7013178800436748
 20
4.520183154179584
 10
-0.89420961339178
 20
4.589028049158548
 10
-1.08723215255663
 20
4.62464210748166
 10
-1.276938447779158
 20
4.636491082475059
 10
-1.459881449300297
 20
4.634040727464876
 10
-1.633558068873732
 20
4.62516798141579
 10
-1.799241064304148
 20
4.611394525846604
 10
-1.959147154908997
 20
4.592653227914667
 10
-2.115493060005697
 20
4.568876954777321
 10
-2.270495498911714
 20
4.539998573591914
 10
-2.426371190944472
 20
4.505950951515785
 10
-2.585336855421417
 20
4.466666955706285
 10
-2.749609211659979
 20
4.422079453320753
 10
-2.921102699101844
 20
4.372401032305697
 10
-3.100522637685557
 20
4.318963163764264
 10
-3.288272067473933
 20
4.263377039588759
 10
-3.484754028529756
 20
4.20725385167149
 10
-3.690371560915828
 20
4.152204791904765
 10
-3.905527704694947
 20
4.09984105218089
 10
-4.130625499929898
 20
4.051773824392169
 10
-4.366067986683482
 20
4.009614300430913
 10
-4.611967120600077
 20
3.974660384895562
 10
-4.867270519650425
 20
3.9469568332091
 10
-5.13063471738684
 20
3.926235113500643
 10
-5.40071624736165
 20
3.912226693899311
 10
-5.676171643127169
 20
3.904663042534219
 10
-5.955657438235732
 20
3.903275627534489
 10
-6.237830166239646
 20
3.907795917029234
 10
-6.521346360691239
 20
3.917955379147578
 10
-6.80475059958411
 20
3.933507859632852
 10
-7.086139638676975
 20
3.954296714685268
 10
-7.363498278169821
 20
3.980187678119255
 10
-7.634811318262634
 20
4.01104648374924
 10
-7.89806355915541
 20
4.046738865389654
 10
-8.151239801048149
 20
4.087130556854924
 10
-8.392324844140823
 20
4.132087291959479
 10
-8.619303488633441
 20
4.181474804517748
 10
-8.831168134625983
 20
4.234890296389899
 10
-9.030941581818474
 20
4.290856841619069
 10
-9.222654229810927
 20
4.34762898229413
 10
-9.410336478203362
 20
4.403461260503959
 10
-9.598018726595796
 20
4.456608218337434
 10
-9.789731374588249
 20
4.505324397883425
 10
-9.989504821780741
 20
4.547864341230811
 10
-10.20136946777328
 20
4.582482590468465
 10
-10.4278331168157
 20
4.607545575978695
 10
-10.66531319175702
 20
4.621867281317527
 10
-10.87804222964019
 20
4.624057836571449
 10
-11.03037112360724
 20
4.611394525846604
 10
-11.19027721421209
 20
4.592653227914667
 10
-11.34662311930879
 20
4.568876954777321
 10
-11.50162555821481
 20
4.539998573591914
 10
-11.65750125024757
 20
4.505950951515785
 10
-11.81646691472451
 20
4.466666955706285
 10
-11.98073927096308
 20
4.422079453320753
 10
-12.15223275840494
 20
4.372401032305697
 10
-12.33165269698865
 20
4.318963163764264
 10
-12.51940212677703
 20
4.263377039588759
 10
-12.71588408783285
 20
4.20725385167149
 10
-12.92150162021892
 20
4.152204791904765
 10
-13.13665776399804
 20
4.09984105218089
 10
-13.36175555923299
 20
4.051773824392169
 10
-13.59719804598658
 20
4.009614300430913
 10
-13.84309717990317
 20
3.974660384895562
 10
-14.09840057895352
 20
3.9469568332091
 10
-14.36176477668993
 20
3.926235113500643
 10
-14.63184630666475
 20
3.912226693899311
 10
-14.90730170243027
 20
3.904663042534219
 10
-15.18678749753883
 20
3.903275627534489
 10
-15.46896022554274
 20
3.907795917029234
 10
-15.75247641999434
 20
3.917955379147578
  0
ENDBLK
  5
46DD
330
44F6
100
AcDbEntity
  8
0
100
AcDbBlockEnd
  0
BLOCK
  5
4724
330
4719
100
AcDbEntity
  8
0
100
AcDbBlockBegin
  2
*D1
 70
     1
 10
0.0
 20
0.0
 30
0.0
  3
*D1
  1

  0
LINE
  5
47FC
330
4719
100
AcDbEntity
  8
DIM
 62
     0
370
    -2
100
AcDbLine
 10
41.74519875927441
 20
8.007219913574616
 30
0.0
 11
6.114568296583408
 21
8.007219913574624
 31
0.0
  0
LINE
  5
47FD
330
4719
100
AcDbEntity
  8
DIM
 62
     0
370
    -2
100
AcDbLine
 10
41.74519875927441
 20
15.50721991357461
 30
0.0
 11
6.11456829658341
 21
15.50721991357462
 31
0.0
  0
LINE
  5
47FE
330
4719
100
AcDbEntity
  8
DIM
 62
     0
370
    -2
100
AcDbLine
 10
6.294568296583404
 20
8.187219913574624
 30
0.0
 11
6.294568296583405
 21
10.91721991357462
 31
0.0
  0
LINE
  5
47FF
330
4719
100
AcDbEntity
  8
DIM
 62
     0
370
    -2
100
AcDbLine
 10
6.294568296583406
 20
15.32721991357462
 30
0.0
 11
6.294568296583405
 21
12.59721991357462
 31
0.0
  0
SOLID
  5
4800
330
4719
100
AcDbEntity
  8
DIM
 62
     0
100
AcDbTrace
 10
6.264568296583404
 20
8.187219913574624
 30
0.0
 11
6.324568296583405
 21
8.187219913574624
 31
0.0
 12
6.294568296583404
 22
8.007219913574624
 32
0.0
 13
6.294568296583404
 23
8.007219913574624
 33
0.0
  0
SOLID
  5
4801
330
4719
100
AcDbEntity
  8
DIM
 62
     0
100
AcDbTrace
 10
6.264568296583406
 20
15.32721991357462
 30
0.0
 11
6.324568296583406
 21
15.32721991357462
 31
0.0
 12
6.294568296583406
 22
15.50721991357462
 32
0.0
 13
6.294568296583406
 23
15.50721991357462
 33
0.0
  0
MTEXT
  5
4802
330
4719
100
AcDbEntity
  8
DIM
 62
     0
100
AcDbMText
 10
6.294568296583403
 20
11.75721991357463
 30
0.0
 40
1.5
 41
0.0
 71
     5
 72
     1
  1
\A1;7.5000
 73
     1
 44
1.0
  0
POINT
  5
4803
330
4719
100
AcDbEntity
  8
Defpoints
 62
     0
100
AcDbPoint
 10
41.80769875927441
 20
8.007219913574616
 30
0.0
  0
POINT
  5
4804
330
4719
100
AcDbEntity
  8
Defpoints
 62
     0
100
AcDbPoint
 10
41.80769875927441
 20
15.50721991357461
 30
0.0
  0
POINT
  5
4805
330
4719
100
AcDbEntity
  8
Defpoints
 62
     0
100
AcDbPoint
 10
6.294568296583406
 20
15.50721991357462
 30
0.0
  0
ENDBLK
  5
4725
330
4719
100
AcDbEntity
  8
0
100
AcDbBlockEnd
  0
BLOCK
  5
4732
330
4727
100
AcDbEntity
  8
0
100
AcDbBlockBegin
  2
*D2
 70
     1
 10
0.0
 20
0.0
 30
0.0
  3
*D2
  1

  0
LINE
  5
47F2
330
4727
100
AcDbEntity
  8
DIM
 62
     0
370
    -2
100
AcDbLine
 10
14.18269875927441
 20
11.69471991357461
 30
0.0
 11
14.18269875927441
 21
2.790903468018349
 31
0.0
  0
LINE
  5
47F3
330
4727
100
AcDbEntity
  8
DIM
 62
     0
370
    -2
100
AcDbLine
 10
69.80769875927442
 20
11.69471991357461
 30
0.0
 11
69.80769875927442
 21
2.790903468018349
 31
0.0
  0
LINE
  5
47F4
330
4727
100
AcDbEntity
  8
DIM
 62
     0
370
    -2
100
AcDbLine
 10
14.36269875927441
 20
2.970903468018349
 30
0.0
 11
37.53019875927441
 21
2.970903468018349
 31
0.0
  0
LINE
  5
47F5
330
4727
100
AcDbEntity
  8
DIM
 62
     0
370
    -2
100
AcDbLine
 10
69.62769875927441
 20
2.970903468018349
 30
0.0
 11
46.46019875927442
 21
2.970903468018349
 31
0.0
  0
SOLID
  5
47F6
330
4727
100
AcDbEntity
  8
DIM
 62
     0
100
AcDbTrace
 10
14.36269875927441
 20
3.000903468018349
 30
0.0
 11
14.36269875927441
 21
2.940903468018349
 31
0.0
 12
14.18269875927441
 22
2.970903468018349
 32
0.0
 13
14.18269875927441
 23
2.970903468018349
 33
0.0
  0
SOLID
  5
47F7
330
4727
100
AcDbEntity
  8
DIM
 62
     0
100
AcDbTrace
 10
69.62769875927441
 20
3.000903468018349
 30
0.0
 11
69.62769875927441
 21
2.940903468018349
 31
0.0
 12
69.80769875927442
 22
2.970903468018349
 32
0.0
 13
69.80769875927442
 23
2.970903468018349
 33
0.0
  0
MTEXT
  5
47F8
330
4727
100
AcDbEntity
  8
DIM
 62
     0
100
AcDbMText
 10
41.99519875927442
 20
2.970903468018349
 30
0.0
 40
1.5
 41
0.0
 71
     5
 72
     1
  1
\A1;55.6250
 73
     1
 44
1.0
  0
POINT
  5
47F9
330
4727
100
AcDbEntity
  8
Defpoints
 62
     0
100
AcDbPoint
 10
14.18269875927441
 20
11.75721991357461
 30
0.0
  0
POINT
  5
47FA
330
4727
100
AcDbEntity
  8
Defpoints
 62
     0
100
AcDbPoint
 10
69.80769875927442
 20
11.75721991357461
 30
0.0
  0
POINT
  5
47FB
330
4727
100
AcDbEntity
  8
Defpoints
 62
     0
100
AcDbPoint
 10
69.80769875927442
 20
2.970903468018349
 30
0.0
  0
ENDBLK
  5
4733
330
4727
100
AcDbEntity
  8
0
100
AcDbBlockEnd
  0
BLOCK
  5
47A9
330
479E
100
AcDbEntity
  8
0
100
AcDbBlockBegin
  2
*D3
 70
     1
 10
0.0
 20
0.0
 30
0.0
  3
*D3
  1

  0
LINE
  5
4806
330
479E
100
AcDbEntity
  8
DIM
 62
     0
370
    -2
100
AcDbLine
 10
75.21106811839899
 20
7.944719913574616
 30
0.0
 11
75.21106811839899
 21
5.007057500111933
 31
0.0
  0
LINE
  5
4807
330
479E
100
AcDbEntity
  8
DIM
 62
     0
370
    -2
100
AcDbLine
 10
76.836068118399
 20
7.944719913574616
 30
0.0
 11
76.836068118399
 21
5.007057500111933
 31
0.0
  0
LINE
  5
4808
330
479E
100
AcDbEntity
  8
DIM
 62
     0
370
    -2
100
AcDbLine
 10
75.391068118399
 20
5.187057500111933
 30
0.0
 11
76.65606811839899
 21
5.187057500111933
 31
0.0
  0
LINE
  5
4809
330
479E
100
AcDbEntity
  8
DIM
 62
     0
370
    -2
100
AcDbLine
 10
76.836068118399
 20
5.187057500111933
 30
0.0
 11
77.01606811839899
 21
5.187057500111933
 31
0.0
  0
SOLID
  5
480A
330
479E
100
AcDbEntity
  8
DIM
 62
     0
100
AcDbTrace
 10
75.391068118399
 20
5.217057500111933
 30
0.0
 11
75.391068118399
 21
5.157057500111933
 31
0.0
 12
75.21106811839899
 22
5.187057500111933
 32
0.0
 13
75.21106811839899
 23
5.187057500111933
 33
0.0
  0
SOLID
  5
480B
330
479E
100
AcDbEntity
  8
DIM
 62
     0
100
AcDbTrace
 10
76.65606811839899
 20
5.217057500111933
 30
0.0
 11
76.65606811839899
 21
5.157057500111933
 31
0.0
 12
76.836068118399
 22
5.187057500111933
 32
0.0
 13
76.836068118399
 23
5.187057500111933
 33
0.0
  0
MTEXT
  5
480C
330
479E
100
AcDbEntity
  8
DIM
 62
     0
100
AcDbMText
 10
80.48106811839899
 20
5.187057500111933
 30
0.0
 40
1.5
 41
0.0
 71
     5
 72
     1
  1
\A1;1.6250
 73
     1
 44
1.0
  0
POINT
  5
480D
330
479E
100
AcDbEntity
  8
Defpoints
 62
     0
100
AcDbPoint
 10
75.21106811839899
 20
8.007219913574616
 30
0.0
  0
POINT
  5
480E
330
479E
100
AcDbEntity
  8
Defpoints
 62
     0
100
AcDbPoint
 10
76.836068118399
 20
8.007219913574616
 30
0.0
  0
POINT
  5
480F
330
479E
100
AcDbEntity
  8
Defpoints
 62
     0
100
AcDbPoint
 10
76.836068118399
 20
5.187057500111933
 30
0.0
  0
ENDBLK
  5
47AA
330
479E
100
AcDbEntity
  8
0
100
AcDbBlockEnd
  0
BLOCK
  5
47B7
330
47AC
100
AcDbEntity
  8
0
100
AcDbBlockBegin
  2
*D4
 70
     1
 10
0.0
 20
0.0
 30
0.0
  3
*D4
  1

  0
LINE
  5
4810
330
47AC
100
AcDbEntity
  8
DIM
 62
     0
370
    -2
100
AcDbLine
 10
75.21106811839899
 20
15.56971991357461
 30
0.0
 11
75.21106811839899
 21
18.40440375498951
 31
0.0
  0
LINE
  5
4811
330
47AC
100
AcDbEntity
  8
DIM
 62
     0
370
    -2
100
AcDbLine
 10
77.21106805982882
 20
14.56971997747098
 30
0.0
 11
77.21106805982882
 21
18.40440375498951
 31
0.0
  0
LINE
  5
4812
330
47AC
100
AcDbEntity
  8
DIM
 62
     0
370
    -2
100
AcDbLine
 10
75.391068118399
 20
18.22440375498951
 30
0.0
 11
77.03106805982881
 21
18.22440375498951
 31
0.0
  0
LINE
  5
4813
330
47AC
100
AcDbEntity
  8
DIM
 62
     0
370
    -2
100
AcDbLine
 10
77.21106805982882
 20
18.22440375498951
 30
0.0
 11
77.39106805982881
 21
18.22440375498951
 31
0.0
  0
SOLID
  5
4814
330
47AC
100
AcDbEntity
  8
DIM
 62
     0
100
AcDbTrace
 10
75.391068118399
 20
18.25440375498951
 30
0.0
 11
75.391068118399
 21
18.19440375498951
 31
0.0
 12
75.21106811839899
 22
18.22440375498951
 32
0.0
 13
75.21106811839899
 23
18.22440375498951
 33
0.0
  0
SOLID
  5
4815
330
47AC
100
AcDbEntity
  8
DIM
 62
     0
100
AcDbTrace
 10
77.03106805982881
 20
18.25440375498951
 30
0.0
 11
77.03106805982881
 21
18.19440375498951
 31
0.0
 12
77.21106805982882
 22
18.22440375498951
 32
0.0
 13
77.21106805982882
 23
18.22440375498951
 33
0.0
  0
MTEXT
  5
4816
330
47AC
100
AcDbEntity
  8
DIM
 62
     0
100
AcDbMText
 10
80.73106805982881
 20
18.22440375498951
 30
0.0
 40
1.5
 41
0.0
 71
     5
 72
     1
  1
\A1;2.0000
 73
     1
 44
1.0
  0
POINT
  5
4817
330
47AC
100
AcDbEntity
  8
Defpoints
 62
     0
100
AcDbPoint
 10
75.21106811839899
 20
15.50721991357461
 30
0.0
  0
POINT
  5
4818
330
47AC
100
AcDbEntity
  8
Defpoints
 62
     0
100
AcDbPoint
 10
77.21106805982882
 20
14.50721997747098
 30
0.0
  0
POINT
  5
4819
330
47AC
100
AcDbEntity
  8
Defpoints
 62
     0
100
AcDbPoint
 10
77.21106805982882
 20
18.22440375498951
 30
0.0
  0
ENDBLK
  5
47B8
330
47AC
100
AcDbEntity
  8
0
100
AcDbBlockEnd
  0
ENDSEC
  0
SECTION
  2
ENTITIES
  0
LINE
  5
442D
330
18
100
AcDbEntity
  8
0
100
AcDbLine
 10
14.18269875927441
 20
8.007219913574616
 30
0.0
 11
69.80769875927442
 21
8.007219913574616
 31
0.0
  0
LINE
  5
442E
330
18
100
AcDbEntity
  8
0
100
AcDbLine
 10
69.80769875927442
 20
8.007219913574616
 30
0.0
 11
69.80769875927442
 21
15.50721991357461
 31
0.0
  0
LINE
  5
442F
330
18
100
AcDbEntity
  8
0
100
AcDbLine
 10
14.18269875927441
 20
15.50721991357461
 30
0.0
 11
69.80769875927442
 21
15.50721991357461
 31
0.0
  0
LINE
  5
4430
330
18
100
AcDbEntity
  8
0
100
AcDbLine
 10
14.18269875927441
 20
8.007219913574616
 30
0.0
 11
14.18269875927441
 21
15.50721991357461
 31
0.0
  0
LINE
  5
4432
330
18
100
AcDbEntity
  8
0
100
AcDbLine
 10
15.18269875927441
 20
9.007219913574616
 30
0.0
 11
68.80769875927441
 21
9.007219913574616
 31
0.0
  0
LINE
  5
4433
330
18
100
AcDbEntity
  8
0
100
AcDbLine
 10
15.18269875927441
 20
9.007219913574616
 30
0.0
 11
15.18269875927441
 21
14.50721991357461
 31
0.0
  0
LINE
  5
4434
330
18
100
AcDbEntity
  8
0
100
AcDbLine
 10
15.18269875927441
 20
14.50721991357461
 30
0.0
 11
68.80769875927441
 21
14.50721991357461
 31
0.0
  0
LINE
  5
4435
330
18
100
AcDbEntity
  8
0
100
AcDbLine
 10
68.80769875927441
 20
9.007219913574616
 30
0.0
 11
68.80769875927441
 21
14.50721991357461
 31
0.0
  0
LWPOLYLINE
  5
46CA
330
18
100
AcDbEntity
  8
0
100
AcDbPolyline
 90
       75
 70
     0
 43
0.0
 10
41.74519875927441
 20
11.69471991357461
 10
41.58730074678394
 20
11.99114568843833
 10
41.41548372944046
 20
12.21647761334166
 10
41.23319475700304
 20
12.38018144161073
 10
41.04388087923074
 20
12.49172292657167
 10
40.85098914588264
 20
12.56056782155064
 10
40.65796660671778
 20
12.59618187987375
 10
40.46826031149525
 20
12.60803085486715
 10
40.28531730997412
 20
12.60558049985697
 10
40.11164069040068
 20
12.59670775380788
 10
39.94595769497027
 20
12.58293429823869
 10
39.78605160436542
 20
12.56419300030676
 10
39.62970569926872
 20
12.54041672716941
 10
39.4747032603627
 20
12.511538345984
 10
39.31882756832994
 20
12.47749072390788
 10
39.159861903853
 20
12.43820672809837
 10
38.99558954761444
 20
12.39361922571284
 10
38.82409606017257
 20
12.34394080469779
 10
38.64467612158886
 20
12.29050293615636
 10
38.45692669180048
 20
12.23491681198085
 10
38.26044473074466
 20
12.17879362406358
 10
38.05482719835859
 20
12.12374456429685
 10
37.83967105457947
 20
12.07138082457298
 10
37.61457325934452
 20
12.02331359678426
 10
37.37913077259094
 20
11.981154072823
 10
37.13323163867434
 20
11.94620015728765
 10
36.87792823962399
 20
11.91849660560119
 10
36.61456404188758
 20
11.89777488589273
 10
36.34448251191277
 20
11.8837664662914
 10
36.06902711614725
 20
11.87620281492631
 10
35.78954132103869
 20
11.87481539992658
 10
35.50736859303477
 20
11.87933568942132
 10
35.22385239858318
 20
11.88949515153967
 10
34.94044815969031
 20
11.90504763202494
 10
34.65905912059744
 20
11.92583648707736
 10
34.3817004811046
 20
11.95172745051134
 10
34.11038744101178
 20
11.98258625614133
 10
33.84713520011901
 20
12.01827863778174
 10
33.59395895822627
 20
12.05867032924701
 10
33.3528739151336
 20
12.10362706435157
 10
33.12589527064098
 20
12.15301457690984
 10
32.91403062464843
 20
12.20643006878199
 10
32.71425717745594
 20
12.26239661401116
 10
32.52254452946349
 20
12.31916875468622
 10
32.33486228107106
 20
12.37500103289605
 10
32.14718003267862
 20
12.42814799072953
 10
31.95546738468617
 20
12.47686417027552
 10
31.75569393749368
 20
12.5194041136229
 10
31.54382929150113
 20
12.55402236286055
 10
31.31736564245871
 20
12.57908534837079
 10
31.0798855675174
 20
12.59340705370962
 10
30.86715652963422
 20
12.59559760896354
 10
30.71482763566717
 20
12.58293429823869
 10
30.55492154506232
 20
12.56419300030676
 10
30.39857563996562
 20
12.54041672716941
 10
30.24357320105961
 20
12.511538345984
 10
30.08769750902685
 20
12.47749072390788
 10
29.9287318445499
 20
12.43820672809837
 10
29.76445948831134
 20
12.39361922571284
 10
29.59296600086947
 20
12.34394080469779
 10
29.41354606228576
 20
12.29050293615636
 10
29.22579663249738
 20
12.23491681198085
 10
29.02931467144156
 20
12.17879362406358
 10
28.82369713905549
 20
12.12374456429685
 10
28.60854099527637
 20
12.07138082457298
 10
28.38344320004142
 20
12.02331359678426
 10
28.14800071328784
 20
11.981154072823
 10
27.90210157937124
 20
11.94620015728765
 10
27.64679818032089
 20
11.91849660560119
 10
27.38343398258448
 20
11.89777488589273
 10
27.11335245260967
 20
11.8837664662914
 10
26.83789705684415
 20
11.87620281492631
 10
26.55841126173559
 20
11.87481539992658
 10
26.27623853373167
 20
11.87933568942132
 10
25.99272233928008
 20
11.88949515153967
  0
LWPOLYLINE
  5
46CC
330
18
100
AcDbEntity
  8
0
100
AcDbPolyline
 90
       75
 70
     0
 43
0.0
 10
41.74519875927441
 20
11.69471991357461
 10
41.56488096398154
 20
11.97806690059356
 10
41.37617591086131
 20
12.18945745562462
 10
41.18178936857812
 20
12.33859526116507
 10
40.98442710579629
 20
12.43518399971216
 10
40.78679489118022
 20
12.48892735376315
 10
40.59159849339428
 20
12.5095290058153
 10
40.40154368110282
 20
12.50669263836589
 10
40.21933622297021
 20
12.49012193391216
 10
40.04686344033125
 20
12.46786360833087
 10
39.88273886520249
 20
12.44133651101675
 10
39.72475758227086
 20
12.410302524744
 10
39.57071467622336
 20
12.37452353228684
 10
39.41840523174692
 20
12.33376141641949
 10
39.26562433352854
 20
12.28777805991615
 10
39.11016706625515
 20
12.23633534555105
 10
38.94982851461376
 20
12.17919515609839
 10
38.78268353920427
 20
12.11642160318887
 10
38.60792610427861
 20
12.0492877138792
 10
38.42502995000169
 20
11.97936874408254
 10
38.23346881653839
 20
11.90823994971208
 10
38.03271644405361
 20
11.837476586681
 10
37.82224657271223
 20
11.76865391090248
 10
37.60153294267917
 20
11.70334717828969
 10
37.37004929411931
 20
11.64313164475582
 10
37.12758377578997
 20
11.58929269330369
 10
36.87518217081804
 20
11.54195621529466
 10
36.61420467092285
 20
11.50095822917974
 10
36.34601146782372
 20
11.46613475340994
 10
36.07196275323998
 20
11.43732180643625
 10
35.79341871889093
 20
11.41435540670968
 10
35.5117395564959
 20
11.39707157268124
 10
35.22828545777421
 20
11.38530632280193
 10
34.94452650757678
 20
11.3789266320144
 10
34.66237236328092
 20
11.37792330122779
 10
34.38384257539555
 20
11.38231808784292
 10
34.11095669442958
 20
11.39213274926057
 10
33.84573427089193
 20
11.40738904288155
 10
33.59019485529151
 20
11.42810872610666
 10
33.34635799813724
 20
11.45431355633669
 10
33.11624324993801
 20
11.48602529097244
 10
32.90088630748627
 20
11.52292014605179
 10
32.69738745270843
 20
11.56329217216102
 10
32.50186311381439
 20
11.60508987852348
 10
32.31042971901413
 20
11.64626177436251
 10
32.11920369651752
 20
11.68475636890147
 10
31.9243014745345
 20
11.71852217136372
 10
31.721839481275
 20
11.7455076909726
 10
31.50793414494895
 20
11.76366143695149
 10
31.28021130173602
 20
11.77116105422916
 10
31.04233441969488
 20
11.76710073055623
 10
30.83007148258138
 20
11.75285686805439
 10
30.67917539975025
 20
11.72846786311445
 10
30.52119411681862
 20
11.6974338768417
 10
30.36715121077112
 20
11.66165488438455
 10
30.21484176629468
 20
11.6208927685172
 10
30.0620608680763
 20
11.57490941201386
 10
29.90660360080292
 20
11.52346669764875
 10
29.74626504916152
 20
11.46632650819609
 10
29.57912007375203
 20
11.40355295528657
 10
29.40436263882638
 20
11.3364190659769
 10
29.22146648454946
 20
11.26650009618024
 10
29.02990535108616
 20
11.19537130180978
 10
28.82915297860138
 20
11.1246079387787
 10
28.61868310726
 20
11.05578526300018
 10
28.39796947722694
 20
10.99047853038739
 10
28.16648582866708
 20
10.93026299685353
 10
27.92402031033774
 20
10.87642404540139
 10
27.6716187053658
 20
10.82908756739237
 10
27.41064120547062
 20
10.78808958127745
 10
27.14244800237149
 20
10.75326610550764
 10
26.86839928778774
 20
10.72445315853395
 10
26.58985525343869
 20
10.70148675880738
 10
26.30817609104366
 20
10.68420292477894
 10
26.02472199232197
 20
10.67243767489964
  0
LWPOLYLINE
  5
46CD
330
18
100
AcDbEntity
  8
0
100
AcDbPolyline
 90
       75
 70
     0
 43
0.0
 10
41.74519875927441
 20
11.69471991357461
 10
41.92551655456728
 20
11.97806690059356
 10
42.11422160768751
 20
12.18945745562462
 10
42.30860814997071
 20
12.33859526116507
 10
42.50597041275254
 20
12.43518399971216
 10
42.7036026273686
 20
12.48892735376315
 10
42.89879902515455
 20
12.5095290058153
 10
43.08885383744601
 20
12.50669263836589
 10
43.27106129557861
 20
12.49012193391216
 10
43.44353407821758
 20
12.46786360833087
 10
43.60765865334634
 20
12.44133651101675
 10
43.76563993627797
 20
12.410302524744
 10
43.91968284232548
 20
12.37452353228684
 10
44.0719922868019
 20
12.33376141641949
 10
44.22477318502029
 20
12.28777805991615
 10
44.38023045229368
 20
12.23633534555105
 10
44.54056900393507
 20
12.17919515609839
 10
44.70771397934456
 20
12.11642160318887
 10
44.88247141427022
 20
12.0492877138792
 10
45.06536756854714
 20
11.97936874408254
 10
45.25692870201043
 20
11.90823994971208
 10
45.45768107449521
 20
11.837476586681
 10
45.6681509458366
 20
11.76865391090248
 10
45.88886457586966
 20
11.70334717828969
 10
46.12034822442952
 20
11.64313164475582
 10
46.36281374275886
 20
11.58929269330369
 10
46.61521534773078
 20
11.54195621529466
 10
46.87619284762598
 20
11.50095822917974
 10
47.14438605072511
 20
11.46613475340994
 10
47.41843476530885
 20
11.43732180643625
 10
47.6969787996579
 20
11.41435540670968
 10
47.97865796205293
 20
11.39707157268124
 10
48.26211206077463
 20
11.38530632280193
 10
48.54587101097205
 20
11.3789266320144
 10
48.82802515526791
 20
11.37792330122779
 10
49.10655494315328
 20
11.38231808784292
 10
49.37944082411925
 20
11.39213274926057
 10
49.6446632476569
 20
11.40738904288155
 10
49.90020266325732
 20
11.42810872610666
 10
50.1440395204116
 20
11.45431355633669
 10
50.37415426861082
 20
11.48602529097244
 10
50.58951121106256
 20
11.52292014605179
 10
50.7930100658404
 20
11.56329217216102
 10
50.98853440473444
 20
11.60508987852348
 10
51.17996779953471
 20
11.64626177436251
 10
51.37119382203131
 20
11.68475636890147
 10
51.56609604401433
 20
11.71852217136372
 10
51.76855803727383
 20
11.7455076909726
 10
51.98246337359988
 20
11.76366143695149
 10
52.21018621681281
 20
11.77116105422916
 10
52.44806309885395
 20
11.76710073055623
 10
52.66032603596745
 20
11.75285686805439
 10
52.81122211879858
 20
11.72846786311445
 10
52.96920340173021
 20
11.6974338768417
 10
53.12324630777771
 20
11.66165488438455
 10
53.27555575225415
 20
11.6208927685172
 10
53.42833665047253
 20
11.57490941201386
 10
53.5837939177459
 20
11.52346669764875
 10
53.74413246938731
 20
11.46632650819609
 10
53.91127744479681
 20
11.40355295528657
 10
54.08603487972245
 20
11.3364190659769
 10
54.26893103399938
 20
11.26650009618024
 10
54.46049216746267
 20
11.19537130180978
 10
54.66124453994746
 20
11.1246079387787
 10
54.87171441128883
 20
11.05578526300018
 10
55.09242804132189
 20
10.99047853038739
 10
55.32391168988175
 20
10.93026299685353
 10
55.56637720821109
 20
10.87642404540139
 10
55.81877881318303
 20
10.82908756739237
 10
56.07975631307822
 20
10.78808958127745
 10
56.34794951617735
 20
10.75326610550764
 10
56.62199823076109
 20
10.72445315853395
 10
56.90054226511015
 20
10.70148675880738
 10
57.18222142750517
 20
10.68420292477894
 10
57.46567552622686
 20
10.67243767489964
  0
LWPOLYLINE
  5
46CE
330
18
100
AcDbEntity
  8
0
100
AcDbPolyline
 90
       75
 70
     0
 43
0.0
 10
41.74519875927441
 20
11.69471991357461
 10
41.90309677176489
 20
11.99114568843833
 10
42.07491378910837
 20
12.21647761334166
 10
42.25720276154579
 20
12.38018144161073
 10
42.44651663931809
 20
12.49172292657167
 10
42.63940837266619
 20
12.56056782155064
 10
42.83243091183105
 20
12.59618187987375
 10
43.02213720705357
 20
12.60803085486715
 10
43.20508020857471
 20
12.60558049985697
 10
43.37875682814814
 20
12.59670775380788
 10
43.54443982357856
 20
12.58293429823869
 10
43.70434591418341
 20
12.56419300030676
 10
43.86069181928011
 20
12.54041672716941
 10
44.01569425818613
 20
12.511538345984
 10
44.17156995021889
 20
12.47749072390788
 10
44.33053561469583
 20
12.43820672809837
 10
44.49480797093439
 20
12.39361922571284
 10
44.66630145837625
 20
12.34394080469779
 10
44.84572139695997
 20
12.29050293615636
 10
45.03347082674834
 20
12.23491681198085
 10
45.22995278780417
 20
12.17879362406358
 10
45.43557032019024
 20
12.12374456429685
 10
45.65072646396936
 20
12.07138082457298
 10
45.87582425920431
 20
12.02331359678426
 10
46.1112667459579
 20
11.981154072823
 10
46.35716587987449
 20
11.94620015728765
 10
46.61246927892483
 20
11.91849660560119
 10
46.87583347666126
 20
11.89777488589273
 10
47.14591500663606
 20
11.8837664662914
 10
47.42137040240158
 20
11.87620281492631
 10
47.70085619751014
 20
11.87481539992658
 10
47.98302892551406
 20
11.87933568942132
 10
48.26654511996565
 20
11.88949515153967
 10
48.54994935885852
 20
11.90504763202494
 10
48.83133839795139
 20
11.92583648707736
 10
49.10869703744424
 20
11.95172745051134
 10
49.38001007753705
 20
11.98258625614133
 10
49.64326231842982
 20
12.01827863778174
 10
49.89643856032256
 20
12.05867032924701
 10
50.13752360341523
 20
12.10362706435157
 10
50.36450224790786
 20
12.15301457690984
 10
50.5763668939004
 20
12.20643006878199
 10
50.77614034109289
 20
12.26239661401116
 10
50.96785298908534
 20
12.31916875468622
 10
51.15553523747777
 20
12.37500103289605
 10
51.34321748587021
 20
12.42814799072953
 10
51.53493013386267
 20
12.47686417027552
 10
51.73470358105515
 20
12.5194041136229
 10
51.94656822704771
 20
12.55402236286055
 10
52.17303187609012
 20
12.57908534837079
 10
52.41051195103143
 20
12.59340705370962
 10
52.62324098891461
 20
12.59559760896354
 10
52.77556988288166
 20
12.58293429823869
 10
52.93547597348651
 20
12.56419300030676
 10
53.09182187858321
 20
12.54041672716941
 10
53.24682431748922
 20
12.511538345984
 10
53.40270000952198
 20
12.47749072390788
 10
53.56166567399893
 20
12.43820672809837
 10
53.72593803023749
 20
12.39361922571284
 10
53.89743151767936
 20
12.34394080469779
 10
54.07685145626307
 20
12.29050293615636
 10
54.26460088605145
 20
12.23491681198085
 10
54.46108284710727
 20
12.17879362406358
 10
54.66670037949334
 20
12.12374456429685
 10
54.88185652327246
 20
12.07138082457298
 10
55.10695431850741
 20
12.02331359678426
 10
55.34239680526099
 20
11.981154072823
 10
55.58829593917759
 20
11.94620015728765
 10
55.84359933822794
 20
11.91849660560119
 10
56.10696353596435
 20
11.89777488589273
 10
56.37704506593916
 20
11.8837664662914
 10
56.65250046170468
 20
11.87620281492631
 10
56.93198625681325
 20
11.87481539992658
 10
57.21415898481716
 20
11.87933568942132
 10
57.49767517926875
 20
11.88949515153967
  0
DIMENSION
  5
4718
330
18
100
AcDbEntity
  8
DIM
100
AcDbDimension
  2
*D1
 10
6.294568296583406
 20
15.50721991357462
 30
0.0
 11
6.294568296583403
 21
11.75721991357463
 31
0.0
 70
    32
 71
     5
 42
7.5
  3
STANDARD
100
AcDbAlignedDimension
 13
41.80769875927441
 23
8.007219913574616
 33
0.0
 14
41.80769875927441
 24
15.50721991357461
 34
0.0
 50
90.0
100
AcDbRotatedDimension
  0
DIMENSION
  5
4726
330
18
100
AcDbEntity
  8
DIM
100
AcDbDimension
  2
*D2
 10
69.80769875927442
 20
2.970903468018349
 30
0.0
 11
41.99519875927442
 21
2.970903468018349
 31
0.0
 70
    32
 71
     5
 42
55.625
  3
STANDARD
100
AcDbAlignedDimension
 13
14.18269875927441
 23
11.75721991357461
 33
0.0
 14
69.80769875927442
 24
11.75721991357461
 34
0.0
100
AcDbRotatedDimension
  0
LINE
  5
474A
330
18
100
AcDbEntity
  8
0
100
AcDbLine
 10
75.21106811839899
 20
15.50721991357461
 30
0.0
 11
76.836068118399
 21
15.50721991357461
 31
0.0
  0
LINE
  5
474B
330
18
100
AcDbEntity
  8
0
100
AcDbLine
 10
76.836068118399
 20
15.50721991357461
 30
0.0
 11
76.836068118399
 21
8.007219913574616
 31
0.0
  0
LINE
  5
474C
330
18
100
AcDbEntity
  8
0
100
AcDbLine
 10
76.836068118399
 20
8.007219913574616
 30
0.0
 11
75.21106811839899
 21
8.007219913574616
 31
0.0
  0
LINE
  5
474D
330
18
100
AcDbEntity
  8
0
100
AcDbLine
 10
75.21106811839899
 20
8.007219913574616
 30
0.0
 11
75.21106811839899
 21
15.50721991357461
 31
0.0
  0
LINE
  5
474E
330
18
100
AcDbEntity
  8
0
100
AcDbLine
 10
76.836068118399
 20
15.50721991357461
 30
0.0
 11
76.836068118399
 21
15.38221991357461
 31
0.0
  0
LINE
  5
474F
330
18
100
AcDbEntity
  8
0
100
AcDbLine
 10
76.836068118399
 20
15.38221991357461
 30
0.0
 11
76.83606811839901
 21
15.38221991357461
 31
0.0
  0
LINE
  5
4750
330
18
100
AcDbEntity
  8
0
100
AcDbLine
 10
77.21106811839901
 20
15.00721991357461
 30
0.0
 11
77.21106811839899
 21
8.507219913574616
 31
0.0
  0
LINE
  5
4751
330
18
100
AcDbEntity
  8
0
100
AcDbLine
 10
76.836068118399
 20
8.007219913574616
 30
0.0
 11
76.836068118399
 21
8.132219913574616
 31
0.0
  0
LINE
  5
4752
330
18
100
AcDbEntity
  8
0
100
AcDbLine
 10
76.836068118399
 20
8.132219913574616
 30
0.0
 11
76.836068118399
 21
8.132219913574616
 31
0.0
  0
ARC
  5
4758
330
18
100
AcDbEntity
  8
0
100
AcDbCircle
 10
76.836068118399
 20
8.507219913574616
 30
0.0
 40
0.375
100
AcDbArc
 50
270.0
 51
0.0
  0
ARC
  5
4759
330
18
100
AcDbEntity
  8
0
100
AcDbCircle
 10
76.83606811839901
 20
15.00721991357461
 30
0.0
 40
0.375
100
AcDbArc
 50
0.0
 51
90.0
  0
ARC
  5
4760
330
18
100
AcDbEntity
  8
0
100
AcDbCircle
 10
76.83606805982882
 20
14.50721997747098
 30
0.0
 40
0.375
100
AcDbArc
 50
0.0
 51
90.0
  0
ARC
  5
4766
330
18
100
AcDbEntity
  8
0
100
AcDbCircle
 10
76.83606800125862
 20
14.00722004136734
 30
0.0
 40
0.375
100
AcDbArc
 50
0.0
 51
90.0
  0
ARC
  5
4770
330
18
100
AcDbEntity
  8
0
100
AcDbCircle
 10
76.83606800125861
 20
13.00722016916006
 30
0.0
 40
0.375
100
AcDbArc
 50
0.0
 51
90.0
  0
ARC
  5
4771
330
18
100
AcDbEntity
  8
0
100
AcDbCircle
 10
76.8360680598288
 20
13.50722010526369
 30
0.0
 40
0.375
100
AcDbArc
 50
0.0
 51
90.0
  0
ARC
  5
477D
330
18
100
AcDbEntity
  8
0
100
AcDbCircle
 10
76.83606788411821
 20
11.0072204247455
 30
0.0
 40
0.375
100
AcDbArc
 50
0.0
 51
90.0
  0
ARC
  5
477E
330
18
100
AcDbEntity
  8
0
100
AcDbCircle
 10
76.8360679426884
 20
11.50722036084914
 30
0.0
 40
0.375
100
AcDbArc
 50
0.0
 51
90.0
  0
ARC
  5
477F
330
18
100
AcDbEntity
  8
0
100
AcDbCircle
 10
76.83606788411822
 20
12.00722029695279
 30
0.0
 40
0.375
100
AcDbArc
 50
0.0
 51
90.0
  0
ARC
  5
4780
330
18
100
AcDbEntity
  8
0
100
AcDbCircle
 10
76.83606794268841
 20
12.50722023305642
 30
0.0
 40
0.375
100
AcDbArc
 50
0.0
 51
90.0
  0
ARC
  5
478B
330
18
100
AcDbEntity
  8
0
100
AcDbCircle
 10
76.83606800125859
 20
9.007220680330876
 30
0.0
 40
0.375
100
AcDbArc
 50
0.0
 51
90.0
  0
ARC
  5
478C
330
18
100
AcDbEntity
  8
0
100
AcDbCircle
 10
76.83606805982879
 20
9.50722061643451
 30
0.0
 40
0.375
100
AcDbArc
 50
0.0
 51
90.0
  0
ARC
  5
478D
330
18
100
AcDbEntity
  8
0
100
AcDbCircle
 10
76.83606800125861
 20
10.00722055253816
 30
0.0
 40
0.375
100
AcDbArc
 50
0.0
 51
90.0
  0
ARC
  5
478E
330
18
100
AcDbEntity
  8
0
100
AcDbCircle
 10
76.8360680598288
 20
10.50722048864179
 30
0.0
 40
0.375
100
AcDbArc
 50
0.0
 51
90.0
  0
ARC
  5
479C
330
18
100
AcDbEntity
  8
0
100
AcDbCircle
 10
76.8360680598288
 20
8.507220744227224
 30
0.0
 40
0.375
100
AcDbArc
 50
0.0
 51
90.0
  0
DIMENSION
  5
479D
330
18
100
AcDbEntity
  8
DIM
100
AcDbDimension
  2
*D3
 10
76.836068118399
 20
5.187057500111933
 30
0.0
 11
80.48106811839899
 21
5.187057500111933
 31
0.0
 70
    32
 71
     5
 42
1.625
  3
STANDARD
100
AcDbAlignedDimension
 13
75.21106811839899
 23
8.007219913574616
 33
0.0
 14
76.836068118399
 24
8.007219913574616
 34
0.0
100
AcDbRotatedDimension
  0
DIMENSION
  5
47AB
330
18
100
AcDbEntity
  8
DIM
100
AcDbDimension
  2
*D4
 10
77.21106805982882
 20
18.22440375498951
 30
0.0
 11
80.73106805982881
 21
18.22440375498951
 31
0.0
 70
    32
 71
     5
 42
1.99999994142982
  3
STANDARD
100
AcDbAlignedDimension
 13
75.21106811839899
 23
15.50721991357461
 33
0.0
 14
77.21106805982882
 24
14.50721997747098
 34
0.0
100
AcDbRotatedDimension
  0
VIEWPORT
  5
47BD
330
15
100
AcDbEntity
 67
     1
  8
0
100
AcDbViewport
 10
133.3499908447265
 20
101.5999970436096
 30
0.0
 40
451.6233083754185
 41
228.4221935424805
 68
     2
 69
     1
 12
133.3499908447265
 22
101.5999970436096
 13
0.0
 23
0.0
 14
10.0
 24
10.0
 15
10.0
 25
10.0
 16
0.0
 26
0.0
 36
1.0
 17
0.0
 27
0.0
 37
0.0
 42
50.0
 43
0.0
 44
0.0
 45
228.4221935424805
 50
0.0
 51
0.0
 72
   100
 90
    32800
  1

281
     0
 71
     1
 74
     0
110
0.0
120
0.0
130
0.0
111
1.0
121
0.0
131
0.0
112
0.0
122
1.0
132
0.0
 79
     0
146
0.0
170
     0
  0
VIEWPORT
  5
47BF
330
15
100
AcDbEntity
 67
     1
  8
0
100
AcDbViewport
 10
133.3499939441681
 20
101.5999939441681
 30
0.0
 40
213.3599903106689
 41
162.5599903106689
 68
     1
 69
     2
 12
43.8900802583218
 22
7.238267947476542
 13
0.0
 23
0.0
 14
10.0
 24
10.0
 15
10.0
 25
10.0
 16
0.0
 26
0.0
 36
1.0
 17
0.0
 27
0.0
 37
0.0
 42
50.0
 43
0.0
 44
0.0
 45
63.81379738219057
 50
0.0
 51
0.0
 72
   100
 90
    32800
  1

281
     0
 71
     1
 74
     0
110
0.0
120
0.0
130
0.0
111
1.0
121
0.0
131
0.0
112
0.0
122
1.0
132
0.0
 79
     0
146
0.0
170
     0
  0
ENDSEC
  0
SECTION
  2
OBJECTS
  0
DICTIONARY
  5
C
330
0
100
AcDbDictionary
281
     1
  3
ACAD_COLOR
350
46E3
  3
ACAD_GROUP
350
D
  3
ACAD_IMAGE_DICT
350
21
  3
ACAD_IMAGE_VARS
350
20
  3
ACAD_LAYOUT
350
46E4
  3
ACAD_MATERIAL
350
46E2
  3
ACAD_MLINESTYLE
350
1B
  3
ACAD_PLOTSETTINGS
350
46E5
  3
ACAD_PLOTSTYLENAME
350
46E0
  3
ACDBVARIABLEDICTIONARY
350
34D4
  0
DICTIONARY
  5
46E3
102
{ACAD_REACTORS
330
C
102
}
330
C
100
AcDbDictionary
281
     1
  0
DICTIONARY
  5
D
102
{ACAD_REACTORS
330
C
102
}
330
C
100
AcDbDictionary
281
     1
  0
DICTIONARY
  5
21
102
{ACAD_REACTORS
330
C
102
}
330
C
100
AcDbDictionary
281
     1
  3
3304-1
350
22
  3
3304-1B
350
1C41
  3
3304-2
350
25
  3
3304-2B
350
1C44
  3
3304-3
350
28
  3
3304-3B
350
1C47
  0
RASTERVARIABLES
  5
20
102
{ACAD_REACTORS
330
C
102
}
330
C
100
AcDbRasterVariables
 90
        0
 70
     1
 71
     1
 72
     0
  0
DICTIONARY
  5
46E4
102
{ACAD_REACTORS
330
C
102
}
330
C
100
AcDbDictionary
281
     1
  3
Layout1
350
46E7
  3
Model
350
46E6
  0
DICTIONARY
  5
46E2
102
{ACAD_REACTORS
330
C
102
}
330
C
100
AcDbDictionary
281
     1
  0
DICTIONARY
  5
1B
102
{ACAD_REACTORS
330
C
102
}
330
C
100
AcDbDictionary
281
     1
  3
STANDARD
350
1C
  0
DICTIONARY
  5
46E5
102
{ACAD_REACTORS
330
C
102
}
330
C
100
AcDbDictionary
281
     1
  0
ACDBDICTIONARYWDFLT
  5
46E0
102
{ACAD_REACTORS
330
C
102
}
330
C
100
AcDbDictionary
281
     1
  3
Normal
350
46E1
100
AcDbDictionaryWithDefault
340
46E1
  0
DICTIONARY
  5
34D4
102
{ACAD_REACTORS
330
C
102
}
330
C
100
AcDbDictionary
281
     1
  3
SORTENTS
350
34D5
  0
IMAGEDEF
  5
22
102
{ACAD_REACTORS
330
21
102
}
330
21
100
AcDbRasterImageDef
 90
        0
  1
U:\TPDWG\MichelQ\3304-1.tif
 10
2243.0
 20
3009.0
 11
0.0705555555555556
 21
0.0705555555555556
280
     1
281
     5
  0
IMAGEDEF
  5
1C41
102
{ACAD_REACTORS
330
21
102
}
330
21
100
AcDbRasterImageDef
 90
        0
  1
U:\TPDWG\MichelQ\3304-1b.TIF
 10
2202.0
 20
2931.0
 11
0.0705555555555556
 21
0.0705555555555556
280
     1
281
     5
  0
IMAGEDEF
  5
25
102
{ACAD_REACTORS
330
21
102
}
330
21
100
AcDbRasterImageDef
 90
        0
  1
U:\TPDWG\MichelQ\3304-2.tif
 10
2243.0
 20
3009.0
 11
0.0705555555555556
 21
0.0705555555555556
280
     1
281
     5
  0
IMAGEDEF
  5
1C44
102
{ACAD_REACTORS
330
21
102
}
330
21
100
AcDbRasterImageDef
 90
        0
  1
U:\TPDWG\MichelQ\3304-2b.TIF
 10
2202.0
 20
2931.0
 11
0.0705555555555556
 21
0.0705555555555556
280
     1
281
     5
  0
IMAGEDEF
  5
28
102
{ACAD_REACTORS
330
21
102
}
330
21
100
AcDbRasterImageDef
 90
        0
  1
U:\TPDWG\MichelQ\3304-3.tif
 10
2243.0
 20
3009.0
 11
0.0705555555555556
 21
0.0705555555555556
280
     1
281
     5
  0
IMAGEDEF
  5
1C47
102
{ACAD_REACTORS
330
21
102
}
330
21
100
AcDbRasterImageDef
 90
        0
  1
U:\TPDWG\MichelQ\3304-3b.TIF
 10
2202.0
 20
2931.0
 11
0.0705555555555556
 21
0.0705555555555556
280
     1
281
     5
  0
LAYOUT
  5
46E7
102
{ACAD_REACTORS
330
46E4
102
}
330
46E4
100
AcDbPlotSettings
  1

  2
none_device
  4
Letter_(8.50_x_11.00_Inches)
  6

 40
6.349999904632568
 41
6.349999904632568
 42
6.350006103515625
 43
6.350006103515625
 44
215.8999938964844
 45
279.3999938964844
 46
0.0
 47
0.0
 48
0.0
 49
0.0
140
0.0
141
0.0
142
1.0
143
1.0
 70
   688
 72
     1
 73
     1
 74
     5
  7

 75
    16
147
1.0
 76
     1
 77
     2
 78
   300
148
0.0
149
0.0
100
AcDbLayout
  1
Layout1
 70
     1
 71
     1
 10
-6.350006103515625
 20
-6.349999904632568
 11
273.0499877929688
 21
209.5499939918518
 12
0.0
 22
0.0
 32
0.0
 14
26.64733987609782
 24
20.31633067121299
 34
-0.0015258207003583
 15
240.0567634637198
 25
182.8968206270327
 35
0.0000000349246037
146
0.0
 13
0.0
 23
0.0
 33
0.0
 16
1.0
 26
0.0
 36
0.0
 17
0.0
 27
1.0
 37
0.0
 76
     0
330
15
331
47BF
  0
LAYOUT
  5
46E6
102
{ACAD_REACTORS
330
46E4
102
}
330
46E4
100
AcDbPlotSettings
  1

  2
None
  4

  6

 40
0.0
 41
0.0
 42
0.0
 43
0.0
 44
0.0
 45
0.0
 46
0.0
 47
0.0
 48
0.0
 49
0.0
140
0.0
141
0.0
142
1.0
143
1.0
 70
  1712
 72
     0
 73
     0
 74
     0
  7

 75
     0
147
1.0
 76
     0
 77
     2
 78
   300
148
0.0
149
0.0
100
AcDbLayout
  1
Model
 70
     1
 71
     0
 10
0.0
 20
0.0
 11
12.0
 21
9.0
 12
0.0
 22
0.0
 32
0.0
 14
0.0
 24
0.0
 34
0.0
 15
0.0
 25
0.0
 35
0.0
146
0.0
 13
0.0
 23
0.0
 33
0.0
 16
1.0
 26
0.0
 36
0.0
 17
0.0
 27
1.0
 37
0.0
 76
     0
330
18
  0
MLINESTYLE
  5
1C
102
{ACAD_REACTORS
330
1B
102
}
330
1B
100
AcDbMlineStyle
  2
STANDARD
 70
     0
  3

 62
   256
 51
90.0
 52
90.0
 71
     2
 49
0.5
 62
   256
  6
BYLAYER
 49
-0.5
 62
   256
  6
BYLAYER
  0
ACDBPLACEHOLDER
  5
46E1
102
{ACAD_REACTORS
330
46E0
102
}
330
46E0
  0
DICTIONARYVAR
  5
34D5
102
{ACAD_REACTORS
330
34D4
102
}
330
34D4
100
DictionaryVariables
280
     0
  1
96
  0
ENDSEC
  0
EOF
