  0
SECTION
  2
HEADER
  9
$ACADVER
  1
AC1018
  9
$ACADMAINTVER
 70
     0
  9
$DWGCODEPAGE
  3
ANSI_1252
  9
$INSBASE
 10
0.0
 20
0.0
 30
0.0
  9
$EXTMIN
 10
4.631719227018106
 20
5.451811100229029
 30
0.0
  9
$EXTMAX
 10
56.92206899999998
 20
17.57158449417849
 30
0.0
  9
$LIMMIN
 10
0.0
 20
0.0
  9
$LIMMAX
 10
420.0
 20
297.0
  9
$ORTHOMODE
 70
     0
  9
$REGENMODE
 70
     1
  9
$FILLMODE
 70
     1
  9
$QTEXTMODE
 70
     0
  9
$MIRRTEXT
 70
     1
  9
$LTSCALE
 40
1.0
  9
$ATTMODE
 70
     1
  9
$TEXTSIZE
 40
2.5
  9
$TRACEWID
 40
1.0
  9
$TEXTSTYLE
  7
STANDARD
  9
$CLAYER
  8
0
  9
$CELTYPE
  6
BYLAYER
  9
$CECOLOR
 62
   256
  9
$CELTSCALE
 40
1.0
  9
$DISPSILH
 70
     0
  9
$DIMSCALE
 40
1.0
  9
$DIMASZ
 40
0.18
  9
$DIMEXO
 40
0.0625
  9
$DIMDLI
 40
0.38
  9
$DIMRND
 40
0.0
  9
$DIMDLE
 40
0.0
  9
$DIMEXE
 40
0.18
  9
$DIMTP
 40
0.0
  9
$DIMTM
 40
0.0
  9
$DIMTXT
 40
1.0
  9
$DIMCEN
 40
0.09
  9
$DIMTSZ
 40
0.0
  9
$DIMTOL
 70
     0
  9
$DIMLIM
 70
     0
  9
$DIMTIH
 70
     0
  9
$DIMTOH
 70
     0
  9
$DIMSE1
 70
     0
  9
$DIMSE2
 70
     0
  9
$DIMTAD
 70
     0
  9
$DIMZIN
 70
     0
  9
$DIMBLK
  1

  9
$DIMASO
 70
     1
  9
$DIMSHO
 70
     1
  9
$DIMPOST
  1

  9
$DIMAPOST
  1

  9
$DIMALT
 70
     0
  9
$DIMALTD
 70
     2
  9
$DIMALTF
 40
25.4
  9
$DIMLFAC
 40
1.0
  9
$DIMTOFL
 70
     0
  9
$DIMTVP
 40
0.0
  9
$DIMTIX
 70
     0
  9
$DIMSOXD
 70
     0
  9
$DIMSAH
 70
     0
  9
$DIMBLK1
  1

  9
$DIMBLK2
  1

  9
$DIMSTYLE
  2
STANDARD
  9
$DIMCLRD
 70
     0
  9
$DIMCLRE
 70
     0
  9
$DIMCLRT
 70
     0
  9
$DIMTFAC
 40
1.0
  9
$DIMGAP
 40
0.09
  9
$DIMJUST
 70
     0
  9
$DIMSD1
 70
     0
  9
$DIMSD2
 70
     0
  9
$DIMTOLJ
 70
     1
  9
$DIMTZIN
 70
     0
  9
$DIMALTZ
 70
     0
  9
$DIMALTTZ
 70
     0
  9
$DIMUPT
 70
     0
  9
$DIMDEC
 70
     4
  9
$DIMTDEC
 70
     4
  9
$DIMALTU
 70
     2
  9
$DIMALTTD
 70
     2
  9
$DIMTXSTY
  7
STANDARD
  9
$DIMAUNIT
 70
     0
  9
$DIMADEC
 70
     0
  9
$DIMALTRND
 40
0.0
  9
$DIMAZIN
 70
     0
  9
$DIMDSEP
 70
    46
  9
$DIMATFIT
 70
     3
  9
$DIMFRAC
 70
     0
  9
$DIMLDRBLK
  1

  9
$DIMLUNIT
 70
     2
  9
$DIMLWD
 70
    -2
  9
$DIMLWE
 70
    -2
  9
$DIMTMOVE
 70
     0
  9
$LUNITS
 70
     4
  9
$LUPREC
 70
     4
  9
$SKETCHINC
 40
1.0
  9
$FILLETRAD
 40
0.01
  9
$AUNITS
 70
     0
  9
$AUPREC
 70
     0
  9
$MENU
  1
.
  9
$ELEVATION
 40
0.0
  9
$PELEVATION
 40
0.0
  9
$THICKNESS
 40
0.0
  9
$LIMCHECK
 70
     0
  9
$CHAMFERA
 40
10.0
  9
$CHAMFERB
 40
10.0
  9
$CHAMFERC
 40
20.0
  9
$CHAMFERD
 40
0.0
  9
$SKPOLY
 70
     0
  9
$TDCREATE
 40
2451158.474098033
  9
$TDUCREATE
 40
2451158.640764699
  9
$TDUPDATE
 40
2453488.691543773
  9
$TDUUPDATE
 40
2453488.858210440
  9
$TDINDWG
 40
0.3272246065
  9
$TDUSRTIMER
 40
0.3272246065
  9
$USRTIMER
 70
     1
  9
$ANGBASE
 50
0.0
  9
$ANGDIR
 70
     0
  9
$PDMODE
 70
     3
  9
$PDSIZE
 40
1.0
  9
$PLINEWID
 40
0.0
  9
$SPLFRAME
 70
     0
  9
$SPLINETYPE
 70
     6
  9
$SPLINESEGS
 70
     8
  9
$HANDSEED
  5
35B0
  9
$SURFTAB1
 70
     6
  9
$SURFTAB2
 70
     6
  9
$SURFTYPE
 70
     6
  9
$SURFU
 70
     6
  9
$SURFV
 70
     6
  9
$UCSBASE
  2

  9
$UCSNAME
  2

  9
$UCSORG
 10
0.0
 20
0.0
 30
0.0
  9
$UCSXDIR
 10
1.0
 20
0.0
 30
0.0
  9
$UCSYDIR
 10
0.0
 20
1.0
 30
0.0
  9
$UCSORTHOREF
  2

  9
$UCSORTHOVIEW
 70
     0
  9
$UCSORGTOP
 10
0.0
 20
0.0
 30
0.0
  9
$UCSORGBOTTOM
 10
0.0
 20
0.0
 30
0.0
  9
$UCSORGLEFT
 10
0.0
 20
0.0
 30
0.0
  9
$UCSORGRIGHT
 10
0.0
 20
0.0
 30
0.0
  9
$UCSORGFRONT
 10
0.0
 20
0.0
 30
0.0
  9
$UCSORGBACK
 10
0.0
 20
0.0
 30
0.0
  9
$PUCSBASE
  2

  9
$PUCSNAME
  2

  9
$PUCSORG
 10
0.0
 20
0.0
 30
0.0
  9
$PUCSXDIR
 10
1.0
 20
0.0
 30
0.0
  9
$PUCSYDIR
 10
0.0
 20
1.0
 30
0.0
  9
$PUCSORTHOREF
  2

  9
$PUCSORTHOVIEW
 70
     0
  9
$PUCSORGTOP
 10
0.0
 20
0.0
 30
0.0
  9
$PUCSORGBOTTOM
 10
0.0
 20
0.0
 30
0.0
  9
$PUCSORGLEFT
 10
0.0
 20
0.0
 30
0.0
  9
$PUCSORGRIGHT
 10
0.0
 20
0.0
 30
0.0
  9
$PUCSORGFRONT
 10
0.0
 20
0.0
 30
0.0
  9
$PUCSORGBACK
 10
0.0
 20
0.0
 30
0.0
  9
$USERI1
 70
     0
  9
$USERI2
 70
     0
  9
$USERI3
 70
     0
  9
$USERI4
 70
     0
  9
$USERI5
 70
     0
  9
$USERR1
 40
0.0
  9
$USERR2
 40
0.0
  9
$USERR3
 40
0.0
  9
$USERR4
 40
0.0
  9
$USERR5
 40
0.0
  9
$WORLDVIEW
 70
     1
  9
$SHADEDGE
 70
     3
  9
$SHADEDIF
 70
    70
  9
$TILEMODE
 70
     1
  9
$MAXACTVP
 70
    48
  9
$PINSBASE
 10
0.0
 20
0.0
 30
0.0
  9
$PLIMCHECK
 70
     0
  9
$PEXTMIN
 10
26.66999878883363
 20
20.31999878883363
 30
0.0
  9
$PEXTMAX
 10
240.0299890995026
 20
182.8799890995025
 30
0.0
  9
$PLIMMIN
 10
-6.350006103515625
 20
-6.349999904632568
  9
$PLIMMAX
 10
273.0499877929688
 20
209.5499939918518
  9
$UNITMODE
 70
     0
  9
$VISRETAIN
 70
     1
  9
$PLINEGEN
 70
     0
  9
$PSLTSCALE
 70
     1
  9
$TREEDEPTH
 70
  3020
  9
$CMLSTYLE
  2
STANDARD
  9
$CMLJUST
 70
     0
  9
$CMLSCALE
 40
20.0
  9
$PROXYGRAPHICS
 70
     1
  9
$MEASUREMENT
 70
     1
  9
$CELWEIGHT
370
    -1
  9
$ENDCAPS
280
     0
  9
$JOINSTYLE
280
     0
  9
$LWDISPLAY
290
     0
  9
$INSUNITS
 70
     0
  9
$HYPERLINKBASE
  1

  9
$STYLESHEET
  1

  9
$XEDIT
290
     1
  9
$CEPSNTYPE
380
     0
  9
$PSTYLEMODE
290
     1
  9
$FINGERPRINTGUID
  2
{B85F19E9-FEA0-4938-A2E9-66B20CD7B33D}
  9
$VERSIONGUID
  2
{70DB11C1-4F53-4FF1-B98C-060530CFA4AE}
  9
$EXTNAMES
290
     1
  9
$PSVPSCALE
 40
0.0
  9
$OLESTARTUP
290
     0
  9
$SORTENTS
280
   127
  9
$INDEXCTL
280
     0
  9
$HIDETEXT
280
     0
  9
$XCLIPFRAME
290
     0
  9
$HALOGAP
280
     0
  9
$OBSCOLOR
 70
   257
  9
$OBSLTYPE
280
     0
  9
$INTERSECTIONDISPLAY
280
     0
  9
$INTERSECTIONCOLOR
 70
   257
  9
$DIMASSOC
280
     1
  9
$PROJECTNAME
  1

  0
ENDSEC
  0
SECTION
  2
CLASSES
  0
CLASS
  1
RASTERVARIABLES
  2
AcDbRasterVariables
  3
ISM
 90
        0
 91
        1
280
     0
281
     0
  0
CLASS
  1
IMAGEDEF
  2
AcDbRasterImageDef
  3
ISM
 90
        0
 91
        6
280
     0
281
     0
  0
CLASS
  1
IMAGEDEF_REACTOR
  2
AcDbRasterImageDefReactor
  3
ISM
 90
        1
 91
        0
280
     0
281
     0
  0
CLASS
  1
IMAGE
  2
AcDbRasterImage
  3
ISM
 90
      127
 91
        0
280
     0
281
     1
  0
CLASS
  1
ACDBDICTIONARYWDFLT
  2
AcDbDictionaryWithDefault
  3
ObjectDBX Classes
 90
        0
 91
        1
280
     0
281
     0
  0
ENDSEC
  0
SECTION
  2
TABLES
  0
TABLE
  2
VPORT
  5
8
330
0
100
AcDbSymbolTable
 70
     2
  0
VPORT
  5
35AF
330
8
100
AcDbSymbolTableRecord
100
AcDbViewportTableRecord
  2
*Active
 70
     0
 10
0.0
 20
0.0
 11
1.0
 21
1.0
 12
30.64059247182929
 22
10.67777107092186
 13
0.0
 23
0.0
 14
10.0
 24
10.0
 15
10.0
 25
10.0
 16
0.0
 26
0.0
 36
1.0
 17
0.0
 27
0.0
 37
0.0
 40
27.68113779888998
 41
1.977142857142857
 42
50.0
 43
0.0
 44
0.0
 50
0.0
 51
0.0
 71
     0
 72
   100
 73
     1
 74
     1
 75
     0
 76
     0
 77
     0
 78
     0
281
     0
 65
     1
110
0.0
120
0.0
130
0.0
111
1.0
121
0.0
131
0.0
112
0.0
122
1.0
132
0.0
 79
     0
146
0.0
  0
ENDTAB
  0
TABLE
  2
LTYPE
  5
5
330
0
100
AcDbSymbolTable
 70
     1
  0
LTYPE
  5
12
330
5
100
AcDbSymbolTableRecord
100
AcDbLinetypeTableRecord
  2
BYBLOCK
 70
     0
  3

 72
    65
 73
     0
 40
0.0
  0
LTYPE
  5
13
330
5
100
AcDbSymbolTableRecord
100
AcDbLinetypeTableRecord
  2
BYLAYER
 70
     0
  3

 72
    65
 73
     0
 40
0.0
  0
LTYPE
  5
14
330
5
100
AcDbSymbolTableRecord
100
AcDbLinetypeTableRecord
  2
CONTINUOUS
 70
     0
  3
Solid line
 72
    65
 73
     0
 40
0.0
  0
ENDTAB
  0
TABLE
  2
LAYER
  5
2
330
0
100
AcDbSymbolTable
 70
     3
  0
LAYER
  5
E
330
2
100
AcDbSymbolTableRecord
100
AcDbLayerTableRecord
  2
0
 70
     0
 62
     7
  6
CONTINUOUS
370
    -3
390
3314
  0
LAYER
  5
3324
330
2
100
AcDbSymbolTableRecord
100
AcDbLayerTableRecord
  2
Defpoints
 70
     0
 62
     7
  6
CONTINUOUS
290
     0
370
    -3
390
3314
  0
LAYER
  5
3587
330
2
100
AcDbSymbolTableRecord
100
AcDbLayerTableRecord
  2
DIM
 70
     0
 62
    -3
  6
CONTINUOUS
370
    -3
390
3314
  0
ENDTAB
  0
TABLE
  2
STYLE
  5
3
330
0
100
AcDbSymbolTable
 70
     1
  0
STYLE
  5
F
330
3
100
AcDbSymbolTableRecord
100
AcDbTextStyleTableRecord
  2
STANDARD
 70
     0
 40
0.0
 41
1.0
 50
0.0
 71
     0
 42
2.5
  3
txt
  4

  0
ENDTAB
  0
TABLE
  2
VIEW
  5
6
330
0
100
AcDbSymbolTable
 70
     0
  0
ENDTAB
  0
TABLE
  2
UCS
  5
7
330
0
100
AcDbSymbolTable
 70
     0
  0
ENDTAB
  0
TABLE
  2
APPID
  5
9
330
0
100
AcDbSymbolTable
 70
     1
  0
APPID
  5
10
330
9
100
AcDbSymbolTableRecord
100
AcDbRegAppTableRecord
  2
ACAD
 70
     0
  0
ENDTAB
  0
TABLE
  2
DIMSTYLE
  5
A
330
0
100
AcDbSymbolTable
 70
     1
100
AcDbDimStyleTable
 71
     1
340
1D
  0
DIMSTYLE
105
1D
102
{ACAD_REACTORS
330
3521
330
352F
330
3571
102
}
330
A
100
AcDbSymbolTableRecord
100
AcDbDimStyleTableRecord
  2
STANDARD
 70
     0
 73
     0
 74
     0
140
1.0
340
F
  0
ENDTAB
  0
TABLE
  2
BLOCK_RECORD
  5
1
330
0
100
AcDbSymbolTable
 70
     5
  0
BLOCK_RECORD
  5
18
330
1
100
AcDbSymbolTableRecord
100
AcDbBlockTableRecord
  2
*MODEL_SPACE
340
3319
  0
BLOCK_RECORD
  5
15
330
1
100
AcDbSymbolTableRecord
100
AcDbBlockTableRecord
  2
*PAPER_SPACE
340
331A
  0
BLOCK_RECORD
  5
32D2
330
1
100
AcDbSymbolTableRecord
100
AcDbBlockTableRecord
  2
6118_E
340
0
  0
BLOCK_RECORD
  5
32E0
330
1
100
AcDbSymbolTableRecord
100
AcDbBlockTableRecord
  2
6118_C
340
0
  0
BLOCK_RECORD
  5
3522
330
1
100
AcDbSymbolTableRecord
100
AcDbBlockTableRecord
  2
*D2
340
0
  0
BLOCK_RECORD
  5
3530
330
1
100
AcDbSymbolTableRecord
100
AcDbBlockTableRecord
  2
*D3
340
0
  0
BLOCK_RECORD
  5
3572
330
1
100
AcDbSymbolTableRecord
100
AcDbBlockTableRecord
  2
*D4
340
0
  0
ENDTAB
  0
ENDSEC
  0
SECTION
  2
BLOCKS
  0
BLOCK
  5
19
330
18
100
AcDbEntity
  8
0
100
AcDbBlockBegin
  2
*MODEL_SPACE
 70
     0
 10
0.0
 20
0.0
 30
0.0
  3
*MODEL_SPACE
  1

  0
ENDBLK
  5
1A
330
18
100
AcDbEntity
  8
0
100
AcDbBlockEnd
  0
BLOCK
  5
16
330
15
100
AcDbEntity
 67
     1
  8
0
100
AcDbBlockBegin
  2
*PAPER_SPACE
 70
     0
 10
0.0
 20
0.0
 30
0.0
  3
*PAPER_SPACE
  1

  0
ENDBLK
  5
17
330
15
100
AcDbEntity
 67
     1
  8
0
100
AcDbBlockEnd
  0
BLOCK
  5
3302
330
32D2
100
AcDbEntity
  8
0
100
AcDbBlockBegin
  2
6118_E
 70
     0
 10
0.0
 20
0.0
 30
0.0
  3
6118_E
  1

  0
LINE
  5
3303
330
32D2
100
AcDbEntity
  8
0
100
AcDbLine
 10
36.0
 20
-4.0
 30
0.0
 11
0.0
 21
-4.0
 31
0.0
  0
LINE
  5
3304
330
32D2
100
AcDbEntity
  8
0
100
AcDbLine
 10
36.0
 20
-3.1875
 30
0.0
 11
0.0
 21
-3.1875
 31
0.0
  0
LINE
  5
3305
330
32D2
100
AcDbEntity
  8
0
100
AcDbLine
 10
36.0
 20
-1.706011999999999
 30
0.0
 11
0.0
 21
-1.706011999999999
 31
0.0
  0
LINE
  5
3306
330
32D2
100
AcDbEntity
  8
0
100
AcDbLine
 10
36.0
 20
-1.030542999999999
 30
0.0
 11
0.0
 21
-1.030542999999999
 31
0.0
  0
LINE
  5
3307
330
32D2
100
AcDbEntity
  8
0
100
AcDbLine
 10
0.0
 20
-5.5
 30
0.0
 11
36.0
 21
-5.5
 31
0.0
  0
LINE
  5
3308
330
32D2
100
AcDbEntity
  8
0
100
AcDbLine
 10
0.0
 20
0.0
 30
0.0
 11
36.0
 21
0.0
 31
0.0
  0
LINE
  5
3309
330
32D2
100
AcDbEntity
  8
0
100
AcDbLine
 10
0.0
 20
0.0
 30
0.0
 11
0.0
 21
-5.5
 31
0.0
  0
LINE
  5
330A
330
32D2
100
AcDbEntity
  8
0
100
AcDbLine
 10
36.0
 20
0.0
 30
0.0
 11
36.0
 21
-5.5
 31
0.0
  0
ENDBLK
  5
330B
330
32D2
100
AcDbEntity
  8
0
100
AcDbBlockEnd
  0
BLOCK
  5
32E1
330
32E0
100
AcDbEntity
  8
0
100
AcDbBlockBegin
  2
6118_C
 70
     0
 10
0.0
 20
0.0
 30
0.0
  3
6118_C
  1

  0
LINE
  5
32E2
330
32E0
100
AcDbEntity
  8
0
100
AcDbLine
 10
-1.75
 20
0.0
 30
0.0
 11
0.0
 21
0.0
 31
0.0
  0
LINE
  5
32E3
330
32E0
100
AcDbEntity
  8
0
100
AcDbLine
 10
-0.75
 20
-5.5
 30
0.0
 11
0.0
 21
-5.5
 31
0.0
  0
LINE
  5
32E4
330
32E0
100
AcDbEntity
  8
0
100
AcDbLine
 10
-1.375
 20
-3.1875
 30
0.0
 11
-1.4939
 21
-3.526661
 31
0.0
  0
ARC
  5
32E5
330
32E0
100
AcDbEntity
  8
0
100
AcDbCircle
 10
-1.391669
 20
-3.5625
 30
0.0
 40
0.108331
100
AcDbArc
 50
160.68082
 51
259.41549
  0
LINE
  5
32E6
330
32E0
100
AcDbEntity
  8
0
100
AcDbLine
 10
-1.3125
 20
-3.6875
 30
0.0
 11
-1.411567999999999
 21
-3.668987999999999
 31
0.0
  0
LINE
  5
32E7
330
32E0
100
AcDbEntity
  8
0
100
AcDbLine
 10
-0.75
 20
-5.5
 30
0.0
 11
-0.75
 21
-4.0
 31
0.0
  0
LINE
  5
32E8
330
32E0
100
AcDbEntity
  8
0
100
AcDbLine
 10
-1.3125
 20
-3.6875
 30
0.0
 11
-1.0625
 21
-3.6875
 31
0.0
  0
ARC
  5
32E9
330
32E0
100
AcDbEntity
  8
0
100
AcDbCircle
 10
-0.75
 20
-3.6875
 30
0.0
 40
0.3125
100
AcDbArc
 50
180.0
 51
270.0
  0
LINE
  5
32EA
330
32E0
100
AcDbEntity
  8
0
100
AcDbLine
 10
-1.75
 20
-0.4375
 30
0.0
 11
-1.75
 21
0.0
 31
0.0
  0
LINE
  5
32EB
330
32E0
100
AcDbEntity
  8
0
100
AcDbLine
 10
-1.75
 20
-0.4375
 30
0.0
 11
-1.4375
 21
-0.4375
 31
0.0
  0
ARC
  5
32EC
330
32E0
100
AcDbEntity
  8
0
100
AcDbCircle
 10
-1.4375
 20
-0.747195
 30
0.0
 40
0.309695
100
AcDbArc
 50
90.0
 51
246.195157
  0
LINE
  5
32ED
330
32E0
100
AcDbEntity
  8
0
100
AcDbLine
 10
-1.5625
 20
-1.155542999999999
 30
0.0
 11
-1.5625
 21
-1.030542999999999
 31
0.0
  0
ARC
  5
32EE
330
32E0
100
AcDbEntity
  8
0
100
AcDbCircle
 10
-2.02129
 20
-1.688279
 30
0.0
 40
0.7087909999999999
100
AcDbArc
 50
0.063004
 51
49.662712
  0
LINE
  5
32EF
330
32E0
100
AcDbEntity
  8
0
100
AcDbLine
 10
-1.3125
 20
-1.6875
 30
0.0
 11
-1.411567999999999
 21
-1.706011999999999
 31
0.0
  0
LINE
  5
32F0
330
32E0
100
AcDbEntity
  8
0
100
AcDbLine
 10
-1.375
 20
-2.1875
 30
0.0
 11
-1.4939
 21
-1.848338999999999
 31
0.0
  0
ARC
  5
32F1
330
32E0
100
AcDbEntity
  8
0
100
AcDbCircle
 10
-1.391669
 20
-1.8125
 30
0.0
 40
0.108331
100
AcDbArc
 50
100.58451
 51
199.31918
  0
LINE
  5
32F2
330
32E0
100
AcDbEntity
  8
0
100
AcDbLine
 10
-1.375
 20
-2.1875
 30
0.0
 11
-1.3125
 21
-2.1875
 31
0.0
  0
LINE
  5
32F3
330
32E0
100
AcDbEntity
  8
0
100
AcDbLine
 10
-1.375
 20
-3.1875
 30
0.0
 11
-1.3125
 21
-3.1875
 31
0.0
  0
LINE
  5
32F4
330
32E0
100
AcDbEntity
  8
0
100
AcDbLine
 10
-1.375
 20
-3.1875
 30
0.0
 11
-1.3125
 21
-3.1875
 31
0.0
  0
LINE
  5
32F5
330
32E0
100
AcDbEntity
  8
0
100
AcDbLine
 10
-1.3125
 20
-3.1875
 30
0.0
 11
-1.3125
 21
-2.1875
 31
0.0
  0
LINE
  5
32F6
330
32E0
100
AcDbEntity
  8
0
100
AcDbLine
 10
0.0
 20
-5.5
 30
0.0
 11
0.0
 21
0.0
 31
0.0
  0
ENDBLK
  5
32F7
330
32E0
100
AcDbEntity
  8
0
100
AcDbBlockEnd
  0
BLOCK
  5
352D
330
3522
100
AcDbEntity
  8
0
100
AcDbBlockBegin
  2
*D2
 70
     1
 10
0.0
 20
0.0
 30
0.0
  3
*D2
  1

  0
LINE
  5
3592
330
3522
100
AcDbEntity
  8
DIM
 62
     0
370
    -2
100
AcDbLine
 10
50.402069
 20
15.267348
 30
0.0
 11
50.402069
 21
17.25158449417849
 31
0.0
  0
LINE
  5
3593
330
3522
100
AcDbEntity
  8
DIM
 62
     0
370
    -2
100
AcDbLine
 10
52.152069
 20
15.267348
 30
0.0
 11
52.152069
 21
17.25158449417849
 31
0.0
  0
LINE
  5
3594
330
3522
100
AcDbEntity
  8
DIM
 62
     0
370
    -2
100
AcDbLine
 10
50.582069
 20
17.07158449417849
 30
0.0
 11
51.97206900000001
 21
17.07158449417849
 31
0.0
  0
LINE
  5
3595
330
3522
100
AcDbEntity
  8
DIM
 62
     0
370
    -2
100
AcDbLine
 10
52.152069
 20
17.07158449417849
 30
0.0
 11
52.332069
 21
17.07158449417849
 31
0.0
  0
SOLID
  5
3596
330
3522
100
AcDbEntity
  8
DIM
 62
     0
100
AcDbTrace
 10
50.582069
 20
17.10158449417849
 30
0.0
 11
50.582069
 21
17.04158449417849
 31
0.0
 12
50.402069
 22
17.07158449417849
 32
0.0
 13
50.402069
 23
17.07158449417849
 33
0.0
  0
SOLID
  5
3597
330
3522
100
AcDbEntity
  8
DIM
 62
     0
100
AcDbTrace
 10
51.97206900000001
 20
17.10158449417849
 30
0.0
 11
51.97206900000001
 21
17.04158449417849
 31
0.0
 12
52.152069
 22
17.07158449417849
 32
0.0
 13
52.152069
 23
17.07158449417849
 33
0.0
  0
MTEXT
  5
3598
330
3522
100
AcDbEntity
  8
DIM
 62
     0
100
AcDbMText
 10
54.58873566666667
 20
17.07158449417849
 30
0.0
 40
1.0
 41
0.0
 71
     5
 72
     1
  1
\A1;1.7500
 73
     1
 44
1.0
  0
POINT
  5
3599
330
3522
100
AcDbEntity
  8
Defpoints
 62
     0
100
AcDbPoint
 10
50.402069
 20
15.204848
 30
0.0
  0
POINT
  5
359A
330
3522
100
AcDbEntity
  8
Defpoints
 62
     0
100
AcDbPoint
 10
52.152069
 20
15.204848
 30
0.0
  0
POINT
  5
359B
330
3522
100
AcDbEntity
  8
Defpoints
 62
     0
100
AcDbPoint
 10
52.152069
 20
17.07158449417849
 30
0.0
  0
ENDBLK
  5
352E
330
3522
100
AcDbEntity
  8
0
100
AcDbBlockEnd
  0
BLOCK
  5
353B
330
3530
100
AcDbEntity
  8
0
100
AcDbBlockBegin
  2
*D3
 70
     1
 10
0.0
 20
0.0
 30
0.0
  3
*D3
  1

  0
LINE
  5
359C
330
3530
100
AcDbEntity
  8
DIM
 62
     0
370
    -2
100
AcDbLine
 10
51.40206899999999
 20
9.642348
 30
0.0
 11
51.40206899999999
 21
7.901129408251918
 31
0.0
  0
LINE
  5
359D
330
3530
100
AcDbEntity
  8
DIM
 62
     0
370
    -2
100
AcDbLine
 10
52.152069
 20
9.642348
 30
0.0
 11
52.152069
 21
7.901129408251918
 31
0.0
  0
LINE
  5
359E
330
3530
100
AcDbEntity
  8
DIM
 62
     0
370
    -2
100
AcDbLine
 10
51.58206899999999
 20
8.081129408251918
 30
0.0
 11
51.972069
 21
8.081129408251918
 31
0.0
  0
LINE
  5
359F
330
3530
100
AcDbEntity
  8
DIM
 62
     0
370
    -2
100
AcDbLine
 10
52.152069
 20
8.081129408251918
 30
0.0
 11
52.33206899999999
 21
8.081129408251918
 31
0.0
  0
SOLID
  5
35A0
330
3530
100
AcDbEntity
  8
DIM
 62
     0
100
AcDbTrace
 10
51.58206899999999
 20
8.111129408251917
 30
0.0
 11
51.58206899999999
 21
8.051129408251918
 31
0.0
 12
51.40206899999999
 22
8.081129408251918
 32
0.0
 13
51.40206899999999
 23
8.081129408251918
 33
0.0
  0
SOLID
  5
35A1
330
3530
100
AcDbEntity
  8
DIM
 62
     0
100
AcDbTrace
 10
51.972069
 20
8.111129408251917
 30
0.0
 11
51.972069
 21
8.051129408251918
 31
0.0
 12
52.152069
 22
8.081129408251918
 32
0.0
 13
52.152069
 23
8.081129408251918
 33
0.0
  0
MTEXT
  5
35A2
330
3530
100
AcDbEntity
  8
DIM
 62
     0
100
AcDbMText
 10
54.672069
 20
8.081129408251918
 30
0.0
 40
1.0
 41
0.0
 71
     5
 72
     1
  1
\A1;0.7500
 73
     1
 44
1.0
  0
POINT
  5
35A3
330
3530
100
AcDbEntity
  8
Defpoints
 62
     0
100
AcDbPoint
 10
51.40206899999999
 20
9.704848
 30
0.0
  0
POINT
  5
35A4
330
3530
100
AcDbEntity
  8
Defpoints
 62
     0
100
AcDbPoint
 10
52.152069
 20
9.704848
 30
0.0
  0
POINT
  5
35A5
330
3530
100
AcDbEntity
  8
Defpoints
 62
     0
100
AcDbPoint
 10
52.152069
 20
8.081129408251918
 30
0.0
  0
ENDBLK
  5
353C
330
3530
100
AcDbEntity
  8
0
100
AcDbBlockEnd
  0
BLOCK
  5
357D
330
3572
100
AcDbEntity
  8
0
100
AcDbBlockBegin
  2
*D4
 70
     1
 10
0.0
 20
0.0
 30
0.0
  3
*D4
  1

  0
LINE
  5
3588
330
3572
100
AcDbEntity
  8
DIM
 62
     0
370
    -2
100
AcDbLine
 10
27.705131
 20
9.704848000000001
 30
0.0
 11
4.951719227018108
 21
9.704848000000007
 31
0.0
  0
LINE
  5
3589
330
3572
100
AcDbEntity
  8
DIM
 62
     0
370
    -2
100
AcDbLine
 10
27.705131
 20
15.204848
 30
0.0
 11
4.951719227018109
 21
15.20484800000001
 31
0.0
  0
LINE
  5
358A
330
3572
100
AcDbEntity
  8
DIM
 62
     0
370
    -2
100
AcDbLine
 10
5.131719227018107
 20
9.884848000000006
 30
0.0
 11
5.131719227018108
 21
10.114848
 31
0.0
  0
LINE
  5
358B
330
3572
100
AcDbEntity
  8
DIM
 62
     0
370
    -2
100
AcDbLine
 10
5.131719227018109
 20
15.02484800000001
 30
0.0
 11
5.131719227018109
 21
14.794848
 31
0.0
  0
SOLID
  5
358C
330
3572
100
AcDbEntity
  8
DIM
 62
     0
100
AcDbTrace
 10
5.101719227018107
 20
9.884848000000006
 30
0.0
 11
5.161719227018108
 21
9.884848000000006
 31
0.0
 12
5.131719227018107
 22
9.704848000000007
 32
0.0
 13
5.131719227018107
 23
9.704848000000007
 33
0.0
  0
SOLID
  5
358D
330
3572
100
AcDbEntity
  8
DIM
 62
     0
100
AcDbTrace
 10
5.101719227018109
 20
15.02484800000001
 30
0.0
 11
5.161719227018109
 21
15.02484800000001
 31
0.0
 12
5.131719227018109
 22
15.20484800000001
 32
0.0
 13
5.131719227018109
 23
15.20484800000001
 33
0.0
  0
MTEXT
  5
358E
330
3572
100
AcDbEntity
  8
DIM
 62
     0
100
AcDbMText
 10
5.131719227018106
 20
12.45484800000001
 30
0.0
 40
1.0
 41
0.0
 71
     5
 72
     1
  1
\A1;5.5000
 11
0.0000000000000001
 21
1.0
 31
0.0
 73
     1
 44
1.0
  0
POINT
  5
358F
330
3572
100
AcDbEntity
  8
Defpoints
 62
     0
100
AcDbPoint
 10
27.767631
 20
9.704848000000001
 30
0.0
  0
POINT
  5
3590
330
3572
100
AcDbEntity
  8
Defpoints
 62
     0
100
AcDbPoint
 10
27.767631
 20
15.204848
 30
0.0
  0
POINT
  5
3591
330
3572
100
AcDbEntity
  8
Defpoints
 62
     0
100
AcDbPoint
 10
5.131719227018109
 20
15.20484800000001
 30
0.0
  0
ENDBLK
  5
357E
330
3572
100
AcDbEntity
  8
0
100
AcDbBlockEnd
  0
ENDSEC
  0
SECTION
  2
ENTITIES
  0
LINE
  5
3200
330
18
100
AcDbEntity
  8
0
100
AcDbLine
 10
50.402069
 20
15.204848
 30
0.0
 11
52.152069
 21
15.204848
 31
0.0
  0
LINE
  5
3232
330
18
100
AcDbEntity
  8
0
100
AcDbLine
 10
50.402069
 20
14.767348
 30
0.0
 11
50.402069
 21
15.204848
 31
0.0
  0
LINE
  5
3294
330
18
100
AcDbEntity
  8
0
100
AcDbLine
 10
52.152069
 20
9.704848
 30
0.0
 11
52.152069
 21
15.204848
 31
0.0
  0
LINE
  5
3295
330
18
100
AcDbEntity
  8
0
100
AcDbLine
 10
50.402069
 20
14.767348
 30
0.0
 11
50.70456899999999
 21
14.767348
 31
0.0
  0
ARC
  5
3298
330
18
100
AcDbEntity
  8
0
100
AcDbCircle
 10
50.70079469300413
 20
14.43740860826413
 30
0.0
 40
0.2990567767296568
100
AcDbArc
 50
89.30026696244553
 51
260.6229226769459
  0
LINE
  5
3299
330
18
100
AcDbEntity
  8
0
100
AcDbLine
 10
50.652069
 20
14.04649580818145
 30
0.0
 11
50.652069
 21
14.142348
 31
0.0
  0
LINE
  5
329A
330
18
100
AcDbEntity
  8
0
100
AcDbLine
 10
51.40206899999999
 20
9.704848
 30
0.0
 11
52.152069
 21
9.704848
 31
0.0
  0
ARC
  5
32A1
330
18
100
AcDbEntity
  8
0
100
AcDbCircle
 10
50.39132340841559
 20
13.57038645491994
 30
0.0
 40
0.5134921616357011
100
AcDbArc
 50
354.0712951417251
 51
56.67445997368499
  0
LINE
  5
32BA
330
18
100
AcDbEntity
  8
0
100
AcDbLine
 10
51.40206899999999
 20
9.704848
 30
0.0
 11
51.40206899999999
 21
11.079848
 31
0.0
  0
SPLINE
  5
339B
330
18
100
AcDbEntity
  8
0
100
AcDbSpline
210
0.0
220
0.0
230
1.0
 70
     8
 71
     3
 72
     9
 73
     5
 74
     3
 42
0.0000000001
 43
0.0000000001
 44
0.0000000001
 40
0.0
 40
0.0
 40
0.0
 40
0.0
 40
0.1486451004878631
 40
0.2504803105087584
 40
0.2504803105087584
 40
0.2504803105087584
 40
0.2504803105087584
 10
50.902069
 20
13.51734740573535
 30
0.0
 10
50.83901583978553
 20
13.49418601477327
 30
0.0
 10
50.73276561628508
 20
13.45515699611771
 30
0.0
 10
50.8086979643011
 20
13.38502263055292
 30
0.0
 10
50.839569
 20
13.35650882109435
 30
0.0
 11
50.902069
 21
13.51734740573535
 31
0.0
 11
50.777069
 21
13.43690882109435
 31
0.0
 11
50.839569
 21
13.35650882109435
 31
0.0
  0
LINE
  5
339C
330
18
100
AcDbEntity
  8
0
100
AcDbLine
 10
50.839569
 20
13.35650882109435
 30
0.0
 11
50.839569
 21
13.24387629232429
 31
0.0
  0
LINE
  5
339F
330
18
100
AcDbEntity
  8
0
100
AcDbLine
 10
51.15206899999999
 20
13.017348
 30
0.0
 11
51.04116524735287
 21
13.017348
 31
0.0
  0
ARC
  5
33A7
330
18
100
AcDbEntity
  8
0
100
AcDbCircle
 10
50.79167551087163
 20
13.00041808001221
 30
0.0
 40
0.2360015188824325
100
AcDbArc
 50
7.428648655420523
 51
75.38294883340942
  0
LINE
  5
33A8
330
18
100
AcDbEntity
  8
0
100
AcDbLine
 10
51.15206899999999
 20
13.017348
 30
0.0
 11
51.15206899999999
 21
12.017348
 31
0.0
  0
SPLINE
  5
33AC
330
18
100
AcDbEntity
  8
0
100
AcDbSpline
210
0.0
220
0.0
230
1.0
 70
     8
 71
     3
 72
    11
 73
     7
 74
     0
 42
0.0000000001
 43
0.0000000001
 40
0.0
 40
0.0
 40
0.0
 40
0.0
 40
0.0606258347336383
 40
0.1832189383580526
 40
0.3034320459400337
 40
0.3601256361756171
 40
0.3601256361756171
 40
0.3601256361756171
 40
0.3601256361756171
 10
51.15206899999999
 20
12.017348
 30
0.0
 10
51.12946130525022
 20
12.01822935643162
 30
0.0
 10
51.06113799310165
 20
12.02089292701051
 30
0.0
 10
51.06158180875841
 20
11.89227611096766
 30
0.0
 10
51.06253561612895
 20
11.77055373286892
 30
0.0
 10
51.0008347281869
 20
11.7649942164909
 30
0.0
 10
50.97982458091488
 20
11.76453023828321
 30
0.0
  0
LINE
  5
33BC
330
18
100
AcDbEntity
  8
0
100
AcDbLine
 10
50.964569
 20
11.74893404080049
 30
0.0
 11
50.964569
 21
11.701848
 31
0.0
  0
SPLINE
  5
33C3
330
18
100
AcDbEntity
  8
0
100
AcDbSpline
210
0.0
220
0.0
230
1.0
 70
     8
 71
     3
 72
    11
 73
     7
 74
     5
 42
0.0000000001
 43
0.0000000001
 44
0.0000000001
 40
0.0
 40
0.0
 40
0.0
 40
0.0
 40
0.1793430527962766
 40
0.2915971984697095
 40
0.5910018972961857
 40
0.7106455302274087
 40
0.7106455302274087
 40
0.7106455302274087
 40
0.7106455302274087
 10
50.964569
 20
11.701848
 30
0.0
 10
50.91644144868993
 20
11.66872942589841
 30
0.0
 10
50.83818996968137
 20
11.61488132152658
 30
0.0
 10
50.71727417830286
 20
11.420200266046
 30
0.0
 10
50.98183178560322
 20
11.31893021426298
 30
0.0
 10
51.11425926804626
 20
11.3274231567969
 30
0.0
 10
51.152069
 20
11.329848
 30
0.0
 11
50.964569
 21
11.701848
 31
0.0
 11
50.82721925230953
 21
11.58652680769064
 31
0.0
 11
50.777069
 21
11.48609800000001
 31
0.0
 11
51.03242538819942
 21
11.32977689238775
 31
0.0
 11
51.152069
 21
11.329848
 31
0.0
  0
ARC
  5
33E0
330
18
100
AcDbEntity
  8
0
100
AcDbCircle
 10
51.39005359452678
 20
11.31783259452679
 30
0.0
 40
0.2382877193662412
100
AcDbArc
 50
177.1096954119249
 51
272.8903045880746
  0
ARC
  5
33E2
330
18
100
AcDbEntity
  8
0
100
AcDbCircle
 10
50.98016900000112
 20
11.74893404080735
 30
0.0
 40
0.0156
100
AcDbArc
 50
91.26508740731667
 51
180.0000000251965
  0
ARC
  5
33E3
330
18
100
AcDbEntity
  8
0
100
AcDbCircle
 10
51.04116524735287
 20
13.032948
 30
0.0
 40
0.0156
100
AcDbArc
 50
187.4286486554204
 51
270.0
  0
ARC
  5
33E4
330
18
100
AcDbEntity
  8
0
100
AcDbCircle
 10
50.855169
 20
13.24387629232429
 30
0.0
 40
0.0156
100
AcDbArc
 50
180.0
 51
255.3829488333969
  0
ARC
  5
33EB
330
18
100
AcDbEntity
  8
0
100
AcDbCircle
 10
50.71456900000001
 20
14.04649580818145
 30
0.0
 40
0.0625
100
AcDbArc
 50
180.0
 51
228.8398239247581
  0
LINE
  5
33EC
330
18
100
AcDbEntity
  8
0
100
AcDbLine
 10
50.714569
 20
14.757348
 30
0.0
 11
50.714569
 21
14.74644233757106
 31
0.0
  0
ARC
  5
33F0
330
18
100
AcDbEntity
  8
0
100
AcDbCircle
 10
50.70456899999999
 20
14.757348
 30
0.0
 40
0.01
100
AcDbArc
 50
0.0
 51
90.0
  0
ARC
  5
33F1
330
18
100
AcDbEntity
  8
0
100
AcDbCircle
 10
50.70456899999999
 20
14.74644233757106
 30
0.0
 40
0.01
100
AcDbArc
 50
269.3002669624437
 51
0.0
  0
LINE
  5
33F3
330
18
100
AcDbEntity
  8
0
100
AcDbLine
 10
46.76763099999999
 20
15.204848
 30
0.0
 11
8.767631000000001
 21
15.204848
 31
0.0
  0
LINE
  5
33F4
330
18
100
AcDbEntity
  8
0
100
AcDbLine
 10
46.76763099999999
 20
14.767348
 30
0.0
 11
8.767631000000001
 21
14.767348
 31
0.0
  0
LINE
  5
33F5
330
18
100
AcDbEntity
  8
0
100
AcDbLine
 10
46.51763099999999
 20
14.142348
 30
0.0
 11
9.017631000000008
 21
14.142348
 31
0.0
  0
LINE
  5
33F6
330
18
100
AcDbEntity
  8
0
100
AcDbLine
 10
46.51763099999999
 20
14.04649580818145
 30
0.0
 11
9.017631000000008
 21
14.04649580818145
 31
0.0
  0
LINE
  5
33F7
330
18
100
AcDbEntity
  8
0
100
AcDbLine
 10
46.267631
 20
13.51734740573535
 30
0.0
 11
9.267631000000001
 21
13.51734740573535
 31
0.0
  0
LINE
  5
33F8
330
18
100
AcDbEntity
  8
0
100
AcDbLine
 10
46.330131
 20
13.35650882109435
 30
0.0
 11
9.205131000000001
 21
13.35650882109435
 31
0.0
  0
LINE
  5
33F9
330
18
100
AcDbEntity
  8
0
100
AcDbLine
 10
46.330131
 20
13.24387629232429
 30
0.0
 11
9.205131000000001
 21
13.24387629232429
 31
0.0
  0
LINE
  5
33FA
330
18
100
AcDbEntity
  8
0
100
AcDbLine
 10
46.01763100000001
 20
13.017348
 30
0.0
 11
9.517630999999994
 21
13.017348
 31
0.0
  0
LINE
  5
33FB
330
18
100
AcDbEntity
  8
0
100
AcDbLine
 10
46.01763100000001
 20
12.017348
 30
0.0
 11
9.517630999999994
 21
12.017348
 31
0.0
  0
LINE
  5
33FC
330
18
100
AcDbEntity
  8
0
100
AcDbLine
 10
46.20513099999999
 20
11.74893404080735
 30
0.0
 11
9.330131000000008
 21
11.74893404080735
 31
0.0
  0
LINE
  5
33FD
330
18
100
AcDbEntity
  8
0
100
AcDbLine
 10
46.20513099999999
 20
11.701848
 30
0.0
 11
9.330131000000008
 21
11.701848
 31
0.0
  0
LINE
  5
33FE
330
18
100
AcDbEntity
  8
0
100
AcDbLine
 10
46.017631
 20
11.329848
 30
0.0
 11
9.517631000000001
 21
11.329848
 31
0.0
  0
LINE
  5
33FF
330
18
100
AcDbEntity
  8
0
100
AcDbLine
 10
45.76763099999999
 20
11.079848
 30
0.0
 11
9.74360018905368
 21
11.079848
 31
0.0
  0
LINE
  5
3400
330
18
100
AcDbEntity
  8
0
100
AcDbLine
 10
45.76763099999999
 20
9.704848000000001
 30
0.0
 11
9.767631000000005
 21
9.704848000000001
 31
0.0
  0
LINE
  5
3401
330
18
100
AcDbEntity
  8
0
100
AcDbLine
 10
46.455131
 20
14.74644233757106
 30
0.0
 11
9.080131000000005
 21
14.74644233757106
 31
0.0
  0
ARC
  5
3423
330
18
100
AcDbEntity
  8
0
100
AcDbCircle
 10
9.070131000000003
 20
14.74644233757106
 30
0.0
 40
0.01
100
AcDbArc
 50
269.3002669624437
 51
0.0
  0
ARC
  5
3424
330
18
100
AcDbEntity
  8
0
100
AcDbCircle
 10
9.070131000000003
 20
14.757348
 30
0.0
 40
0.01
100
AcDbArc
 50
0.0
 51
90.0
  0
LINE
  5
3425
330
18
100
AcDbEntity
  8
0
100
AcDbLine
 10
9.080131000000001
 20
14.757348
 30
0.0
 11
9.080131000000001
 21
14.74644233757106
 31
0.0
  0
ARC
  5
3426
330
18
100
AcDbEntity
  8
0
100
AcDbCircle
 10
9.080131000000008
 20
14.04649580818145
 30
0.0
 40
0.0625
100
AcDbArc
 50
180.0
 51
228.8398239247579
  0
ARC
  5
3427
330
18
100
AcDbEntity
  8
0
100
AcDbCircle
 10
9.220731
 20
13.24387629232429
 30
0.0
 40
0.0156
100
AcDbArc
 50
180.0
 51
255.3829488333966
  0
ARC
  5
3428
330
18
100
AcDbEntity
  8
0
100
AcDbCircle
 10
9.406727247352876
 20
13.032948
 30
0.0
 40
0.0156
100
AcDbArc
 50
187.4286486554204
 51
270.0
  0
ARC
  5
3429
330
18
100
AcDbEntity
  8
0
100
AcDbCircle
 10
9.34573100000113
 20
11.74893404080735
 30
0.0
 40
0.0156
100
AcDbArc
 50
91.26508740731676
 51
180.0000000251965
  0
ARC
  5
342A
330
18
100
AcDbEntity
  8
0
100
AcDbCircle
 10
9.755615594526787
 20
11.31783259452679
 30
0.0
 40
0.2382877193662412
100
AcDbArc
 50
177.1096954119249
 51
272.8903045880745
  0
SPLINE
  5
342B
330
18
100
AcDbEntity
  8
0
100
AcDbSpline
210
0.0
220
0.0
230
1.0
 70
     8
 71
     3
 72
    11
 73
     7
 74
     5
 42
0.0000000001
 43
0.0000000001
 44
0.0000000001
 40
0.0
 40
0.0
 40
0.0
 40
0.0
 40
0.1793430527962766
 40
0.2915971984697095
 40
0.5910018972961857
 40
0.7106455302274087
 40
0.7106455302274087
 40
0.7106455302274087
 40
0.7106455302274087
 10
9.330131000000008
 20
11.701848
 30
0.0
 10
9.282003448689943
 20
11.66872942589841
 30
0.0
 10
9.203751969681364
 20
11.61488132152658
 30
0.0
 10
9.08283617830286
 20
11.420200266046
 30
0.0
 10
9.347393785603223
 20
11.31893021426298
 30
0.0
 10
9.479821268046267
 20
11.3274231567969
 30
0.0
 10
9.517631000000008
 20
11.329848
 30
0.0
 11
9.330131000000008
 21
11.701848
 31
0.0
 11
9.192781252309536
 21
11.58652680769064
 31
0.0
 11
9.142631000000008
 21
11.48609800000001
 31
0.0
 11
9.397987388199425
 21
11.32977689238775
 31
0.0
 11
9.517631000000008
 21
11.329848
 31
0.0
  0
LINE
  5
342C
330
18
100
AcDbEntity
  8
0
100
AcDbLine
 10
9.330131000000008
 20
11.74893404080049
 30
0.0
 11
9.330131000000008
 21
11.701848
 31
0.0
  0
SPLINE
  5
342D
330
18
100
AcDbEntity
  8
0
100
AcDbSpline
210
0.0
220
0.0
230
1.0
 70
     8
 71
     3
 72
    11
 73
     7
 74
     0
 42
0.0000000001
 43
0.0000000001
 40
0.0
 40
0.0
 40
0.0
 40
0.0
 40
0.0606258347336383
 40
0.1832189383580526
 40
0.3034320459400337
 40
0.3601256361756171
 40
0.3601256361756171
 40
0.3601256361756171
 40
0.3601256361756171
 10
9.517630999999994
 20
12.017348
 30
0.0
 10
9.495023305250228
 20
12.01822935643162
 30
0.0
 10
9.426699993101649
 20
12.02089292701051
 30
0.0
 10
9.427143808758415
 20
11.89227611096766
 30
0.0
 10
9.428097616128951
 20
11.77055373286892
 30
0.0
 10
9.366396728186906
 20
11.7649942164909
 30
0.0
 10
9.345386580914883
 20
11.76453023828321
 30
0.0
  0
LINE
  5
342E
330
18
100
AcDbEntity
  8
0
100
AcDbLine
 10
9.517630999999994
 20
13.017348
 30
0.0
 11
9.517630999999994
 21
12.017348
 31
0.0
  0
ARC
  5
342F
330
18
100
AcDbEntity
  8
0
100
AcDbCircle
 10
9.157237510871638
 20
13.00041808001221
 30
0.0
 40
0.2360015188824325
100
AcDbArc
 50
7.428648655420523
 51
75.38294883340928
  0
LINE
  5
3430
330
18
100
AcDbEntity
  8
0
100
AcDbLine
 10
9.517630999999994
 20
13.017348
 30
0.0
 11
9.406727247352876
 21
13.017348
 31
0.0
  0
LINE
  5
3431
330
18
100
AcDbEntity
  8
0
100
AcDbLine
 10
9.205131000000001
 20
13.35650882109435
 30
0.0
 11
9.205131000000001
 21
13.24387629232429
 31
0.0
  0
SPLINE
  5
3432
330
18
100
AcDbEntity
  8
0
100
AcDbSpline
210
0.0
220
0.0
230
1.0
 70
     8
 71
     3
 72
     9
 73
     5
 74
     3
 42
0.0000000001
 43
0.0000000001
 44
0.0000000001
 40
0.0
 40
0.0
 40
0.0
 40
0.0
 40
0.1486451004878631
 40
0.2504803105087584
 40
0.2504803105087584
 40
0.2504803105087584
 40
0.2504803105087584
 10
9.267631000000001
 20
13.51734740573535
 30
0.0
 10
9.204577839785526
 20
13.49418601477327
 30
0.0
 10
9.098327616285089
 20
13.45515699611771
 30
0.0
 10
9.174259964301098
 20
13.38502263055292
 30
0.0
 10
9.205131000000008
 20
13.35650882109435
 30
0.0
 11
9.267631000000001
 21
13.51734740573535
 31
0.0
 11
9.142631000000008
 21
13.43690882109435
 31
0.0
 11
9.205131000000008
 21
13.35650882109435
 31
0.0
  0
LINE
  5
3433
330
18
100
AcDbEntity
  8
0
100
AcDbLine
 10
9.767631000000001
 20
9.704848
 30
0.0
 11
9.767631000000001
 21
11.079848
 31
0.0
  0
ARC
  5
3434
330
18
100
AcDbEntity
  8
0
100
AcDbCircle
 10
8.756885408415598
 20
13.57038645491994
 30
0.0
 40
0.5134921616357011
100
AcDbArc
 50
354.071295141725
 51
56.67445997368501
  0
LINE
  5
3436
330
18
100
AcDbEntity
  8
0
100
AcDbLine
 10
9.017631000000008
 20
14.04649580818145
 30
0.0
 11
9.017631000000008
 21
14.142348
 31
0.0
  0
ARC
  5
3437
330
18
100
AcDbEntity
  8
0
100
AcDbCircle
 10
9.066356693004131
 20
14.43740860826413
 30
0.0
 40
0.2990567767296568
100
AcDbArc
 50
89.30026696244567
 51
260.6229226769457
  0
LINE
  5
3438
330
18
100
AcDbEntity
  8
0
100
AcDbLine
 10
8.767631000000001
 20
14.767348
 30
0.0
 11
9.070131000000003
 21
14.767348
 31
0.0
  0
LINE
  5
343A
330
18
100
AcDbEntity
  8
0
100
AcDbLine
 10
8.767631000000001
 20
14.767348
 30
0.0
 11
8.767631000000001
 21
15.204848
 31
0.0
  0
ARC
  5
34A9
330
18
100
AcDbEntity
  8
0
100
AcDbCircle
 10
46.46513099999999
 20
14.74644233757106
 30
0.0
 40
0.01
100
AcDbArc
 50
180.0
 51
270.6997330375563
  0
ARC
  5
34AA
330
18
100
AcDbEntity
  8
0
100
AcDbCircle
 10
46.46513099999999
 20
14.757348
 30
0.0
 40
0.01
100
AcDbArc
 50
90.0
 51
180.0
  0
LINE
  5
34AB
330
18
100
AcDbEntity
  8
0
100
AcDbLine
 10
46.455131
 20
14.757348
 30
0.0
 11
46.455131
 21
14.74644233757106
 31
0.0
  0
ARC
  5
34AC
330
18
100
AcDbEntity
  8
0
100
AcDbCircle
 10
46.45513099999999
 20
14.04649580818145
 30
0.0
 40
0.0625
100
AcDbArc
 50
311.1601760752421
 51
0.000000000000007
  0
ARC
  5
34AD
330
18
100
AcDbEntity
  8
0
100
AcDbCircle
 10
46.314531
 20
13.24387629232429
 30
0.0
 40
0.0156
100
AcDbArc
 50
284.6170511666033
 51
0.000000000000007
  0
ARC
  5
34AE
330
18
100
AcDbEntity
  8
0
100
AcDbCircle
 10
46.12853475264713
 20
13.032948
 30
0.0
 40
0.0156
100
AcDbArc
 50
270.0
 51
352.5713513445796
  0
ARC
  5
34AF
330
18
100
AcDbEntity
  8
0
100
AcDbCircle
 10
46.18953099999887
 20
11.74893404080735
 30
0.0
 40
0.0156
100
AcDbArc
 50
359.9999999748035
 51
88.73491259268325
  0
ARC
  5
34B0
330
18
100
AcDbEntity
  8
0
100
AcDbCircle
 10
45.77964640547321
 20
11.31783259452679
 30
0.0
 40
0.2382877193662412
100
AcDbArc
 50
267.1096954119255
 51
2.890304588075054
  0
SPLINE
  5
34B1
330
18
100
AcDbEntity
  8
0
100
AcDbSpline
210
0.0
220
0.0
230
1.0
 70
     8
 71
     3
 72
    11
 73
     7
 74
     5
 42
0.0000000001
 43
0.0000000001
 44
0.0000000001
 40
0.0
 40
0.0
 40
0.0
 40
0.0
 40
0.1793430527962766
 40
0.2915971984697095
 40
0.5910018972961857
 40
0.7106455302274087
 40
0.7106455302274087
 40
0.7106455302274087
 40
0.7106455302274087
 10
46.20513099999999
 20
11.701848
 30
0.0
 10
46.25325855131006
 20
11.66872942589841
 30
0.0
 10
46.33151003031864
 20
11.61488132152658
 30
0.0
 10
46.45242582169714
 20
11.420200266046
 30
0.0
 10
46.18786821439678
 20
11.31893021426298
 30
0.0
 10
46.05544073195374
 20
11.3274231567969
 30
0.0
 10
46.01763099999999
 20
11.329848
 30
0.0
 11
46.20513099999999
 21
11.701848
 31
0.0
 11
46.34248074769046
 21
11.58652680769064
 31
0.0
 11
46.39263099999999
 21
11.48609800000001
 31
0.0
 11
46.13727461180057
 21
11.32977689238775
 31
0.0
 11
46.01763099999999
 21
11.329848
 31
0.0
  0
LINE
  5
34B2
330
18
100
AcDbEntity
  8
0
100
AcDbLine
 10
46.20513099999999
 20
11.74893404080049
 30
0.0
 11
46.20513099999999
 21
11.701848
 31
0.0
  0
SPLINE
  5
34B3
330
18
100
AcDbEntity
  8
0
100
AcDbSpline
210
0.0
220
0.0
230
1.0
 70
     8
 71
     3
 72
    11
 73
     7
 74
     0
 42
0.0000000001
 43
0.0000000001
 40
0.0
 40
0.0
 40
0.0
 40
0.0
 40
0.0606258347336383
 40
0.1832189383580526
 40
0.3034320459400337
 40
0.3601256361756171
 40
0.3601256361756171
 40
0.3601256361756171
 40
0.3601256361756171
 10
46.01763100000001
 20
12.017348
 30
0.0
 10
46.04023869474977
 20
12.01822935643162
 30
0.0
 10
46.10856200689835
 20
12.02089292701051
 30
0.0
 10
46.10811819124158
 20
11.89227611096766
 30
0.0
 10
46.10716438387105
 20
11.77055373286892
 30
0.0
 10
46.1688652718131
 20
11.7649942164909
 30
0.0
 10
46.18987541908512
 20
11.76453023828321
 30
0.0
  0
LINE
  5
34B4
330
18
100
AcDbEntity
  8
0
100
AcDbLine
 10
46.01763100000001
 20
13.017348
 30
0.0
 11
46.01763100000001
 21
12.017348
 31
0.0
  0
ARC
  5
34B5
330
18
100
AcDbEntity
  8
0
100
AcDbCircle
 10
46.37802448912836
 20
13.00041808001221
 30
0.0
 40
0.2360015188824325
100
AcDbArc
 50
104.6170511665907
 51
172.5713513445795
  0
LINE
  5
34B6
330
18
100
AcDbEntity
  8
0
100
AcDbLine
 10
46.01763100000001
 20
13.017348
 30
0.0
 11
46.12853475264713
 21
13.017348
 31
0.0
  0
LINE
  5
34B7
330
18
100
AcDbEntity
  8
0
100
AcDbLine
 10
46.330131
 20
13.35650882109435
 30
0.0
 11
46.330131
 21
13.24387629232429
 31
0.0
  0
SPLINE
  5
34B8
330
18
100
AcDbEntity
  8
0
100
AcDbSpline
210
0.0
220
0.0
230
1.0
 70
     8
 71
     3
 72
     9
 73
     5
 74
     3
 42
0.0000000001
 43
0.0000000001
 44
0.0000000001
 40
0.0
 40
0.0
 40
0.0
 40
0.0
 40
0.1486451004878631
 40
0.2504803105087584
 40
0.2504803105087584
 40
0.2504803105087584
 40
0.2504803105087584
 10
46.267631
 20
13.51734740573535
 30
0.0
 10
46.33068416021447
 20
13.49418601477327
 30
0.0
 10
46.4369343837149
 20
13.45515699611771
 30
0.0
 10
46.3610020356989
 20
13.38502263055292
 30
0.0
 10
46.33013099999999
 20
13.35650882109435
 30
0.0
 11
46.267631
 21
13.51734740573535
 31
0.0
 11
46.39263099999999
 21
13.43690882109435
 31
0.0
 11
46.33013099999999
 21
13.35650882109435
 31
0.0
  0
LINE
  5
34B9
330
18
100
AcDbEntity
  8
0
100
AcDbLine
 10
45.76763099999999
 20
9.704848
 30
0.0
 11
45.76763099999999
 21
11.079848
 31
0.0
  0
ARC
  5
34BA
330
18
100
AcDbEntity
  8
0
100
AcDbCircle
 10
46.7783765915844
 20
13.57038645491994
 30
0.0
 40
0.5134921616357011
100
AcDbArc
 50
123.325540026315
 51
185.928704858275
  0
LINE
  5
34BC
330
18
100
AcDbEntity
  8
0
100
AcDbLine
 10
46.51763099999999
 20
14.04649580818145
 30
0.0
 11
46.51763099999999
 21
14.142348
 31
0.0
  0
ARC
  5
34BD
330
18
100
AcDbEntity
  8
0
100
AcDbCircle
 10
46.46890530699587
 20
14.43740860826413
 30
0.0
 40
0.2990567767296568
100
AcDbArc
 50
279.3770773230543
 51
90.69973303755432
  0
LINE
  5
34BE
330
18
100
AcDbEntity
  8
0
100
AcDbLine
 10
46.767631
 20
14.767348
 30
0.0
 11
46.46513099999999
 21
14.767348
 31
0.0
  0
LINE
  5
34C0
330
18
100
AcDbEntity
  8
0
100
AcDbLine
 10
46.767631
 20
14.767348
 30
0.0
 11
46.767631
 21
15.204848
 31
0.0
  0
DIMENSION
  5
3521
330
18
100
AcDbEntity
  8
DIM
100
AcDbDimension
  2
*D2
 10
52.152069
 20
17.07158449417849
 30
0.0
 11
54.58873566666667
 21
17.07158449417849
 31
0.0
 70
    32
 71
     5
 42
1.750000000000007
  3
STANDARD
100
AcDbAlignedDimension
 13
50.402069
 23
15.204848
 33
0.0
 14
52.152069
 24
15.204848
 34
0.0
100
AcDbRotatedDimension
  0
DIMENSION
  5
352F
330
18
100
AcDbEntity
  8
DIM
100
AcDbDimension
  2
*D3
 10
52.152069
 20
8.081129408251918
 30
0.0
 11
54.672069
 21
8.081129408251918
 31
0.0
 70
    32
 71
     5
 42
0.75
  3
STANDARD
100
AcDbAlignedDimension
 13
51.40206899999999
 23
9.704848
 33
0.0
 14
52.152069
 24
9.704848
 34
0.0
100
AcDbRotatedDimension
  0
LINE
  5
3559
330
18
100
AcDbEntity
  8
DIM
100
AcDbLine
 10
45.76763099999999
 20
9.642348
 30
0.0
 11
45.76763099999999
 21
5.771811100229029
 31
0.0
  0
LINE
  5
355A
330
18
100
AcDbEntity
  8
DIM
100
AcDbLine
 10
9.767631000000005
 20
9.642348000000001
 30
0.0
 11
9.767631000000005
 21
5.771811100229029
 31
0.0
  0
LINE
  5
355B
330
18
100
AcDbEntity
  8
DIM
100
AcDbLine
 10
45.587631
 20
5.951811100229029
 30
0.0
 11
30.52429766666667
 21
5.951811100229029
 31
0.0
  0
LINE
  5
355C
330
18
100
AcDbEntity
  8
DIM
100
AcDbLine
 10
9.947631000000004
 20
5.951811100229029
 30
0.0
 11
25.01096433333334
 21
5.951811100229029
 31
0.0
  0
SOLID
  5
355D
330
18
100
AcDbEntity
  8
DIM
100
AcDbTrace
 10
45.587631
 20
5.981811100229029
 30
0.0
 11
45.587631
 21
5.921811100229029
 31
0.0
 12
45.76763099999999
 22
5.951811100229029
 32
0.0
 13
45.76763099999999
 23
5.951811100229029
 33
0.0
  0
SOLID
  5
355E
330
18
100
AcDbEntity
  8
DIM
100
AcDbTrace
 10
9.947631000000004
 20
5.981811100229029
 30
0.0
 11
9.947631000000004
 21
5.921811100229029
 31
0.0
 12
9.767631000000005
 22
5.951811100229029
 32
0.0
 13
9.767631000000005
 23
5.951811100229029
 33
0.0
  0
MTEXT
  5
355F
330
18
100
AcDbEntity
  8
DIM
100
AcDbMText
 10
27.767631
 20
5.951811100229029
 30
0.0
 40
1.0
 41
0.0
 71
     5
 72
     1
  1
L/W
 73
     1
 44
1.0
  0
DIMENSION
  5
3571
330
18
100
AcDbEntity
  8
DIM
100
AcDbDimension
  2
*D4
 10
5.131719227018109
 20
15.20484800000001
 30
0.0
 11
5.131719227018106
 21
12.45484800000001
 31
0.0
 70
    32
 71
     5
 42
5.5
  3
STANDARD
100
AcDbAlignedDimension
 13
27.767631
 23
9.704848000000001
 33
0.0
 14
27.767631
 24
15.204848
 34
0.0
 50
90.0
100
AcDbRotatedDimension
  0
VIEWPORT
  5
34F8
330
15
100
AcDbEntity
 67
     1
  8
0
100
AcDbViewport
 10
152.0430757581659
 20
101.5999970436096
 30
0.0
 40
451.6233083754185
 41
228.4221935424805
 68
     2
 69
     1
 12
152.0430757581659
 22
101.5999970436096
 13
0.0
 23
0.0
 14
10.0
 24
10.0
 15
10.0
 25
10.0
 16
0.0
 26
0.0
 36
1.0
 17
0.0
 27
0.0
 37
0.0
 42
50.0
 43
0.0
 44
0.0
 45
228.4221935424805
 50
0.0
 51
0.0
 72
   100
 90
    32800
  1

281
     0
 71
     1
 74
     0
110
0.0
120
0.0
130
0.0
111
1.0
121
0.0
131
0.0
112
0.0
122
1.0
132
0.0
 79
     0
146
0.0
170
     0
  0
VIEWPORT
  5
34FA
330
15
100
AcDbEntity
 67
     1
  8
0
100
AcDbViewport
 10
133.3499939441681
 20
101.5999939441681
 30
0.0
 40
213.3599903106689
 41
162.5599903106689
 68
     1
 69
     2
 12
30.66613346745987
 22
11.81002139037819
 13
0.0
 23
0.0
 14
10.0
 24
10.0
 15
10.0
 25
10.0
 16
0.0
 26
0.0
 36
1.0
 17
0.0
 27
0.0
 37
0.0
 42
50.0
 43
0.0
 44
0.0
 45
42.30287068988682
 50
0.0
 51
0.0
 72
   100
 90
    32800
  1

281
     0
 71
     1
 74
     0
110
0.0
120
0.0
130
0.0
111
1.0
121
0.0
131
0.0
112
0.0
122
1.0
132
0.0
 79
     0
146
0.0
170
     0
  0
ENDSEC
  0
SECTION
  2
OBJECTS
  0
DICTIONARY
  5
C
330
0
100
AcDbDictionary
281
     1
  3
ACAD_COLOR
350
3316
  3
ACAD_GROUP
350
D
  3
ACAD_IMAGE_DICT
350
21
  3
ACAD_IMAGE_VARS
350
20
  3
ACAD_LAYOUT
350
3317
  3
ACAD_MATERIAL
350
3315
  3
ACAD_MLINESTYLE
350
1B
  3
ACAD_PLOTSETTINGS
350
3318
  3
ACAD_PLOTSTYLENAME
350
3313
  0
DICTIONARY
  5
3316
102
{ACAD_REACTORS
330
C
102
}
330
C
100
AcDbDictionary
281
     1
  0
DICTIONARY
  5
D
102
{ACAD_REACTORS
330
C
102
}
330
C
100
AcDbDictionary
281
     1
  0
DICTIONARY
  5
21
102
{ACAD_REACTORS
330
C
102
}
330
C
100
AcDbDictionary
281
     1
  3
3304-1
350
22
  3
3304-1B
350
1C41
  3
3304-2
350
25
  3
3304-2B
350
1C44
  3
3304-3
350
28
  3
3304-3B
350
1C47
  0
RASTERVARIABLES
  5
20
102
{ACAD_REACTORS
330
C
102
}
330
C
100
AcDbRasterVariables
 90
        0
 70
     1
 71
     1
 72
     0
  0
DICTIONARY
  5
3317
102
{ACAD_REACTORS
330
C
102
}
330
C
100
AcDbDictionary
281
     1
  3
Layout1
350
331A
  3
Model
350
3319
  0
DICTIONARY
  5
3315
102
{ACAD_REACTORS
330
C
102
}
330
C
100
AcDbDictionary
281
     1
  0
DICTIONARY
  5
1B
102
{ACAD_REACTORS
330
C
102
}
330
C
100
AcDbDictionary
281
     1
  3
STANDARD
350
1C
  0
DICTIONARY
  5
3318
102
{ACAD_REACTORS
330
C
102
}
330
C
100
AcDbDictionary
281
     1
  0
ACDBDICTIONARYWDFLT
  5
3313
102
{ACAD_REACTORS
330
C
102
}
330
C
100
AcDbDictionary
281
     1
  3
Normal
350
3314
100
AcDbDictionaryWithDefault
340
3314
  0
IMAGEDEF
  5
22
102
{ACAD_REACTORS
330
21
102
}
330
21
100
AcDbRasterImageDef
 90
        0
  1
U:\TPDWG\MichelQ\3304-1.tif
 10
2243.0
 20
3009.0
 11
0.070556
 21
0.070556
280
     1
281
     5
  0
IMAGEDEF
  5
1C41
102
{ACAD_REACTORS
330
21
102
}
330
21
100
AcDbRasterImageDef
 90
        0
  1
U:\TPDWG\MichelQ\3304-1b.TIF
 10
2202.0
 20
2931.0
 11
0.070556
 21
0.070556
280
     1
281
     5
  0
IMAGEDEF
  5
25
102
{ACAD_REACTORS
330
21
102
}
330
21
100
AcDbRasterImageDef
 90
        0
  1
U:\TPDWG\MichelQ\3304-2.tif
 10
2243.0
 20
3009.0
 11
0.070556
 21
0.070556
280
     1
281
     5
  0
IMAGEDEF
  5
1C44
102
{ACAD_REACTORS
330
21
102
}
330
21
100
AcDbRasterImageDef
 90
        0
  1
U:\TPDWG\MichelQ\3304-2b.TIF
 10
2202.0
 20
2931.0
 11
0.070556
 21
0.070556
280
     1
281
     5
  0
IMAGEDEF
  5
28
102
{ACAD_REACTORS
330
21
102
}
330
21
100
AcDbRasterImageDef
 90
        0
  1
U:\TPDWG\MichelQ\3304-3.tif
 10
2243.0
 20
3009.0
 11
0.070556
 21
0.070556
280
     1
281
     5
  0
IMAGEDEF
  5
1C47
102
{ACAD_REACTORS
330
21
102
}
330
21
100
AcDbRasterImageDef
 90
        0
  1
U:\TPDWG\MichelQ\3304-3b.TIF
 10
2202.0
 20
2931.0
 11
0.070556
 21
0.070556
280
     1
281
     5
  0
LAYOUT
  5
331A
102
{ACAD_REACTORS
330
3317
102
}
330
3317
100
AcDbPlotSettings
  1

  2
none_device
  4
Letter_(8.50_x_11.00_Inches)
  6

 40
6.349999904632568
 41
6.349999904632568
 42
6.350006103515625
 43
6.350006103515625
 44
215.8999938964844
 45
279.3999938964844
 46
0.0
 47
0.0
 48
0.0
 49
0.0
140
0.0
141
0.0
142
1.0
143
1.0
 70
   688
 72
     1
 73
     1
 74
     5
  7

 75
    16
147
1.0
 76
     1
 77
     2
 78
   300
148
0.0
149
0.0
100
AcDbLayout
  1
Layout1
 70
     1
 71
     1
 10
-6.350006103515625
 20
-6.349999904632568
 11
273.0499877929688
 21
209.5499939918518
 12
0.0
 22
0.0
 32
0.0
 14
26.66999878883363
 24
20.31999878883363
 34
0.0
 15
240.0299890995026
 25
182.8799890995025
 35
0.0
146
0.0
 13
0.0
 23
0.0
 33
0.0
 16
1.0
 26
0.0
 36
0.0
 17
0.0
 27
1.0
 37
0.0
 76
     0
330
15
331
34FA
  0
LAYOUT
  5
3319
102
{ACAD_REACTORS
330
3317
102
}
330
3317
100
AcDbPlotSettings
  1

  2
None
  4

  6

 40
0.0
 41
0.0
 42
0.0
 43
0.0
 44
0.0
 45
0.0
 46
0.0
 47
0.0
 48
0.0
 49
0.0
140
0.0
141
0.0
142
1.0
143
1.0
 70
  1712
 72
     0
 73
     0
 74
     0
  7

 75
     0
147
1.0
 76
     0
 77
     2
 78
   300
148
0.0
149
0.0
100
AcDbLayout
  1
Model
 70
     1
 71
     0
 10
0.0
 20
0.0
 11
12.0
 21
9.0
 12
0.0
 22
0.0
 32
0.0
 14
0.0
 24
0.0
 34
0.0
 15
0.0
 25
0.0
 35
0.0
146
0.0
 13
0.0
 23
0.0
 33
0.0
 16
1.0
 26
0.0
 36
0.0
 17
0.0
 27
1.0
 37
0.0
 76
     0
330
18
  0
MLINESTYLE
  5
1C
102
{ACAD_REACTORS
330
1B
102
}
330
1B
100
AcDbMlineStyle
  2
STANDARD
 70
     0
  3

 62
   256
 51
90.0
 52
90.0
 71
     2
 49
0.5
 62
   256
  6
BYLAYER
 49
-0.5
 62
   256
  6
BYLAYER
  0
ACDBPLACEHOLDER
  5
3314
102
{ACAD_REACTORS
330
3313
102
}
330
3313
  0
ENDSEC
  0
EOF
