  0
SECTION
  2
HEADER
  9
$ACADVER
  1
AC1018
  9
$ACADMAINTVER
 70
     0
  9
$DWGCODEPAGE
  3
ANSI_1252
  9
$INSBASE
 10
0.0
 20
0.0
 30
0.0
  9
$EXTMIN
 10
-27.1348659499758
 20
18.95153378288643
 30
0.0
  9
$EXTMAX
 10
35.0979260058641
 20
34.46344406301392
 30
0.0
  9
$LIMMIN
 10
0.0
 20
0.0
  9
$LIMMAX
 10
12.0
 20
9.0
  9
$ORTHOMODE
 70
     0
  9
$REGENMODE
 70
     1
  9
$FILLMODE
 70
     1
  9
$QTEXTMODE
 70
     0
  9
$MIRRTEXT
 70
     1
  9
$LTSCALE
 40
1.0
  9
$ATTMODE
 70
     1
  9
$TEXTSIZE
 40
0.2
  9
$TRACEWID
 40
0.05
  9
$TEXTSTYLE
  7
STANDARD
  9
$CLAYER
  8
0
  9
$CELTYPE
  6
BYLAYER
  9
$CECOLOR
 62
   256
  9
$CELTSCALE
 40
1.0
  9
$DISPSILH
 70
     0
  9
$DIMSCALE
 40
1.0
  9
$DIMASZ
 40
0.18
  9
$DIMEXO
 40
0.0625
  9
$DIMDLI
 40
0.38
  9
$DIMRND
 40
0.0
  9
$DIMDLE
 40
0.0
  9
$DIMEXE
 40
0.18
  9
$DIMTP
 40
0.0
  9
$DIMTM
 40
0.0
  9
$DIMTXT
 40
1.5
  9
$DIMCEN
 40
0.09
  9
$DIMTSZ
 40
0.0
  9
$DIMTOL
 70
     0
  9
$DIMLIM
 70
     0
  9
$DIMTIH
 70
     1
  9
$DIMTOH
 70
     1
  9
$DIMSE1
 70
     0
  9
$DIMSE2
 70
     0
  9
$DIMTAD
 70
     0
  9
$DIMZIN
 70
     0
  9
$DIMBLK
  1

  9
$DIMASO
 70
     1
  9
$DIMSHO
 70
     1
  9
$DIMPOST
  1

  9
$DIMAPOST
  1

  9
$DIMALT
 70
     0
  9
$DIMALTD
 70
     2
  9
$DIMALTF
 40
25.4
  9
$DIMLFAC
 40
1.0
  9
$DIMTOFL
 70
     0
  9
$DIMTVP
 40
0.0
  9
$DIMTIX
 70
     0
  9
$DIMSOXD
 70
     0
  9
$DIMSAH
 70
     0
  9
$DIMBLK1
  1

  9
$DIMBLK2
  1

  9
$DIMSTYLE
  2
STANDARD
  9
$DIMCLRD
 70
     0
  9
$DIMCLRE
 70
     0
  9
$DIMCLRT
 70
     0
  9
$DIMTFAC
 40
1.0
  9
$DIMGAP
 40
0.09
  9
$DIMJUST
 70
     0
  9
$DIMSD1
 70
     0
  9
$DIMSD2
 70
     0
  9
$DIMTOLJ
 70
     1
  9
$DIMTZIN
 70
     0
  9
$DIMALTZ
 70
     0
  9
$DIMALTTZ
 70
     0
  9
$DIMUPT
 70
     0
  9
$DIMDEC
 70
     4
  9
$DIMTDEC
 70
     4
  9
$DIMALTU
 70
     2
  9
$DIMALTTD
 70
     2
  9
$DIMTXSTY
  7
STANDARD
  9
$DIMAUNIT
 70
     0
  9
$DIMADEC
 70
     0
  9
$DIMALTRND
 40
0.0
  9
$DIMAZIN
 70
     0
  9
$DIMDSEP
 70
    46
  9
$DIMATFIT
 70
     3
  9
$DIMFRAC
 70
     0
  9
$DIMLDRBLK
  1

  9
$DIMLUNIT
 70
     2
  9
$DIMLWD
 70
    -2
  9
$DIMLWE
 70
    -2
  9
$DIMTMOVE
 70
     0
  9
$LUNITS
 70
     4
  9
$LUPREC
 70
     4
  9
$SKETCHINC
 40
0.1
  9
$FILLETRAD
 40
0.0
  9
$AUNITS
 70
     0
  9
$AUPREC
 70
     0
  9
$MENU
  1
.
  9
$ELEVATION
 40
0.0
  9
$PELEVATION
 40
0.0
  9
$THICKNESS
 40
0.0
  9
$LIMCHECK
 70
     0
  9
$CHAMFERA
 40
0.5
  9
$CHAMFERB
 40
0.5
  9
$CHAMFERC
 40
1.0
  9
$CHAMFERD
 40
0.0
  9
$SKPOLY
 70
     0
  9
$TDCREATE
 40
2451160.360457639
  9
$TDUCREATE
 40
2451160.527124306
  9
$TDUPDATE
 40
2453488.691715208
  9
$TDUUPDATE
 40
2453488.858381875
  9
$TDINDWG
 40
0.4299786690
  9
$TDUSRTIMER
 40
0.4299784375
  9
$USRTIMER
 70
     1
  9
$ANGBASE
 50
0.0
  9
$ANGDIR
 70
     0
  9
$PDMODE
 70
     3
  9
$PDSIZE
 40
1.0
  9
$PLINEWID
 40
0.0
  9
$SPLFRAME
 70
     0
  9
$SPLINETYPE
 70
     6
  9
$SPLINESEGS
 70
     8
  9
$HANDSEED
  5
158C4
  9
$SURFTAB1
 70
     6
  9
$SURFTAB2
 70
     6
  9
$SURFTYPE
 70
     6
  9
$SURFU
 70
     6
  9
$SURFV
 70
     6
  9
$UCSBASE
  2

  9
$UCSNAME
  2

  9
$UCSORG
 10
0.0
 20
0.0
 30
0.0
  9
$UCSXDIR
 10
1.0
 20
0.0
 30
0.0
  9
$UCSYDIR
 10
0.0
 20
1.0
 30
0.0
  9
$UCSORTHOREF
  2

  9
$UCSORTHOVIEW
 70
     0
  9
$UCSORGTOP
 10
0.0
 20
0.0
 30
0.0
  9
$UCSORGBOTTOM
 10
0.0
 20
0.0
 30
0.0
  9
$UCSORGLEFT
 10
0.0
 20
0.0
 30
0.0
  9
$UCSORGRIGHT
 10
0.0
 20
0.0
 30
0.0
  9
$UCSORGFRONT
 10
0.0
 20
0.0
 30
0.0
  9
$UCSORGBACK
 10
0.0
 20
0.0
 30
0.0
  9
$PUCSBASE
  2

  9
$PUCSNAME
  2

  9
$PUCSORG
 10
0.0
 20
0.0
 30
0.0
  9
$PUCSXDIR
 10
1.0
 20
0.0
 30
0.0
  9
$PUCSYDIR
 10
0.0
 20
1.0
 30
0.0
  9
$PUCSORTHOREF
  2

  9
$PUCSORTHOVIEW
 70
     0
  9
$PUCSORGTOP
 10
0.0
 20
0.0
 30
0.0
  9
$PUCSORGBOTTOM
 10
0.0
 20
0.0
 30
0.0
  9
$PUCSORGLEFT
 10
0.0
 20
0.0
 30
0.0
  9
$PUCSORGRIGHT
 10
0.0
 20
0.0
 30
0.0
  9
$PUCSORGFRONT
 10
0.0
 20
0.0
 30
0.0
  9
$PUCSORGBACK
 10
0.0
 20
0.0
 30
0.0
  9
$USERI1
 70
     0
  9
$USERI2
 70
     0
  9
$USERI3
 70
     0
  9
$USERI4
 70
     0
  9
$USERI5
 70
     0
  9
$USERR1
 40
0.0
  9
$USERR2
 40
0.0
  9
$USERR3
 40
0.0
  9
$USERR4
 40
0.0
  9
$USERR5
 40
0.0
  9
$WORLDVIEW
 70
     1
  9
$SHADEDGE
 70
     3
  9
$SHADEDIF
 70
    70
  9
$TILEMODE
 70
     1
  9
$MAXACTVP
 70
    48
  9
$PINSBASE
 10
0.0
 20
0.0
 30
0.0
  9
$PLIMCHECK
 70
     0
  9
$PEXTMIN
 10
1.049999952316284
 20
0.7999999523162842
 30
0.0
  9
$PEXTMAX
 10
9.449999570846555
 20
7.199999570846556
 30
0.0
  9
$PLIMMIN
 10
-0.2500002402958907
 20
-0.2499999962453767
  9
$PLIMMAX
 10
10.74999951940821
 20
8.249999763458731
  9
$UNITMODE
 70
     0
  9
$VISRETAIN
 70
     1
  9
$PLINEGEN
 70
     0
  9
$PSLTSCALE
 70
     1
  9
$TREEDEPTH
 70
  3020
  9
$CMLSTYLE
  2
STANDARD
  9
$CMLJUST
 70
     0
  9
$CMLSCALE
 40
1.0
  9
$PROXYGRAPHICS
 70
     1
  9
$MEASUREMENT
 70
     0
  9
$CELWEIGHT
370
    -1
  9
$ENDCAPS
280
     0
  9
$JOINSTYLE
280
     0
  9
$LWDISPLAY
290
     0
  9
$INSUNITS
 70
     0
  9
$HYPERLINKBASE
  1

  9
$STYLESHEET
  1

  9
$XEDIT
290
     1
  9
$CEPSNTYPE
380
     0
  9
$PSTYLEMODE
290
     1
  9
$FINGERPRINTGUID
  2
{06D0657B-3B7D-4AF6-A9D8-D5C1569B8FE9}
  9
$VERSIONGUID
  2
{E307111B-5F4A-4515-926A-0A247DF669A3}
  9
$EXTNAMES
290
     1
  9
$PSVPSCALE
 40
0.0
  9
$OLESTARTUP
290
     0
  9
$SORTENTS
280
   127
  9
$INDEXCTL
280
     0
  9
$HIDETEXT
280
     0
  9
$XCLIPFRAME
290
     0
  9
$HALOGAP
280
     0
  9
$OBSCOLOR
 70
   257
  9
$OBSLTYPE
280
     0
  9
$INTERSECTIONDISPLAY
280
     0
  9
$INTERSECTIONCOLOR
 70
   257
  9
$DIMASSOC
280
     1
  9
$PROJECTNAME
  1

  0
ENDSEC
  0
SECTION
  2
CLASSES
  0
CLASS
  1
RASTERVARIABLES
  2
AcDbRasterVariables
  3
ISM
 90
        0
 91
        1
280
     0
281
     0
  0
CLASS
  1
IMAGEDEF
  2
AcDbRasterImageDef
  3
ISM
 90
        0
 91
        1
280
     0
281
     0
  0
CLASS
  1
IMAGEDEF_REACTOR
  2
AcDbRasterImageDefReactor
  3
ISM
 90
        1
 91
        0
280
     0
281
     0
  0
CLASS
  1
IMAGE
  2
AcDbRasterImage
  3
ISM
 90
      127
 91
        0
280
     0
281
     1
  0
CLASS
  1
ACDBDICTIONARYWDFLT
  2
AcDbDictionaryWithDefault
  3
ObjectDBX Classes
 90
        0
 91
        1
280
     0
281
     0
  0
ENDSEC
  0
SECTION
  2
TABLES
  0
TABLE
  2
VPORT
  5
8
330
0
100
AcDbSymbolTable
 70
     2
  0
VPORT
  5
158C3
330
8
100
AcDbSymbolTableRecord
100
AcDbViewportTableRecord
  2
*Active
 70
     0
 10
0.0
 20
0.0
 11
1.0
 21
1.0
 12
7.710729998630846
 22
24.53605241926151
 13
0.0
 23
0.0
 14
0.5
 24
0.5
 15
0.5
 25
0.5
 16
0.0
 26
0.0
 36
1.0
 17
0.0
 27
0.0
 37
0.0
 40
37.2372415888523
 41
1.977142857142857
 42
50.0
 43
0.0
 44
0.0
 50
0.0
 51
0.0
 71
     0
 72
   100
 73
     1
 74
     1
 75
     0
 76
     0
 77
     0
 78
     0
281
     0
 65
     1
110
0.0
120
0.0
130
0.0
111
1.0
121
0.0
131
0.0
112
0.0
122
1.0
132
0.0
 79
     0
146
0.0
  0
ENDTAB
  0
TABLE
  2
LTYPE
  5
5
330
0
100
AcDbSymbolTable
 70
     1
  0
LTYPE
  5
12
330
5
100
AcDbSymbolTableRecord
100
AcDbLinetypeTableRecord
  2
BYBLOCK
 70
     0
  3

 72
    65
 73
     0
 40
0.0
  0
LTYPE
  5
13
330
5
100
AcDbSymbolTableRecord
100
AcDbLinetypeTableRecord
  2
BYLAYER
 70
     0
  3

 72
    65
 73
     0
 40
0.0
  0
LTYPE
  5
14
330
5
100
AcDbSymbolTableRecord
100
AcDbLinetypeTableRecord
  2
CONTINUOUS
 70
     0
  3
Solid line
 72
    65
 73
     0
 40
0.0
  0
ENDTAB
  0
TABLE
  2
LAYER
  5
2
330
0
100
AcDbSymbolTable
 70
     3
  0
LAYER
  5
E
330
2
100
AcDbSymbolTableRecord
100
AcDbLayerTableRecord
  2
0
 70
     0
 62
     7
  6
CONTINUOUS
370
    -3
390
15713
  0
LAYER
  5
157CC
330
2
100
AcDbSymbolTableRecord
100
AcDbLayerTableRecord
  2
Defpoints
 70
     0
 62
     7
  6
CONTINUOUS
290
     0
370
    -3
390
15713
  0
LAYER
  5
1585F
330
2
100
AcDbSymbolTableRecord
100
AcDbLayerTableRecord
  2
DIM
 70
     0
 62
    -3
  6
CONTINUOUS
370
    -3
390
15713
  0
ENDTAB
  0
TABLE
  2
STYLE
  5
3
330
0
100
AcDbSymbolTable
 70
     1
  0
STYLE
  5
F
330
3
100
AcDbSymbolTableRecord
100
AcDbTextStyleTableRecord
  2
STANDARD
 70
     0
 40
0.0
 41
1.0
 50
0.0
 71
     0
 42
0.2
  3
txt
  4

  0
ENDTAB
  0
TABLE
  2
VIEW
  5
6
330
0
100
AcDbSymbolTable
 70
     0
  0
ENDTAB
  0
TABLE
  2
UCS
  5
7
330
0
100
AcDbSymbolTable
 70
     0
  0
ENDTAB
  0
TABLE
  2
APPID
  5
9
330
0
100
AcDbSymbolTable
 70
     1
  0
APPID
  5
10
330
9
100
AcDbSymbolTableRecord
100
AcDbRegAppTableRecord
  2
ACAD
 70
     0
  0
ENDTAB
  0
TABLE
  2
DIMSTYLE
  5
A
330
0
100
AcDbSymbolTable
 70
     1
100
AcDbDimStyleTable
 71
     1
340
1D
  0
DIMSTYLE
105
1D
102
{ACAD_REACTORS
330
157F2
330
15822
330
1583E
102
}
330
A
100
AcDbSymbolTableRecord
100
AcDbDimStyleTableRecord
  2
STANDARD
 70
     0
140
1.5
340
F
  0
ENDTAB
  0
TABLE
  2
BLOCK_RECORD
  5
1
330
0
100
AcDbSymbolTable
 70
     5
  0
BLOCK_RECORD
  5
18
330
1
100
AcDbSymbolTableRecord
100
AcDbBlockTableRecord
  2
*MODEL_SPACE
340
15718
  0
BLOCK_RECORD
  5
15
330
1
100
AcDbSymbolTableRecord
100
AcDbBlockTableRecord
  2
*PAPER_SPACE
340
15719
  0
BLOCK_RECORD
  5
1558C
330
1
100
AcDbSymbolTableRecord
100
AcDbBlockTableRecord
  2
6122_E
340
0
  0
BLOCK_RECORD
  5
15596
330
1
100
AcDbSymbolTableRecord
100
AcDbBlockTableRecord
  2
6122_C
340
0
  0
BLOCK_RECORD
  5
157F3
330
1
100
AcDbSymbolTableRecord
100
AcDbBlockTableRecord
  2
*D2
340
0
  0
BLOCK_RECORD
  5
15823
330
1
100
AcDbSymbolTableRecord
100
AcDbBlockTableRecord
  2
*D3
340
0
  0
BLOCK_RECORD
  5
1583F
330
1
100
AcDbSymbolTableRecord
100
AcDbBlockTableRecord
  2
*D4
340
0
  0
ENDTAB
  0
ENDSEC
  0
SECTION
  2
BLOCKS
  0
BLOCK
  5
19
330
18
100
AcDbEntity
  8
0
100
AcDbBlockBegin
  2
*MODEL_SPACE
 70
     0
 10
0.0
 20
0.0
 30
0.0
  3
*MODEL_SPACE
  1

  0
ENDBLK
  5
1A
330
18
100
AcDbEntity
  8
0
100
AcDbBlockEnd
  0
BLOCK
  5
16
330
15
100
AcDbEntity
 67
     1
  8
0
100
AcDbBlockBegin
  2
*PAPER_SPACE
 70
     0
 10
0.0
 20
0.0
 30
0.0
  3
*PAPER_SPACE
  1

  0
ENDBLK
  5
17
330
15
100
AcDbEntity
 67
     1
  8
0
100
AcDbBlockEnd
  0
BLOCK
  5
1558D
330
1558C
100
AcDbEntity
  8
0
100
AcDbBlockBegin
  2
6122_E
 70
     0
 10
0.0
 20
0.0
 30
0.0
  3
6122_E
  1

  0
LINE
  5
1558E
330
1558C
100
AcDbEntity
  8
0
100
AcDbLine
 10
24.0
 20
-5.177278
 30
0.0
 11
0.0
 21
-5.177278
 31
0.0
  0
LINE
  5
1558F
330
1558C
100
AcDbEntity
  8
0
100
AcDbLine
 10
24.0
 20
0.0
 30
0.0
 11
0.0
 21
0.0
 31
0.0
  0
LINE
  5
15590
330
1558C
100
AcDbEntity
  8
0
100
AcDbLine
 10
24.0
 20
-4.156087
 30
0.0
 11
0.0
 21
-4.156087
 31
0.0
  0
LINE
  5
15591
330
1558C
100
AcDbEntity
  8
0
100
AcDbLine
 10
24.0
 20
-3.060733
 30
0.0
 11
0.0
 21
-3.060733
 31
0.0
  0
LINE
  5
15592
330
1558C
100
AcDbEntity
  8
0
100
AcDbLine
 10
24.0
 20
-0.97636
 30
0.0
 11
0.0
 21
-0.97636
 31
0.0
  0
LINE
  5
15593
330
1558C
100
AcDbEntity
  8
0
100
AcDbLine
 10
0.0
 20
-5.177278
 30
0.0
 11
0.0
 21
0.0
 31
0.0
  0
LINE
  5
15594
330
1558C
100
AcDbEntity
  8
0
100
AcDbLine
 10
24.0
 20
-5.177278
 30
0.0
 11
24.0
 21
0.0
 31
0.0
  0
ENDBLK
  5
15595
330
1558C
100
AcDbEntity
  8
0
100
AcDbBlockEnd
  0
BLOCK
  5
15597
330
15596
100
AcDbEntity
  8
0
100
AcDbBlockBegin
  2
6122_C
 70
     0
 10
0.0
 20
0.0
 30
0.0
  3
6122_C
  1

  0
LWPOLYLINE
  5
15598
330
15596
100
AcDbEntity
  8
0
100
AcDbPolyline
 90
      293
 70
     0
 43
0.0
 10
2.211011999999999
 20
-5.177278
 10
2.210761999999999
 20
-5.117003999999999
 10
2.210002
 20
-5.073414999999999
 10
2.208645
 20
-5.041387999999999
 10
2.206615999999999
 20
-5.018976
 10
2.20384
 20
-5.004234999999999
 10
2.200241999999999
 20
-4.995219
 10
2.195747
 20
-4.989982
 10
2.190281
 20
-4.986577999999999
 10
2.18379
 20
-4.983357999999999
 10
2.176299999999999
 20
-4.979853
 10
2.167857
 20
-4.975891
 10
2.158509
 20
-4.9713
 10
2.148301
 20
-4.965905
 10
2.137281999999999
 20
-4.959535999999999
 10
2.125496
 20
-4.952018999999999
 10
2.112991999999999
 20
-4.943181
 10
2.099844
 20
-4.932910999999999
 10
2.086249
 20
-4.921333999999999
 10
2.072429
 20
-4.908637
 10
2.058609999999999
 20
-4.895006999999999
 10
2.045014
 20
-4.880631
 10
2.031866999999999
 20
-4.865694
 10
2.019391999999999
 20
-4.850385
 10
2.007813
 20
-4.834888999999999
 10
1.997309999999999
 20
-4.819355
 10
1.987881
 20
-4.803783999999999
 10
1.979478999999999
 20
-4.788139
 10
1.972056999999999
 20
-4.772381
 10
1.965568999999999
 20
-4.756475
 10
1.959967999999999
 20
-4.740381
 10
1.955206999999999
 20
-4.724064
 10
1.95124
 20
-4.707485
 10
1.948031
 20
-4.690622
 10
1.945588
 20
-4.673506999999999
 10
1.943928999999999
 20
-4.656187
 10
1.943073
 20
-4.638707
 10
1.943038999999999
 20
-4.621116
 10
1.943844999999999
 20
-4.60346
 10
1.945509999999999
 20
-4.585784999999999
 10
1.948052999999999
 20
-4.568137999999999
 10
1.951484999999999
 20
-4.550569
 10
1.955784999999999
 20
-4.533139
 10
1.960924999999999
 20
-4.515915
 10
1.966877999999999
 20
-4.498962
 10
1.973615
 20
-4.482344999999999
 10
1.981108
 20
-4.466128
 10
1.989329999999999
 20
-4.450378999999999
 10
1.998252
 20
-4.435160999999999
 10
2.007832
 20
-4.420537
 10
2.017973
 20
-4.406557
 10
2.028560999999999
 20
-4.393267999999999
 10
2.039486
 20
-4.380716
 10
2.050634999999999
 20
-4.368948
 10
2.061895999999999
 20
-4.35801
 10
2.073158
 20
-4.347948999999999
 10
2.084306999999999
 20
-4.338811999999999
 10
2.095258
 20
-4.330611
 10
2.106031999999999
 20
-4.323223
 10
2.116674999999999
 20
-4.316487
 10
2.127234
 20
-4.310246
 10
2.137755999999999
 20
-4.304340999999999
 10
2.148286999999999
 20
-4.298612999999999
 10
2.158875
 20
-4.292904
 10
2.169564999999999
 20
-4.287055
 10
2.180369999999999
 20
-4.280952
 10
2.191165
 20
-4.274662999999999
 10
2.201792999999999
 20
-4.268298999999999
 10
2.212094
 20
-4.261972
 10
2.221909
 20
-4.255794999999999
 10
2.231079999999999
 20
-4.249878999999999
 10
2.239447999999999
 20
-4.244335999999999
 10
2.246855
 20
-4.239277999999999
 10
2.253187
 20
-4.234746
 10
2.258519999999999
 20
-4.230494
 10
2.262975999999999
 20
-4.226205
 10
2.266675
 20
-4.221561
 10
2.269738999999999
 20
-4.216245999999999
 10
2.27229
 20
-4.209941
 10
2.274449
 20
-4.202328999999999
 10
2.276336
 20
-4.193094999999999
 10
2.278048
 20
-4.182052999999999
 10
2.279573
 20
-4.169554999999999
 10
2.280874
 20
-4.156087
 10
2.281913999999999
 20
-4.142133
 10
2.282655
 20
-4.12818
 10
2.283059
 20
-4.114711999999999
 10
2.28309
 20
-4.102214
 10
2.282710999999999
 20
-4.091172
 10
2.281838999999999
 20
-4.081954
 10
2.280221
 20
-4.074462999999999
 10
2.277556
 20
-4.068483
 10
2.273547
 20
-4.063799999999999
 10
2.267895
 20
-4.0602
 10
2.260300999999999
 20
-4.057466999999999
 10
2.250465
 20
-4.055387999999999
 10
2.23809
 20
-4.053747
 10
2.223034
 20
-4.052362999999999
 10
2.205794
 20
-4.051183999999999
 10
2.187022999999999
 20
-4.050192
 10
2.167372999999999
 20
-4.049368
 10
2.147499999999999
 20
-4.048693
 10
2.128055999999999
 20
-4.048148
 10
2.109694999999999
 20
-4.047716
 10
2.093071
 20
-4.047377
 10
2.078688
 20
-4.047102999999999
 10
2.066453
 20
-4.046829999999999
 10
2.056122999999999
 20
-4.046480999999999
 10
2.047454
 20
-4.045983999999999
 10
2.040204999999999
 20
-4.045262
 10
2.034133
 20
-4.044241999999999
 10
2.028993999999999
 20
-4.042848
 10
2.024545999999999
 20
-4.041006999999999
 10
2.020579
 20
-4.038664999999999
 10
2.017014
 20
-4.035855999999999
 10
2.013802999999999
 20
-4.032637
 10
2.010901
 20
-4.029062999999999
 10
2.008259999999999
 20
-4.02519
 10
2.005834
 20
-4.021074999999999
 10
2.003575999999999
 20
-4.016773999999999
 10
2.001438999999999
 20
-4.012341
 10
1.999388999999999
 20
-4.007812
 10
1.997443
 20
-4.003133999999999
 10
1.995625999999999
 20
-3.998231999999999
 10
1.993968999999999
 20
-3.993031999999999
 10
1.992497999999999
 20
-3.987458
 10
1.991241999999999
 20
-3.981436
 10
1.990229
 20
-3.974891999999999
 10
1.989487
 20
-3.96775
 10
1.989013999999999
 20
-3.959948999999999
 10
1.98869
 20
-3.951475999999999
 10
1.988366
 20
-3.942332
 10
1.987893
 20
-3.932515
 10
1.987120999999999
 20
-3.922026999999999
 10
1.985900999999999
 20
-3.910866999999999
 10
1.984084
 20
-3.899033999999999
 10
1.981518999999999
 20
-3.88653
 10
1.978097
 20
-3.873364
 10
1.973862
 20
-3.859581999999999
 10
1.968899
 20
-3.84524
 10
1.963291999999999
 20
-3.830392999999999
 10
1.957124999999999
 20
-3.815099
 10
1.950481
 20
-3.799414
 10
1.943445
 20
-3.783391999999999
 10
1.936100999999999
 20
-3.76709
 10
1.92848
 20
-3.750547
 10
1.920401999999999
 20
-3.733733999999999
 10
1.911631999999999
 20
-3.716603
 10
1.901938
 20
-3.699108
 10
1.891085999999999
 20
-3.681203
 10
1.878842999999999
 20
-3.662841
 10
1.864975
 20
-3.643973999999999
 10
1.849249999999999
 20
-3.624556999999999
 10
1.831543999999999
 20
-3.604609999999999
 10
1.812186
 20
-3.584419999999999
 10
1.791614
 20
-3.564343
 10
1.770265999999999
 20
-3.544730999999999
 10
1.748583
 20
-3.525941
 10
1.727002
 20
-3.508326999999999
 10
1.705963
 20
-3.492243
 10
1.685904999999999
 20
-3.478044
 10
1.667177999999999
 20
-3.465980999999999
 10
1.649786999999999
 20
-3.455897
 10
1.633646999999999
 20
-3.44753
 10
1.618673999999999
 20
-3.440619
 10
1.604785
 20
-3.434901999999999
 10
1.591894
 20
-3.430118
 10
1.579919
 20
-3.426005999999999
 10
1.568775
 20
-3.422305
 10
1.558387999999999
 20
-3.418794999999999
 10
1.548729999999999
 20
-3.415424999999999
 10
1.539781999999999
 20
-3.412185
 10
1.531523999999999
 20
-3.409066999999999
 10
1.523938999999999
 20
-3.406061
 10
1.517006999999999
 20
-3.403156999999999
 10
1.510711
 20
-3.400347
 10
1.505029999999999
 20
-3.397619999999999
 10
1.499943
 20
-3.394962999999999
 10
1.495406
 20
-3.392333
 10
1.491373999999999
 20
-3.389683999999999
 10
1.487798999999999
 20
-3.386969999999999
 10
1.484636
 20
-3.384144
 10
1.481836
 20
-3.381159999999999
 10
1.479354
 20
-3.377969999999999
 10
1.477141999999999
 20
-3.374528999999999
 10
1.475173999999999
 20
-3.370733999999999
 10
1.473494
 20
-3.366266999999999
 10
1.47217
 20
-3.360755999999999
 10
1.471265999999999
 20
-3.353826
 10
1.470847
 20
-3.345104
 10
1.470978999999999
 20
-3.334216999999999
 10
1.471728
 20
-3.320793
 10
1.473157999999999
 20
-3.304456999999999
 10
1.475295
 20
-3.285042999999999
 10
1.478001
 20
-3.263211999999999
 10
1.4811
 20
-3.239832999999999
 10
1.484412999999999
 20
-3.215772
 10
1.487763999999999
 20
-3.191898
 10
1.490974
 20
-3.169077999999999
 10
1.493867
 20
-3.148181
 10
1.496266
 20
-3.130074
 10
1.498026999999999
 20
-3.115400999999999
 10
1.499152999999999
 20
-3.103912999999999
 10
1.499678999999999
 20
-3.095137999999999
 10
1.499641999999999
 20
-3.088602999999999
 10
1.499078
 20
-3.083834999999999
 10
1.498024
 20
-3.080362
 10
1.496515
 20
-3.077712
 10
1.494589999999999
 20
-3.075409999999999
 10
1.492245999999999
 20
-3.073050999999999
 10
1.489341
 20
-3.070486
 10
1.485691
 20
-3.067633
 10
1.481117
 20
-3.064409999999999
 10
1.475436
 20
-3.060733
 10
1.468468
 20
-3.056521
 10
1.460029999999999
 20
-3.051690999999999
 10
1.449943
 20
-3.046159999999999
 10
1.438099
 20
-3.039858999999999
 10
1.424692
 20
-3.032770999999999
 10
1.409987
 20
-3.02489
 10
1.394254
 20
-3.016211
 10
1.37776
 20
-3.00673
 10
1.360770999999999
 20
-2.996441999999999
 10
1.343555999999999
 20
-2.985341
 10
1.326381999999999
 20
-2.973423999999999
 10
1.309474999999999
 20
-2.960684
 10
1.292899999999999
 20
-2.947115999999999
 10
1.276677
 20
-2.932713999999999
 10
1.260831
 20
-2.91747
 10
1.245381999999999
 20
-2.901379
 10
1.230354999999999
 20
-2.884434
 10
1.215770999999999
 20
-2.866629
 10
1.201653
 20
-2.847955999999999
 10
1.187980999999999
 20
-2.828303
 10
1.174566999999999
 20
-2.807123999999999
 10
1.161179999999999
 20
-2.783765
 10
1.147591
 20
-2.757573999999999
 10
1.133569
 20
-2.727897
 10
1.118883999999999
 20
-2.694081999999999
 10
1.103304999999999
 20
-2.655475
 10
1.086602
 20
-2.611423999999999
 10
1.068632
 20
-2.561574999999999
 10
1.049594
 20
-2.506774
 10
1.029778
 20
-2.448166
 10
1.009468999999999
 20
-2.386899
 10
0.9889549999999999
 20
-2.324117999999999
 10
0.9685249999999999
 20
-2.260968
 10
0.948465
 20
-2.198595999999999
 10
0.929062
 20
-2.138147
 10
0.910537
 20
-2.080554999999999
 10
0.892839
 20
-2.025905999999999
 10
0.875849
 20
-1.974072999999999
 10
0.85945
 20
-1.924929999999999
 10
0.843524
 20
-1.878349
 10
0.8279519999999999
 20
-1.834204999999999
 10
0.812617
 20
-1.79237
 10
0.797399
 20
-1.752718999999999
 10
0.782175
 20
-1.715106
 10
0.7667930000000001
 20
-1.679313
 10
0.751094
 20
-1.645100999999999
 10
0.73492
 20
-1.612233999999999
 10
0.718112
 20
-1.580475
 10
0.7005140000000001
 20
-1.549584999999999
 10
0.681965
 20
-1.519329
 10
0.662308
 20
-1.489468
 10
0.641423
 20
-1.459818999999999
 10
0.6193400000000001
 20
-1.430417999999999
 10
0.5961300000000001
 20
-1.401353
 10
0.571861
 20
-1.372712999999999
 10
0.5466020000000001
 20
-1.344587999999999
 10
0.520423
 20
-1.317064999999999
 10
0.4933930000000001
 20
-1.290235
 10
0.4655820000000001
 20
-1.264185
 10
0.4370810000000001
 20
-1.239007999999999
 10
0.408076
 20
-1.214798999999999
 10
0.378774
 20
-1.191659
 10
0.349382
 20
-1.169685
 10
0.32011
 20
-1.148977
 10
0.291164
 20
-1.129632999999999
 10
0.262752
 20
-1.111752
 10
0.235083
 20
-1.095434
 10
0.208345
 20
-1.080734999999999
 10
0.182656
 20
-1.067537999999999
 10
0.158114
 20
-1.055686
 10
0.13482
 20
-1.04502
 10
0.112871
 20
-1.035382999999999
 10
0.092366
 20
-1.026615999999999
 10
0.073405
 20
-1.01856
 10
0.056087
 20
-1.011058999999999
 10
0.040408
 20
-1.003843
 10
0.025955
 20
-0.9962009999999999
 10
0.012215
 20
-0.9873139999999999
 10
-0.001327
 20
-0.97636
  0
LINE
  5
156BF
330
15596
100
AcDbEntity
  8
0
100
AcDbLine
 10
3.499824999999999
 20
0.0
 30
0.0
 11
0.0
 21
0.0
 31
0.0
  0
LINE
  5
156C0
330
15596
100
AcDbEntity
  8
0
100
AcDbLine
 10
0.0
 20
0.0
 30
0.0
 11
0.0
 21
-0.9774329999999999
 31
0.0
  0
LWPOLYLINE
  5
156C1
330
15596
100
AcDbEntity
  8
0
100
AcDbPolyline
 90
       65
 70
     0
 43
0.0
 10
3.499824999999999
 20
-0.7158640000000001
 10
3.214941999999999
 20
-0.7261760000000001
 10
2.947383999999999
 20
-0.7365070000000001
 10
2.722700999999999
 20
-0.745862
 10
2.535915
 20
-0.754355
 10
2.382048
 20
-0.762098
 10
2.256120999999999
 20
-0.769203
 10
2.153158
 20
-0.775784
 10
2.068179999999999
 20
-0.7819520000000001
 10
1.996808
 20
-0.78781
 10
1.937054999999999
 20
-0.7934180000000001
 10
1.887533
 20
-0.7988260000000001
 10
1.846854
 20
-0.8040829999999999
 10
1.813627999999999
 20
-0.8092409999999999
 10
1.786468999999999
 20
-0.8143489999999999
 10
1.763987
 20
-0.819457
 10
1.744795
 20
-0.824615
 10
1.7277
 20
-0.829875
 10
1.712293
 20
-0.8352969999999999
 10
1.698361999999999
 20
-0.840944
 10
1.685695
 20
-0.846879
 10
1.674077999999999
 20
-0.8531639999999999
 10
1.663297999999999
 20
-0.859861
 10
1.653145
 20
-0.8670339999999999
 10
1.643404
 20
-0.8747430000000001
 10
1.633904999999999
 20
-0.883209
 10
1.624643
 20
-0.893275
 10
1.615656999999999
 20
-0.90594
 10
1.606983
 20
-0.9222049999999999
 10
1.598659
 20
-0.9430700000000001
 10
1.590723999999999
 20
-0.9695339999999999
 10
1.583212999999999
 20
-1.002597999999999
 10
1.576165
 20
-1.04326
 10
1.56962
 20
-1.092046999999999
 10
1.563625
 20
-1.147583999999999
 10
1.55823
 20
-1.20802
 10
1.553486
 20
-1.271504999999999
 10
1.549441999999999
 20
-1.336190999999999
 10
1.546147999999999
 20
-1.400225999999999
 10
1.543655
 20
-1.461762
 10
1.542012
 20
-1.518947999999999
 10
1.541263999999999
 20
-1.570381
 10
1.541429
 20
-1.616438999999999
 10
1.542518999999999
 20
-1.657947
 10
1.544546999999999
 20
-1.695731
 10
1.547525999999999
 20
-1.730615
 10
1.551468
 20
-1.763424999999999
 10
1.556385
 20
-1.794983999999999
 10
1.562291
 20
-1.826118999999999
 10
1.569558999999999
 20
-1.857918999999999
 10
1.580016999999999
 20
-1.892536999999999
 10
1.595854
 20
-1.932393
 10
1.619256999999999
 20
-1.979904
 10
1.652415
 20
-2.037488999999999
 10
1.697518
 20
-2.107565999999999
 10
1.756754
 20
-2.192555
 10
1.832311999999999
 20
-2.294872999999999
 10
1.926406
 20
-2.416881999999999
 10
2.041348
 20
-2.560706
 10
2.179479999999999
 20
-2.728416
 10
2.343138
 20
-2.922079999999999
 10
2.534661999999999
 20
-3.143765999999999
 10
2.756390999999999
 20
-3.395542999999999
 10
3.010663999999999
 20
-3.679479
 10
3.248940999999999
 20
-3.941659999999999
  0
LINE
  5
15704
330
15596
100
AcDbEntity
  8
0
100
AcDbLine
 10
2.211011999999999
 20
-5.177278
 30
0.0
 11
3.248940999999999
 21
-5.177278
 31
0.0
  0
LINE
  5
15705
330
15596
100
AcDbEntity
  8
0
100
AcDbLine
 10
3.248940999999999
 20
-5.177278
 30
0.0
 11
3.248940999999999
 21
-3.941659999999999
 31
0.0
  0
LINE
  5
15706
330
15596
100
AcDbEntity
  8
0
100
AcDbLine
 10
3.499824999999999
 20
0.0
 30
0.0
 11
3.499824999999999
 21
-0.7158640000000001
 31
0.0
  0
ENDBLK
  5
15707
330
15596
100
AcDbEntity
  8
0
100
AcDbBlockEnd
  0
BLOCK
  5
157FE
330
157F3
100
AcDbEntity
  8
0
100
AcDbBlockBegin
  2
*D2
 70
     1
 10
0.0
 20
0.0
 30
0.0
  3
*D2
  1

  0
LINE
  5
158B0
330
157F3
100
AcDbEntity
  8
DIM
 62
     0
370
    -2
100
AcDbLine
 10
27.82789648967736
 20
23.59989236147573
 30
0.0
 11
27.82789648967736
 21
19.52153378288643
 31
0.0
  0
LINE
  5
158B1
330
157F3
100
AcDbEntity
  8
DIM
 62
     0
370
    -2
100
AcDbLine
 10
28.82792600586409
 20
23.59989236147573
 30
0.0
 11
28.82792600586409
 21
19.52153378288643
 31
0.0
  0
LINE
  5
158B2
330
157F3
100
AcDbEntity
  8
DIM
 62
     0
370
    -2
100
AcDbLine
 10
28.00789648967736
 20
19.70153378288643
 30
0.0
 11
28.6479260058641
 21
19.70153378288643
 31
0.0
  0
LINE
  5
158B3
330
157F3
100
AcDbEntity
  8
DIM
 62
     0
370
    -2
100
AcDbLine
 10
28.82792600586409
 20
19.70153378288643
 30
0.0
 11
29.0079260058641
 21
19.70153378288643
 31
0.0
  0
SOLID
  5
158B4
330
157F3
100
AcDbEntity
  8
DIM
 62
     0
100
AcDbTrace
 10
28.00789648967736
 20
19.73153378288643
 30
0.0
 11
28.00789648967736
 21
19.67153378288642
 31
0.0
 12
27.82789648967736
 22
19.70153378288643
 32
0.0
 13
27.82789648967736
 23
19.70153378288643
 33
0.0
  0
SOLID
  5
158B5
330
157F3
100
AcDbEntity
  8
DIM
 62
     0
100
AcDbTrace
 10
28.6479260058641
 20
19.73153378288643
 30
0.0
 11
28.6479260058641
 21
19.67153378288642
 31
0.0
 12
28.82792600586409
 22
19.70153378288643
 32
0.0
 13
28.82792600586409
 23
19.70153378288643
 33
0.0
  0
MTEXT
  5
158B6
330
157F3
100
AcDbEntity
  8
DIM
 62
     0
100
AcDbMText
 10
32.0979260058641
 20
19.70153378288643
 30
0.0
 40
1.5
 41
0.0
 71
     5
 72
     1
  1
\A1;1.0000
 73
     1
 44
1.0
  0
POINT
  5
158B7
330
157F3
100
AcDbEntity
  8
Defpoints
 62
     0
100
AcDbPoint
 10
27.82789648967736
 20
23.66239236147572
 30
0.0
  0
POINT
  5
158B8
330
157F3
100
AcDbEntity
  8
Defpoints
 62
     0
100
AcDbPoint
 10
28.82792600586409
 20
23.66239236147572
 30
0.0
  0
POINT
  5
158B9
330
157F3
100
AcDbEntity
  8
Defpoints
 62
     0
100
AcDbPoint
 10
28.82792600586409
 20
19.70153378288643
 30
0.0
  0
ENDBLK
  5
157FF
330
157F3
100
AcDbEntity
  8
0
100
AcDbBlockEnd
  0
BLOCK
  5
1582E
330
15823
100
AcDbEntity
  8
0
100
AcDbBlockBegin
  2
*D3
 70
     1
 10
0.0
 20
0.0
 30
0.0
  3
*D3
  1

  0
LINE
  5
158A6
330
15823
100
AcDbEntity
  8
DIM
 62
     0
370
    -2
100
AcDbLine
 10
28.82880947285208
 20
28.97486998616642
 30
0.0
 11
28.82880947285208
 21
33.89344406301392
 31
0.0
  0
LINE
  5
158A7
330
15823
100
AcDbEntity
  8
DIM
 62
     0
370
    -2
100
AcDbLine
 10
25.32880947285208
 20
28.97486998616642
 30
0.0
 11
25.32880947285208
 21
33.89344406301392
 31
0.0
  0
LINE
  5
158A8
330
15823
100
AcDbEntity
  8
DIM
 62
     0
370
    -2
100
AcDbLine
 10
28.64880947285208
 20
33.71344406301393
 30
0.0
 11
25.50880947285208
 21
33.71344406301393
 31
0.0
  0
LINE
  5
158A9
330
15823
100
AcDbEntity
  8
DIM
 62
     0
370
    -2
100
AcDbLine
 10
25.32880947285208
 20
33.71344406301393
 30
0.0
 11
25.14880947285208
 21
33.71344406301393
 31
0.0
  0
SOLID
  5
158AA
330
15823
100
AcDbEntity
  8
DIM
 62
     0
100
AcDbTrace
 10
28.64880947285208
 20
33.74344406301393
 30
0.0
 11
28.64880947285208
 21
33.68344406301392
 31
0.0
 12
28.82880947285208
 22
33.71344406301393
 32
0.0
 13
28.82880947285208
 23
33.71344406301393
 33
0.0
  0
SOLID
  5
158AB
330
15823
100
AcDbEntity
  8
DIM
 62
     0
100
AcDbTrace
 10
25.50880947285208
 20
33.74344406301393
 30
0.0
 11
25.50880947285208
 21
33.68344406301392
 31
0.0
 12
25.32880947285208
 22
33.71344406301393
 32
0.0
 13
25.32880947285208
 23
33.71344406301393
 33
0.0
  0
MTEXT
  5
158AC
330
15823
100
AcDbEntity
  8
DIM
 62
     0
100
AcDbMText
 10
21.68380947285208
 20
33.71344406301393
 30
0.0
 40
1.5
 41
0.0
 71
     5
 72
     1
  1
\A1;3.5000
 73
     1
 44
1.0
  0
POINT
  5
158AD
330
15823
100
AcDbEntity
  8
Defpoints
 62
     0
100
AcDbPoint
 10
28.82880947285208
 20
28.91236998616642
 30
0.0
  0
POINT
  5
158AE
330
15823
100
AcDbEntity
  8
Defpoints
 62
     0
100
AcDbPoint
 10
25.32880947285208
 20
28.91236998616642
 30
0.0
  0
POINT
  5
158AF
330
15823
100
AcDbEntity
  8
Defpoints
 62
     0
100
AcDbPoint
 10
25.32880947285208
 20
33.71344406301393
 30
0.0
  0
ENDBLK
  5
1582F
330
15823
100
AcDbEntity
  8
0
100
AcDbBlockEnd
  0
BLOCK
  5
1584A
330
1583F
100
AcDbEntity
  8
0
100
AcDbBlockBegin
  2
*D4
 70
     1
 10
0.0
 20
0.0
 30
0.0
  3
*D4
  1

  0
LINE
  5
1589C
330
1583F
100
AcDbEntity
  8
DIM
 62
     0
370
    -2
100
AcDbLine
 10
1.794421890405976
 20
23.66239236147572
 30
0.0
 11
-23.81486594997579
 21
23.66239236147573
 31
0.0
  0
LINE
  5
1589D
330
1583F
100
AcDbEntity
  8
DIM
 62
     0
370
    -2
100
AcDbLine
 10
1.794421894175991
 20
28.91236998616642
 30
0.0
 11
-23.81486594997579
 21
28.91236998616642
 31
0.0
  0
LINE
  5
1589E
330
1583F
100
AcDbEntity
  8
DIM
 62
     0
370
    -2
100
AcDbLine
 10
-23.6348659499758
 20
23.84239236147573
 30
0.0
 11
-23.63486594997579
 21
25.44738117382108
 31
0.0
  0
LINE
  5
1589F
330
1583F
100
AcDbEntity
  8
DIM
 62
     0
370
    -2
100
AcDbLine
 10
-23.63486594997579
 20
28.73236998616642
 30
0.0
 11
-23.63486594997579
 21
27.12738117382107
 31
0.0
  0
SOLID
  5
158A0
330
1583F
100
AcDbEntity
  8
DIM
 62
     0
100
AcDbTrace
 10
-23.6648659499758
 20
23.84239236147573
 30
0.0
 11
-23.60486594997579
 21
23.84239236147573
 31
0.0
 12
-23.6348659499758
 22
23.66239236147573
 32
0.0
 13
-23.6348659499758
 23
23.66239236147573
 33
0.0
  0
SOLID
  5
158A1
330
1583F
100
AcDbEntity
  8
DIM
 62
     0
100
AcDbTrace
 10
-23.66486594997579
 20
28.73236998616642
 30
0.0
 11
-23.60486594997579
 21
28.73236998616642
 31
0.0
 12
-23.63486594997579
 22
28.91236998616642
 32
0.0
 13
-23.63486594997579
 23
28.91236998616642
 33
0.0
  0
MTEXT
  5
158A2
330
1583F
100
AcDbEntity
  8
DIM
 62
     0
100
AcDbMText
 10
-23.6348659499758
 20
26.28738117382107
 30
0.0
 40
1.5
 41
0.0
 71
     5
 72
     1
  1
\A1;5.2500
 73
     1
 44
1.0
  0
POINT
  5
158A3
330
1583F
100
AcDbEntity
  8
Defpoints
 62
     0
100
AcDbPoint
 10
1.856921890405976
 20
23.66239236147572
 30
0.0
  0
POINT
  5
158A4
330
1583F
100
AcDbEntity
  8
Defpoints
 62
     0
100
AcDbPoint
 10
1.856921894175991
 20
28.91236998616642
 30
0.0
  0
POINT
  5
158A5
330
1583F
100
AcDbEntity
  8
Defpoints
 62
     0
100
AcDbPoint
 10
-23.63486594997579
 20
28.91236998616642
 30
0.0
  0
ENDBLK
  5
1584B
330
1583F
100
AcDbEntity
  8
0
100
AcDbBlockEnd
  0
ENDSEC
  0
SECTION
  2
ENTITIES
  0
ARC
  5
1575E
330
18
100
AcDbEntity
  8
0
100
AcDbCircle
 10
-17.06618616073694
 20
24.81389982777128
 30
0.0
 40
0.6736378432228634
100
AcDbArc
 50
357.7448456436403
 51
75.0282820993074
  0
LINE
  5
1575F
330
18
100
AcDbEntity
  8
0
100
AcDbLine
 10
-16.89215706660294
 20
25.77717000088683
 30
0.0
 11
-16.89215706660294
 21
25.46467000088683
 31
0.0
  0
LINE
  5
15760
330
18
100
AcDbEntity
  8
0
100
AcDbLine
 10
-16.14307004977766
 20
24.78739237619614
 30
0.0
 11
-16.39307004977766
 21
24.78739237619614
 31
0.0
  0
SPLINE
  5
15761
330
18
100
AcDbEntity
  8
0
100
AcDbSpline
210
0.0
220
0.0
230
1.0
 70
     8
 71
     3
 72
    11
 73
     7
 74
     5
 42
0.0000000001
 43
0.0000000001
 44
0.0000000001
 40
0.0
 40
0.0
 40
0.0
 40
0.0
 40
0.6645042763264125
 40
1.497307397878584
 40
2.152801910820616
 40
2.801729584574741
 40
2.801729584574741
 40
2.801729584574741
 40
2.801729584574741
 10
-18.64215706660294
 20
27.83967000088683
 30
0.0
 10
-18.43498715442537
 20
27.73833674875957
 30
0.0
 10
-17.96817745406317
 20
27.51000559504595
 30
0.0
 10
-17.75035555852092
 20
26.78276864467872
 30
0.0
 10
-17.48717780190453
 20
26.09494625844519
 30
0.0
 10
-17.08983052460074
 20
25.88273931633148
 30
0.0
 10
-16.89215706660294
 20
25.77717000088683
 30
0.0
 11
-18.64215706660294
 21
27.83967000088683
 31
0.0
 11
-18.08275038571803
 21
27.48101961591922
 31
0.0
 11
-17.72218212599278
 21
26.7303188970267
 31
0.0
 11
-17.42659159343366
 21
26.14525540170459
 31
0.0
 11
-16.89215706660294
 21
25.77717000088683
 31
0.0
  0
LINE
  5
15763
330
18
100
AcDbEntity
  8
0
100
AcDbLine
 10
-18.64215706660294
 20
28.91237000088683
 30
0.0
 11
-18.64215706660294
 21
27.83967000088683
 31
0.0
  0
ARC
  5
15765
330
18
100
AcDbEntity
  8
0
100
AcDbCircle
 10
-16.06619696191846
 20
24.22489237619614
 30
0.0
 40
0.3827982126878491
100
AcDbArc
 50
101.5848458535721
 51
258.4151541464279
  0
LINE
  5
15766
330
18
100
AcDbEntity
  8
0
100
AcDbLine
 10
-16.14307004977766
 20
24.59989237619614
 30
0.0
 11
-16.14307004977766
 21
24.78739237619614
 31
0.0
  0
LINE
  5
15767
330
18
100
AcDbEntity
  8
0
100
AcDbLine
 10
-16.14307004977766
 20
23.66239237619614
 30
0.0
 11
-16.14307004977766
 21
23.84989237619614
 31
0.0
  0
LINE
  5
15769
330
18
100
AcDbEntity
  8
0
100
AcDbLine
 10
-16.14307004977766
 20
23.66239237619614
 30
0.0
 11
19.85691383058962
 21
23.66239234675531
 31
0.0
  0
LINE
  5
1576B
330
18
100
AcDbEntity
  8
0
100
AcDbLine
 10
-18.64198157261899
 20
28.91237000088683
 30
0.0
 11
-18.64198157261899
 21
27.8622372070386
 31
0.0
  0
LINE
  5
15781
330
18
100
AcDbEntity
  8
0
100
AcDbLine
 10
28.82880947285208
 20
24.89800964336743
 30
0.0
 11
28.82880947285208
 21
23.66239236147572
 31
0.0
  0
ARC
  5
15782
330
18
100
AcDbEntity
  8
0
100
AcDbCircle
 10
26.90478037871808
 20
24.81389981305087
 30
0.0
 40
0.6736378432228634
100
AcDbArc
 50
357.7448456436404
 51
75.0282820993074
  0
LINE
  5
15783
330
18
100
AcDbEntity
  8
0
100
AcDbLine
 10
27.07880947285208
 20
25.77716998616642
 30
0.0
 11
27.07880947285208
 21
25.46466998616642
 31
0.0
  0
LINE
  5
15784
330
18
100
AcDbEntity
  8
0
100
AcDbLine
 10
27.82789648967736
 20
24.78739236147573
 30
0.0
 11
27.57789648967736
 21
24.78739236147573
 31
0.0
  0
SPLINE
  5
15785
330
18
100
AcDbEntity
  8
0
100
AcDbSpline
210
0.0
220
0.0
230
1.0
 70
     8
 71
     3
 72
    11
 73
     7
 74
     5
 42
0.0000000001
 43
0.0000000001
 44
0.0000000001
 40
0.0
 40
0.0
 40
0.0
 40
0.0
 40
0.6645042763264125
 40
1.497307397878584
 40
2.152801910820616
 40
2.801729584574741
 40
2.801729584574741
 40
2.801729584574741
 40
2.801729584574741
 10
25.32880947285208
 20
27.83966998616642
 30
0.0
 10
25.53597938502965
 20
27.73833673403916
 30
0.0
 10
26.00278908539185
 20
27.51000558032554
 30
0.0
 10
26.22061098093411
 20
26.78276862995832
 30
0.0
 10
26.48378873755048
 20
26.09494624372478
 30
0.0
 10
26.88113601485428
 20
25.88273930161107
 30
0.0
 10
27.07880947285208
 20
25.77716998616642
 30
0.0
 11
25.32880947285208
 21
27.83966998616642
 31
0.0
 11
25.88821615373699
 21
27.48101960119881
 31
0.0
 11
26.24878441346224
 21
26.73031888230628
 31
0.0
 11
26.54437494602137
 21
26.14525538698418
 31
0.0
 11
27.07880947285208
 21
25.77716998616642
 31
0.0
  0
LINE
  5
15786
330
18
100
AcDbEntity
  8
0
100
AcDbLine
 10
28.82880947285208
 20
28.91236998616642
 30
0.0
 11
27.07880947285208
 21
28.91236998616642
 31
0.0
  0
LINE
  5
15787
330
18
100
AcDbEntity
  8
0
100
AcDbLine
 10
25.32880947285208
 20
28.91236998616642
 30
0.0
 11
25.32880947285208
 21
27.83966998616642
 31
0.0
  0
LINE
  5
15788
330
18
100
AcDbEntity
  8
0
100
AcDbLine
 10
28.82880947285208
 20
28.91236998616642
 30
0.0
 11
25.32880947285208
 21
28.91236998616642
 31
0.0
  0
ARC
  5
15789
330
18
100
AcDbEntity
  8
0
100
AcDbCircle
 10
27.90476957753656
 20
24.22489236147573
 30
0.0
 40
0.3827982126878491
100
AcDbArc
 50
101.5848458535721
 51
258.4151541464279
  0
LINE
  5
1578A
330
18
100
AcDbEntity
  8
0
100
AcDbLine
 10
27.82789648967736
 20
24.59989236147573
 30
0.0
 11
27.82789648967736
 21
24.78739236147573
 31
0.0
  0
LINE
  5
1578B
330
18
100
AcDbEntity
  8
0
100
AcDbLine
 10
27.82789648967736
 20
23.66239236147572
 30
0.0
 11
27.82789648967736
 21
23.84989236147573
 31
0.0
  0
LWPOLYLINE
  5
1578C
330
18
100
AcDbEntity
  8
0
100
AcDbPolyline
 90
       65
 70
     0
 43
0.0
 10
28.82880947285208
 20
28.11472440016061
 10
28.79481015525604
 20
28.11349364587861
 10
28.52725268212942
 20
28.1031633953693
 10
28.30256977323922
 20
28.0938080486282
 10
28.11578357693753
 20
28.08531511690551
 10
27.96191624157645
 20
28.07757211145142
 10
27.83598991550805
 20
28.07046654351612
 10
27.73302674708443
 20
28.06388592434981
 10
27.64804888465766
 20
28.05771776520268
 10
27.57667673592049
 20
28.05185999292787
 10
27.51692374592832
 20
28.04625219679022
 10
27.4674016190772
 20
28.04084438165757
 10
27.42672205976318
 20
28.03558655239771
 10
27.39349677238231
 20
28.03042871387845
 10
27.36633746133064
 20
28.02532087096757
 10
27.34385583100426
 20
28.02021302853292
 10
27.32466358579919
 20
28.01505519144228
 10
27.30756837571845
 20
28.00979528138995
 10
27.29216163319289
 20
28.00437288737627
 10
27.27823073626033
 20
27.99872551522802
 10
27.26556306295857
 20
27.99279067077203
 10
27.25394599132543
 20
27.9865058598351
 10
27.24316689939872
 20
27.97980858824404
 10
27.23301316521625
 20
27.97263636182567
 10
27.22327216681583
 20
27.9649266864068
 10
27.21377297285012
 20
27.95646083289716
 10
27.20451141443121
 20
27.94639513253815
 10
27.19552501328606
 20
27.93372968165412
 10
27.1868512911416
 20
27.91746457656938
 10
27.17852776972477
 20
27.89659991360828
 10
27.17059197076252
 20
27.87013578909513
 10
27.1630814159818
 20
27.83707229935429
 10
27.15603362710955
 20
27.79640954071006
 10
27.14948821032738
 20
27.74762256377176
 10
27.14349310963559
 20
27.69208623628853
 10
27.13809835348916
 20
27.63165038029451
 10
27.13335397034301
 20
27.56816481782381
 10
27.12930998865215
 20
27.50347937091056
 10
27.12601643687153
 20
27.43944386158889
 10
27.12352334345611
 20
27.37790811189291
 10
27.12188073686086
 20
27.32072194385675
 10
27.12113239202673
 20
27.2692893890633
 10
27.12129706983862
 20
27.22323131729049
 10
27.12238727766743
 20
27.18172280786502
 10
27.12441552288402
 20
27.14393894011357
 10
27.12739431285931
 20
27.10905479336285
 10
27.13133615496417
 20
27.07624544693954
 10
27.1362535565695
 20
27.04468598017034
 10
27.14215902504617
 20
27.01355147238196
 10
27.14942777552075
 20
26.98175140343886
 10
27.15988585414243
 20
26.94713285535666
 10
27.17572201481607
 20
26.90727731068879
 10
27.19912501144655
 20
26.85976625198865
 10
27.23228359793871
 20
26.80218116180963
 10
27.27738652819743
 20
26.73210352270515
 10
27.33662255612756
 20
26.64711481722861
 10
27.41218043563398
 20
26.54479652793343
 10
27.50627393495616
 20
26.42278846509338
 10
27.62121687967211
 20
26.27896374986369
 10
27.75934810969444
 20
26.11125383111998
 10
27.92300646493581
 20
25.91759015773785
 10
28.11453078530881
 20
25.69590417859292
 10
28.33625991072608
 20
25.44412734256078
 10
28.59053268110024
 20
25.16019109851704
 10
28.82880947285208
 20
24.89800964336743
  0
LINE
  5
1578D
330
18
100
AcDbEntity
  8
0
100
AcDbLine
 10
27.82789648967736
 20
23.66239236147572
 30
0.0
 11
28.82792600586409
 21
23.66239236147572
 31
0.0
  0
LINE
  5
1578E
330
18
100
AcDbEntity
  8
0
100
AcDbLine
 10
28.82880947285208
 20
28.91236998616642
 30
0.0
 11
25.32898496683603
 21
28.91236998616642
 31
0.0
  0
LINE
  5
1578F
330
18
100
AcDbEntity
  8
0
100
AcDbLine
 10
25.32898496683603
 20
28.91236998616642
 30
0.0
 11
25.32898496683603
 21
27.86223719231819
 31
0.0
  0
LINE
  5
15790
330
18
100
AcDbEntity
  8
0
100
AcDbLine
 10
28.82880947285208
 20
28.91236998616642
 30
0.0
 11
28.82880947285208
 21
28.11472440016061
 31
0.0
  0
LINE
  5
157B6
330
18
100
AcDbEntity
  8
0
100
AcDbLine
 10
22.35582535343095
 20
28.91236997144601
 30
0.0
 11
22.35582535343095
 21
27.86223717759777
 31
0.0
  0
LINE
  5
157B7
330
18
100
AcDbEntity
  8
0
100
AcDbLine
 10
18.85600084741489
 20
28.91236997144601
 30
0.0
 11
22.35582535343095
 21
28.91236997144601
 31
0.0
  0
LINE
  5
157BA
330
18
100
AcDbEntity
  8
0
100
AcDbLine
 10
19.85691383058962
 20
23.66239234675531
 30
0.0
 11
19.85691383058962
 21
23.84989234675531
 31
0.0
  0
LINE
  5
157BB
330
18
100
AcDbEntity
  8
0
100
AcDbLine
 10
19.85691383058962
 20
24.59989234675531
 30
0.0
 11
19.85691383058962
 21
24.78739234675531
 31
0.0
  0
ARC
  5
157BC
330
18
100
AcDbEntity
  8
0
100
AcDbCircle
 10
19.78004074273042
 20
24.22489234675532
 30
0.0
 40
0.3827982126878491
100
AcDbArc
 50
281.5848458535721
 51
78.41515414642789
  0
LINE
  5
157BD
330
18
100
AcDbEntity
  8
0
100
AcDbLine
 10
-18.64215706660294
 20
28.91237000088684
 30
0.0
 11
22.35600084741489
 21
28.91236997144601
 31
0.0
  0
LINE
  5
157BE
330
18
100
AcDbEntity
  8
0
100
AcDbLine
 10
22.35600084741489
 20
28.91236997144601
 30
0.0
 11
22.35600084741489
 21
27.83966997144601
 31
0.0
  0
SPLINE
  5
157C0
330
18
100
AcDbEntity
  8
0
100
AcDbSpline
210
0.0
220
0.0
230
1.0
 70
     8
 71
     3
 72
    11
 73
     7
 74
     5
 42
0.0000000001
 43
0.0000000001
 44
0.0000000001
 40
0.0
 40
0.0
 40
0.0
 40
0.0
 40
0.6645042763264066
 40
1.497307397878581
 40
2.15280191082061
 40
2.80172958457474
 40
2.80172958457474
 40
2.80172958457474
 40
2.80172958457474
 10
22.35600084741489
 20
27.83966997144601
 30
0.0
 10
22.14883093523732
 20
27.73833671931874
 30
0.0
 10
21.68202123487512
 20
27.51000556560513
 30
0.0
 10
21.46419933933287
 20
26.7827686152379
 30
0.0
 10
21.2010215827165
 20
26.09494622900437
 30
0.0
 10
20.8036743054127
 20
25.88273928689066
 30
0.0
 10
20.60600084741489
 20
25.777169971446
 30
0.0
 11
22.35600084741489
 21
27.83966997144601
 31
0.0
 11
21.79659416652999
 21
27.48101958647839
 31
0.0
 11
21.43602590680473
 21
26.73031886758587
 31
0.0
 11
21.14043537424561
 21
26.14525537226376
 31
0.0
 11
20.60600084741489
 21
25.777169971446
 31
0.0
  0
LINE
  5
157C1
330
18
100
AcDbEntity
  8
0
100
AcDbLine
 10
19.85691383058962
 20
24.78739234675531
 30
0.0
 11
20.10691383058962
 21
24.78739234675531
 31
0.0
  0
LINE
  5
157C2
330
18
100
AcDbEntity
  8
0
100
AcDbLine
 10
20.60600084741489
 20
25.777169971446
 30
0.0
 11
20.60600084741489
 21
25.464669971446
 31
0.0
  0
ARC
  5
157C3
330
18
100
AcDbEntity
  8
0
100
AcDbCircle
 10
20.78002994154889
 20
24.81389979833045
 30
0.0
 40
0.6736378432228634
100
AcDbArc
 50
104.9717179006925
 51
182.2551543563597
  0
LINE
  5
157C5
330
18
100
AcDbEntity
  8
0
100
AcDbLine
 10
-18.64215706660294
 20
27.83967000088683
 30
0.0
 11
22.35582535343095
 21
27.83967000088683
 31
0.0
  0
LINE
  5
157C6
330
18
100
AcDbEntity
  8
0
100
AcDbLine
 10
-16.89215706660294
 20
25.77717000088683
 30
0.0
 11
20.60600084741489
 21
25.77717000088683
 31
0.0
  0
LINE
  5
157C7
330
18
100
AcDbEntity
  8
0
100
AcDbLine
 10
-16.89215706660295
 20
25.46467000088684
 30
0.0
 11
20.60600084741489
 21
25.464669971446
 31
0.0
  0
LINE
  5
157C8
330
18
100
AcDbEntity
  8
0
100
AcDbLine
 10
-16.14307004977766
 20
24.78739237619614
 30
0.0
 11
19.85691383058962
 21
24.78739234675531
 31
0.0
  0
LINE
  5
157C9
330
18
100
AcDbEntity
  8
0
100
AcDbLine
 10
-16.14307004977766
 20
24.59989237619614
 30
0.0
 11
19.85691383058962
 21
24.59989234675531
 31
0.0
  0
LINE
  5
157CA
330
18
100
AcDbEntity
  8
0
100
AcDbLine
 10
-16.14307004977766
 20
23.84989237619614
 30
0.0
 11
19.85691383058962
 21
23.84989234675531
 31
0.0
  0
DIMENSION
  5
157F2
330
18
100
AcDbEntity
  8
DIM
100
AcDbDimension
  2
*D2
 10
28.82792600586409
 20
19.70153378288643
 30
0.0
 11
32.0979260058641
 21
19.70153378288643
 31
0.0
 70
    32
 71
     5
 42
1.000029516186735
  3
STANDARD
100
AcDbAlignedDimension
 13
27.82789648967736
 23
23.66239236147572
 33
0.0
 14
28.82792600586409
 24
23.66239236147572
 34
0.0
100
AcDbRotatedDimension
  0
DIMENSION
  5
15822
330
18
100
AcDbEntity
  8
DIM
100
AcDbDimension
  2
*D3
 10
25.32880947285208
 20
33.71344406301393
 30
0.0
 11
21.68380947285208
 21
33.71344406301393
 31
0.0
 70
    32
 71
     5
 42
3.5
  3
STANDARD
100
AcDbAlignedDimension
 13
28.82880947285208
 23
28.91236998616642
 33
0.0
 14
25.32880947285208
 24
28.91236998616642
 34
0.0
100
AcDbRotatedDimension
  0
DIMENSION
  5
1583E
330
18
100
AcDbEntity
  8
DIM
100
AcDbDimension
  2
*D4
 10
-23.63486594997579
 20
28.91236998616642
 30
0.0
 11
-23.6348659499758
 21
26.28738117382107
 31
0.0
 70
    32
 71
     5
 42
5.249977624690693
  3
STANDARD
100
AcDbAlignedDimension
 13
1.856921890405976
 23
23.66239236147572
 33
0.0
 14
1.856921894175991
 24
28.91236998616642
 34
0.0
 50
90.0
100
AcDbRotatedDimension
  0
LINE
  5
1584C
330
18
100
AcDbEntity
  8
DIM
100
AcDbLine
 10
-16.14307004977766
 20
23.59989236147573
 30
0.0
 11
-16.14307004977766
 21
19.603474806737
 31
0.0
  0
LINE
  5
1584D
330
18
100
AcDbEntity
  8
DIM
100
AcDbLine
 10
19.85691383058962
 20
23.59989234675531
 30
0.0
 11
19.85691383058962
 21
19.603474806737
 31
0.0
  0
LINE
  5
1584E
330
18
100
AcDbEntity
  8
DIM
100
AcDbLine
 10
-15.96307004977767
 20
19.783474806737
 30
0.0
 11
-2.233078109594023
 21
19.783474806737
 31
0.0
  0
LINE
  5
1584F
330
18
100
AcDbEntity
  8
DIM
100
AcDbLine
 10
19.67691383058962
 20
19.783474806737
 30
0.0
 11
5.946921890405976
 21
19.783474806737
 31
0.0
  0
SOLID
  5
15850
330
18
100
AcDbEntity
  8
DIM
100
AcDbTrace
 10
-15.96307004977767
 20
19.813474806737
 30
0.0
 11
-15.96307004977767
 21
19.753474806737
 31
0.0
 12
-16.14307004977766
 22
19.783474806737
 32
0.0
 13
-16.14307004977766
 23
19.783474806737
 33
0.0
  0
SOLID
  5
15851
330
18
100
AcDbEntity
  8
DIM
100
AcDbTrace
 10
19.67691383058962
 20
19.813474806737
 30
0.0
 11
19.67691383058962
 21
19.753474806737
 31
0.0
 12
19.85691383058962
 22
19.783474806737
 32
0.0
 13
19.85691383058962
 23
19.783474806737
 33
0.0
  0
MTEXT
  5
15852
330
18
100
AcDbEntity
  8
DIM
100
AcDbMText
 10
1.856921890405976
 20
19.783474806737
 30
0.0
 40
1.5
 41
0.0
 71
     5
 72
     1
  1
L/W
 73
     1
 44
1.0
  0
VIEWPORT
  5
157E7
330
15
100
AcDbEntity
 67
     1
  8
0
100
AcDbViewport
 10
5.985947864494722
 20
3.999999883606677
 30
0.0
 40
17.78044521163065
 41
8.992999745766947
 68
     2
 69
     1
 12
5.985947864494722
 22
3.999999883606677
 13
0.0
 23
0.0
 14
10.0
 24
10.0
 15
10.0
 25
10.0
 16
0.0
 26
0.0
 36
1.0
 17
0.0
 27
0.0
 37
0.0
 42
50.0
 43
0.0
 44
0.0
 45
8.992999745766947
 50
0.0
 51
0.0
 72
   100
 90
    32800
  1

281
     0
 71
     1
 74
     0
110
0.0
120
0.0
130
0.0
111
1.0
121
0.0
131
0.0
112
0.0
122
1.0
132
0.0
 79
     0
146
0.0
170
     0
  0
VIEWPORT
  5
157E9
330
15
100
AcDbEntity
 67
     1
  8
0
100
AcDbViewport
 10
5.24999976158142
 20
3.99999976158142
 30
0.0
 40
8.399999618530271
 41
6.399999618530272
 68
     1
 69
     2
 12
4.426841846390139
 22
24.24335401609206
 13
0.0
 23
0.0
 14
0.5
 24
0.5
 15
0.5
 25
0.5
 16
0.0
 26
0.0
 36
1.0
 17
0.0
 27
0.0
 37
0.0
 42
50.0
 43
0.0
 44
0.0
 45
51.53605175663195
 50
0.0
 51
0.0
 72
   100
 90
    32800
  1

281
     0
 71
     1
 74
     0
110
0.0
120
0.0
130
0.0
111
1.0
121
0.0
131
0.0
112
0.0
122
1.0
132
0.0
 79
     0
146
0.0
170
     0
  0
ENDSEC
  0
SECTION
  2
OBJECTS
  0
DICTIONARY
  5
C
330
0
100
AcDbDictionary
281
     1
  3
ACAD_COLOR
350
15715
  3
ACAD_GROUP
350
D
  3
ACAD_IMAGE_DICT
350
21
  3
ACAD_IMAGE_VARS
350
20
  3
ACAD_LAYOUT
350
15716
  3
ACAD_MATERIAL
350
15714
  3
ACAD_MLINESTYLE
350
1B
  3
ACAD_PLOTSETTINGS
350
15717
  3
ACAD_PLOTSTYLENAME
350
15712
  0
DICTIONARY
  5
15715
102
{ACAD_REACTORS
330
C
102
}
330
C
100
AcDbDictionary
281
     1
  0
DICTIONARY
  5
D
102
{ACAD_REACTORS
330
C
102
}
330
C
100
AcDbDictionary
281
     1
  0
DICTIONARY
  5
21
102
{ACAD_REACTORS
330
C
102
}
330
C
100
AcDbDictionary
281
     1
  3
6111
350
14E15
  0
RASTERVARIABLES
  5
20
102
{ACAD_REACTORS
330
C
102
}
330
C
100
AcDbRasterVariables
 90
        0
 70
     1
 71
     1
 72
     0
  0
DICTIONARY
  5
15716
102
{ACAD_REACTORS
330
C
102
}
330
C
100
AcDbDictionary
281
     1
  3
Layout1
350
15719
  3
Model
350
15718
  0
DICTIONARY
  5
15714
102
{ACAD_REACTORS
330
C
102
}
330
C
100
AcDbDictionary
281
     1
  0
DICTIONARY
  5
1B
102
{ACAD_REACTORS
330
C
102
}
330
C
100
AcDbDictionary
281
     1
  3
STANDARD
350
1C
  0
DICTIONARY
  5
15717
102
{ACAD_REACTORS
330
C
102
}
330
C
100
AcDbDictionary
281
     1
  0
ACDBDICTIONARYWDFLT
  5
15712
102
{ACAD_REACTORS
330
C
102
}
330
C
100
AcDbDictionary
281
     1
  3
Normal
350
15713
100
AcDbDictionaryWithDefault
340
15713
  0
IMAGEDEF
  5
14E15
102
{ACAD_REACTORS
330
21
102
}
330
21
100
AcDbRasterImageDef
 90
        0
  1
U:\TPDWG\MichelQ\6111.tif
 10
3060.0
 20
3718.0
 11
0.070556
 21
0.070556
280
     1
281
     5
  0
LAYOUT
  5
15719
102
{ACAD_REACTORS
330
15716
102
}
330
15716
100
AcDbPlotSettings
  1

  2
none_device
  4
Letter_(8.50_x_11.00_Inches)
  6

 40
6.349999904632568
 41
6.349999904632568
 42
6.350006103515625
 43
6.350006103515625
 44
215.8999938964844
 45
279.3999938964844
 46
0.0
 47
0.0
 48
0.0
 49
0.0
140
0.0
141
0.0
142
1.0
143
1.0
 70
   688
 72
     0
 73
     1
 74
     5
  7

 75
    16
147
1.0
 76
     1
 77
     2
 78
   300
148
0.0
149
0.0
100
AcDbLayout
  1
Layout1
 70
     1
 71
     1
 10
-0.2500002402958907
 20
-0.2499999962453767
 11
10.74999951940821
 21
8.249999763458731
 12
0.0
 22
0.0
 32
0.0
 14
1.049999952316284
 24
0.7999999523162842
 34
0.0
 15
9.449999570846555
 25
7.199999570846556
 35
0.0
146
0.0
 13
0.0
 23
0.0
 33
0.0
 16
1.0
 26
0.0
 36
0.0
 17
0.0
 27
1.0
 37
0.0
 76
     0
330
15
331
157E9
  0
LAYOUT
  5
15718
102
{ACAD_REACTORS
330
15716
102
}
330
15716
100
AcDbPlotSettings
  1

  2
Epson Stylus COLOR 400 ESC/P 2
  4

  6

 40
0.0
 41
0.0
 42
0.0
 43
0.0
 44
0.0
 45
0.0
 46
0.0
 47
0.0
 48
0.0
 49
0.0
140
0.0
141
0.0
142
1.0
143
1.0
 70
  1712
 72
     0
 73
     0
 74
     0
  7

 75
     0
147
1.0
 76
     0
 77
     2
 78
   300
148
0.0
149
0.0
100
AcDbLayout
  1
Model
 70
     1
 71
     0
 10
0.0
 20
0.0
 11
12.0
 21
9.0
 12
0.0
 22
0.0
 32
0.0
 14
0.0
 24
0.0
 34
0.0
 15
0.0
 25
0.0
 35
0.0
146
0.0
 13
0.0
 23
0.0
 33
0.0
 16
1.0
 26
0.0
 36
0.0
 17
0.0
 27
1.0
 37
0.0
 76
     0
330
18
  0
MLINESTYLE
  5
1C
102
{ACAD_REACTORS
330
1B
102
}
330
1B
100
AcDbMlineStyle
  2
STANDARD
 70
     0
  3

 62
   256
 51
90.0
 52
90.0
 71
     2
 49
0.5
 62
   256
  6
BYLAYER
 49
-0.5
 62
   256
  6
BYLAYER
  0
ACDBPLACEHOLDER
  5
15713
102
{ACAD_REACTORS
330
15712
102
}
330
15712
  0
ENDSEC
  0
EOF
