  0
SECTION
  2
HEADER
  9
$ACADVER
  1
AC1018
  9
$ACADMAINTVER
 70
     0
  9
$DWGCODEPAGE
  3
ANSI_1252
  9
$INSBASE
 10
0.0
 20
0.0
 30
0.0
  9
$EXTMIN
 10
-41.39836034505733
 20
-2.578615675189621
 30
0.0
  9
$EXTMAX
 10
12.47349294999893
 20
7.418743228718754
 30
0.0
  9
$LIMMIN
 10
0.0
 20
0.0
  9
$LIMMAX
 10
12.0
 20
9.0
  9
$ORTHOMODE
 70
     0
  9
$REGENMODE
 70
     1
  9
$FILLMODE
 70
     1
  9
$QTEXTMODE
 70
     0
  9
$MIRRTEXT
 70
     1
  9
$LTSCALE
 40
1.0
  9
$ATTMODE
 70
     1
  9
$TEXTSIZE
 40
0.2
  9
$TRACEWID
 40
0.05
  9
$TEXTSTYLE
  7
STANDARD
  9
$CLAYER
  8
0
  9
$CELTYPE
  6
BYLAYER
  9
$CECOLOR
 62
   256
  9
$CELTSCALE
 40
1.0
  9
$DISPSILH
 70
     0
  9
$DIMSCALE
 40
1.0
  9
$DIMASZ
 40
0.18
  9
$DIMEXO
 40
0.0625
  9
$DIMDLI
 40
0.38
  9
$DIMRND
 40
0.0
  9
$DIMDLE
 40
0.0
  9
$DIMEXE
 40
0.18
  9
$DIMTP
 40
0.0
  9
$DIMTM
 40
0.0
  9
$DIMTXT
 40
1.0
  9
$DIMCEN
 40
0.09
  9
$DIMTSZ
 40
0.0
  9
$DIMTOL
 70
     0
  9
$DIMLIM
 70
     0
  9
$DIMTIH
 70
     1
  9
$DIMTOH
 70
     1
  9
$DIMSE1
 70
     0
  9
$DIMSE2
 70
     0
  9
$DIMTAD
 70
     0
  9
$DIMZIN
 70
     0
  9
$DIMBLK
  1

  9
$DIMASO
 70
     1
  9
$DIMSHO
 70
     1
  9
$DIMPOST
  1

  9
$DIMAPOST
  1

  9
$DIMALT
 70
     0
  9
$DIMALTD
 70
     2
  9
$DIMALTF
 40
25.4
  9
$DIMLFAC
 40
1.0
  9
$DIMTOFL
 70
     0
  9
$DIMTVP
 40
0.0
  9
$DIMTIX
 70
     0
  9
$DIMSOXD
 70
     0
  9
$DIMSAH
 70
     0
  9
$DIMBLK1
  1

  9
$DIMBLK2
  1

  9
$DIMSTYLE
  2
STANDARD
  9
$DIMCLRD
 70
     0
  9
$DIMCLRE
 70
     0
  9
$DIMCLRT
 70
     0
  9
$DIMTFAC
 40
1.0
  9
$DIMGAP
 40
0.09
  9
$DIMJUST
 70
     0
  9
$DIMSD1
 70
     0
  9
$DIMSD2
 70
     0
  9
$DIMTOLJ
 70
     1
  9
$DIMTZIN
 70
     0
  9
$DIMALTZ
 70
     0
  9
$DIMALTTZ
 70
     0
  9
$DIMUPT
 70
     0
  9
$DIMDEC
 70
     4
  9
$DIMTDEC
 70
     4
  9
$DIMALTU
 70
     2
  9
$DIMALTTD
 70
     2
  9
$DIMTXSTY
  7
STANDARD
  9
$DIMAUNIT
 70
     0
  9
$DIMADEC
 70
     0
  9
$DIMALTRND
 40
0.0
  9
$DIMAZIN
 70
     0
  9
$DIMDSEP
 70
    46
  9
$DIMATFIT
 70
     3
  9
$DIMFRAC
 70
     0
  9
$DIMLDRBLK
  1

  9
$DIMLUNIT
 70
     2
  9
$DIMLWD
 70
    -2
  9
$DIMLWE
 70
    -2
  9
$DIMTMOVE
 70
     0
  9
$LUNITS
 70
     2
  9
$LUPREC
 70
     4
  9
$SKETCHINC
 40
0.1
  9
$FILLETRAD
 40
0.0
  9
$AUNITS
 70
     0
  9
$AUPREC
 70
     0
  9
$MENU
  1
.
  9
$ELEVATION
 40
0.0
  9
$PELEVATION
 40
0.0
  9
$THICKNESS
 40
0.0
  9
$LIMCHECK
 70
     0
  9
$CHAMFERA
 40
0.5
  9
$CHAMFERB
 40
0.5
  9
$CHAMFERC
 40
1.0
  9
$CHAMFERD
 40
0.0
  9
$SKPOLY
 70
     0
  9
$TDCREATE
 40
2451160.360457639
  9
$TDUCREATE
 40
2451160.527124306
  9
$TDUPDATE
 40
2453489.600859271
  9
$TDUUPDATE
 40
2453489.767525938
  9
$TDINDWG
 40
0.4525669213
  9
$TDUSRTIMER
 40
0.4525669213
  9
$USRTIMER
 70
     1
  9
$ANGBASE
 50
0.0
  9
$ANGDIR
 70
     0
  9
$PDMODE
 70
     3
  9
$PDSIZE
 40
0.01
  9
$PLINEWID
 40
0.0
  9
$SPLFRAME
 70
     0
  9
$SPLINETYPE
 70
     6
  9
$SPLINESEGS
 70
     8
  9
$HANDSEED
  5
1553A
  9
$SURFTAB1
 70
     6
  9
$SURFTAB2
 70
     6
  9
$SURFTYPE
 70
     6
  9
$SURFU
 70
     6
  9
$SURFV
 70
     6
  9
$UCSBASE
  2

  9
$UCSNAME
  2

  9
$UCSORG
 10
0.0
 20
0.0
 30
0.0
  9
$UCSXDIR
 10
1.0
 20
0.0
 30
0.0
  9
$UCSYDIR
 10
0.0
 20
1.0
 30
0.0
  9
$UCSORTHOREF
  2

  9
$UCSORTHOVIEW
 70
     0
  9
$UCSORGTOP
 10
0.0
 20
0.0
 30
0.0
  9
$UCSORGBOTTOM
 10
0.0
 20
0.0
 30
0.0
  9
$UCSORGLEFT
 10
0.0
 20
0.0
 30
0.0
  9
$UCSORGRIGHT
 10
0.0
 20
0.0
 30
0.0
  9
$UCSORGFRONT
 10
0.0
 20
0.0
 30
0.0
  9
$UCSORGBACK
 10
0.0
 20
0.0
 30
0.0
  9
$PUCSBASE
  2

  9
$PUCSNAME
  2

  9
$PUCSORG
 10
0.0
 20
0.0
 30
0.0
  9
$PUCSXDIR
 10
1.0
 20
0.0
 30
0.0
  9
$PUCSYDIR
 10
0.0
 20
1.0
 30
0.0
  9
$PUCSORTHOREF
  2

  9
$PUCSORTHOVIEW
 70
     0
  9
$PUCSORGTOP
 10
0.0
 20
0.0
 30
0.0
  9
$PUCSORGBOTTOM
 10
0.0
 20
0.0
 30
0.0
  9
$PUCSORGLEFT
 10
0.0
 20
0.0
 30
0.0
  9
$PUCSORGRIGHT
 10
0.0
 20
0.0
 30
0.0
  9
$PUCSORGFRONT
 10
0.0
 20
0.0
 30
0.0
  9
$PUCSORGBACK
 10
0.0
 20
0.0
 30
0.0
  9
$USERI1
 70
     0
  9
$USERI2
 70
     0
  9
$USERI3
 70
     0
  9
$USERI4
 70
     0
  9
$USERI5
 70
     0
  9
$USERR1
 40
0.0
  9
$USERR2
 40
0.0
  9
$USERR3
 40
0.0
  9
$USERR4
 40
0.0
  9
$USERR5
 40
0.0
  9
$WORLDVIEW
 70
     1
  9
$SHADEDGE
 70
     3
  9
$SHADEDIF
 70
    70
  9
$TILEMODE
 70
     1
  9
$MAXACTVP
 70
    48
  9
$PINSBASE
 10
0.0
 20
0.0
 30
0.0
  9
$PLIMCHECK
 70
     0
  9
$PEXTMIN
 10
1.049636599258096
 20
0.7996597240971113
 30
-0.0015258207003583
  9
$PEXTMAX
 10
9.450362731076971
 20
7.200340082697458
 30
0.0000000349246037
  9
$PLIMMIN
 10
-0.2500002402958907
 20
-0.2499999962453767
  9
$PLIMMAX
 10
10.74999951940821
 20
8.249999763458731
  9
$UNITMODE
 70
     0
  9
$VISRETAIN
 70
     1
  9
$PLINEGEN
 70
     0
  9
$PSLTSCALE
 70
     1
  9
$TREEDEPTH
 70
  3020
  9
$CMLSTYLE
  2
STANDARD
  9
$CMLJUST
 70
     0
  9
$CMLSCALE
 40
1.0
  9
$PROXYGRAPHICS
 70
     1
  9
$MEASUREMENT
 70
     0
  9
$CELWEIGHT
370
    -1
  9
$ENDCAPS
280
     0
  9
$JOINSTYLE
280
     0
  9
$LWDISPLAY
290
     0
  9
$INSUNITS
 70
     0
  9
$HYPERLINKBASE
  1

  9
$STYLESHEET
  1

  9
$XEDIT
290
     1
  9
$CEPSNTYPE
380
     0
  9
$PSTYLEMODE
290
     1
  9
$FINGERPRINTGUID
  2
{F2E7B460-021F-11D4-AC08-00A0C92A913F}
  9
$VERSIONGUID
  2
{05C2EDD9-35FC-4CCF-BE18-D6876EA45404}
  9
$EXTNAMES
290
     1
  9
$PSVPSCALE
 40
0.0
  9
$OLESTARTUP
290
     0
  9
$SORTENTS
280
   127
  9
$INDEXCTL
280
     0
  9
$HIDETEXT
280
     0
  9
$XCLIPFRAME
290
     0
  9
$HALOGAP
280
     0
  9
$OBSCOLOR
 70
   257
  9
$OBSLTYPE
280
     0
  9
$INTERSECTIONDISPLAY
280
     0
  9
$INTERSECTIONCOLOR
 70
   257
  9
$DIMASSOC
280
     1
  9
$PROJECTNAME
  1

  0
ENDSEC
  0
SECTION
  2
CLASSES
  0
CLASS
  1
RASTERVARIABLES
  2
AcDbRasterVariables
  3
ISM
 90
        0
 91
        1
280
     0
281
     0
  0
CLASS
  1
IMAGEDEF
  2
AcDbRasterImageDef
  3
ISM
 90
        0
 91
        2
280
     0
281
     0
  0
CLASS
  1
IMAGEDEF_REACTOR
  2
AcDbRasterImageDefReactor
  3
ISM
 90
        1
 91
        0
280
     0
281
     0
  0
CLASS
  1
IMAGE
  2
AcDbRasterImage
  3
ISM
 90
      127
 91
        0
280
     0
281
     1
  0
CLASS
  1
ACDBDICTIONARYWDFLT
  2
AcDbDictionaryWithDefault
  3
ObjectDBX Classes
 90
        0
 91
        1
280
     0
281
     0
  0
ENDSEC
  0
SECTION
  2
TABLES
  0
TABLE
  2
VPORT
  5
8
330
0
100
AcDbSymbolTable
 70
     2
  0
VPORT
  5
15539
330
8
100
AcDbSymbolTableRecord
100
AcDbViewportTableRecord
  2
*Active
 70
     0
 10
0.0
 20
0.0
 11
1.0
 21
1.0
 12
-14.54449073288249
 22
0.4534005627220381
 13
0.0
 23
0.0
 14
0.5
 24
0.5
 15
0.5
 25
0.5
 16
0.0
 26
0.0
 36
1.0
 17
0.0
 27
0.0
 37
0.0
 40
31.48002600249134
 41
1.977142857142857
 42
50.0
 43
0.0
 44
0.0
 50
0.0
 51
0.0
 71
     0
 72
   100
 73
     1
 74
     1
 75
     0
 76
     0
 77
     0
 78
     0
281
     0
 65
     1
110
0.0
120
0.0
130
0.0
111
1.0
121
0.0
131
0.0
112
0.0
122
1.0
132
0.0
 79
     0
146
0.0
  0
ENDTAB
  0
TABLE
  2
LTYPE
  5
5
330
0
100
AcDbSymbolTable
 70
     1
  0
LTYPE
  5
12
330
5
100
AcDbSymbolTableRecord
100
AcDbLinetypeTableRecord
  2
BYBLOCK
 70
     0
  3

 72
    65
 73
     0
 40
0.0
  0
LTYPE
  5
13
330
5
100
AcDbSymbolTableRecord
100
AcDbLinetypeTableRecord
  2
BYLAYER
 70
     0
  3

 72
    65
 73
     0
 40
0.0
  0
LTYPE
  5
14
330
5
100
AcDbSymbolTableRecord
100
AcDbLinetypeTableRecord
  2
CONTINUOUS
 70
     0
  3
Solid line
 72
    65
 73
     0
 40
0.0
  0
ENDTAB
  0
TABLE
  2
LAYER
  5
2
330
0
100
AcDbSymbolTable
 70
     3
  0
LAYER
  5
E
330
2
100
AcDbSymbolTableRecord
100
AcDbLayerTableRecord
  2
0
 70
     0
 62
     7
  6
CONTINUOUS
370
    -3
390
15227
  0
LAYER
  5
1539A
330
2
100
AcDbSymbolTableRecord
100
AcDbLayerTableRecord
  2
Defpoints
 70
     0
 62
     7
  6
CONTINUOUS
290
     0
370
    -3
390
15227
  0
LAYER
  5
1551B
330
2
100
AcDbSymbolTableRecord
100
AcDbLayerTableRecord
  2
DIM
 70
     0
 62
    -3
  6
CONTINUOUS
370
    -3
390
15227
  0
ENDTAB
  0
TABLE
  2
STYLE
  5
3
330
0
100
AcDbSymbolTable
 70
     1
  0
STYLE
  5
F
330
3
100
AcDbSymbolTableRecord
100
AcDbTextStyleTableRecord
  2
STANDARD
 70
     0
 40
0.0
 41
1.0
 50
0.0
 71
     0
 42
0.2
  3
txt
  4

  0
ENDTAB
  0
TABLE
  2
VIEW
  5
6
330
0
100
AcDbSymbolTable
 70
     0
  0
ENDTAB
  0
TABLE
  2
UCS
  5
7
330
0
100
AcDbSymbolTable
 70
     0
  0
ENDTAB
  0
TABLE
  2
APPID
  5
9
330
0
100
AcDbSymbolTable
 70
     1
  0
APPID
  5
10
330
9
100
AcDbSymbolTableRecord
100
AcDbRegAppTableRecord
  2
ACAD
 70
     0
  0
ENDTAB
  0
TABLE
  2
DIMSTYLE
  5
A
330
0
100
AcDbSymbolTable
 70
     1
100
AcDbDimStyleTable
 71
     1
340
1D
  0
DIMSTYLE
105
1D
102
{ACAD_REACTORS
330
154E4
330
15503
102
}
330
A
100
AcDbSymbolTableRecord
100
AcDbDimStyleTableRecord
  2
STANDARD
 70
     0
140
1.0
340
F
  0
ENDTAB
  0
TABLE
  2
BLOCK_RECORD
  5
1
330
0
100
AcDbSymbolTable
 70
     4
  0
BLOCK_RECORD
  5
18
102
{ACAD_XDICTIONARY
360
1531D
102
}
330
1
100
AcDbSymbolTableRecord
100
AcDbBlockTableRecord
  2
*MODEL_SPACE
340
1522A
  0
BLOCK_RECORD
  5
15
102
{ACAD_XDICTIONARY
360
1531B
102
}
330
1
100
AcDbSymbolTableRecord
100
AcDbBlockTableRecord
  2
*PAPER_SPACE
340
1522B
  0
BLOCK_RECORD
  5
15364
330
1
100
AcDbSymbolTableRecord
100
AcDbBlockTableRecord
  2
6150_C
340
0
  0
BLOCK_RECORD
  5
15387
330
1
100
AcDbSymbolTableRecord
100
AcDbBlockTableRecord
  2
6150_E
340
0
  0
BLOCK_RECORD
  5
154E5
330
1
100
AcDbSymbolTableRecord
100
AcDbBlockTableRecord
  2
*D2
340
0
  0
BLOCK_RECORD
  5
15504
330
1
100
AcDbSymbolTableRecord
100
AcDbBlockTableRecord
  2
*D3
340
0
  0
ENDTAB
  0
ENDSEC
  0
SECTION
  2
BLOCKS
  0
BLOCK
  5
19
330
18
100
AcDbEntity
  8
0
100
AcDbBlockBegin
  2
*MODEL_SPACE
 70
     0
 10
0.0
 20
0.0
 30
0.0
  3
*MODEL_SPACE
  1

  0
ENDBLK
  5
1A
330
18
100
AcDbEntity
  8
0
100
AcDbBlockEnd
  0
BLOCK
  5
16
330
15
100
AcDbEntity
 67
     1
  8
0
100
AcDbBlockBegin
  2
*PAPER_SPACE
 70
     0
 10
0.0
 20
0.0
 30
0.0
  3
*PAPER_SPACE
  1

  0
ENDBLK
  5
17
330
15
100
AcDbEntity
 67
     1
  8
0
100
AcDbBlockEnd
  0
BLOCK
  5
15365
330
15364
100
AcDbEntity
  8
0
100
AcDbBlockBegin
  2
6150_C
 70
     0
 10
0.0
 20
0.0
 30
0.0
  3
6150_C
  1

  0
LINE
  5
15366
330
15364
100
AcDbEntity
  8
0
100
AcDbLine
 10
-1.20792089444776
 20
-2.499790947994158
 30
0.0
 11
-1.20792089444776
 21
-1.718208057052446
 31
0.0
  0
LINE
  5
15367
330
15364
100
AcDbEntity
  8
0
100
AcDbLine
 10
0.0
 20
0.0
 30
0.0
 11
0.0
 21
-2.499790947994158
 31
0.0
  0
LINE
  5
15368
330
15364
100
AcDbEntity
  8
0
100
AcDbLine
 10
0.0
 20
-2.499790947994158
 30
0.0
 11
-1.20792089444776
 21
-2.499790947994158
 31
0.0
  0
LINE
  5
15369
330
15364
100
AcDbEntity
  8
0
100
AcDbLine
 10
-1.474125365315368
 20
-1.581315063372063
 30
0.0
 11
-1.474125365315368
 21
-0.7590981218632585
 31
0.0
  0
LINE
  5
1536A
330
15364
100
AcDbEntity
  8
0
100
AcDbLine
 10
-1.20792089444776
 20
-1.718208057052446
 30
0.0
 11
-1.352767121801414
 21
-1.718208057052446
 31
0.0
  0
POLYLINE
  5
1536B
330
15364
100
AcDbEntity
  8
0
100
AcDb2dPolyline
 66
     1
 10
0.0
 20
0.0
 30
0.0
 70
     4
 75
     6
  0
VERTEX
  5
1536C
330
1536B
100
AcDbEntity
  8
0
100
AcDbVertex
100
AcDb2dVertex
 10
-1.352767121801414
 20
-1.718208057052446
 30
0.0
 70
    16
  0
VERTEX
  5
1536D
330
1536B
100
AcDbEntity
  8
0
100
AcDbVertex
100
AcDb2dVertex
 10
-1.352767121801414
 20
-1.718208057052446
 30
0.0
 70
     8
  0
VERTEX
  5
1536E
330
1536B
100
AcDbEntity
  8
0
100
AcDbVertex
100
AcDb2dVertex
 10
-1.368943358413094
 20
-1.714515871180486
 30
0.0
 70
     8
  0
VERTEX
  5
1536F
330
1536B
100
AcDbEntity
  8
0
100
AcDbVertex
100
AcDb2dVertex
 10
-1.3830341502153
 20
-1.71058255878524
 30
0.0
 70
     8
  0
VERTEX
  5
15370
330
1536B
100
AcDbEntity
  8
0
100
AcDbVertex
100
AcDb2dVertex
 10
-1.395264566881136
 20
-1.706429155758443
 30
0.0
 70
     8
  0
VERTEX
  5
15371
330
1536B
100
AcDbEntity
  8
0
100
AcDbVertex
100
AcDb2dVertex
 10
-1.405859678083704
 20
-1.702076697991832
 30
0.0
 70
     8
  0
VERTEX
  5
15372
330
1536B
100
AcDbEntity
  8
0
100
AcDbVertex
100
AcDb2dVertex
 10
-1.41504455349611
 20
-1.697546221377143
 30
0.0
 70
     8
  0
VERTEX
  5
15373
330
1536B
100
AcDbEntity
  8
0
100
AcDbVertex
100
AcDb2dVertex
 10
-1.423044262791458
 20
-1.692858761806112
 30
0.0
 70
     8
  0
VERTEX
  5
15374
330
1536B
100
AcDbEntity
  8
0
100
AcDbVertex
100
AcDb2dVertex
 10
-1.43008387564285
 20
-1.688035355170475
 30
0.0
 70
     8
  0
VERTEX
  5
15375
330
1536B
100
AcDbEntity
  8
0
100
AcDbVertex
100
AcDb2dVertex
 10
-1.436388461723391
 20
-1.683097037361968
 30
0.0
 70
     8
  0
VERTEX
  5
15376
330
1536B
100
AcDbEntity
  8
0
100
AcDbVertex
100
AcDb2dVertex
 10
-1.442157217303697
 20
-1.677946361974854
 30
0.0
 70
     8
  0
VERTEX
  5
15377
330
1536B
100
AcDbEntity
  8
0
100
AcDbVertex
100
AcDb2dVertex
 10
-1.447485845044428
 20
-1.672011953413496
 30
0.0
 70
     8
  0
VERTEX
  5
15378
330
1536B
100
AcDbEntity
  8
0
100
AcDbVertex
100
AcDb2dVertex
 10
-1.452444174203756
 20
-1.664603953784785
 30
0.0
 70
     8
  0
VERTEX
  5
15379
330
1536B
100
AcDbEntity
  8
0
100
AcDbVertex
100
AcDb2dVertex
 10
-1.457102034039853
 20
-1.655032505195609
 30
0.0
 70
     8
  0
VERTEX
  5
1537A
330
1536B
100
AcDbEntity
  8
0
100
AcDbVertex
100
AcDb2dVertex
 10
-1.46152925381089
 20
-1.64260774975286
 30
0.0
 70
     8
  0
VERTEX
  5
1537B
330
1536B
100
AcDbEntity
  8
0
100
AcDbVertex
100
AcDb2dVertex
 10
-1.465795662775041
 20
-1.626639829563425
 30
0.0
 70
     8
  0
VERTEX
  5
1537C
330
1536B
100
AcDbEntity
  8
0
100
AcDbVertex
100
AcDb2dVertex
 10
-1.469971090190476
 20
-1.606438886734196
 30
0.0
 70
     8
  0
VERTEX
  5
1537D
330
1536B
100
AcDbEntity
  8
0
100
AcDbVertex
100
AcDb2dVertex
 10
-1.474125365315368
 20
-1.581315063372063
 30
0.0
 70
     8
  0
VERTEX
  5
1537E
330
1536B
100
AcDbEntity
  8
0
100
AcDbVertex
100
AcDb2dVertex
 10
-1.398884407776842
 20
-1.708702428662034
 30
0.0
 70
    16
  0
VERTEX
  5
1537F
330
1536B
100
AcDbEntity
  8
0
100
AcDbVertex
100
AcDb2dVertex
 10
-1.441828004099359
 20
-1.684098373694058
 30
0.0
 70
    16
  0
VERTEX
  5
15380
330
1536B
100
AcDbEntity
  8
0
100
AcDbVertex
100
AcDb2dVertex
 10
-1.463013430918005
 20
-1.655488973397723
 30
0.0
 70
    16
  0
VERTEX
  5
15381
330
1536B
100
AcDbEntity
  8
0
100
AcDbVertex
100
AcDb2dVertex
 10
-1.474125365315368
 20
-1.581315063372063
 30
0.0
 70
    16
  0
SEQEND
  5
15382
330
1536B
100
AcDbEntity
  8
0
  0
LINE
  5
15383
330
15364
100
AcDbEntity
  8
0
100
AcDbLine
 10
0.0
 20
0.0
 30
0.0
 11
-1.799031205855061
 21
0.0
 31
0.0
  0
LINE
  5
15384
330
15364
100
AcDbEntity
  8
0
100
AcDbLine
 10
-1.799031205855061
 20
0.0
 30
0.0
 11
-1.799031205855061
 21
-0.4628008723604152
 31
0.0
  0
LWPOLYLINE
  5
15385
330
15364
100
AcDbEntity
  8
0
100
AcDbPolyline
 90
       32
 70
     0
 43
0.0
 10
-1.474125365315368
 20
-0.7590981218632594
 10
-1.54674743461377
 20
-0.733938780527669
 10
-1.613173379535437
 20
-0.7051650842997775
 10
-1.660934664061794
 20
-0.6783644232057085
 10
-1.693236308830688
 20
-0.6536942075743535
 10
-1.713283334479968
 20
-0.6313118477346032
 10
-1.724280761647478
 20
-0.6113747540153489
 10
-1.729433610971069
 20
-0.594040336745477
 10
-1.731946903088586
 20
-0.579466006253877
 10
-1.734473725930501
 20
-0.5677203560558666
 10
-1.737459436597776
 20
-0.5585167124124424
 10
-1.740797459483999
 20
-0.5514795847710255
 10
-1.744381218982756
 20
-0.5462334825790376
 10
-1.748104139487633
 20
-0.5424029152838999
 10
-1.751859645392219
 20
-0.5396123923330359
 10
-1.755541161090099
 20
-0.5374864231738657
 10
-1.75904211097486
 20
-0.5356495172538094
 10
-1.762278939378267
 20
-0.5337821966625805
 10
-1.765260170384799
 20
-0.5317890340590475
 10
-1.768017348017115
 20
-0.5296306147443679
 10
-1.770582016297871
 20
-0.5272675240197029
 10
-1.772985719249725
 20
-0.5246603471862126
 10
-1.775260000895336
 20
-0.5217696695450527
 10
-1.77743640525736
 20
-0.5185560763973851
 10
-1.779546476358456
 20
-0.5149801530443683
 10
-1.781636070506205
 20
-0.5109536850184849
 10
-1.783808293147884
 20
-0.5061932587775089
 10
-1.786180562015695
 20
-0.5003666610105389
 10
-1.78887029484184
 20
-0.4931416784066749
 10
-1.791994909358519
 20
-0.4841860976550146
 10
-1.795671823297934
 20
-0.4731677054446571
 10
-1.799031205855061
 20
-0.4628008723604143
  0
ENDBLK
  5
15386
330
15364
100
AcDbEntity
  8
0
100
AcDbBlockEnd
  0
BLOCK
  5
15388
330
15387
100
AcDbEntity
  8
0
100
AcDbBlockBegin
  2
6150_E
 70
     0
 10
0.0
 20
0.0
 30
0.0
  3
6150_E
  1

  0
LINE
  5
15389
330
15387
100
AcDbEntity
  8
0
100
AcDbLine
 10
12.0
 20
-2.499790947994158
 30
0.0
 11
0.0000000000000018
 21
-2.499790947994158
 31
0.0
  0
LINE
  5
1538A
330
15387
100
AcDbEntity
  8
0
100
AcDbLine
 10
12.0
 20
-1.718208057052446
 30
0.0
 11
0.0
 21
-1.718208057052446
 31
0.0
  0
LINE
  5
1538B
330
15387
100
AcDbEntity
  8
0
100
AcDbLine
 10
12.0
 20
-1.581315063372063
 30
0.0
 11
0.0
 21
-1.581315063372063
 31
0.0
  0
LINE
  5
1538C
330
15387
100
AcDbEntity
  8
0
100
AcDbLine
 10
12.0
 20
-0.7590981218632594
 30
0.0
 11
0.0
 21
-0.7590981218632594
 31
0.0
  0
LINE
  5
1538D
330
15387
100
AcDbEntity
  8
0
100
AcDbLine
 10
12.0
 20
-0.4628008723604143
 30
0.0
 11
0.0
 21
-0.4628008723604143
 31
0.0
  0
LINE
  5
1538E
330
15387
100
AcDbEntity
  8
0
100
AcDbLine
 10
12.0
 20
0.0
 30
0.0
 11
0.0
 21
0.0
 31
0.0
  0
LINE
  5
1538F
330
15387
100
AcDbEntity
  8
0
100
AcDbLine
 10
0.0
 20
0.0
 30
0.0
 11
0.0000000000000018
 21
-2.499790947994158
 31
0.0
  0
LINE
  5
15390
330
15387
100
AcDbEntity
  8
0
100
AcDbLine
 10
12.0
 20
-2.499790947994158
 30
0.0
 11
12.0
 21
0.0
 31
0.0
  0
ENDBLK
  5
15391
330
15387
100
AcDbEntity
  8
0
100
AcDbBlockEnd
  0
BLOCK
  5
154F0
330
154E5
100
AcDbEntity
  8
0
100
AcDbBlockBegin
  2
*D2
 70
     1
 10
0.0
 20
0.0
 30
0.0
  3
*D2
  1

  0
LINE
  5
15526
330
154E5
100
AcDbEntity
  8
DIM
 62
     0
370
    -2
100
AcDbLine
 10
6.120128410810541
 20
3.487227038453283
 30
0.0
 11
6.120128410810541
 21
7.098743228718753
 31
0.0
  0
LINE
  5
15527
330
154E5
100
AcDbEntity
  8
DIM
 62
     0
370
    -2
100
AcDbLine
 10
7.870159616665603
 20
3.487227038453283
 30
0.0
 11
7.870159616665603
 21
7.098743228718753
 31
0.0
  0
LINE
  5
15528
330
154E5
100
AcDbEntity
  8
DIM
 62
     0
370
    -2
100
AcDbLine
 10
6.300128410810541
 20
6.918743228718753
 30
0.0
 11
7.690159616665603
 21
6.918743228718753
 31
0.0
  0
LINE
  5
15529
330
154E5
100
AcDbEntity
  8
DIM
 62
     0
370
    -2
100
AcDbLine
 10
7.870159616665603
 20
6.918743228718753
 30
0.0
 11
8.050159616665604
 21
6.918743228718753
 31
0.0
  0
SOLID
  5
1552A
330
154E5
100
AcDbEntity
  8
DIM
 62
     0
100
AcDbTrace
 10
6.300128410810541
 20
6.948743228718753
 30
0.0
 11
6.300128410810541
 21
6.888743228718753
 31
0.0
 12
6.120128410810541
 22
6.918743228718753
 32
0.0
 13
6.120128410810541
 23
6.918743228718753
 33
0.0
  0
SOLID
  5
1552B
330
154E5
100
AcDbEntity
  8
DIM
 62
     0
100
AcDbTrace
 10
7.690159616665603
 20
6.948743228718753
 30
0.0
 11
7.690159616665603
 21
6.888743228718753
 31
0.0
 12
7.870159616665603
 22
6.918743228718753
 32
0.0
 13
7.870159616665603
 23
6.918743228718753
 33
0.0
  0
MTEXT
  5
1552C
330
154E5
100
AcDbEntity
  8
DIM
 62
     0
100
AcDbMText
 10
10.30682628333227
 20
6.918743228718753
 30
0.0
 40
1.0
 41
0.0
 71
     5
 72
     1
  1
\A1;1.7500
 73
     1
 44
1.0
  0
POINT
  5
1552D
330
154E5
100
AcDbEntity
  8
Defpoints
 62
     0
100
AcDbPoint
 10
6.120128410810541
 20
3.424727038453283
 30
0.0
  0
POINT
  5
1552E
330
154E5
100
AcDbEntity
  8
Defpoints
 62
     0
100
AcDbPoint
 10
7.870159616665603
 20
3.424727038453283
 30
0.0
  0
POINT
  5
1552F
330
154E5
100
AcDbEntity
  8
Defpoints
 62
     0
100
AcDbPoint
 10
7.870159616665603
 20
6.918743228718753
 30
0.0
  0
ENDBLK
  5
154F1
330
154E5
100
AcDbEntity
  8
0
100
AcDbBlockEnd
  0
BLOCK
  5
1550F
330
15504
100
AcDbEntity
  8
0
100
AcDbBlockBegin
  2
*D3
 70
     1
 10
0.0
 20
0.0
 30
0.0
  3
*D3
  1

  0
LINE
  5
1551C
330
15504
100
AcDbEntity
  8
DIM
 62
     0
370
    -2
100
AcDbLine
 10
-17.13143760109536
 20
0.9247270384532848
 30
0.0
 11
-39.32836034505733
 21
0.9247270384532912
 31
0.0
  0
LINE
  5
1551D
330
15504
100
AcDbEntity
  8
DIM
 62
     0
370
    -2
100
AcDbLine
 10
-17.13143760109536
 20
3.424727038453284
 30
0.0
 11
-39.32836034505733
 21
3.424727038453291
 31
0.0
  0
LINE
  5
1551E
330
15504
100
AcDbEntity
  8
DIM
 62
     0
370
    -2
100
AcDbLine
 10
-39.14836034505733
 20
1.104727038453291
 30
0.0
 11
-39.14836034505733
 21
1.584727038453291
 31
0.0
  0
LINE
  5
1551F
330
15504
100
AcDbEntity
  8
DIM
 62
     0
370
    -2
100
AcDbLine
 10
-39.14836034505733
 20
3.24472703845329
 30
0.0
 11
-39.14836034505733
 21
2.76472703845329
 31
0.0
  0
SOLID
  5
15520
330
15504
100
AcDbEntity
  8
DIM
 62
     0
100
AcDbTrace
 10
-39.17836034505733
 20
1.104727038453291
 30
0.0
 11
-39.11836034505732
 21
1.104727038453291
 31
0.0
 12
-39.14836034505733
 22
0.924727038453291
 32
0.0
 13
-39.14836034505733
 23
0.924727038453291
 33
0.0
  0
SOLID
  5
15521
330
15504
100
AcDbEntity
  8
DIM
 62
     0
100
AcDbTrace
 10
-39.17836034505733
 20
3.24472703845329
 30
0.0
 11
-39.11836034505732
 21
3.24472703845329
 31
0.0
 12
-39.14836034505733
 22
3.424727038453291
 32
0.0
 13
-39.14836034505733
 23
3.424727038453291
 33
0.0
  0
MTEXT
  5
15522
330
15504
100
AcDbEntity
  8
DIM
 62
     0
100
AcDbMText
 10
-39.14836034505733
 20
2.174727038453284
 30
0.0
 40
1.0
 41
0.0
 71
     5
 72
     1
  1
\A1;2.5000
 73
     1
 44
1.0
  0
POINT
  5
15523
330
15504
100
AcDbEntity
  8
Defpoints
 62
     0
100
AcDbPoint
 10
-17.06893760109537
 20
0.9247270384532848
 30
0.0
  0
POINT
  5
15524
330
15504
100
AcDbEntity
  8
Defpoints
 62
     0
100
AcDbPoint
 10
-17.06893760109537
 20
3.424727038453284
 30
0.0
  0
POINT
  5
15525
330
15504
100
AcDbEntity
  8
Defpoints
 62
     0
100
AcDbPoint
 10
-39.14836034505733
 20
3.424727038453291
 30
0.0
  0
ENDBLK
  5
15510
330
15504
100
AcDbEntity
  8
0
100
AcDbBlockEnd
  0
ENDSEC
  0
SECTION
  2
ENTITIES
  0
LINE
  5
15244
330
18
100
AcDbEntity
  8
0
100
AcDbLine
 10
7.870159616665603
 20
3.424727038453283
 30
0.0
 11
6.120128410810541
 21
3.424727038453283
 31
0.0
  0
LINE
  5
15245
330
18
100
AcDbEntity
  8
0
100
AcDbLine
 10
7.870159616665603
 20
3.424727038453283
 30
0.0
 11
7.870159616665603
 21
0.9247270384532836
 31
0.0
  0
LINE
  5
15352
330
18
100
AcDbEntity
  8
0
100
AcDbLine
 10
-0.2564376010953637
 20
3.424727038453283
 30
0.0
 11
-33.88143760109537
 21
3.424727038453286
 31
0.0
  0
LINE
  5
153E8
330
18
100
AcDbEntity
  8
0
100
AcDbLine
 10
6.120128410810541
 20
3.424727038453283
 30
0.0
 11
6.120128410810541
 21
2.924727038453283
 31
0.0
  0
LINE
  5
153E9
330
18
100
AcDbEntity
  8
0
100
AcDbLine
 10
6.120128410810541
 20
2.924727038453283
 30
0.0
 11
6.182628410810541
 21
2.924727038453283
 31
0.0
  0
LINE
  5
153EA
330
18
100
AcDbEntity
  8
0
100
AcDbLine
 10
6.182628410810541
 20
2.924727038453283
 30
0.0
 11
6.182628410810541
 21
2.799727038453283
 31
0.0
  0
LINE
  5
153ED
330
18
100
AcDbEntity
  8
0
100
AcDbLine
 10
6.495159616665603
 20
2.612227038453283
 30
0.0
 11
6.370159616665603
 21
2.612227038453283
 31
0.0
  0
ARC
  5
153EE
330
18
100
AcDbEntity
  8
0
100
AcDbCircle
 10
6.170130193177444
 20
2.599695532274615
 30
0.0
 40
0.2004215779503567
100
AcDbArc
 50
3.584799011118123
 51
86.42473600228374
  0
LINE
  5
153EF
330
18
100
AcDbEntity
  8
0
100
AcDbLine
 10
6.495159616665603
 20
2.612227038453283
 30
0.0
 11
6.495159616665603
 21
1.674727038453283
 31
0.0
  0
LINE
  5
153F0
330
18
100
AcDbEntity
  8
0
100
AcDbLine
 10
6.495159616665603
 20
1.674727038453283
 30
0.0
 11
6.682659616665603
 21
1.674727038453283
 31
0.0
  0
LINE
  5
1540F
330
18
100
AcDbEntity
  8
0
100
AcDbLine
 10
6.682659616665603
 20
1.674727038453283
 30
0.0
 11
6.682659616665603
 21
0.9247270384532836
 31
0.0
  0
LINE
  5
15410
330
18
100
AcDbEntity
  8
0
100
AcDbLine
 10
6.682659616665603
 20
0.9247270384532836
 30
0.0
 11
7.870159616665603
 21
0.9247270384532836
 31
0.0
  0
LINE
  5
1542A
330
18
100
AcDbEntity
  8
0
100
AcDbLine
 10
-0.2564376010953637
 20
3.424727038453283
 30
0.0
 11
-33.88143760109537
 21
3.424727038453286
 31
0.0
  0
LINE
  5
1542B
330
18
100
AcDbEntity
  8
0
100
AcDbLine
 10
-0.2564376010953637
 20
2.924727038453283
 30
0.0
 11
-33.88143760109537
 21
2.924727038453286
 31
0.0
  0
LINE
  5
1542C
330
18
100
AcDbEntity
  8
0
100
AcDbLine
 10
-0.2564376010953637
 20
2.799727038453283
 30
0.0
 11
-33.88143760109537
 21
2.799727038453286
 31
0.0
  0
LINE
  5
1542D
330
18
100
AcDbEntity
  8
0
100
AcDbLine
 10
-0.2564376010953637
 20
2.612227038453283
 30
0.0
 11
-33.88143760109537
 21
2.612227038453286
 31
0.0
  0
LINE
  5
1542E
330
18
100
AcDbEntity
  8
0
100
AcDbLine
 10
-0.2564376010953637
 20
1.674727038453283
 30
0.0
 11
-33.88143760109537
 21
1.674727038453286
 31
0.0
  0
LINE
  5
1542F
330
18
100
AcDbEntity
  8
0
100
AcDbLine
 10
-0.2564376010953637
 20
0.9247270384532836
 30
0.0
 11
-33.88143760109537
 21
0.924727038453286
 31
0.0
  0
LINE
  5
15442
330
18
100
AcDbEntity
  8
0
100
AcDbLine
 10
-35.06893760109537
 20
0.9247270384532878
 30
0.0
 11
-33.88143760109537
 21
0.9247270384532878
 31
0.0
  0
LINE
  5
15443
330
18
100
AcDbEntity
  8
0
100
AcDbLine
 10
-35.06893760109537
 20
1.674727038453287
 30
0.0
 11
-35.06893760109537
 21
0.9247270384532878
 31
0.0
  0
LINE
  5
15444
330
18
100
AcDbEntity
  8
0
100
AcDbLine
 10
-35.25643760109537
 20
1.674727038453287
 30
0.0
 11
-35.06893760109537
 21
1.674727038453287
 31
0.0
  0
LINE
  5
15445
330
18
100
AcDbEntity
  8
0
100
AcDbLine
 10
-35.25643760109537
 20
2.612227038453287
 30
0.0
 11
-35.25643760109537
 21
1.674727038453287
 31
0.0
  0
ARC
  5
15446
330
18
100
AcDbEntity
  8
0
100
AcDbCircle
 10
-35.58146702458353
 20
2.59969553227462
 30
0.0
 40
0.2004215779503567
100
AcDbArc
 50
3.584799011118123
 51
86.42473600228374
  0
LINE
  5
15447
330
18
100
AcDbEntity
  8
0
100
AcDbLine
 10
-35.25643760109537
 20
2.612227038453287
 30
0.0
 11
-35.38143760109537
 21
2.612227038453287
 31
0.0
  0
LINE
  5
15448
330
18
100
AcDbEntity
  8
0
100
AcDbLine
 10
-35.56896880695043
 20
2.924727038453287
 30
0.0
 11
-35.56896880695043
 21
2.799727038453287
 31
0.0
  0
LINE
  5
15449
330
18
100
AcDbEntity
  8
0
100
AcDbLine
 10
-35.63146880695043
 20
2.924727038453287
 30
0.0
 11
-35.56896880695043
 21
2.924727038453287
 31
0.0
  0
LINE
  5
1544A
330
18
100
AcDbEntity
  8
0
100
AcDbLine
 10
-35.63146880695043
 20
3.424727038453287
 30
0.0
 11
-35.63146880695043
 21
2.924727038453287
 31
0.0
  0
LINE
  5
1544C
330
18
100
AcDbEntity
  8
0
100
AcDbLine
 10
-33.88143760109537
 20
3.424727038453287
 30
0.0
 11
-35.63146880695043
 21
3.424727038453287
 31
0.0
  0
LINE
  5
15458
330
18
100
AcDbEntity
  8
0
100
AcDbLine
 10
-0.2564376010953637
 20
3.424727038453284
 30
0.0
 11
1.493593604759698
 21
3.424727038453284
 31
0.0
  0
LINE
  5
1545A
330
18
100
AcDbEntity
  8
0
100
AcDbLine
 10
1.493593604759698
 20
3.424727038453284
 30
0.0
 11
1.493593604759698
 21
2.924727038453284
 31
0.0
  0
LINE
  5
1545B
330
18
100
AcDbEntity
  8
0
100
AcDbLine
 10
1.493593604759698
 20
2.924727038453284
 30
0.0
 11
1.431093604759698
 21
2.924727038453284
 31
0.0
  0
LINE
  5
1545C
330
18
100
AcDbEntity
  8
0
100
AcDbLine
 10
1.431093604759698
 20
2.924727038453284
 30
0.0
 11
1.431093604759698
 21
2.799727038453284
 31
0.0
  0
LINE
  5
1545D
330
18
100
AcDbEntity
  8
0
100
AcDbLine
 10
1.118562398904636
 20
2.612227038453284
 30
0.0
 11
1.243562398904636
 21
2.612227038453284
 31
0.0
  0
ARC
  5
1545E
330
18
100
AcDbEntity
  8
0
100
AcDbCircle
 10
1.443591822392795
 20
2.599695532274616
 30
0.0
 40
0.2004215779503567
100
AcDbArc
 50
93.57526399771627
 51
176.4152009888818
  0
LINE
  5
1545F
330
18
100
AcDbEntity
  8
0
100
AcDbLine
 10
1.118562398904636
 20
2.612227038453284
 30
0.0
 11
1.118562398904636
 21
1.674727038453284
 31
0.0
  0
LINE
  5
15460
330
18
100
AcDbEntity
  8
0
100
AcDbLine
 10
1.118562398904636
 20
1.674727038453284
 30
0.0
 11
0.9310623989046362
 21
1.674727038453284
 31
0.0
  0
LINE
  5
15461
330
18
100
AcDbEntity
  8
0
100
AcDbLine
 10
0.9310623989046362
 20
1.674727038453284
 30
0.0
 11
0.9310623989046362
 21
0.9247270384532843
 31
0.0
  0
LINE
  5
15462
330
18
100
AcDbEntity
  8
0
100
AcDbLine
 10
0.9310623989046362
 20
0.9247270384532843
 30
0.0
 11
-0.2564376010953637
 21
0.9247270384532843
 31
0.0
  0
LINE
  5
15463
330
18
100
AcDbEntity
  8
0
100
AcDbLine
 10
-33.88143760109537
 20
1.674727038453286
 30
0.0
 11
-35.06893760109537
 21
1.674727038453287
 31
0.0
  0
LINE
  5
15464
330
18
100
AcDbEntity
  8
0
100
AcDbLine
 10
-33.88143760109537
 20
2.612227038453286
 30
0.0
 11
-35.25643760109537
 21
2.612227038453286
 31
0.0
  0
LINE
  5
15465
330
18
100
AcDbEntity
  8
0
100
AcDbLine
 10
-33.88143760109537
 20
2.799727038453286
 30
0.0
 11
-35.56896880695043
 21
2.799727038453288
 31
0.0
  0
LINE
  5
15466
330
18
100
AcDbEntity
  8
0
100
AcDbLine
 10
-33.88143760109537
 20
2.924727038453286
 30
0.0
 11
-35.63146880695043
 21
2.924727038453287
 31
0.0
  0
LINE
  5
15467
330
18
100
AcDbEntity
  8
0
100
AcDbLine
 10
-0.2564376010953637
 20
2.924727038453283
 30
0.0
 11
1.431093604759698
 21
2.924727038453284
 31
0.0
  0
LINE
  5
15468
330
18
100
AcDbEntity
  8
0
100
AcDbLine
 10
-0.2564376010953637
 20
2.799727038453283
 30
0.0
 11
1.431093604759698
 21
2.799727038453284
 31
0.0
  0
LINE
  5
15469
330
18
100
AcDbEntity
  8
0
100
AcDbLine
 10
-0.2564376010953637
 20
2.612227038453283
 30
0.0
 11
1.118562398904636
 21
2.612227038453283
 31
0.0
  0
LINE
  5
1546A
330
18
100
AcDbEntity
  8
0
100
AcDbLine
 10
-0.2564376010953637
 20
1.674727038453283
 30
0.0
 11
0.9310623989046362
 21
1.674727038453284
 31
0.0
  0
DIMENSION
  5
154E4
330
18
100
AcDbEntity
  8
DIM
100
AcDbDimension
  2
*D2
 10
7.870159616665603
 20
6.918743228718753
 30
0.0
 11
10.30682628333227
 21
6.918743228718753
 31
0.0
 70
    32
 71
     5
 42
1.750031205855061
  3
STANDARD
100
AcDbAlignedDimension
 13
6.120128410810541
 23
3.424727038453283
 33
0.0
 14
7.870159616665603
 24
3.424727038453283
 34
0.0
100
AcDbRotatedDimension
  0
LINE
  5
154F2
330
18
100
AcDbEntity
  8
DIM
100
AcDbLine
 10
0.9310623989046362
 20
0.8622270384532843
 30
0.0
 11
0.931062398904636
 21
-2.258615675189621
 31
0.0
  0
LINE
  5
154F3
330
18
100
AcDbEntity
  8
DIM
100
AcDbLine
 10
-35.06893760109537
 20
0.8622270384532869
 30
0.0
 11
-35.06893760109537
 21
-2.258615675189621
 31
0.0
  0
LINE
  5
154F4
330
18
100
AcDbEntity
  8
DIM
100
AcDbLine
 10
0.7510623989046361
 20
-2.078615675189621
 30
0.0
 11
-14.3122709344287
 21
-2.078615675189621
 31
0.0
  0
LINE
  5
154F5
330
18
100
AcDbEntity
  8
DIM
100
AcDbLine
 10
-34.88893760109537
 20
-2.078615675189621
 30
0.0
 11
-19.82560426776203
 21
-2.078615675189621
 31
0.0
  0
SOLID
  5
154F6
330
18
100
AcDbEntity
  8
DIM
100
AcDbTrace
 10
0.7510623989046361
 20
-2.048615675189621
 30
0.0
 11
0.7510623989046361
 21
-2.108615675189621
 31
0.0
 12
0.931062398904636
 22
-2.078615675189621
 32
0.0
 13
0.931062398904636
 23
-2.078615675189621
 33
0.0
  0
SOLID
  5
154F7
330
18
100
AcDbEntity
  8
DIM
100
AcDbTrace
 10
-34.88893760109537
 20
-2.048615675189621
 30
0.0
 11
-34.88893760109537
 21
-2.108615675189621
 31
0.0
 12
-35.06893760109537
 22
-2.078615675189621
 32
0.0
 13
-35.06893760109537
 23
-2.078615675189621
 33
0.0
  0
MTEXT
  5
154F8
330
18
100
AcDbEntity
  8
DIM
100
AcDbMText
 10
-17.06893760109537
 20
-2.078615675189621
 30
0.0
 40
1.0
 41
0.0
 71
     5
 72
     1
  1
L/W
 73
     1
 44
1.0
  0
DIMENSION
  5
15503
330
18
100
AcDbEntity
  8
DIM
100
AcDbDimension
  2
*D3
 10
-39.14836034505733
 20
3.424727038453291
 30
0.0
 11
-39.14836034505733
 21
2.174727038453284
 31
0.0
 70
    32
 71
     5
 42
2.5
  3
STANDARD
100
AcDbAlignedDimension
 13
-17.06893760109537
 23
0.9247270384532848
 33
0.0
 14
-17.06893760109537
 24
3.424727038453284
 34
0.0
 50
90.0
100
AcDbRotatedDimension
  0
VIEWPORT
  5
1549D
330
15
100
AcDbEntity
 67
     1
  8
0
100
AcDbViewport
 10
5.348183387778103
 20
3.999999883606677
 30
0.0
 40
17.78044521163065
 41
8.992999745766947
 68
     2
 69
     1
 12
5.348183387778103
 22
3.999999883606677
 13
0.0
 23
0.0
 14
10.0
 24
10.0
 15
10.0
 25
10.0
 16
0.0
 26
0.0
 36
1.0
 17
0.0
 27
0.0
 37
0.0
 42
50.0
 43
0.0
 44
0.0
 45
8.992999745766947
 50
0.0
 51
0.0
 72
   100
 90
    32800
  1

281
     0
 71
     1
 74
     0
110
0.0
120
0.0
130
0.0
111
1.0
121
0.0
131
0.0
112
0.0
122
1.0
132
0.0
 79
     0
146
0.0
170
     0
  0
VIEWPORT
  5
1549F
330
15
100
AcDbEntity
 67
     1
  8
0
100
AcDbViewport
 10
5.24999976158142
 20
3.99999976158142
 30
0.0
 40
8.399999618530271
 41
6.399999618530272
 68
     1
 69
     2
 12
-14.48965677493414
 22
1.594843470776724
 13
0.0
 23
0.0
 14
0.5
 24
0.5
 15
0.5
 25
0.5
 16
0.0
 26
0.0
 36
1.0
 17
0.0
 27
0.0
 37
0.0
 42
50.0
 43
0.0
 44
0.0
 45
42.91498595575592
 50
0.0
 51
0.0
 72
   100
 90
    32800
  1

281
     0
 71
     1
 74
     0
110
0.0
120
0.0
130
0.0
111
1.0
121
0.0
131
0.0
112
0.0
122
1.0
132
0.0
 79
     0
146
0.0
170
     0
  0
ENDSEC
  0
SECTION
  2
OBJECTS
  0
DICTIONARY
  5
C
330
0
100
AcDbDictionary
281
     1
  3
ACAD_COLOR
350
15396
  3
ACAD_GROUP
350
D
  3
ACAD_IMAGE_DICT
350
21
  3
ACAD_IMAGE_VARS
350
20
  3
ACAD_LAYOUT
350
15228
  3
ACAD_MATERIAL
350
15395
  3
ACAD_MLINESTYLE
350
1B
  3
ACAD_PLOTSETTINGS
350
15229
  3
ACAD_PLOTSTYLENAME
350
15226
  0
DICTIONARY
  5
1531D
330
18
100
AcDbDictionary
280
     1
281
     1
  3
ACAD_LAYOUTSELFREF
360
15348
  0
DICTIONARY
  5
1531B
330
15
100
AcDbDictionary
280
     1
281
     1
  3
ACAD_LAYOUTSELFREF
360
15347
  0
DICTIONARY
  5
15396
102
{ACAD_REACTORS
330
C
102
}
330
C
100
AcDbDictionary
281
     1
  0
DICTIONARY
  5
D
102
{ACAD_REACTORS
330
C
102
}
330
C
100
AcDbDictionary
281
     1
  0
DICTIONARY
  5
21
102
{ACAD_REACTORS
330
C
102
}
330
C
100
AcDbDictionary
281
     1
  3
1210
350
14DE6
  3
6141
350
1522F
  0
RASTERVARIABLES
  5
20
102
{ACAD_REACTORS
330
C
102
}
330
C
100
AcDbRasterVariables
 90
        0
 70
     1
 71
     1
 72
     0
  0
DICTIONARY
  5
15228
102
{ACAD_REACTORS
330
C
102
}
330
C
100
AcDbDictionary
281
     1
  3
Layout1
350
1522B
  3
Model
350
1522A
  0
DICTIONARY
  5
15395
102
{ACAD_REACTORS
330
C
102
}
330
C
100
AcDbDictionary
281
     1
  0
DICTIONARY
  5
1B
102
{ACAD_REACTORS
330
C
102
}
330
C
100
AcDbDictionary
281
     1
  3
STANDARD
350
1C
  0
DICTIONARY
  5
15229
102
{ACAD_REACTORS
330
C
102
}
330
C
100
AcDbDictionary
281
     1
  0
ACDBDICTIONARYWDFLT
  5
15226
102
{ACAD_REACTORS
330
C
102
}
330
C
100
AcDbDictionary
281
     1
  3
Normal
350
15227
100
AcDbDictionaryWithDefault
340
15227
  0
XRECORD
  5
15348
102
{ACAD_REACTORS
330
1531D
102
}
330
1531D
100
AcDbXrecord
280
     1
340
18
  0
XRECORD
  5
15347
102
{ACAD_REACTORS
330
1531B
102
}
330
1531B
100
AcDbXrecord
280
     1
340
15
  0
IMAGEDEF
  5
14DE6
102
{ACAD_REACTORS
330
21
102
}
330
21
100
AcDbRasterImageDef
 90
        0
  1
U:\TPDWG\MichelQ\1210.tif
 10
2904.0
 20
3736.0
 11
0.0705555555555556
 21
0.0705555555555556
280
     1
281
     5
  0
IMAGEDEF
  5
1522F
102
{ACAD_REACTORS
330
21
102
}
330
21
100
AcDbRasterImageDef
 90
        0
  1
C:\Michel\TIF\6141.tif
 10
914.0
 20
2064.0
 11
0.1693333333333333
 21
0.1693333333333333
280
     1
281
     5
  0
LAYOUT
  5
1522B
102
{ACAD_REACTORS
330
15228
102
}
330
15228
100
AcDbPlotSettings
  1

  2
none_device
  4
Letter_(8.50_x_11.00_Inches)
  6

 40
6.349999904632568
 41
6.349999904632568
 42
6.350006103515625
 43
6.350006103515625
 44
215.8999938964844
 45
279.3999938964844
 46
0.0
 47
0.0
 48
0.0
 49
0.0
140
0.0
141
0.0
142
1.0
143
1.0
 70
   688
 72
     0
 73
     1
 74
     5
  7
pen2000.ctb
 75
    16
147
1.0
 76
     1
 77
     2
 78
   300
148
0.0
149
0.0
100
AcDbLayout
  1
Layout1
 70
     1
 71
     1
 10
-0.2500002402958907
 20
-0.2499999962453767
 11
10.74999951940821
 21
8.249999763458731
 12
0.0
 22
0.0
 32
0.0
 14
1.049636599258096
 24
0.7996597240971113
 34
-0.0015258207003583
 15
9.450362731076971
 25
7.200340082697458
 35
0.0000000349246037
146
0.0
 13
0.0
 23
0.0
 33
0.0
 16
1.0
 26
0.0
 36
0.0
 17
0.0
 27
1.0
 37
0.0
 76
     0
330
15
331
1549F
  0
LAYOUT
  5
1522A
102
{ACAD_REACTORS
330
15228
102
}
330
15228
100
AcDbPlotSettings
  1

  2
HP DesignJet 430 1117
  4

  6

 40
0.0
 41
0.0
 42
0.0
 43
0.0
 44
0.0
 45
0.0
 46
0.0
 47
0.0
 48
0.0
 49
0.0
140
0.0
141
0.0
142
1.0
143
1.0
 70
  1712
 72
     0
 73
     0
 74
     0
  7
pen2000.ctb
 75
     0
147
1.0
 76
     0
 77
     2
 78
   300
148
0.0
149
0.0
100
AcDbLayout
  1
Model
 70
     1
 71
     0
 10
0.0
 20
0.0
 11
12.0
 21
9.0
 12
0.0
 22
0.0
 32
0.0
 14
0.0
 24
0.0
 34
0.0
 15
0.0
 25
0.0
 35
0.0
146
0.0
 13
0.0
 23
0.0
 33
0.0
 16
1.0
 26
0.0
 36
0.0
 17
0.0
 27
1.0
 37
0.0
 76
     0
330
18
  0
MLINESTYLE
  5
1C
102
{ACAD_REACTORS
330
1B
102
}
330
1B
100
AcDbMlineStyle
  2
STANDARD
 70
     0
  3

 62
   256
 51
90.0
 52
90.0
 71
     2
 49
0.5
 62
   256
  6
BYLAYER
 49
-0.5
 62
   256
  6
BYLAYER
  0
ACDBPLACEHOLDER
  5
15227
102
{ACAD_REACTORS
330
15226
102
}
330
15226
  0
ENDSEC
  0
EOF
