  0
SECTION
  2
HEADER
  9
$ACADVER
  1
AC1018
  9
$ACADMAINTVER
 70
     0
  9
$DWGCODEPAGE
  3
ANSI_1252
  9
$INSBASE
 10
0.0
 20
0.0
 30
0.0
  9
$EXTMIN
 10
-39.74981374734554
 20
-4.245581019520301
 30
0.0
  9
$EXTMAX
 10
15.94638284670814
 20
8.985872970403463
 30
0.0
  9
$LIMMIN
 10
0.0
 20
0.0
  9
$LIMMAX
 10
12.0
 20
9.0
  9
$ORTHOMODE
 70
     0
  9
$REGENMODE
 70
     1
  9
$FILLMODE
 70
     1
  9
$QTEXTMODE
 70
     0
  9
$MIRRTEXT
 70
     1
  9
$LTSCALE
 40
1.0
  9
$ATTMODE
 70
     1
  9
$TEXTSIZE
 40
0.25
  9
$TRACEWID
 40
0.05
  9
$TEXTSTYLE
  7
STANDARD
  9
$CLAYER
  8
0
  9
$CELTYPE
  6
BYLAYER
  9
$CECOLOR
 62
   256
  9
$CELTSCALE
 40
1.0
  9
$DISPSILH
 70
     0
  9
$DIMSCALE
 40
1.0
  9
$DIMASZ
 40
0.18
  9
$DIMEXO
 40
0.0625
  9
$DIMDLI
 40
0.38
  9
$DIMRND
 40
0.0
  9
$DIMDLE
 40
0.0
  9
$DIMEXE
 40
0.18
  9
$DIMTP
 40
0.0
  9
$DIMTM
 40
0.0
  9
$DIMTXT
 40
1.0
  9
$DIMCEN
 40
0.09
  9
$DIMTSZ
 40
0.0
  9
$DIMTOL
 70
     0
  9
$DIMLIM
 70
     0
  9
$DIMTIH
 70
     1
  9
$DIMTOH
 70
     1
  9
$DIMSE1
 70
     0
  9
$DIMSE2
 70
     0
  9
$DIMTAD
 70
     0
  9
$DIMZIN
 70
     0
  9
$DIMBLK
  1

  9
$DIMASO
 70
     1
  9
$DIMSHO
 70
     1
  9
$DIMPOST
  1

  9
$DIMAPOST
  1

  9
$DIMALT
 70
     0
  9
$DIMALTD
 70
     2
  9
$DIMALTF
 40
25.4
  9
$DIMLFAC
 40
1.0
  9
$DIMTOFL
 70
     0
  9
$DIMTVP
 40
0.0
  9
$DIMTIX
 70
     0
  9
$DIMSOXD
 70
     0
  9
$DIMSAH
 70
     0
  9
$DIMBLK1
  1

  9
$DIMBLK2
  1

  9
$DIMSTYLE
  2
STANDARD
  9
$DIMCLRD
 70
     0
  9
$DIMCLRE
 70
     0
  9
$DIMCLRT
 70
     0
  9
$DIMTFAC
 40
1.0
  9
$DIMGAP
 40
0.09
  9
$DIMJUST
 70
     0
  9
$DIMSD1
 70
     0
  9
$DIMSD2
 70
     0
  9
$DIMTOLJ
 70
     1
  9
$DIMTZIN
 70
     0
  9
$DIMALTZ
 70
     0
  9
$DIMALTTZ
 70
     0
  9
$DIMUPT
 70
     0
  9
$DIMDEC
 70
     4
  9
$DIMTDEC
 70
     4
  9
$DIMALTU
 70
     2
  9
$DIMALTTD
 70
     2
  9
$DIMTXSTY
  7
STANDARD
  9
$DIMAUNIT
 70
     0
  9
$DIMADEC
 70
     0
  9
$DIMALTRND
 40
0.0
  9
$DIMAZIN
 70
     0
  9
$DIMDSEP
 70
    46
  9
$DIMATFIT
 70
     3
  9
$DIMFRAC
 70
     0
  9
$DIMLDRBLK
  1

  9
$DIMLUNIT
 70
     2
  9
$DIMLWD
 70
    -2
  9
$DIMLWE
 70
    -2
  9
$DIMTMOVE
 70
     0
  9
$LUNITS
 70
     4
  9
$LUPREC
 70
     4
  9
$SKETCHINC
 40
0.1
  9
$FILLETRAD
 40
0.01
  9
$AUNITS
 70
     0
  9
$AUPREC
 70
     0
  9
$MENU
  1
.
  9
$ELEVATION
 40
0.0
  9
$PELEVATION
 40
0.0
  9
$THICKNESS
 40
0.0
  9
$LIMCHECK
 70
     0
  9
$CHAMFERA
 40
0.5
  9
$CHAMFERB
 40
0.5
  9
$CHAMFERC
 40
1.0
  9
$CHAMFERD
 40
0.0
  9
$SKPOLY
 70
     0
  9
$TDCREATE
 40
2451160.360457639
  9
$TDUCREATE
 40
2451160.527124306
  9
$TDUPDATE
 40
2453488.691888646
  9
$TDUUPDATE
 40
2453488.858555313
  9
$TDINDWG
 40
0.8503949190
  9
$TDUSRTIMER
 40
0.8503949190
  9
$USRTIMER
 70
     1
  9
$ANGBASE
 50
0.0
  9
$ANGDIR
 70
     0
  9
$PDMODE
 70
     3
  9
$PDSIZE
 40
1.0
  9
$PLINEWID
 40
0.0
  9
$SPLFRAME
 70
     0
  9
$SPLINETYPE
 70
     6
  9
$SPLINESEGS
 70
     8
  9
$HANDSEED
  5
16C15
  9
$SURFTAB1
 70
     6
  9
$SURFTAB2
 70
     6
  9
$SURFTYPE
 70
     6
  9
$SURFU
 70
     6
  9
$SURFV
 70
     6
  9
$UCSBASE
  2

  9
$UCSNAME
  2

  9
$UCSORG
 10
0.0
 20
0.0
 30
0.0
  9
$UCSXDIR
 10
1.0
 20
0.0
 30
0.0
  9
$UCSYDIR
 10
0.0
 20
1.0
 30
0.0
  9
$UCSORTHOREF
  2

  9
$UCSORTHOVIEW
 70
     0
  9
$UCSORGTOP
 10
0.0
 20
0.0
 30
0.0
  9
$UCSORGBOTTOM
 10
0.0
 20
0.0
 30
0.0
  9
$UCSORGLEFT
 10
0.0
 20
0.0
 30
0.0
  9
$UCSORGRIGHT
 10
0.0
 20
0.0
 30
0.0
  9
$UCSORGFRONT
 10
0.0
 20
0.0
 30
0.0
  9
$UCSORGBACK
 10
0.0
 20
0.0
 30
0.0
  9
$PUCSBASE
  2

  9
$PUCSNAME
  2

  9
$PUCSORG
 10
0.0
 20
0.0
 30
0.0
  9
$PUCSXDIR
 10
1.0
 20
0.0
 30
0.0
  9
$PUCSYDIR
 10
0.0
 20
1.0
 30
0.0
  9
$PUCSORTHOREF
  2

  9
$PUCSORTHOVIEW
 70
     0
  9
$PUCSORGTOP
 10
0.0
 20
0.0
 30
0.0
  9
$PUCSORGBOTTOM
 10
0.0
 20
0.0
 30
0.0
  9
$PUCSORGLEFT
 10
0.0
 20
0.0
 30
0.0
  9
$PUCSORGRIGHT
 10
0.0
 20
0.0
 30
0.0
  9
$PUCSORGFRONT
 10
0.0
 20
0.0
 30
0.0
  9
$PUCSORGBACK
 10
0.0
 20
0.0
 30
0.0
  9
$USERI1
 70
     0
  9
$USERI2
 70
     0
  9
$USERI3
 70
     0
  9
$USERI4
 70
     0
  9
$USERI5
 70
     0
  9
$USERR1
 40
0.0
  9
$USERR2
 40
0.0
  9
$USERR3
 40
0.0
  9
$USERR4
 40
0.0
  9
$USERR5
 40
0.0
  9
$WORLDVIEW
 70
     1
  9
$SHADEDGE
 70
     3
  9
$SHADEDIF
 70
    70
  9
$TILEMODE
 70
     1
  9
$MAXACTVP
 70
    48
  9
$PINSBASE
 10
0.0
 20
0.0
 30
0.0
  9
$PLIMCHECK
 70
     0
  9
$PEXTMIN
 10
1.049999952316284
 20
0.7999999523162842
 30
0.0
  9
$PEXTMAX
 10
9.449999570846555
 20
7.199999570846556
 30
0.0
  9
$PLIMMIN
 10
-0.2500002402958907
 20
-0.2499999962453767
  9
$PLIMMAX
 10
10.74999951940821
 20
8.249999763458731
  9
$UNITMODE
 70
     0
  9
$VISRETAIN
 70
     1
  9
$PLINEGEN
 70
     0
  9
$PSLTSCALE
 70
     1
  9
$TREEDEPTH
 70
  3020
  9
$CMLSTYLE
  2
STANDARD
  9
$CMLJUST
 70
     0
  9
$CMLSCALE
 40
1.0
  9
$PROXYGRAPHICS
 70
     1
  9
$MEASUREMENT
 70
     0
  9
$CELWEIGHT
370
    -1
  9
$ENDCAPS
280
     0
  9
$JOINSTYLE
280
     0
  9
$LWDISPLAY
290
     0
  9
$INSUNITS
 70
     0
  9
$HYPERLINKBASE
  1

  9
$STYLESHEET
  1

  9
$XEDIT
290
     1
  9
$CEPSNTYPE
380
     0
  9
$PSTYLEMODE
290
     1
  9
$FINGERPRINTGUID
  2
{800D2E20-08B1-11D7-B58D-0040F463187C}
  9
$VERSIONGUID
  2
{A242FBE4-40EA-4362-9EE1-2B56D8CD2444}
  9
$EXTNAMES
290
     1
  9
$PSVPSCALE
 40
0.0
  9
$OLESTARTUP
290
     0
  9
$SORTENTS
280
    96
  9
$INDEXCTL
280
     0
  9
$HIDETEXT
280
     0
  9
$XCLIPFRAME
290
     0
  9
$HALOGAP
280
     0
  9
$OBSCOLOR
 70
   257
  9
$OBSLTYPE
280
     0
  9
$INTERSECTIONDISPLAY
280
     0
  9
$INTERSECTIONCOLOR
 70
   257
  9
$DIMASSOC
280
     1
  9
$PROJECTNAME
  1

  0
ENDSEC
  0
SECTION
  2
CLASSES
  0
CLASS
  1
RASTERVARIABLES
  2
AcDbRasterVariables
  3
ISM
 90
        0
 91
        1
280
     0
281
     0
  0
CLASS
  1
IMAGEDEF
  2
AcDbRasterImageDef
  3
ISM
 90
        0
 91
        3
280
     0
281
     0
  0
CLASS
  1
IMAGEDEF_REACTOR
  2
AcDbRasterImageDefReactor
  3
ISM
 90
        1
 91
        0
280
     0
281
     0
  0
CLASS
  1
IMAGE
  2
AcDbRasterImage
  3
ISM
 90
      127
 91
        0
280
     0
281
     1
  0
CLASS
  1
DICTIONARYVAR
  2
AcDbDictionaryVar
  3
ObjectDBX Classes
 90
        0
 91
        2
280
     0
281
     0
  0
CLASS
  1
ACDBDICTIONARYWDFLT
  2
AcDbDictionaryWithDefault
  3
ObjectDBX Classes
 90
        0
 91
        1
280
     0
281
     0
  0
ENDSEC
  0
SECTION
  2
TABLES
  0
TABLE
  2
VPORT
  5
8
330
0
100
AcDbSymbolTable
 70
     2
  0
VPORT
  5
16C14
330
8
100
AcDbSymbolTableRecord
100
AcDbViewportTableRecord
  2
*Active
 70
     0
 10
0.0
 20
0.0
 11
1.0
 21
1.0
 12
-11.37502778725901
 22
0.1813289346449736
 13
0.0
 23
0.0
 14
0.5
 24
0.5
 15
0.5
 25
0.5
 16
0.0
 26
0.0
 36
1.0
 17
0.0
 27
0.0
 37
0.0
 40
30.13797870292795
 41
1.977142857142857
 42
50.0
 43
0.0
 44
0.0
 50
0.0
 51
0.0
 71
     0
 72
   100
 73
     1
 74
     1
 75
     0
 76
     0
 77
     0
 78
     0
281
     0
 65
     1
110
0.0
120
0.0
130
0.0
111
1.0
121
0.0
131
0.0
112
0.0
122
1.0
132
0.0
 79
     0
146
0.0
  0
ENDTAB
  0
TABLE
  2
LTYPE
  5
5
330
0
100
AcDbSymbolTable
 70
     1
  0
LTYPE
  5
12
330
5
100
AcDbSymbolTableRecord
100
AcDbLinetypeTableRecord
  2
BYBLOCK
 70
     0
  3

 72
    65
 73
     0
 40
0.0
  0
LTYPE
  5
13
330
5
100
AcDbSymbolTableRecord
100
AcDbLinetypeTableRecord
  2
BYLAYER
 70
     0
  3

 72
    65
 73
     0
 40
0.0
  0
LTYPE
  5
14
330
5
100
AcDbSymbolTableRecord
100
AcDbLinetypeTableRecord
  2
CONTINUOUS
 70
     0
  3
Solid line
 72
    65
 73
     0
 40
0.0
  0
ENDTAB
  0
TABLE
  2
LAYER
  5
2
330
0
100
AcDbSymbolTable
 70
     3
  0
LAYER
  5
E
330
2
100
AcDbSymbolTableRecord
100
AcDbLayerTableRecord
  2
0
 70
     0
 62
     7
  6
CONTINUOUS
370
    -3
390
168A3
  0
LAYER
  5
16A66
330
2
100
AcDbSymbolTableRecord
100
AcDbLayerTableRecord
  2
Defpoints
 70
     0
 62
     7
  6
CONTINUOUS
290
     0
370
    -3
390
168A3
  0
LAYER
  5
16BBB
330
2
100
AcDbSymbolTableRecord
100
AcDbLayerTableRecord
  2
DIM
 70
     0
 62
    -3
  6
CONTINUOUS
370
    -3
390
168A3
  0
ENDTAB
  0
TABLE
  2
STYLE
  5
3
330
0
100
AcDbSymbolTable
 70
     1
  0
STYLE
  5
F
330
3
100
AcDbSymbolTableRecord
100
AcDbTextStyleTableRecord
  2
STANDARD
 70
     0
 40
0.0
 41
1.0
 50
0.0
 71
     0
 42
0.25
  3
txt
  4

  0
ENDTAB
  0
TABLE
  2
VIEW
  5
6
330
0
100
AcDbSymbolTable
 70
     0
  0
ENDTAB
  0
TABLE
  2
UCS
  5
7
330
0
100
AcDbSymbolTable
 70
     0
  0
ENDTAB
  0
TABLE
  2
APPID
  5
9
330
0
100
AcDbSymbolTable
 70
     1
  0
APPID
  5
10
330
9
100
AcDbSymbolTableRecord
100
AcDbRegAppTableRecord
  2
ACAD
 70
     0
  0
ENDTAB
  0
TABLE
  2
DIMSTYLE
  5
A
330
0
100
AcDbSymbolTable
 70
     1
100
AcDbDimStyleTable
 71
     1
340
1D
  0
DIMSTYLE
105
1D
102
{ACAD_REACTORS
330
16B4D
330
16B5B
330
16B77
330
16BA2
102
}
330
A
100
AcDbSymbolTableRecord
100
AcDbDimStyleTableRecord
  2
STANDARD
 70
     0
140
1.0
340
F
  0
ENDTAB
  0
TABLE
  2
BLOCK_RECORD
  5
1
330
0
100
AcDbSymbolTable
 70
     6
  0
BLOCK_RECORD
  5
18
330
1
100
AcDbSymbolTableRecord
100
AcDbBlockTableRecord
  2
*MODEL_SPACE
340
168A6
  0
BLOCK_RECORD
  5
15
330
1
100
AcDbSymbolTableRecord
100
AcDbBlockTableRecord
  2
*PAPER_SPACE
340
168A7
  0
BLOCK_RECORD
  5
16A2D
330
1
100
AcDbSymbolTableRecord
100
AcDbBlockTableRecord
  2
6142_E
340
0
310
28000000200000002000000001000800000000000004000000000000000000000000000000000000000000004000000080000000FF000000002000004020000080200000FF200000004000004040000080400000FF400000006000004060000080600000FF600000008000004080000080800000FF80000000A0000040A000
310
0080A00000FFA0000000C0000040C0000080C00000FFC0000000FF000040FF000080FF0000FFFF0000000020004000200080002000FF002000002020004020200080202000FF202000004020004040200080402000FF402000006020004060200080602000FF602000008020004080200080802000FF80200000A0200040A0
310
200080A02000FFA0200000C0200040C0200080C02000FFC0200000FF200040FF200080FF2000FFFF2000000040004000400080004000FF004000002040004020400080204000FF204000004040004040400080404000FF404000006040004060400080604000FF604000008040004080400080804000FF80400000A0400040
310
A0400080A04000FFA0400000C0400040C0400080C04000FFC0400000FF400040FF400080FF4000FFFF4000000060004000600080006000FF006000002060004020600080206000FF206000004060004040600080406000FF406000006060004060600080606000FF606000008060004080600080806000FF80600000A06000
310
40A0600080A06000FFA0600000C0600040C0600080C06000FFC0600000FF600040FF600080FF6000FFFF6000000080004000800080008000FF008000002080004020800080208000FF208000004080004040800080408000FF408000006080004060800080608000FF608000008080004080800080808000FF80800000A080
310
0040A0800080A08000FFA0800000C0800040C0800080C08000FFC0800000FF800040FF800080FF8000FFFF80000000A0004000A0008000A000FF00A0000020A0004020A0008020A000FF20A0000040A0004040A0008040A000FF40A0000060A0004060A0008060A000FF60A0000080A0004080A0008080A000FF80A00000A0
310
A00040A0A00080A0A000FFA0A00000C0A00040C0A00080C0A000FFC0A00000FFA00040FFA00080FFA000FFFFA0000000C0004000C0008000C000FF00C0000020C0004020C0008020C000FF20C0000040C0004040C0008040C000FF40C0000060C0004060C0008060C000FF60C0000080C0004080C0008080C000FF80C00000
310
A0C00040A0C00080A0C000FFA0C00000C0C00040C0C00080C0C000FFC0C00000FFC00040FFC00080FFC000FFFFC0000000FF004000FF008000FF00FF00FF000020FF004020FF008020FF00FF20FF000040FF004040FF008040FF00FF40FF000060FF004060FF008060FF00FF60FF000080FF004080FF008080FF00FF80FF00
310
00A0FF0040A0FF0080A0FF00FFA0FF0000C0FF0040C0FF0080C0FF00FFC0FF0000FFFF0040FFFF0080FFFF00FFFFFF0000000000000000000000000000000000000000000000000000000000000000000000000000000000000000000000000000000000000000000000000000000000000000000000000000000000000000
310
0000000000000000000000000000000000000000000000000000000000000000000000000000000000000000000000000000FFFFFFFFFFFFFFFFFFFFFFFFFFFFFFFFFFFFFFFFFFFFFFFFFFFFFFFFFFFF0000FF00000000000000000000000000000000000000000000000000000000FF0000FF000000000000000000000000
310
00000000000000000000000000000000FF0000FF00000000000000000000000000000000000000000000000000000000FF0000FF00000000000000000000000000000000000000000000000000000000FF0000FF00000000000000000000000000000000000000000000000000000000FF0000FF0000000000000000000000
310
0000000000000000000000000000000000FF0000FF00000000000000000000000000000000000000000000000000000000FF0000FF00000000000000000000000000000000000000000000000000000000FF0000FF00000000000000000000000000000000000000000000000000000000FF0000FF00000000000000000000
310
000000000000000000000000000000000000FF0000FF00000000000000000000000000000000000000000000000000000000FF0000FF00000000000000000000000000000000000000000000000000000000FF0000FF00000000000000000000000000000000000000000000000000000000FF0000FF000000000000000000
310
00000000000000000000000000000000000000FF0000FF00000000000000000000000000000000000000000000000000000000FF0000FF00000000000000000000000000000000000000000000000000000000FF0000FF00000000000000000000000000000000000000000000000000000000FF0000FF0000000000000000
310
0000000000000000000000000000000000000000FF0000FFFFFFFFFFFFFFFFFFFFFFFFFFFFFFFFFFFFFFFFFFFFFFFFFFFFFFFFFFFF0000FFFFFFFFFFFFFFFFFFFFFFFFFFFFFFFFFFFFFFFFFFFFFFFFFFFFFFFFFFFF0000FFFFFFFFFFFFFFFFFFFFFFFFFFFFFFFFFFFFFFFFFFFFFFFFFFFFFFFFFFFF0000FF00000000000000
310
000000000000000000000000000000000000000000FF0000FFFFFFFFFFFFFFFFFFFFFFFFFFFFFFFFFFFFFFFFFFFFFFFFFFFFFFFFFFFF00000000000000000000000000000000000000000000000000000000000000000000000000000000000000000000000000000000000000000000000000000000000000000000000000
310
0000000000000000000000000000000000000000000000000000000000000000000000000000000000000000000000000000000000000000
  0
BLOCK_RECORD
  5
16A39
330
1
100
AcDbSymbolTableRecord
100
AcDbBlockTableRecord
  2
6142_C
340
0
310
28000000200000002000000001000800000000000004000000000000000000000000000000000000000000004000000080000000FF000000002000004020000080200000FF200000004000004040000080400000FF400000006000004060000080600000FF600000008000004080000080800000FF80000000A0000040A000
310
0080A00000FFA0000000C0000040C0000080C00000FFC0000000FF000040FF000080FF0000FFFF0000000020004000200080002000FF002000002020004020200080202000FF202000004020004040200080402000FF402000006020004060200080602000FF602000008020004080200080802000FF80200000A0200040A0
310
200080A02000FFA0200000C0200040C0200080C02000FFC0200000FF200040FF200080FF2000FFFF2000000040004000400080004000FF004000002040004020400080204000FF204000004040004040400080404000FF404000006040004060400080604000FF604000008040004080400080804000FF80400000A0400040
310
A0400080A04000FFA0400000C0400040C0400080C04000FFC0400000FF400040FF400080FF4000FFFF4000000060004000600080006000FF006000002060004020600080206000FF206000004060004040600080406000FF406000006060004060600080606000FF606000008060004080600080806000FF80600000A06000
310
40A0600080A06000FFA0600000C0600040C0600080C06000FFC0600000FF600040FF600080FF6000FFFF6000000080004000800080008000FF008000002080004020800080208000FF208000004080004040800080408000FF408000006080004060800080608000FF608000008080004080800080808000FF80800000A080
310
0040A0800080A08000FFA0800000C0800040C0800080C08000FFC0800000FF800040FF800080FF8000FFFF80000000A0004000A0008000A000FF00A0000020A0004020A0008020A000FF20A0000040A0004040A0008040A000FF40A0000060A0004060A0008060A000FF60A0000080A0004080A0008080A000FF80A00000A0
310
A00040A0A00080A0A000FFA0A00000C0A00040C0A00080C0A000FFC0A00000FFA00040FFA00080FFA000FFFFA0000000C0004000C0008000C000FF00C0000020C0004020C0008020C000FF20C0000040C0004040C0008040C000FF40C0000060C0004060C0008060C000FF60C0000080C0004080C0008080C000FF80C00000
310
A0C00040A0C00080A0C000FFA0C00000C0C00040C0C00080C0C000FFC0C00000FFC00040FFC00080FFC000FFFFC0000000FF004000FF008000FF00FF00FF000020FF004020FF008020FF00FF20FF000040FF004040FF008040FF00FF40FF000060FF004060FF008060FF00FF60FF000080FF004080FF008080FF00FF80FF00
310
00A0FF0040A0FF0080A0FF00FFA0FF0000C0FF0040C0FF0080C0FF00FFC0FF0000FFFF0040FFFF0080FFFF00FFFFFF000000000000000000000000000000000000000000000000000000000000000000000000000000000000000000FFFFFFFFFF000000000000000000000000000000000000000000000000000000FF0000
310
00FF000000000000000000000000000000000000000000000000000000FF000000FF000000000000000000000000000000000000000000000000000000FF000000FF000000000000000000000000000000000000000000000000000000FF000000FF000000000000000000000000000000000000000000000000000000FF00
310
0000FF000000000000000000000000000000000000000000000000000000FF000000FF000000000000000000000000000000000000000000000000000000FF000000FF000000000000000000000000000000000000000000000000000000FF000000FF000000000000000000000000000000000000000000000000000000FF
310
000000FF000000000000000000000000000000000000000000000000000000FF000000FF000000000000000000000000000000000000000000000000000000FF000000FF000000000000000000000000000000000000000000000000000000FF000000FF000000000000000000000000000000000000000000000000000000
310
FF000000FF000000000000000000000000000000000000000000000000000000FF000000FF000000000000000000000000000000000000000000000000000000FF000000FF000000000000000000000000000000000000000000000000000000FF000000FF0000000000000000000000000000000000000000000000000000
310
00FF000000FF000000000000000000000000000000000000000000000000000000FF000000FF000000000000000000000000000000000000000000000000000000FF000000FF000000000000000000000000000000000000000000000000000000FF000000FF00000000000000000000000000000000000000000000000000
310
0000FF000000FF000000000000000000000000000000000000000000000000000000FF000000FF000000000000000000000000000000000000000000000000000000FF000000FF000000000000000000000000000000000000000000000000000000FF000000FFFF0000000000000000000000000000000000000000000000
310
000000FF00000000FFFFFF000000000000000000000000000000000000000000000000FF000000000000FF000000000000000000000000000000000000000000000000FF000000000000FF000000000000000000000000000000000000000000000000FF000000000000FF0000000000000000000000000000000000000000
310
00000000FFFFFFFFFFFFFFFF0000000000000000000000000000000000000000000000000000000000000000000000000000000000000000
  0
BLOCK_RECORD
  5
16B4E
330
1
100
AcDbSymbolTableRecord
100
AcDbBlockTableRecord
  2
*D2
340
0
  0
BLOCK_RECORD
  5
16B5C
330
1
100
AcDbSymbolTableRecord
100
AcDbBlockTableRecord
  2
*D3
340
0
  0
BLOCK_RECORD
  5
16B78
330
1
100
AcDbSymbolTableRecord
100
AcDbBlockTableRecord
  2
*D4
340
0
  0
BLOCK_RECORD
  5
16BA3
330
1
100
AcDbSymbolTableRecord
100
AcDbBlockTableRecord
  2
*D5
340
0
  0
ENDTAB
  0
ENDSEC
  0
SECTION
  2
BLOCKS
  0
BLOCK
  5
19
330
18
100
AcDbEntity
  8
0
100
AcDbBlockBegin
  2
*MODEL_SPACE
 70
     0
 10
0.0
 20
0.0
 30
0.0
  3
*MODEL_SPACE
  1

  0
ENDBLK
  5
1A
330
18
100
AcDbEntity
  8
0
100
AcDbBlockEnd
  0
BLOCK
  5
16
330
15
100
AcDbEntity
 67
     1
  8
0
100
AcDbBlockBegin
  2
*PAPER_SPACE
 70
     0
 10
0.0
 20
0.0
 30
0.0
  3
*PAPER_SPACE
  1

  0
ENDBLK
  5
17
330
15
100
AcDbEntity
 67
     1
  8
0
100
AcDbBlockEnd
  0
BLOCK
  5
16A2E
330
16A2D
100
AcDbEntity
  8
0
100
AcDbBlockBegin
  2
6142_E
 70
     0
 10
0.0
 20
0.0
 30
0.0
  3
6142_E
  1

  0
LINE
  5
16A30
330
16A2D
100
AcDbEntity
  8
0
100
AcDbLine
 10
6.631426950799692
 20
0.0
 30
0.0
 11
6.631426950799692
 21
5.5
 31
0.0
  0
LINE
  5
16A31
330
16A2D
100
AcDbEntity
  8
0
100
AcDbLine
 10
0.0
 20
0.0
 30
0.0
 11
0.0
 21
5.5
 31
0.0
  0
LINE
  5
16A32
330
16A2D
100
AcDbEntity
  8
0
100
AcDbLine
 10
0.0
 20
0.0
 30
0.0
 11
6.631426950799692
 21
0.0
 31
0.0
  0
LINE
  5
16A33
330
16A2D
100
AcDbEntity
  8
0
100
AcDbLine
 10
0.0
 20
4.875
 30
0.0
 11
6.631426950799692
 21
4.875
 31
0.0
  0
LINE
  5
16A34
330
16A2D
100
AcDbEntity
  8
0
100
AcDbLine
 10
0.0
 20
5.5
 30
0.0
 11
6.631426950799692
 21
5.5
 31
0.0
  0
LINE
  5
16A35
330
16A2D
100
AcDbEntity
  8
0
100
AcDbLine
 10
0.0
 20
5.0
 30
0.0
 11
6.631426950799692
 21
5.0
 31
0.0
  0
LINE
  5
16A36
330
16A2D
100
AcDbEntity
  8
0
100
AcDbLine
 10
0.0
 20
4.75
 30
0.0
 11
6.631426950799692
 21
4.75
 31
0.0
  0
LINE
  5
16A37
330
16A2D
100
AcDbEntity
  8
0
100
AcDbLine
 10
0.0
 20
4.625
 30
0.0
 11
6.631426950799692
 21
4.625
 31
0.0
  0
ENDBLK
  5
16A2F
330
16A2D
100
AcDbEntity
  8
0
100
AcDbBlockEnd
  0
BLOCK
  5
16A3A
330
16A39
100
AcDbEntity
  8
0
100
AcDbBlockBegin
  2
6142_C
 70
     0
 10
0.0
 20
0.0
 30
0.0
  3
6142_C
  1

  0
LINE
  5
16A3C
330
16A39
100
AcDbEntity
  8
0
100
AcDbLine
 10
0.75
 20
0.0
 30
0.0
 11
0.75
 21
4.625
 31
0.0
  0
LINE
  5
16A3D
330
16A39
100
AcDbEntity
  8
0
100
AcDbLine
 10
0.0
 20
0.0
 30
0.0
 11
0.0
 21
5.5
 31
0.0
  0
LINE
  5
16A3E
330
16A39
100
AcDbEntity
  8
0
100
AcDbLine
 10
0.0
 20
0.0
 30
0.0
 11
0.75
 21
0.0
 31
0.0
  0
LINE
  5
16A3F
330
16A39
100
AcDbEntity
  8
0
100
AcDbLine
 10
0.0
 20
5.5
 30
0.0
 11
1.5
 21
5.5
 31
0.0
  0
ARC
  5
16A40
330
16A39
100
AcDbEntity
  8
0
100
AcDbCircle
 10
1.375
 20
4.75
 30
0.0
 40
0.125
100
AcDbArc
 50
90.0
 51
180.0
  0
LINE
  5
16A41
330
16A39
100
AcDbEntity
  8
0
100
AcDbLine
 10
1.125
 20
4.625
 30
0.0
 11
1.125
 21
4.75
 31
0.0
  0
LINE
  5
16A42
330
16A39
100
AcDbEntity
  8
0
100
AcDbLine
 10
0.75
 20
4.625
 30
0.0
 11
1.125
 21
4.625
 31
0.0
  0
LINE
  5
16A43
330
16A39
100
AcDbEntity
  8
0
100
AcDbLine
 10
1.125
 20
4.75
 30
0.0
 11
1.25
 21
4.75
 31
0.0
  0
LINE
  5
16A44
330
16A39
100
AcDbEntity
  8
0
100
AcDbLine
 10
1.5
 20
5.0
 30
0.0
 11
1.5
 21
5.5
 31
0.0
  0
LINE
  5
16A45
330
16A39
100
AcDbEntity
  8
0
100
AcDbLine
 10
1.375
 20
5.0
 30
0.0
 11
1.5
 21
5.0
 31
0.0
  0
LINE
  5
16A46
330
16A39
100
AcDbEntity
  8
0
100
AcDbLine
 10
1.375
 20
4.875
 30
0.0
 11
1.375
 21
5.0
 31
0.0
  0
ENDBLK
  5
16A3B
330
16A39
100
AcDbEntity
  8
0
100
AcDbBlockEnd
  0
BLOCK
  5
16B59
330
16B4E
100
AcDbEntity
  8
0
100
AcDbBlockBegin
  2
*D2
 70
     1
 10
0.0
 20
0.0
 30
0.0
  3
*D2
  1

  0
LINE
  5
16C02
330
16B4E
100
AcDbEntity
  8
DIM
 62
     0
370
    -2
100
AcDbLine
 10
10.42638284670814
 20
-0.0625
 30
0.0
 11
10.42638284670814
 21
-2.467526919490574
 31
0.0
  0
LINE
  5
16C03
330
16B4E
100
AcDbEntity
  8
DIM
 62
     0
370
    -2
100
AcDbLine
 10
11.17638284670814
 20
-0.0624999844171729
 30
0.0
 11
11.17638284670814
 21
-2.467526919490574
 31
0.0
  0
LINE
  5
16C04
330
16B4E
100
AcDbEntity
  8
DIM
 62
     0
370
    -2
100
AcDbLine
 10
10.60638284670814
 20
-2.287526919490574
 30
0.0
 11
10.99638284670814
 21
-2.287526919490574
 31
0.0
  0
LINE
  5
16C05
330
16B4E
100
AcDbEntity
  8
DIM
 62
     0
370
    -2
100
AcDbLine
 10
11.17638284670814
 20
-2.287526919490574
 30
0.0
 11
11.35638284670814
 21
-2.287526919490574
 31
0.0
  0
SOLID
  5
16C06
330
16B4E
100
AcDbEntity
  8
DIM
 62
     0
100
AcDbTrace
 10
10.60638284670814
 20
-2.257526919490574
 30
0.0
 11
10.60638284670814
 21
-2.317526919490573
 31
0.0
 12
10.42638284670814
 22
-2.287526919490574
 32
0.0
 13
10.42638284670814
 23
-2.287526919490574
 33
0.0
  0
SOLID
  5
16C07
330
16B4E
100
AcDbEntity
  8
DIM
 62
     0
100
AcDbTrace
 10
10.99638284670814
 20
-2.257526919490574
 30
0.0
 11
10.99638284670814
 21
-2.317526919490573
 31
0.0
 12
11.17638284670814
 22
-2.287526919490574
 32
0.0
 13
11.17638284670814
 23
-2.287526919490574
 33
0.0
  0
MTEXT
  5
16C08
330
16B4E
100
AcDbEntity
  8
DIM
 62
     0
100
AcDbMText
 10
13.69638284670814
 20
-2.287526919490574
 30
0.0
 40
1.0
 41
0.0
 71
     5
 72
     1
  1
\A1;0.7500
 73
     1
 44
1.0
  0
POINT
  5
16C09
330
16B4E
100
AcDbEntity
  8
Defpoints
 62
     0
100
AcDbPoint
 10
10.42638284670814
 20
0.0
 30
0.0
  0
POINT
  5
16C0A
330
16B4E
100
AcDbEntity
  8
Defpoints
 62
     0
100
AcDbPoint
 10
11.17638284670814
 20
0.0000000155828271
 30
0.0
  0
POINT
  5
16C0B
330
16B4E
100
AcDbEntity
  8
Defpoints
 62
     0
100
AcDbPoint
 10
11.17638284670814
 20
-2.287526919490574
 30
0.0
  0
ENDBLK
  5
16B5A
330
16B4E
100
AcDbEntity
  8
0
100
AcDbBlockEnd
  0
BLOCK
  5
16B67
330
16B5C
100
AcDbEntity
  8
0
100
AcDbBlockBegin
  2
*D3
 70
     1
 10
0.0
 20
0.0
 30
0.0
  3
*D3
  1

  0
LINE
  5
16BF8
330
16B5C
100
AcDbEntity
  8
DIM
 62
     0
370
    -2
100
AcDbLine
 10
9.676382846708143
 20
5.562500015582827
 30
0.0
 11
9.676382846708143
 21
8.665872970403462
 31
0.0
  0
LINE
  5
16BF9
330
16B5C
100
AcDbEntity
  8
DIM
 62
     0
370
    -2
100
AcDbLine
 10
11.17638284670814
 20
5.562500015582827
 30
0.0
 11
11.17638284670814
 21
8.665872970403462
 31
0.0
  0
LINE
  5
16BFA
330
16B5C
100
AcDbEntity
  8
DIM
 62
     0
370
    -2
100
AcDbLine
 10
9.856382846708143
 20
8.485872970403463
 30
0.0
 11
10.99638284670814
 21
8.485872970403463
 31
0.0
  0
LINE
  5
16BFB
330
16B5C
100
AcDbEntity
  8
DIM
 62
     0
370
    -2
100
AcDbLine
 10
11.17638284670814
 20
8.485872970403463
 30
0.0
 11
11.35638284670814
 21
8.485872970403463
 31
0.0
  0
SOLID
  5
16BFC
330
16B5C
100
AcDbEntity
  8
DIM
 62
     0
100
AcDbTrace
 10
9.856382846708143
 20
8.515872970403462
 30
0.0
 11
9.856382846708143
 21
8.455872970403463
 31
0.0
 12
9.676382846708143
 22
8.485872970403463
 32
0.0
 13
9.676382846708143
 23
8.485872970403463
 33
0.0
  0
SOLID
  5
16BFD
330
16B5C
100
AcDbEntity
  8
DIM
 62
     0
100
AcDbTrace
 10
10.99638284670814
 20
8.515872970403462
 30
0.0
 11
10.99638284670814
 21
8.455872970403463
 31
0.0
 12
11.17638284670814
 22
8.485872970403463
 32
0.0
 13
11.17638284670814
 23
8.485872970403463
 33
0.0
  0
MTEXT
  5
16BFE
330
16B5C
100
AcDbEntity
  8
DIM
 62
     0
100
AcDbMText
 10
13.52971618004148
 20
8.485872970403463
 30
0.0
 40
1.0
 41
0.0
 71
     5
 72
     1
  1
\A1;1.5000
 73
     1
 44
1.0
  0
POINT
  5
16BFF
330
16B5C
100
AcDbEntity
  8
Defpoints
 62
     0
100
AcDbPoint
 10
9.676382846708143
 20
5.500000015582827
 30
0.0
  0
POINT
  5
16C00
330
16B5C
100
AcDbEntity
  8
Defpoints
 62
     0
100
AcDbPoint
 10
11.17638284670814
 20
5.500000015582827
 30
0.0
  0
POINT
  5
16C01
330
16B5C
100
AcDbEntity
  8
Defpoints
 62
     0
100
AcDbPoint
 10
11.17638284670814
 20
8.485872970403463
 30
0.0
  0
ENDBLK
  5
16B68
330
16B5C
100
AcDbEntity
  8
0
100
AcDbBlockEnd
  0
BLOCK
  5
16B83
330
16B78
100
AcDbEntity
  8
0
100
AcDbBlockBegin
  2
*D4
 70
     1
 10
0.0
 20
0.0
 30
0.0
  3
*D4
  1

  0
LINE
  5
16BEE
330
16B78
100
AcDbEntity
  8
DIM
 62
     0
370
    -2
100
AcDbLine
 10
-10.68106284365881
 20
0.0
 30
0.0
 11
-37.67981374734554
 21
0.0000000000000077
 31
0.0
  0
LINE
  5
16BEF
330
16B78
100
AcDbEntity
  8
DIM
 62
     0
370
    -2
100
AcDbLine
 10
-10.68106284365881
 20
5.5
 30
0.0
 11
-37.67981374734554
 21
5.500000000000007
 31
0.0
  0
LINE
  5
16BF0
330
16B78
100
AcDbEntity
  8
DIM
 62
     0
370
    -2
100
AcDbLine
 10
-37.49981374734554
 20
0.1800000000000076
 30
0.0
 11
-37.49981374734554
 21
2.160000000000007
 31
0.0
  0
LINE
  5
16BF1
330
16B78
100
AcDbEntity
  8
DIM
 62
     0
370
    -2
100
AcDbLine
 10
-37.49981374734554
 20
5.320000000000007
 30
0.0
 11
-37.49981374734554
 21
3.340000000000006
 31
0.0
  0
SOLID
  5
16BF2
330
16B78
100
AcDbEntity
  8
DIM
 62
     0
100
AcDbTrace
 10
-37.52981374734555
 20
0.1800000000000076
 30
0.0
 11
-37.46981374734554
 21
0.1800000000000076
 31
0.0
 12
-37.49981374734554
 22
0.0000000000000076
 32
0.0
 13
-37.49981374734554
 23
0.0000000000000076
 33
0.0
  0
SOLID
  5
16BF3
330
16B78
100
AcDbEntity
  8
DIM
 62
     0
100
AcDbTrace
 10
-37.52981374734555
 20
5.320000000000007
 30
0.0
 11
-37.46981374734554
 21
5.320000000000007
 31
0.0
 12
-37.49981374734554
 22
5.500000000000007
 32
0.0
 13
-37.49981374734554
 23
5.500000000000007
 33
0.0
  0
MTEXT
  5
16BF4
330
16B78
100
AcDbEntity
  8
DIM
 62
     0
100
AcDbMText
 10
-37.49981374734554
 20
2.75
 30
0.0
 40
1.0
 41
0.0
 71
     5
 72
     1
  1
\A1;5.5000
 73
     1
 44
1.0
  0
POINT
  5
16BF5
330
16B78
100
AcDbEntity
  8
Defpoints
 62
     0
100
AcDbPoint
 10
-10.61856284365881
 20
0.0
 30
0.0
  0
POINT
  5
16BF6
330
16B78
100
AcDbEntity
  8
Defpoints
 62
     0
100
AcDbPoint
 10
-10.61856284365881
 20
5.5
 30
0.0
  0
POINT
  5
16BF7
330
16B78
100
AcDbEntity
  8
Defpoints
 62
     0
100
AcDbPoint
 10
-37.49981374734554
 20
5.500000000000007
 30
0.0
  0
ENDBLK
  5
16B84
330
16B78
100
AcDbEntity
  8
0
100
AcDbBlockEnd
  0
BLOCK
  5
16BAE
330
16BA3
100
AcDbEntity
  8
0
100
AcDbBlockBegin
  2
*D5
 70
     1
 10
0.0
 20
0.0
 30
0.0
  3
*D5
  1

  0
LINE
  5
16BE4
330
16BA3
100
AcDbEntity
  8
DIM
 62
     0
370
    -2
100
AcDbLine
 10
-10.74356284365881
 20
0.0
 30
0.0
 11
-32.08272548464756
 21
0.0000000000000061
 31
0.0
  0
LINE
  5
16BE5
330
16BA3
100
AcDbEntity
  8
DIM
 62
     0
370
    -2
100
AcDbLine
 10
-10.74356284365881
 20
4.625
 30
0.0
 11
-32.08272548464756
 21
4.625000000000005
 31
0.0
  0
LINE
  5
16BE6
330
16BA3
100
AcDbEntity
  8
DIM
 62
     0
370
    -2
100
AcDbLine
 10
-31.90272548464756
 20
0.180000000000006
 30
0.0
 11
-31.90272548464756
 21
1.722500000000005
 31
0.0
  0
LINE
  5
16BE7
330
16BA3
100
AcDbEntity
  8
DIM
 62
     0
370
    -2
100
AcDbLine
 10
-31.90272548464756
 20
4.445000000000005
 30
0.0
 11
-31.90272548464756
 21
2.902500000000005
 31
0.0
  0
SOLID
  5
16BE8
330
16BA3
100
AcDbEntity
  8
DIM
 62
     0
100
AcDbTrace
 10
-31.93272548464757
 20
0.180000000000006
 30
0.0
 11
-31.87272548464756
 21
0.180000000000006
 31
0.0
 12
-31.90272548464756
 22
0.000000000000006
 32
0.0
 13
-31.90272548464756
 23
0.000000000000006
 33
0.0
  0
SOLID
  5
16BE9
330
16BA3
100
AcDbEntity
  8
DIM
 62
     0
100
AcDbTrace
 10
-31.93272548464757
 20
4.445000000000005
 30
0.0
 11
-31.87272548464756
 21
4.445000000000005
 31
0.0
 12
-31.90272548464756
 22
4.625000000000005
 32
0.0
 13
-31.90272548464756
 23
4.625000000000005
 33
0.0
  0
MTEXT
  5
16BEA
330
16BA3
100
AcDbEntity
  8
DIM
 62
     0
100
AcDbMText
 10
-31.90272548464756
 20
2.3125
 30
0.0
 40
1.0
 41
0.0
 71
     5
 72
     1
  1
\A1;4.6250
 73
     1
 44
1.0
  0
POINT
  5
16BEB
330
16BA3
100
AcDbEntity
  8
Defpoints
 62
     0
100
AcDbPoint
 10
-10.68106284365881
 20
0.0
 30
0.0
  0
POINT
  5
16BEC
330
16BA3
100
AcDbEntity
  8
Defpoints
 62
     0
100
AcDbPoint
 10
-10.68106284365881
 20
4.625
 30
0.0
  0
POINT
  5
16BED
330
16BA3
100
AcDbEntity
  8
Defpoints
 62
     0
100
AcDbPoint
 10
-31.90272548464756
 20
4.625000000000005
 30
0.0
  0
ENDBLK
  5
16BAF
330
16BA3
100
AcDbEntity
  8
0
100
AcDbBlockEnd
  0
ENDSEC
  0
SECTION
  2
ENTITIES
  0
LINE
  5
16AA7
330
18
100
AcDbEntity
  8
0
100
AcDbLine
 10
6.631426950799692
 20
5.5
 30
0.0
 11
-27.86855263811732
 21
5.5
 31
0.0
  0
LINE
  5
16AA9
330
18
100
AcDbEntity
  8
0
100
AcDbLine
 10
8.131426950799692
 20
5.0
 30
0.0
 11
-29.36855263811732
 21
5.0
 31
0.0
  0
LINE
  5
16AAA
330
18
100
AcDbEntity
  8
0
100
AcDbLine
 10
8.069015219778064
 20
4.875
 30
0.0
 11
-29.30605263811731
 21
4.875
 31
0.0
  0
LINE
  5
16AAD
330
18
100
AcDbEntity
  8
0
100
AcDbLine
 10
6.631426950799692
 20
0.0
 30
0.0
 11
-27.86855263811732
 21
0.0
 31
0.0
  0
LINE
  5
16AB5
330
18
100
AcDbEntity
  8
0
100
AcDbLine
 10
-28.61855263811732
 20
0.0
 30
0.0
 11
-28.61855263811732
 21
4.625
 31
0.0
  0
LINE
  5
16AB7
330
18
100
AcDbEntity
  8
0
100
AcDbLine
 10
-27.86855263811732
 20
0.0
 30
0.0
 11
-28.61855263811732
 21
0.0
 31
0.0
  0
LINE
  5
16AB8
330
18
100
AcDbEntity
  8
0
100
AcDbLine
 10
-27.86855263811732
 20
5.5
 30
0.0
 11
-29.36855263811732
 21
5.5
 31
0.0
  0
LINE
  5
16AB9
330
18
100
AcDbEntity
  8
0
100
AcDbLine
 10
-29.36855263811732
 20
5.0
 30
0.0
 11
-29.36855263811732
 21
5.5
 31
0.0
  0
ARC
  5
16ABA
330
18
100
AcDbEntity
  8
0
100
AcDbCircle
 10
-29.30605263811731
 20
4.75
 30
0.0
 40
0.125
100
AcDbArc
 50
0.000000000000007
 51
90.0
  0
LINE
  5
16ABB
330
18
100
AcDbEntity
  8
0
100
AcDbLine
 10
-28.61855263811732
 20
4.625
 30
0.0
 11
-29.05605263811732
 21
4.625
 31
0.0
  0
LINE
  5
16ABC
330
18
100
AcDbEntity
  8
0
100
AcDbLine
 10
-29.05605263811732
 20
4.625
 30
0.0
 11
-29.05605263811732
 21
4.74
 31
0.0
  0
ARC
  5
16ABD
330
18
100
AcDbEntity
  8
0
100
AcDbCircle
 10
-29.06605263811731
 20
4.74
 30
0.0
 40
0.01
100
AcDbArc
 50
0.000000000000007
 51
90.0
  0
LINE
  5
16ABE
330
18
100
AcDbEntity
  8
0
100
AcDbLine
 10
-29.06605263811731
 20
4.75
 30
0.0
 11
-29.18105263811732
 21
4.75
 31
0.0
  0
LINE
  5
16ABF
330
18
100
AcDbEntity
  8
0
100
AcDbLine
 10
-29.30605263811731
 20
4.875
 30
0.0
 11
-29.30605263811731
 21
4.99
 31
0.0
  0
LINE
  5
16AC0
330
18
100
AcDbEntity
  8
0
100
AcDbLine
 10
-29.31605263811731
 20
5.0
 30
0.0
 11
-29.36855263811732
 21
5.0
 31
0.0
  0
ARC
  5
16AC1
330
18
100
AcDbEntity
  8
0
100
AcDbCircle
 10
-29.31605263811731
 20
4.99
 30
0.0
 40
0.01
100
AcDbArc
 50
0.000000000000007
 51
90.0
  0
LINE
  5
16AD9
330
18
100
AcDbEntity
  8
0
100
AcDbLine
 10
11.17638284670814
 20
0.0000000155828271
 30
0.0
 11
11.17638284670814
 21
5.500000015582827
 31
0.0
  0
LINE
  5
16ADA
330
18
100
AcDbEntity
  8
0
100
AcDbLine
 10
10.42638284670814
 20
0.0000000155828271
 30
0.0
 11
10.42638284670814
 21
4.625000015582827
 31
0.0
  0
LINE
  5
16ADB
330
18
100
AcDbEntity
  8
0
100
AcDbLine
 10
11.17638284670814
 20
0.0000000155828271
 30
0.0
 11
11.17638284670814
 21
5.500000015582827
 31
0.0
  0
LINE
  5
16ADC
330
18
100
AcDbEntity
  8
0
100
AcDbLine
 10
11.17638284670814
 20
0.0000000155828271
 30
0.0
 11
10.42638284670814
 21
0.0000000155828271
 31
0.0
  0
LINE
  5
16ADD
330
18
100
AcDbEntity
  8
0
100
AcDbLine
 10
10.42638284670814
 20
4.625000015582827
 30
0.0
 11
9.988882846708143
 21
4.625000015582827
 31
0.0
  0
LINE
  5
16ADE
330
18
100
AcDbEntity
  8
0
100
AcDbLine
 10
11.17638284670814
 20
5.500000015582827
 30
0.0
 11
9.676382846708143
 21
5.500000015582827
 31
0.0
  0
LINE
  5
16ADF
330
18
100
AcDbEntity
  8
0
100
AcDbLine
 10
9.676382846708143
 20
5.000000015582827
 30
0.0
 11
9.676382846708143
 21
5.500000015582827
 31
0.0
  0
ARC
  5
16AE0
330
18
100
AcDbEntity
  8
0
100
AcDbCircle
 10
9.738882846708143
 20
4.750000015582827
 30
0.0
 40
0.125
100
AcDbArc
 50
0.000000000000007
 51
90.0
  0
LINE
  5
16AE1
330
18
100
AcDbEntity
  8
0
100
AcDbLine
 10
9.978882846708144
 20
4.750000015582827
 30
0.0
 11
9.863882846708143
 21
4.750000015582827
 31
0.0
  0
LINE
  5
16AE2
330
18
100
AcDbEntity
  8
0
100
AcDbLine
 10
9.988882846708143
 20
4.625000015582827
 30
0.0
 11
9.988882846708143
 21
4.740000015582827
 31
0.0
  0
ARC
  5
16AE3
330
18
100
AcDbEntity
  8
0
100
AcDbCircle
 10
9.978882846708144
 20
4.740000015582827
 30
0.0
 40
0.01
100
AcDbArc
 50
0.000000000000007
 51
90.0
  0
LINE
  5
16AE4
330
18
100
AcDbEntity
  8
0
100
AcDbLine
 10
9.738882846708143
 20
4.875000015582827
 30
0.0
 11
9.738882846708143
 21
4.990000015582827
 31
0.0
  0
ARC
  5
16AE5
330
18
100
AcDbEntity
  8
0
100
AcDbCircle
 10
9.728882846708144
 20
4.990000015582827
 30
0.0
 40
0.01
100
AcDbArc
 50
0.000000000000007
 51
90.0
  0
LINE
  5
16AE6
330
18
100
AcDbEntity
  8
0
100
AcDbLine
 10
9.728882846708144
 20
5.000000015582827
 30
0.0
 11
9.676382846708143
 21
5.000000015582827
 31
0.0
  0
LINE
  5
16B08
330
18
100
AcDbEntity
  8
0
100
AcDbLine
 10
7.381426950799692
 20
0.0000000311656541
 30
0.0
 11
7.381426950799692
 21
4.625000031165654
 31
0.0
  0
LINE
  5
16B0A
330
18
100
AcDbEntity
  8
0
100
AcDbLine
 10
6.631426950799692
 20
0.0000000311656541
 30
0.0
 11
7.381426950799692
 21
0.0000000311656541
 31
0.0
  0
LINE
  5
16B0B
330
18
100
AcDbEntity
  8
0
100
AcDbLine
 10
6.631426950799692
 20
5.500000031165654
 30
0.0
 11
8.131426950799692
 21
5.500000031165654
 31
0.0
  0
LINE
  5
16B0C
330
18
100
AcDbEntity
  8
0
100
AcDbLine
 10
8.131426950799692
 20
5.000000031165654
 30
0.0
 11
8.131426950799692
 21
5.500000031165654
 31
0.0
  0
LINE
  5
16B0D
330
18
100
AcDbEntity
  8
0
100
AcDbLine
 10
7.381426950799692
 20
4.625000031165654
 30
0.0
 11
7.818926950799692
 21
4.625000031165654
 31
0.0
  0
ARC
  5
16B0E
330
18
100
AcDbEntity
  8
0
100
AcDbCircle
 10
8.068926950799692
 20
4.750000031165654
 30
0.0
 40
0.125
100
AcDbArc
 50
90.0
 51
180.0
  0
LINE
  5
16B0F
330
18
100
AcDbEntity
  8
0
100
AcDbLine
 10
7.818926950799692
 20
4.625000031165654
 30
0.0
 11
7.818926950799692
 21
4.740000031165654
 31
0.0
  0
ARC
  5
16B10
330
18
100
AcDbEntity
  8
0
100
AcDbCircle
 10
7.82892695079969
 20
4.740000031165654
 30
0.0
 40
0.01
100
AcDbArc
 50
90.0
 51
180.0
  0
LINE
  5
16B11
330
18
100
AcDbEntity
  8
0
100
AcDbLine
 10
7.82892695079969
 20
4.750000031165654
 30
0.0
 11
7.943926950799692
 21
4.750000031165654
 31
0.0
  0
LINE
  5
16B12
330
18
100
AcDbEntity
  8
0
100
AcDbLine
 10
8.068926950799692
 20
4.875000031165654
 30
0.0
 11
8.068926950799692
 21
4.990000031165654
 31
0.0
  0
LINE
  5
16B13
330
18
100
AcDbEntity
  8
0
100
AcDbLine
 10
8.07892695079969
 20
5.000000031165654
 30
0.0
 11
8.131426950799692
 21
5.000000031165654
 31
0.0
  0
ARC
  5
16B14
330
18
100
AcDbEntity
  8
0
100
AcDbCircle
 10
8.07892695079969
 20
4.990000031165654
 30
0.0
 40
0.01
100
AcDbArc
 50
90.0
 51
180.0
  0
LINE
  5
16B17
330
18
100
AcDbEntity
  8
0
100
AcDbLine
 10
7.818926950799692
 20
4.625
 30
0.0
 11
-29.05605263811732
 21
4.625
 31
0.0
  0
LINE
  5
16B18
330
18
100
AcDbEntity
  8
0
100
AcDbLine
 10
7.943926950799696
 20
4.75
 30
0.0
 11
-29.18105263811732
 21
4.75
 31
0.0
  0
DIMENSION
  5
16B4D
330
18
100
AcDbEntity
  8
DIM
100
AcDbDimension
  2
*D2
 10
11.17638284670814
 20
-2.287526919490574
 30
0.0
 11
13.69638284670814
 21
-2.287526919490574
 31
0.0
 70
    32
 71
     5
 42
0.75
  3
STANDARD
100
AcDbAlignedDimension
 13
10.42638284670814
 23
0.0
 33
0.0
 14
11.17638284670814
 24
0.0000000155828271
 34
0.0
100
AcDbRotatedDimension
  0
DIMENSION
  5
16B5B
330
18
100
AcDbEntity
  8
DIM
100
AcDbDimension
  2
*D3
 10
11.17638284670814
 20
8.485872970403463
 30
0.0
 11
13.52971618004148
 21
8.485872970403463
 31
0.0
 70
    32
 71
     5
 42
1.5
  3
STANDARD
100
AcDbAlignedDimension
 13
9.676382846708143
 23
5.500000015582827
 33
0.0
 14
11.17638284670814
 24
5.500000015582827
 34
0.0
100
AcDbRotatedDimension
  0
DIMENSION
  5
16B77
330
18
100
AcDbEntity
  8
DIM
100
AcDbDimension
  2
*D4
 10
-37.49981374734554
 20
5.500000000000007
 30
0.0
 11
-37.49981374734554
 21
2.75
 31
0.0
 70
   160
 71
     5
 42
5.5
  3
STANDARD
100
AcDbAlignedDimension
 13
-10.61856284365881
 23
0.0
 33
0.0
 14
-10.61856284365881
 24
5.5
 34
0.0
 50
90.0
100
AcDbRotatedDimension
  0
LINE
  5
16B85
330
18
100
AcDbEntity
  8
DIM
100
AcDbLine
 10
7.381426950799692
 20
-0.0624999688343459
 30
0.0
 11
7.381426950799692
 21
-3.925581019520301
 31
0.0
  0
LINE
  5
16B86
330
18
100
AcDbEntity
  8
DIM
100
AcDbLine
 10
-28.61855263811732
 20
-0.0624999688343459
 30
0.0
 11
-28.61855263811732
 21
-3.925581019520301
 31
0.0
  0
LINE
  5
16B87
330
18
100
AcDbEntity
  8
DIM
100
AcDbLine
 10
7.201426950799692
 20
-3.745581019520301
 30
0.0
 11
-7.861896176992144
 21
-3.745581019520301
 31
0.0
  0
LINE
  5
16B88
330
18
100
AcDbEntity
  8
DIM
100
AcDbLine
 10
-28.43855263811732
 20
-3.745581019520301
 30
0.0
 11
-13.37522951032548
 21
-3.745581019520301
 31
0.0
  0
SOLID
  5
16B89
330
18
100
AcDbEntity
  8
DIM
100
AcDbTrace
 10
7.201426950799692
 20
-3.715581019520301
 30
0.0
 11
7.201426950799692
 21
-3.775581019520301
 31
0.0
 12
7.381426950799692
 22
-3.745581019520301
 32
0.0
 13
7.381426950799692
 23
-3.745581019520301
 33
0.0
  0
SOLID
  5
16B8A
330
18
100
AcDbEntity
  8
DIM
100
AcDbTrace
 10
-28.43855263811732
 20
-3.715581019520301
 30
0.0
 11
-28.43855263811732
 21
-3.775581019520301
 31
0.0
 12
-28.61855263811732
 22
-3.745581019520301
 32
0.0
 13
-28.61855263811732
 23
-3.745581019520301
 33
0.0
  0
MTEXT
  5
16B8B
330
18
100
AcDbEntity
  8
DIM
100
AcDbMText
 10
-10.61856284365881
 20
-3.745581019520301
 30
0.0
 40
1.0
 41
0.0
 71
     5
 72
     1
  1
L/W
 73
     1
 44
1.0
  0
DIMENSION
  5
16BA2
330
18
100
AcDbEntity
  8
DIM
100
AcDbDimension
  2
*D5
 10
-31.90272548464756
 20
4.625000000000005
 30
0.0
 11
-31.90272548464756
 21
2.3125
 31
0.0
 70
    32
 71
     5
 42
4.625
  3
STANDARD
100
AcDbAlignedDimension
 13
-10.68106284365881
 23
0.0
 33
0.0
 14
-10.68106284365881
 24
4.625
 34
0.0
 50
90.0
100
AcDbRotatedDimension
  0
VIEWPORT
  5
16B42
330
15
100
AcDbEntity
 67
     1
  8
0
100
AcDbViewport
 10
5.985947864494722
 20
3.999999883606677
 30
0.0
 40
17.78044521163065
 41
8.992999745766947
 68
     2
 69
     1
 12
5.985947864494722
 22
3.999999883606677
 13
0.0
 23
0.0
 14
10.0
 24
10.0
 15
10.0
 25
10.0
 16
0.0
 26
0.0
 36
1.0
 17
0.0
 27
0.0
 37
0.0
 42
50.0
 43
0.0
 44
0.0
 45
8.992999745766947
 50
0.0
 51
0.0
 72
   100
 90
    32800
  1

281
     0
 71
     1
 74
     0
110
0.0
120
0.0
130
0.0
111
1.0
121
0.0
131
0.0
112
0.0
122
1.0
132
0.0
 79
     0
146
0.0
170
     0
  0
VIEWPORT
  5
16B44
330
15
100
AcDbEntity
 67
     1
  8
0
100
AcDbViewport
 10
5.24999976158142
 20
3.99999976158142
 30
0.0
 40
8.399999618530271
 41
6.399999618530272
 68
     1
 69
     2
 12
-11.6418620295165
 22
1.918995023179298
 13
0.0
 23
0.0
 14
0.5
 24
0.5
 15
0.5
 25
0.5
 16
0.0
 26
0.0
 36
1.0
 17
0.0
 27
0.0
 37
0.0
 42
50.0
 43
0.0
 44
0.0
 45
45.24031795794437
 50
0.0
 51
0.0
 72
   100
 90
    32800
  1

281
     0
 71
     1
 74
     0
110
0.0
120
0.0
130
0.0
111
1.0
121
0.0
131
0.0
112
0.0
122
1.0
132
0.0
 79
     0
146
0.0
170
     0
  0
ENDSEC
  0
SECTION
  2
OBJECTS
  0
DICTIONARY
  5
C
330
0
100
AcDbDictionary
281
     1
  3
ACAD_COLOR
350
16A62
  3
ACAD_GROUP
350
D
  3
ACAD_IMAGE_DICT
350
21
  3
ACAD_IMAGE_VARS
350
20
  3
ACAD_LAYOUT
350
168A4
  3
ACAD_MATERIAL
350
16A61
  3
ACAD_MLINESTYLE
350
1B
  3
ACAD_PLOTSETTINGS
350
168A5
  3
ACAD_PLOTSTYLENAME
350
168A2
  3
ACDBVARIABLEDICTIONARY
350
15452
  0
DICTIONARY
  5
16A62
102
{ACAD_REACTORS
330
C
102
}
330
C
100
AcDbDictionary
281
     1
  0
DICTIONARY
  5
D
102
{ACAD_REACTORS
330
C
102
}
330
C
100
AcDbDictionary
281
     1
  0
DICTIONARY
  5
21
102
{ACAD_REACTORS
330
C
102
}
330
C
100
AcDbDictionary
281
     1
  3
1001T
350
14E25
  3
2208-1
350
1568F
  3
2208-2
350
15690
  0
RASTERVARIABLES
  5
20
102
{ACAD_REACTORS
330
C
102
}
330
C
100
AcDbRasterVariables
 90
        0
 70
     1
 71
     1
 72
     0
  0
DICTIONARY
  5
168A4
102
{ACAD_REACTORS
330
C
102
}
330
C
100
AcDbDictionary
281
     1
  3
Layout1
350
168A7
  3
Model
350
168A6
  0
DICTIONARY
  5
16A61
102
{ACAD_REACTORS
330
C
102
}
330
C
100
AcDbDictionary
281
     1
  0
DICTIONARY
  5
1B
102
{ACAD_REACTORS
330
C
102
}
330
C
100
AcDbDictionary
281
     1
  3
STANDARD
350
1C
  0
DICTIONARY
  5
168A5
102
{ACAD_REACTORS
330
C
102
}
330
C
100
AcDbDictionary
281
     1
  0
ACDBDICTIONARYWDFLT
  5
168A2
102
{ACAD_REACTORS
330
C
102
}
330
C
100
AcDbDictionary
281
     1
  3
Normal
350
168A3
100
AcDbDictionaryWithDefault
340
168A3
  0
DICTIONARY
  5
15452
102
{ACAD_REACTORS
330
C
102
}
330
C
100
AcDbDictionary
281
     1
  3
DIMASSOC
350
168AB
  3
SORTENTS
350
15453
  0
IMAGEDEF
  5
14E25
102
{ACAD_REACTORS
330
21
102
}
330
21
100
AcDbRasterImageDef
 90
        0
  1
U:\TPDWG\MichelQ\1001t.tif
 10
3054.0
 20
3298.0
 11
0.0705555555555556
 21
0.0705555555555556
280
     1
281
     5
  0
IMAGEDEF
  5
1568F
102
{ACAD_REACTORS
330
21
102
}
330
21
100
AcDbRasterImageDef
 90
        0
  1
U:\TPDWG\MichelQ\2208-1.tif
 10
2916.0
 20
3526.0
 11
0.0705555555555556
 21
0.0705555555555556
280
     1
281
     5
  0
IMAGEDEF
  5
15690
102
{ACAD_REACTORS
330
21
102
}
330
21
100
AcDbRasterImageDef
 90
        0
  1
U:\TPDWG\MichelQ\2208-2.tif
 10
2916.0
 20
3526.0
 11
0.0705555555555556
 21
0.0705555555555556
280
     1
281
     5
  0
LAYOUT
  5
168A7
102
{ACAD_REACTORS
330
168A4
102
}
330
168A4
100
AcDbPlotSettings
  1

  2
none_device
  4
Letter_(8.50_x_11.00_Inches)
  6

 40
6.349999904632568
 41
6.349999904632568
 42
6.350006103515625
 43
6.350006103515625
 44
215.8999938964844
 45
279.3999938964844
 46
0.0
 47
0.0
 48
0.0
 49
0.0
140
0.0
141
0.0
142
1.0
143
1.0
 70
   688
 72
     0
 73
     1
 74
     5
  7

 75
    16
147
1.0
 76
     1
 77
     2
 78
   300
148
0.0
149
0.0
100
AcDbLayout
  1
Layout1
 70
     1
 71
     1
 10
-0.2500002402958907
 20
-0.2499999962453767
 11
10.74999951940821
 21
8.249999763458731
 12
0.0
 22
0.0
 32
0.0
 14
1.049999952316284
 24
0.7999999523162842
 34
0.0
 15
9.449999570846555
 25
7.199999570846556
 35
0.0
146
0.0
 13
0.0
 23
0.0
 33
0.0
 16
1.0
 26
0.0
 36
0.0
 17
0.0
 27
1.0
 37
0.0
 76
     0
330
15
331
16B44
  0
LAYOUT
  5
168A6
102
{ACAD_REACTORS
330
168A4
102
}
330
168A4
100
AcDbPlotSettings
  1

  2
HP DesignJet 430 (D / A1)
  4

  6

 40
0.0
 41
0.0
 42
0.0
 43
0.0
 44
0.0
 45
0.0
 46
0.0
 47
0.0
 48
0.0
 49
0.0
140
0.0
141
0.0
142
1.0
143
1.0
 70
  1712
 72
     0
 73
     0
 74
     0
  7

 75
     0
147
1.0
 76
     0
 77
     2
 78
   300
148
0.0
149
0.0
100
AcDbLayout
  1
Model
 70
     1
 71
     0
 10
0.0
 20
0.0
 11
12.0
 21
9.0
 12
0.0
 22
0.0
 32
0.0
 14
0.0
 24
0.0
 34
0.0
 15
0.0
 25
0.0
 35
0.0
146
0.0
 13
0.0
 23
0.0
 33
0.0
 16
1.0
 26
0.0
 36
0.0
 17
0.0
 27
1.0
 37
0.0
 76
     0
330
18
  0
MLINESTYLE
  5
1C
102
{ACAD_REACTORS
330
1B
102
}
330
1B
100
AcDbMlineStyle
  2
STANDARD
 70
     0
  3

 62
   256
 51
90.0
 52
90.0
 71
     2
 49
0.5
 62
   256
  6
BYLAYER
 49
-0.5
 62
   256
  6
BYLAYER
  0
ACDBPLACEHOLDER
  5
168A3
102
{ACAD_REACTORS
330
168A2
102
}
330
168A2
  0
DICTIONARYVAR
  5
168AB
102
{ACAD_REACTORS
330
15452
102
}
330
15452
100
DictionaryVariables
280
     0
  1
1
  0
DICTIONARYVAR
  5
15453
102
{ACAD_REACTORS
330
15452
102
}
330
15452
100
DictionaryVariables
280
     0
  1
96
  0
ENDSEC
  0
EOF
