  0
SECTION
  2
HEADER
  9
$ACADVER
  1
AC1018
  9
$ACADMAINTVER
 70
     0
  9
$DWGCODEPAGE
  3
ANSI_1252
  9
$INSBASE
 10
0.0
 20
0.0
 30
0.0
  9
$EXTMIN
 10
2.089224002281379
 20
-1.234801067992464
 30
0.0
  9
$EXTMAX
 10
40.66354080546433
 20
32.12931243767595
 30
0.0
  9
$LIMMIN
 10
0.0
 20
0.0
  9
$LIMMAX
 10
420.0
 20
297.0
  9
$ORTHOMODE
 70
     0
  9
$REGENMODE
 70
     1
  9
$FILLMODE
 70
     1
  9
$QTEXTMODE
 70
     0
  9
$MIRRTEXT
 70
     1
  9
$LTSCALE
 40
0.04
  9
$ATTMODE
 70
     1
  9
$TEXTSIZE
 40
4.0
  9
$TRACEWID
 40
1.0
  9
$TEXTSTYLE
  7
ITALICT
  9
$CLAYER
  8
0
  9
$CELTYPE
  6
BYLAYER
  9
$CECOLOR
 62
   256
  9
$CELTSCALE
 40
1.0
  9
$DISPSILH
 70
     0
  9
$DIMSCALE
 40
1.0
  9
$DIMASZ
 40
0.18
  9
$DIMEXO
 40
0.0625
  9
$DIMDLI
 40
0.38
  9
$DIMRND
 40
0.0
  9
$DIMDLE
 40
0.0
  9
$DIMEXE
 40
0.18
  9
$DIMTP
 40
0.0
  9
$DIMTM
 40
0.0
  9
$DIMTXT
 40
0.5
  9
$DIMCEN
 40
0.09
  9
$DIMTSZ
 40
0.0
  9
$DIMTOL
 70
     0
  9
$DIMLIM
 70
     0
  9
$DIMTIH
 70
     1
  9
$DIMTOH
 70
     1
  9
$DIMSE1
 70
     0
  9
$DIMSE2
 70
     0
  9
$DIMTAD
 70
     0
  9
$DIMZIN
 70
     0
  9
$DIMBLK
  1

  9
$DIMASO
 70
     1
  9
$DIMSHO
 70
     1
  9
$DIMPOST
  1

  9
$DIMAPOST
  1

  9
$DIMALT
 70
     0
  9
$DIMALTD
 70
     2
  9
$DIMALTF
 40
25.4
  9
$DIMLFAC
 40
1.0
  9
$DIMTOFL
 70
     0
  9
$DIMTVP
 40
0.0
  9
$DIMTIX
 70
     0
  9
$DIMSOXD
 70
     0
  9
$DIMSAH
 70
     0
  9
$DIMBLK1
  1

  9
$DIMBLK2
  1

  9
$DIMSTYLE
  2
STANDARD
  9
$DIMCLRD
 70
     0
  9
$DIMCLRE
 70
     0
  9
$DIMCLRT
 70
     0
  9
$DIMTFAC
 40
1.0
  9
$DIMGAP
 40
0.09
  9
$DIMJUST
 70
     0
  9
$DIMSD1
 70
     0
  9
$DIMSD2
 70
     0
  9
$DIMTOLJ
 70
     1
  9
$DIMTZIN
 70
     0
  9
$DIMALTZ
 70
     0
  9
$DIMALTTZ
 70
     0
  9
$DIMUPT
 70
     0
  9
$DIMDEC
 70
     4
  9
$DIMTDEC
 70
     4
  9
$DIMALTU
 70
     2
  9
$DIMALTTD
 70
     2
  9
$DIMTXSTY
  7
STANDARD
  9
$DIMAUNIT
 70
     0
  9
$DIMADEC
 70
     0
  9
$DIMALTRND
 40
0.0
  9
$DIMAZIN
 70
     0
  9
$DIMDSEP
 70
    46
  9
$DIMATFIT
 70
     3
  9
$DIMFRAC
 70
     0
  9
$DIMLDRBLK
  1

  9
$DIMLUNIT
 70
     2
  9
$DIMLWD
 70
    -2
  9
$DIMLWE
 70
    -2
  9
$DIMTMOVE
 70
     0
  9
$LUNITS
 70
     4
  9
$LUPREC
 70
     4
  9
$SKETCHINC
 40
1.0
  9
$FILLETRAD
 40
0.9
  9
$AUNITS
 70
     0
  9
$AUPREC
 70
     0
  9
$MENU
  1
.
  9
$ELEVATION
 40
0.0
  9
$PELEVATION
 40
0.0
  9
$THICKNESS
 40
0.0
  9
$LIMCHECK
 70
     0
  9
$CHAMFERA
 40
0.5625
  9
$CHAMFERB
 40
0.5625
  9
$CHAMFERC
 40
20.0
  9
$CHAMFERD
 40
0.0
  9
$SKPOLY
 70
     0
  9
$TDCREATE
 40
2451158.432431366
  9
$TDUCREATE
 40
2451158.599098032
  9
$TDUPDATE
 40
2453529.509932141
  9
$TDUUPDATE
 40
2453529.676598808
  9
$TDINDWG
 40
0.9410796528
  9
$TDUSRTIMER
 40
0.9410796528
  9
$USRTIMER
 70
     1
  9
$ANGBASE
 50
0.0
  9
$ANGDIR
 70
     0
  9
$PDMODE
 70
     3
  9
$PDSIZE
 40
0.25
  9
$PLINEWID
 40
0.0
  9
$SPLFRAME
 70
     0
  9
$SPLINETYPE
 70
     6
  9
$SPLINESEGS
 70
     8
  9
$HANDSEED
  5
447F
  9
$SURFTAB1
 70
     6
  9
$SURFTAB2
 70
     6
  9
$SURFTYPE
 70
     6
  9
$SURFU
 70
     6
  9
$SURFV
 70
     6
  9
$UCSBASE
  2

  9
$UCSNAME
  2

  9
$UCSORG
 10
0.0
 20
0.0
 30
0.0
  9
$UCSXDIR
 10
1.0
 20
0.0
 30
0.0
  9
$UCSYDIR
 10
0.0
 20
1.0
 30
0.0
  9
$UCSORTHOREF
  2

  9
$UCSORTHOVIEW
 70
     0
  9
$UCSORGTOP
 10
0.0
 20
0.0
 30
0.0
  9
$UCSORGBOTTOM
 10
0.0
 20
0.0
 30
0.0
  9
$UCSORGLEFT
 10
0.0
 20
0.0
 30
0.0
  9
$UCSORGRIGHT
 10
0.0
 20
0.0
 30
0.0
  9
$UCSORGFRONT
 10
0.0
 20
0.0
 30
0.0
  9
$UCSORGBACK
 10
0.0
 20
0.0
 30
0.0
  9
$PUCSBASE
  2

  9
$PUCSNAME
  2

  9
$PUCSORG
 10
0.0
 20
0.0
 30
0.0
  9
$PUCSXDIR
 10
1.0
 20
0.0
 30
0.0
  9
$PUCSYDIR
 10
0.0
 20
1.0
 30
0.0
  9
$PUCSORTHOREF
  2

  9
$PUCSORTHOVIEW
 70
     0
  9
$PUCSORGTOP
 10
0.0
 20
0.0
 30
0.0
  9
$PUCSORGBOTTOM
 10
0.0
 20
0.0
 30
0.0
  9
$PUCSORGLEFT
 10
0.0
 20
0.0
 30
0.0
  9
$PUCSORGRIGHT
 10
0.0
 20
0.0
 30
0.0
  9
$PUCSORGFRONT
 10
0.0
 20
0.0
 30
0.0
  9
$PUCSORGBACK
 10
0.0
 20
0.0
 30
0.0
  9
$USERI1
 70
     0
  9
$USERI2
 70
     0
  9
$USERI3
 70
     0
  9
$USERI4
 70
     0
  9
$USERI5
 70
     0
  9
$USERR1
 40
0.0
  9
$USERR2
 40
0.0
  9
$USERR3
 40
0.0
  9
$USERR4
 40
0.0
  9
$USERR5
 40
0.0
  9
$WORLDVIEW
 70
     1
  9
$SHADEDGE
 70
     3
  9
$SHADEDIF
 70
    70
  9
$TILEMODE
 70
     1
  9
$MAXACTVP
 70
    48
  9
$PINSBASE
 10
0.0
 20
0.0
 30
0.0
  9
$PLIMCHECK
 70
     0
  9
$PEXTMIN
 10
1.000000000000000E+20
 20
1.000000000000000E+20
 30
1.000000000000000E+20
  9
$PEXTMAX
 10
-1.000000000000000E+20
 20
-1.000000000000000E+20
 30
-1.000000000000000E+20
  9
$PLIMMIN
 10
0.0
 20
0.0
  9
$PLIMMAX
 10
420.0
 20
297.0
  9
$UNITMODE
 70
     0
  9
$VISRETAIN
 70
     1
  9
$PLINEGEN
 70
     0
  9
$PSLTSCALE
 70
     1
  9
$TREEDEPTH
 70
  3020
  9
$CMLSTYLE
  2
STANDARD
  9
$CMLJUST
 70
     0
  9
$CMLSCALE
 40
20.0
  9
$PROXYGRAPHICS
 70
     1
  9
$MEASUREMENT
 70
     1
  9
$CELWEIGHT
370
    -1
  9
$ENDCAPS
280
     0
  9
$JOINSTYLE
280
     0
  9
$LWDISPLAY
290
     0
  9
$INSUNITS
 70
     0
  9
$HYPERLINKBASE
  1

  9
$STYLESHEET
  1

  9
$XEDIT
290
     1
  9
$CEPSNTYPE
380
     0
  9
$PSTYLEMODE
290
     1
  9
$FINGERPRINTGUID
  2
{A9C2D66C-827F-4188-8B4E-58BDBF63F0E9}
  9
$VERSIONGUID
  2
{B1C98A20-2B24-4D4F-945B-D3BE911AEFC8}
  9
$EXTNAMES
290
     1
  9
$PSVPSCALE
 40
0.0
  9
$OLESTARTUP
290
     0
  9
$SORTENTS
280
    96
  9
$INDEXCTL
280
     0
  9
$HIDETEXT
280
     0
  9
$XCLIPFRAME
290
     0
  9
$HALOGAP
280
     0
  9
$OBSCOLOR
 70
   257
  9
$OBSLTYPE
280
     0
  9
$INTERSECTIONDISPLAY
280
     0
  9
$INTERSECTIONCOLOR
 70
   257
  9
$DIMASSOC
280
     1
  9
$PROJECTNAME
  1

  0
ENDSEC
  0
SECTION
  2
CLASSES
  0
CLASS
  1
RASTERVARIABLES
  2
AcDbRasterVariables
  3
ISM
 90
        0
 91
        1
280
     0
281
     0
  0
CLASS
  1
IMAGEDEF
  2
AcDbRasterImageDef
  3
ISM
 90
        0
 91
        6
280
     0
281
     0
  0
CLASS
  1
IMAGEDEF_REACTOR
  2
AcDbRasterImageDefReactor
  3
ISM
 90
        1
 91
        0
280
     0
281
     0
  0
CLASS
  1
IMAGE
  2
AcDbRasterImage
  3
ISM
 90
      127
 91
        0
280
     0
281
     1
  0
CLASS
  1
DICTIONARYVAR
  2
AcDbDictionaryVar
  3
ObjectDBX Classes
 90
        0
 91
        1
280
     0
281
     0
  0
CLASS
  1
ACDBDICTIONARYWDFLT
  2
AcDbDictionaryWithDefault
  3
ObjectDBX Classes
 90
        0
 91
        1
280
     0
281
     0
  0
ENDSEC
  0
SECTION
  2
TABLES
  0
TABLE
  2
VPORT
  5
8
330
0
100
AcDbSymbolTable
 70
     8
  0
VPORT
  5
447E
330
8
100
AcDbSymbolTableRecord
100
AcDbViewportTableRecord
  2
*Active
 70
     0
 10
0.0
 20
0.0
 11
1.0
 21
1.0
 12
7.901799969981562
 22
21.61350845418205
 13
0.0
 23
0.0
 14
10.0
 24
10.0
 15
10.0
 25
10.0
 16
0.0
 26
0.0
 36
1.0
 17
0.0
 27
0.0
 37
0.0
 40
16.03696904949005
 41
1.955307262569832
 42
50.0
 43
0.0
 44
0.0
 50
0.0
 51
0.0
 71
     0
 72
   100
 73
     1
 74
     1
 75
     0
 76
     0
 77
     0
 78
     0
281
     0
 65
     1
110
0.0
120
0.0
130
0.0
111
1.0
121
0.0
131
0.0
112
0.0
122
1.0
132
0.0
 79
     0
146
0.0
  0
ENDTAB
  0
TABLE
  2
LTYPE
  5
5
330
0
100
AcDbSymbolTable
 70
     1
  0
LTYPE
  5
12
330
5
100
AcDbSymbolTableRecord
100
AcDbLinetypeTableRecord
  2
BYBLOCK
 70
     0
  3

 72
    65
 73
     0
 40
0.0
  0
LTYPE
  5
13
330
5
100
AcDbSymbolTableRecord
100
AcDbLinetypeTableRecord
  2
BYLAYER
 70
     0
  3

 72
    65
 73
     0
 40
0.0
  0
LTYPE
  5
14
330
5
100
AcDbSymbolTableRecord
100
AcDbLinetypeTableRecord
  2
CONTINUOUS
 70
     0
  3
Solid line
 72
    65
 73
     0
 40
0.0
  0
ENDTAB
  0
TABLE
  2
LAYER
  5
2
330
0
100
AcDbSymbolTable
 70
     3
  0
LAYER
  5
E
330
2
100
AcDbSymbolTableRecord
100
AcDbLayerTableRecord
  2
0
 70
     0
 62
     7
  6
CONTINUOUS
370
    -3
390
436C
  0
LAYER
  5
437D
330
2
100
AcDbSymbolTableRecord
100
AcDbLayerTableRecord
  2
Defpoints
 70
     0
 62
     7
  6
CONTINUOUS
290
     0
370
    -3
390
436C
  0
LAYER
  5
43AC
330
2
100
AcDbSymbolTableRecord
100
AcDbLayerTableRecord
  2
DIM
 70
     0
 62
    -3
  6
CONTINUOUS
370
    -3
390
436C
  0
ENDTAB
  0
TABLE
  2
STYLE
  5
3
330
0
100
AcDbSymbolTable
 70
     2
  0
STYLE
  5
F
330
3
100
AcDbSymbolTableRecord
100
AcDbTextStyleTableRecord
  2
STANDARD
 70
     0
 40
0.0
 41
1.0
 50
0.0
 71
     0
 42
2.5
  3
txt
  4

  0
STYLE
  5
3816
330
3
100
AcDbSymbolTableRecord
100
AcDbTextStyleTableRecord
  2
ITALICT
 70
     0
 40
4.0
 41
1.0
 50
0.0
 71
     0
 42
4.0
  3
italict.shx
  4

  0
ENDTAB
  0
TABLE
  2
VIEW
  5
6
330
0
100
AcDbSymbolTable
 70
     0
  0
ENDTAB
  0
TABLE
  2
UCS
  5
7
330
0
100
AcDbSymbolTable
 70
     0
  0
ENDTAB
  0
TABLE
  2
APPID
  5
9
330
0
100
AcDbSymbolTable
 70
     1
  0
APPID
  5
10
330
9
100
AcDbSymbolTableRecord
100
AcDbRegAppTableRecord
  2
ACAD
 70
     0
  0
ENDTAB
  0
TABLE
  2
DIMSTYLE
  5
A
330
0
100
AcDbSymbolTable
 70
     1
100
AcDbDimStyleTable
 71
     1
340
1D
  0
DIMSTYLE
105
1D
102
{ACAD_REACTORS
330
4432
330
444A
330
4458
330
446D
102
}
330
A
100
AcDbSymbolTableRecord
100
AcDbDimStyleTableRecord
  2
STANDARD
 70
     0
140
0.5
340
F
  0
ENDTAB
  0
TABLE
  2
BLOCK_RECORD
  5
1
330
0
100
AcDbSymbolTable
 70
    15
  0
BLOCK_RECORD
  5
18
330
1
100
AcDbSymbolTableRecord
100
AcDbBlockTableRecord
  2
*MODEL_SPACE
340
4371
  0
BLOCK_RECORD
  5
15
330
1
100
AcDbSymbolTableRecord
100
AcDbBlockTableRecord
  2
*PAPER_SPACE
340
4372
  0
BLOCK_RECORD
  5
4354
330
1
100
AcDbSymbolTableRecord
100
AcDbBlockTableRecord
  2
2210_E
340
0
  0
BLOCK_RECORD
  5
435C
330
1
100
AcDbSymbolTableRecord
100
AcDbBlockTableRecord
  2
2210_C
340
0
  0
BLOCK_RECORD
  5
43AE
330
1
100
AcDbSymbolTableRecord
100
AcDbBlockTableRecord
  2
*D5
340
0
  0
BLOCK_RECORD
  5
43D0
330
1
100
AcDbSymbolTableRecord
100
AcDbBlockTableRecord
  2
*D6
340
0
  0
BLOCK_RECORD
  5
43DE
330
1
100
AcDbSymbolTableRecord
100
AcDbBlockTableRecord
  2
*D7
340
0
  0
BLOCK_RECORD
  5
43EC
330
1
100
AcDbSymbolTableRecord
100
AcDbBlockTableRecord
  2
*D8
340
0
  0
BLOCK_RECORD
  5
43FC
330
1
100
AcDbSymbolTableRecord
100
AcDbBlockTableRecord
  2
*D9
340
0
  0
BLOCK_RECORD
  5
4433
330
1
100
AcDbSymbolTableRecord
100
AcDbBlockTableRecord
  2
*D11
340
0
  0
BLOCK_RECORD
  5
444B
330
1
100
AcDbSymbolTableRecord
100
AcDbBlockTableRecord
  2
*D12
340
0
  0
BLOCK_RECORD
  5
4459
330
1
100
AcDbSymbolTableRecord
100
AcDbBlockTableRecord
  2
*D13
340
0
  0
BLOCK_RECORD
  5
446E
330
1
100
AcDbSymbolTableRecord
100
AcDbBlockTableRecord
  2
*D14
340
0
  0
ENDTAB
  0
ENDSEC
  0
SECTION
  2
BLOCKS
  0
BLOCK
  5
19
330
18
100
AcDbEntity
  8
0
100
AcDbBlockBegin
  2
*MODEL_SPACE
 70
     0
 10
0.0
 20
0.0
 30
0.0
  3
*MODEL_SPACE
  1

  0
ENDBLK
  5
1A
330
18
100
AcDbEntity
  8
0
100
AcDbBlockEnd
  0
BLOCK
  5
16
330
15
100
AcDbEntity
 67
     1
  8
0
100
AcDbBlockBegin
  2
*PAPER_SPACE
 70
     0
 10
0.0
 20
0.0
 30
0.0
  3
*PAPER_SPACE
  1

  0
ENDBLK
  5
17
330
15
100
AcDbEntity
 67
     1
  8
0
100
AcDbBlockEnd
  0
BLOCK
  5
4355
330
4354
100
AcDbEntity
  8
0
100
AcDbBlockBegin
  2
2210_E
 70
     0
 10
0.0
 20
0.0
 30
0.0
  3
2210_E
  1

  0
LINE
  5
4356
330
4354
100
AcDbEntity
  8
0
100
AcDbLine
 10
-10.25
 20
18.0
 30
0.0
 11
0.0
 21
18.0
 31
0.0
  0
LINE
  5
4357
330
4354
100
AcDbEntity
  8
0
100
AcDbLine
 10
-10.25
 20
0.0
 30
0.0
 11
0.0
 21
0.0
 31
0.0
  0
LINE
  5
4358
330
4354
100
AcDbEntity
  8
0
100
AcDbLine
 10
-6.25
 20
0.0
 30
0.0
 11
-6.25
 21
18.0
 31
0.0
  0
LINE
  5
4359
330
4354
100
AcDbEntity
  8
0
100
AcDbLine
 10
-10.25
 20
0.0
 30
0.0
 11
-10.25
 21
18.0
 31
0.0
  0
LINE
  5
435A
330
4354
100
AcDbEntity
  8
0
100
AcDbLine
 10
0.0
 20
0.0
 30
0.0
 11
0.0
 21
18.0
 31
0.0
  0
ENDBLK
  5
435B
330
4354
100
AcDbEntity
  8
0
100
AcDbBlockEnd
  0
BLOCK
  5
435D
330
435C
100
AcDbEntity
  8
0
100
AcDbBlockBegin
  2
2210_C
 70
     0
 10
0.0
 20
0.0
 30
0.0
  3
2210_C
  1

  0
LINE
  5
435E
330
435C
100
AcDbEntity
  8
0
100
AcDbLine
 10
-10.25
 20
-2.750000000000003
 30
0.0
 11
0.0
 21
-2.749999999999996
 31
0.0
  0
LINE
  5
435F
330
435C
100
AcDbEntity
  8
0
100
AcDbLine
 10
-6.25000000000001
 20
0.0
 30
0.0
 11
0.0
 21
0.0
 31
0.0
  0
LINE
  5
4360
330
435C
100
AcDbEntity
  8
0
100
AcDbLine
 10
-6.25000000000001
 20
0.0
 30
0.0
 11
-10.25
 21
-2.125
 31
0.0
  0
LINE
  5
4361
330
435C
100
AcDbEntity
  8
0
100
AcDbLine
 10
-10.25
 20
-2.750000000000003
 30
0.0
 11
-10.25
 21
-2.125
 31
0.0
  0
LINE
  5
4362
330
435C
100
AcDbEntity
  8
0
100
AcDbLine
 10
0.0
 20
-2.749999999999996
 30
0.0
 11
0.0
 21
0.0
 31
0.0
  0
ENDBLK
  5
4363
330
435C
100
AcDbEntity
  8
0
100
AcDbBlockEnd
  0
BLOCK
  5
43B9
330
43AE
100
AcDbEntity
  8
0
100
AcDbBlockBegin
  2
*D5
 70
     1
 10
0.0
 20
0.0
 30
0.0
  3
*D5
  1

  0
LINE
  5
43C5
330
43AE
100
AcDbEntity
  8
DIM
 62
     0
370
    -2
100
AcDbLine
 10
31.67486712577394
 20
2.673810759400808
 30
0.0
 11
38.34354080546435
 21
2.673810759400806
 31
0.0
  0
LINE
  5
43C6
330
43AE
100
AcDbEntity
  8
DIM
 62
     0
370
    -2
100
AcDbLine
 10
31.67486712577394
 20
20.67381075940081
 30
0.0
 11
38.34354080546435
 21
20.67381075940081
 31
0.0
  0
LINE
  5
43C7
330
43AE
100
AcDbEntity
  8
DIM
 62
     0
370
    -2
100
AcDbLine
 10
38.16354080546434
 20
2.853810759400806
 30
0.0
 11
38.16354080546434
 21
11.0838107594008
 31
0.0
  0
LINE
  5
43C8
330
43AE
100
AcDbEntity
  8
DIM
 62
     0
370
    -2
100
AcDbLine
 10
38.16354080546435
 20
20.49381075940081
 30
0.0
 11
38.16354080546434
 21
12.26381075940081
 31
0.0
  0
SOLID
  5
43C9
330
43AE
100
AcDbEntity
  8
DIM
 62
     0
100
AcDbTrace
 10
38.13354080546434
 20
2.853810759400806
 30
0.0
 11
38.19354080546434
 21
2.853810759400806
 31
0.0
 12
38.16354080546434
 22
2.673810759400806
 32
0.0
 13
38.16354080546434
 23
2.673810759400806
 33
0.0
  0
SOLID
  5
43CA
330
43AE
100
AcDbEntity
  8
DIM
 62
     0
100
AcDbTrace
 10
38.13354080546435
 20
20.49381075940081
 30
0.0
 11
38.19354080546435
 21
20.49381075940081
 31
0.0
 12
38.16354080546435
 22
20.67381075940081
 32
0.0
 13
38.16354080546435
 23
20.67381075940081
 33
0.0
  0
MTEXT
  5
43CB
330
43AE
100
AcDbEntity
  8
DIM
 62
     0
100
AcDbMText
 10
38.16354080546434
 20
11.67381075940081
 30
0.0
 40
1.0
 41
0.0
 71
     5
 72
     1
  1
\A1;18.0000
 73
     1
 44
1.0
  0
POINT
  5
43CC
330
43AE
100
AcDbEntity
  8
Defpoints
 62
     0
100
AcDbPoint
 10
31.61236712577394
 20
2.673810759400808
 30
0.0
  0
POINT
  5
43CD
330
43AE
100
AcDbEntity
  8
Defpoints
 62
     0
100
AcDbPoint
 10
31.61236712577394
 20
20.67381075940081
 30
0.0
  0
POINT
  5
43CE
330
43AE
100
AcDbEntity
  8
Defpoints
 62
     0
100
AcDbPoint
 10
38.16354080546435
 20
20.67381075940081
 30
0.0
  0
ENDBLK
  5
43BA
330
43AE
100
AcDbEntity
  8
0
100
AcDbBlockEnd
  0
BLOCK
  5
43DB
330
43D0
100
AcDbEntity
  8
0
100
AcDbBlockBegin
  2
*D6
 70
     1
 10
0.0
 20
0.0
 30
0.0
  3
*D6
  1

  0
LINE
  5
43D1
330
43D0
100
AcDbEntity
  8
DIM
 62
     0
370
    -2
100
AcDbLine
 10
31.61236712577394
 20
2.611310759400808
 30
0.0
 11
31.61236712577394
 21
-0.9148010679924642
 31
0.0
  0
LINE
  5
43D2
330
43D0
100
AcDbEntity
  8
DIM
 62
     0
370
    -2
100
AcDbLine
 10
21.36236712577394
 20
2.611310759400808
 30
0.0
 11
21.36236712577394
 21
-0.9148010679924642
 31
0.0
  0
LINE
  5
43D3
330
43D0
100
AcDbEntity
  8
DIM
 62
     0
370
    -2
100
AcDbLine
 10
31.43236712577394
 20
-0.7348010679924642
 30
0.0
 11
29.16070045910728
 21
-0.7348010679924642
 31
0.0
  0
LINE
  5
43D4
330
43D0
100
AcDbEntity
  8
DIM
 62
     0
370
    -2
100
AcDbLine
 10
21.54236712577394
 20
-0.7348010679924642
 30
0.0
 11
23.8140337924406
 21
-0.7348010679924642
 31
0.0
  0
SOLID
  5
43D5
330
43D0
100
AcDbEntity
  8
DIM
 62
     0
100
AcDbTrace
 10
31.43236712577394
 20
-0.7048010679924641
 30
0.0
 11
31.43236712577394
 21
-0.7648010679924643
 31
0.0
 12
31.61236712577394
 22
-0.7348010679924642
 32
0.0
 13
31.61236712577394
 23
-0.7348010679924642
 33
0.0
  0
SOLID
  5
43D6
330
43D0
100
AcDbEntity
  8
DIM
 62
     0
100
AcDbTrace
 10
21.54236712577394
 20
-0.7048010679924641
 30
0.0
 11
21.54236712577394
 21
-0.7648010679924643
 31
0.0
 12
21.36236712577394
 22
-0.7348010679924642
 32
0.0
 13
21.36236712577394
 23
-0.7348010679924642
 33
0.0
  0
MTEXT
  5
43D7
330
43D0
100
AcDbEntity
  8
DIM
 62
     0
100
AcDbMText
 10
26.48736712577394
 20
-0.7348010679924642
 30
0.0
 40
1.0
 41
0.0
 71
     5
 72
     1
  1
\A1;10.2500
 73
     1
 44
1.0
  0
POINT
  5
43D8
330
43D0
100
AcDbEntity
  8
Defpoints
 62
     0
100
AcDbPoint
 10
31.61236712577394
 20
2.673810759400808
 30
0.0
  0
POINT
  5
43D9
330
43D0
100
AcDbEntity
  8
Defpoints
 62
     0
100
AcDbPoint
 10
21.36236712577394
 20
2.673810759400808
 30
0.0
  0
POINT
  5
43DA
330
43D0
100
AcDbEntity
  8
Defpoints
 62
     0
100
AcDbPoint
 10
21.36236712577394
 20
-0.7348010679924642
 30
0.0
  0
ENDBLK
  5
43DC
330
43D0
100
AcDbEntity
  8
0
100
AcDbBlockEnd
  0
BLOCK
  5
43E9
330
43DE
100
AcDbEntity
  8
0
100
AcDbBlockBegin
  2
*D7
 70
     1
 10
0.0
 20
0.0
 30
0.0
  3
*D7
  1

  0
LINE
  5
43DF
330
43DE
100
AcDbEntity
  8
DIM
 62
     0
370
    -2
100
AcDbLine
 10
31.67486712577395
 20
24.84687818467487
 30
0.0
 11
38.34354080546435
 21
24.84687818467487
 31
0.0
  0
LINE
  5
43E0
330
43DE
100
AcDbEntity
  8
DIM
 62
     0
370
    -2
100
AcDbLine
 10
31.67486712577395
 20
27.72187818467486
 30
0.0
 11
38.34354080546435
 21
27.72187818467486
 31
0.0
  0
LINE
  5
43E1
330
43DE
100
AcDbEntity
  8
DIM
 62
     0
370
    -2
100
AcDbLine
 10
38.16354080546435
 20
25.02687818467487
 30
0.0
 11
38.16354080546435
 21
25.69437818467486
 31
0.0
  0
LINE
  5
43E2
330
43DE
100
AcDbEntity
  8
DIM
 62
     0
370
    -2
100
AcDbLine
 10
38.16354080546435
 20
27.54187818467487
 30
0.0
 11
38.16354080546435
 21
26.87437818467487
 31
0.0
  0
SOLID
  5
43E3
330
43DE
100
AcDbEntity
  8
DIM
 62
     0
100
AcDbTrace
 10
38.13354080546435
 20
25.02687818467487
 30
0.0
 11
38.19354080546435
 21
25.02687818467487
 31
0.0
 12
38.16354080546435
 22
24.84687818467487
 32
0.0
 13
38.16354080546435
 23
24.84687818467487
 33
0.0
  0
SOLID
  5
43E4
330
43DE
100
AcDbEntity
  8
DIM
 62
     0
100
AcDbTrace
 10
38.13354080546435
 20
27.54187818467487
 30
0.0
 11
38.19354080546435
 21
27.54187818467487
 31
0.0
 12
38.16354080546435
 22
27.72187818467486
 32
0.0
 13
38.16354080546435
 23
27.72187818467486
 33
0.0
  0
MTEXT
  5
43E5
330
43DE
100
AcDbEntity
  8
DIM
 62
     0
100
AcDbMText
 10
38.16354080546434
 20
26.28437818467487
 30
0.0
 40
1.0
 41
0.0
 71
     5
 72
     1
  1
\A1;2.8750
 73
     1
 44
1.0
  0
POINT
  5
43E6
330
43DE
100
AcDbEntity
  8
Defpoints
 62
     0
100
AcDbPoint
 10
31.61236712577395
 20
24.84687818467487
 30
0.0
  0
POINT
  5
43E7
330
43DE
100
AcDbEntity
  8
Defpoints
 62
     0
100
AcDbPoint
 10
31.61236712577395
 20
27.72187818467486
 30
0.0
  0
POINT
  5
43E8
330
43DE
100
AcDbEntity
  8
Defpoints
 62
     0
100
AcDbPoint
 10
38.16354080546435
 20
27.72187818467486
 30
0.0
  0
ENDBLK
  5
43EA
330
43DE
100
AcDbEntity
  8
0
100
AcDbBlockEnd
  0
BLOCK
  5
43F8
330
43EC
100
AcDbEntity
  8
0
100
AcDbBlockBegin
  2
*D8
 70
     1
 10
0.0
 20
0.0
 30
0.0
  3
*D8
  1

  0
LINE
  5
43ED
330
43EC
100
AcDbEntity
  8
DIM
 62
     0
370
    -2
100
AcDbLine
 10
21.29986712577395
 20
27.72187818467487
 30
0.0
 11
15.73821724399128
 21
27.72187818467487
 31
0.0
  0
LINE
  5
43EE
330
43EC
100
AcDbEntity
  8
DIM
 62
     0
370
    -2
100
AcDbLine
 10
21.29986712577395
 20
27.09687818467487
 30
0.0
 11
15.73821724399128
 21
27.09687818467487
 31
0.0
  0
LINE
  5
43EF
330
43EC
100
AcDbEntity
  8
DIM
 62
     0
370
    -2
100
AcDbLine
 10
15.91821724399128
 20
27.54187818467487
 30
0.0
 11
15.91821724399128
 21
27.27687818467487
 31
0.0
  0
LINE
  5
43F0
330
43EC
100
AcDbEntity
  8
DIM
 62
     0
370
    -2
100
AcDbLine
 10
15.91821724399128
 20
27.09687818467487
 30
0.0
 11
15.91821724399128
 21
26.91687818467487
 31
0.0
  0
LINE
  5
43F1
330
43EC
100
AcDbEntity
  8
DIM
 62
     0
370
    -2
100
AcDbLine
 10
15.91821724399128
 20
26.91687818467487
 30
0.0
 11
15.73821724399128
 21
26.91687818467487
 31
0.0
  0
SOLID
  5
43F2
330
43EC
100
AcDbEntity
  8
DIM
 62
     0
100
AcDbTrace
 10
15.88821724399128
 20
27.54187818467487
 30
0.0
 11
15.94821724399128
 21
27.54187818467487
 31
0.0
 12
15.91821724399128
 22
27.72187818467487
 32
0.0
 13
15.91821724399128
 23
27.72187818467487
 33
0.0
  0
SOLID
  5
43F3
330
43EC
100
AcDbEntity
  8
DIM
 62
     0
100
AcDbTrace
 10
15.88821724399128
 20
27.27687818467487
 30
0.0
 11
15.94821724399128
 21
27.27687818467487
 31
0.0
 12
15.91821724399128
 22
27.09687818467487
 32
0.0
 13
15.91821724399128
 23
27.09687818467487
 33
0.0
  0
MTEXT
  5
43F4
330
43EC
100
AcDbEntity
  8
DIM
 62
     0
100
AcDbMText
 10
13.31488391065794
 20
26.91687818467487
 30
0.0
 40
1.0
 41
0.0
 71
     5
 72
     1
  1
\A1;0.6250
 73
     1
 44
1.0
  0
POINT
  5
43F5
330
43EC
100
AcDbEntity
  8
Defpoints
 62
     0
100
AcDbPoint
 10
21.36236712577394
 20
27.72187818467487
 30
0.0
  0
POINT
  5
43F6
330
43EC
100
AcDbEntity
  8
Defpoints
 62
     0
100
AcDbPoint
 10
21.36236712577394
 20
27.09687818467487
 30
0.0
  0
POINT
  5
43F7
330
43EC
100
AcDbEntity
  8
Defpoints
 62
     0
100
AcDbPoint
 10
15.91821724399128
 20
27.09687818467487
 30
0.0
  0
ENDBLK
  5
43F9
330
43EC
100
AcDbEntity
  8
0
100
AcDbBlockEnd
  0
BLOCK
  5
4407
330
43FC
100
AcDbEntity
  8
0
100
AcDbBlockBegin
  2
*D9
 70
     1
 10
0.0
 20
0.0
 30
0.0
  3
*D9
  1

  0
LINE
  5
43FD
330
43FC
100
AcDbEntity
  8
DIM
 62
     0
370
    -2
100
AcDbLine
 10
31.61236712577395
 20
24.78437818467487
 30
0.0
 11
31.61236712577395
 21
22.77469832316384
 31
0.0
  0
LINE
  5
43FE
330
43FC
100
AcDbEntity
  8
DIM
 62
     0
370
    -2
100
AcDbLine
 10
25.36236712577395
 20
24.78437818467487
 30
0.0
 11
25.36236712577395
 21
22.77469832316384
 31
0.0
  0
LINE
  5
43FF
330
43FC
100
AcDbEntity
  8
DIM
 62
     0
370
    -2
100
AcDbLine
 10
31.43236712577394
 20
22.95469832316384
 30
0.0
 11
30.91070045910728
 21
22.95469832316384
 31
0.0
  0
LINE
  5
4400
330
43FC
100
AcDbEntity
  8
DIM
 62
     0
370
    -2
100
AcDbLine
 10
25.54236712577395
 20
22.95469832316384
 30
0.0
 11
26.06403379244061
 21
22.95469832316384
 31
0.0
  0
SOLID
  5
4401
330
43FC
100
AcDbEntity
  8
DIM
 62
     0
100
AcDbTrace
 10
31.43236712577394
 20
22.98469832316384
 30
0.0
 11
31.43236712577394
 21
22.92469832316384
 31
0.0
 12
31.61236712577395
 22
22.95469832316384
 32
0.0
 13
31.61236712577395
 23
22.95469832316384
 33
0.0
  0
SOLID
  5
4402
330
43FC
100
AcDbEntity
  8
DIM
 62
     0
100
AcDbTrace
 10
25.54236712577395
 20
22.98469832316384
 30
0.0
 11
25.54236712577395
 21
22.92469832316384
 31
0.0
 12
25.36236712577395
 22
22.95469832316384
 32
0.0
 13
25.36236712577395
 23
22.95469832316384
 33
0.0
  0
MTEXT
  5
4403
330
43FC
100
AcDbEntity
  8
DIM
 62
     0
100
AcDbMText
 10
28.48736712577395
 20
22.95469832316384
 30
0.0
 40
1.0
 41
0.0
 71
     5
 72
     1
  1
\A1;6.2500
 73
     1
 44
1.0
  0
POINT
  5
4404
330
43FC
100
AcDbEntity
  8
Defpoints
 62
     0
100
AcDbPoint
 10
31.61236712577395
 20
24.84687818467487
 30
0.0
  0
POINT
  5
4405
330
43FC
100
AcDbEntity
  8
Defpoints
 62
     0
100
AcDbPoint
 10
25.36236712577395
 20
24.84687818467487
 30
0.0
  0
POINT
  5
4406
330
43FC
100
AcDbEntity
  8
Defpoints
 62
     0
100
AcDbPoint
 10
25.36236712577395
 20
22.95469832316384
 30
0.0
  0
ENDBLK
  5
4408
330
43FC
100
AcDbEntity
  8
0
100
AcDbBlockEnd
  0
BLOCK
  5
443E
330
4433
100
AcDbEntity
  8
0
100
AcDbBlockBegin
  2
*D11
 70
     1
 10
0.0
 20
0.0
 30
0.0
  3
*D11
  1

  0
LINE
  5
4440
330
4433
100
AcDbEntity
  8
DIM
 62
     0
370
    -2
100
AcDbLine
 10
8.577608844864101
 20
26.00085243322566
 30
0.0
 11
10.59246833084216
 21
26.00085243322566
 31
0.0
  0
LINE
  5
4441
330
4433
100
AcDbEntity
  8
DIM
 62
     0
370
    -2
100
AcDbLine
 10
8.577608844864101
 20
27.37585243322566
 30
0.0
 11
10.59246833084216
 21
27.37585243322566
 31
0.0
  0
LINE
  5
4442
330
4433
100
AcDbEntity
  8
DIM
 62
     0
370
    -2
100
AcDbLine
 10
10.41246833084216
 20
26.18085243322566
 30
0.0
 11
10.41246833084216
 21
26.34835243322566
 31
0.0
  0
LINE
  5
4443
330
4433
100
AcDbEntity
  8
DIM
 62
     0
370
    -2
100
AcDbLine
 10
10.41246833084216
 20
27.19585243322566
 30
0.0
 11
10.41246833084216
 21
27.02835243322566
 31
0.0
  0
SOLID
  5
4444
330
4433
100
AcDbEntity
  8
DIM
 62
     0
100
AcDbTrace
 10
10.38246833084216
 20
26.18085243322566
 30
0.0
 11
10.44246833084216
 21
26.18085243322566
 31
0.0
 12
10.41246833084216
 22
26.00085243322566
 32
0.0
 13
10.41246833084216
 23
26.00085243322566
 33
0.0
  0
SOLID
  5
4445
330
4433
100
AcDbEntity
  8
DIM
 62
     0
100
AcDbTrace
 10
10.38246833084216
 20
27.19585243322566
 30
0.0
 11
10.44246833084216
 21
27.19585243322566
 31
0.0
 12
10.41246833084216
 22
27.37585243322566
 32
0.0
 13
10.41246833084216
 23
27.37585243322566
 33
0.0
  0
MTEXT
  5
4446
330
4433
100
AcDbEntity
  8
DIM
 62
     0
100
AcDbMText
 10
10.41246833084215
 20
26.68835243322567
 30
0.0
 40
0.5
 41
0.0
 71
     5
 72
     1
  1
\A1;1.3750
 73
     1
 44
1.0
  0
POINT
  5
4447
330
4433
100
AcDbEntity
  8
Defpoints
 62
     0
100
AcDbPoint
 10
8.515108844864101
 20
26.00085243322566
 30
0.0
  0
POINT
  5
4448
330
4433
100
AcDbEntity
  8
Defpoints
 62
     0
100
AcDbPoint
 10
8.515108844864101
 20
27.37585243322566
 30
0.0
  0
POINT
  5
4449
330
4433
100
AcDbEntity
  8
Defpoints
 62
     0
100
AcDbPoint
 10
10.41246833084216
 20
27.37585243322566
 30
0.0
  0
ENDBLK
  5
443F
330
4433
100
AcDbEntity
  8
0
100
AcDbBlockEnd
  0
BLOCK
  5
4456
330
444B
100
AcDbEntity
  8
0
100
AcDbBlockBegin
  2
*D12
 70
     1
 10
0.0
 20
0.0
 30
0.0
  3
*D12
  1

  0
LINE
  5
444C
330
444B
100
AcDbEntity
  8
DIM
 62
     0
370
    -2
100
AcDbLine
 10
4.702608844864101
 20
27.37585243322566
 30
0.0
 11
2.909224002281384
 21
27.37585243322566
 31
0.0
  0
LINE
  5
444D
330
444B
100
AcDbEntity
  8
DIM
 62
     0
370
    -2
100
AcDbLine
 10
4.702608844864101
 20
26.37585243322566
 30
0.0
 11
2.909224002281383
 21
26.37585243322566
 31
0.0
  0
LINE
  5
444E
330
444B
100
AcDbEntity
  8
DIM
 62
     0
370
    -2
100
AcDbLine
 10
3.089224002281384
 20
27.55585243322566
 30
0.0
 11
3.089224002281384
 21
27.73585243322566
 31
0.0
  0
LINE
  5
444F
330
444B
100
AcDbEntity
  8
DIM
 62
     0
370
    -2
100
AcDbLine
 10
3.089224002281383
 20
26.19585243322566
 30
0.0
 11
3.089224002281383
 21
26.01585243322566
 31
0.0
  0
SOLID
  5
4450
330
444B
100
AcDbEntity
  8
DIM
 62
     0
100
AcDbTrace
 10
3.059224002281384
 20
27.55585243322566
 30
0.0
 11
3.119224002281383
 21
27.55585243322566
 31
0.0
 12
3.089224002281384
 22
27.37585243322566
 32
0.0
 13
3.089224002281384
 23
27.37585243322566
 33
0.0
  0
SOLID
  5
4451
330
444B
100
AcDbEntity
  8
DIM
 62
     0
100
AcDbTrace
 10
3.059224002281383
 20
26.19585243322566
 30
0.0
 11
3.119224002281383
 21
26.19585243322566
 31
0.0
 12
3.089224002281383
 22
26.37585243322566
 32
0.0
 13
3.089224002281383
 23
26.37585243322566
 33
0.0
  0
MTEXT
  5
4452
330
444B
100
AcDbEntity
  8
DIM
 62
     0
100
AcDbMText
 10
3.089224002281379
 20
26.87585243322566
 30
0.0
 40
0.5
 41
0.0
 71
     5
 72
     1
  1
\A1;1.0000
 73
     1
 44
1.0
  0
POINT
  5
4453
330
444B
100
AcDbEntity
  8
Defpoints
 62
     0
100
AcDbPoint
 10
4.765108844864101
 20
27.37585243322566
 30
0.0
  0
POINT
  5
4454
330
444B
100
AcDbEntity
  8
Defpoints
 62
     0
100
AcDbPoint
 10
4.765108844864101
 20
26.37585243322566
 30
0.0
  0
POINT
  5
4455
330
444B
100
AcDbEntity
  8
Defpoints
 62
     0
100
AcDbPoint
 10
3.089224002281383
 20
26.37585243322566
 30
0.0
  0
ENDBLK
  5
4457
330
444B
100
AcDbEntity
  8
0
100
AcDbBlockEnd
  0
BLOCK
  5
4464
330
4459
100
AcDbEntity
  8
0
100
AcDbBlockBegin
  2
*D13
 70
     1
 10
0.0
 20
0.0
 30
0.0
  3
*D13
  1

  0
LINE
  5
445A
330
4459
100
AcDbEntity
  8
DIM
 62
     0
370
    -2
100
AcDbLine
 10
4.765108844864101
 20
27.43835243322566
 30
0.0
 11
4.765108844864101
 21
28.80497463611059
 31
0.0
  0
LINE
  5
445B
330
4459
100
AcDbEntity
  8
DIM
 62
     0
370
    -2
100
AcDbLine
 10
8.515108844864101
 20
27.43835243322566
 30
0.0
 11
8.515108844864101
 21
28.80497463611059
 31
0.0
  0
LINE
  5
445C
330
4459
100
AcDbEntity
  8
DIM
 62
     0
370
    -2
100
AcDbLine
 10
4.945108844864101
 20
28.6249746361106
 30
0.0
 11
5.383442178197435
 21
28.6249746361106
 31
0.0
  0
LINE
  5
445D
330
4459
100
AcDbEntity
  8
DIM
 62
     0
370
    -2
100
AcDbLine
 10
8.335108844864102
 20
28.6249746361106
 30
0.0
 11
7.896775511530768
 21
28.6249746361106
 31
0.0
  0
SOLID
  5
445E
330
4459
100
AcDbEntity
  8
DIM
 62
     0
100
AcDbTrace
 10
4.945108844864101
 20
28.6549746361106
 30
0.0
 11
4.945108844864101
 21
28.59497463611059
 31
0.0
 12
4.765108844864101
 22
28.6249746361106
 32
0.0
 13
4.765108844864101
 23
28.6249746361106
 33
0.0
  0
SOLID
  5
445F
330
4459
100
AcDbEntity
  8
DIM
 62
     0
100
AcDbTrace
 10
8.335108844864102
 20
28.6549746361106
 30
0.0
 11
8.335108844864102
 21
28.59497463611059
 31
0.0
 12
8.515108844864101
 22
28.6249746361106
 32
0.0
 13
8.515108844864101
 23
28.6249746361106
 33
0.0
  0
MTEXT
  5
4460
330
4459
100
AcDbEntity
  8
DIM
 62
     0
100
AcDbMText
 10
6.640108844864101
 20
28.6249746361106
 30
0.0
 40
0.5
 41
0.0
 71
     5
 72
     1
  1
\A1;3.7500
 73
     1
 44
1.0
  0
POINT
  5
4461
330
4459
100
AcDbEntity
  8
Defpoints
 62
     0
100
AcDbPoint
 10
4.765108844864101
 20
27.37585243322566
 30
0.0
  0
POINT
  5
4462
330
4459
100
AcDbEntity
  8
Defpoints
 62
     0
100
AcDbPoint
 10
8.515108844864101
 20
27.37585243322566
 30
0.0
  0
POINT
  5
4463
330
4459
100
AcDbEntity
  8
Defpoints
 62
     0
100
AcDbPoint
 10
8.515108844864101
 20
28.6249746361106
 30
0.0
  0
ENDBLK
  5
4465
330
4459
100
AcDbEntity
  8
0
100
AcDbBlockEnd
  0
BLOCK
  5
4479
330
446E
100
AcDbEntity
  8
0
100
AcDbBlockBegin
  2
*D14
 70
     1
 10
0.0
 20
0.0
 30
0.0
  3
*D14
  1

  0
LINE
  5
446F
330
446E
100
AcDbEntity
  8
DIM
 62
     0
370
    -2
100
AcDbLine
 10
8.577608844864101
 20
24.57619347367111
 30
0.0
 11
10.65958218604026
 21
24.57619347367111
 31
0.0
  0
LINE
  5
4470
330
446E
100
AcDbEntity
  8
DIM
 62
     0
370
    -2
100
AcDbLine
 10
8.577608844864101
 20
15.57619347367111
 30
0.0
 11
10.65958218604026
 21
15.57619347367111
 31
0.0
  0
LINE
  5
4471
330
446E
100
AcDbEntity
  8
DIM
 62
     0
370
    -2
100
AcDbLine
 10
10.47958218604026
 20
24.39619347367111
 30
0.0
 11
10.47958218604026
 21
20.41619347367111
 31
0.0
  0
LINE
  5
4472
330
446E
100
AcDbEntity
  8
DIM
 62
     0
370
    -2
100
AcDbLine
 10
10.47958218604026
 20
15.75619347367111
 30
0.0
 11
10.47958218604026
 21
19.73619347367111
 31
0.0
  0
SOLID
  5
4473
330
446E
100
AcDbEntity
  8
DIM
 62
     0
100
AcDbTrace
 10
10.44958218604026
 20
24.39619347367111
 30
0.0
 11
10.50958218604026
 21
24.39619347367111
 31
0.0
 12
10.47958218604026
 22
24.57619347367111
 32
0.0
 13
10.47958218604026
 23
24.57619347367111
 33
0.0
  0
SOLID
  5
4474
330
446E
100
AcDbEntity
  8
DIM
 62
     0
100
AcDbTrace
 10
10.44958218604026
 20
15.75619347367111
 30
0.0
 11
10.50958218604026
 21
15.75619347367111
 31
0.0
 12
10.47958218604026
 22
15.57619347367111
 32
0.0
 13
10.47958218604026
 23
15.57619347367111
 33
0.0
  0
MTEXT
  5
4475
330
446E
100
AcDbEntity
  8
DIM
 62
     0
100
AcDbMText
 10
10.47958218604026
 20
20.07619347367112
 30
0.0
 40
0.5
 41
0.0
 71
     5
 72
     1
  1
\A1;9.0000
 73
     1
 44
1.0
  0
POINT
  5
4476
330
446E
100
AcDbEntity
  8
Defpoints
 62
     0
100
AcDbPoint
 10
8.515108844864101
 20
24.57619347367111
 30
0.0
  0
POINT
  5
4477
330
446E
100
AcDbEntity
  8
Defpoints
 62
     0
100
AcDbPoint
 10
8.515108844864101
 20
15.57619347367111
 30
0.0
  0
POINT
  5
4478
330
446E
100
AcDbEntity
  8
Defpoints
 62
     0
100
AcDbPoint
 10
10.47958218604026
 20
15.57619347367111
 30
0.0
  0
ENDBLK
  5
447A
330
446E
100
AcDbEntity
  8
0
100
AcDbBlockEnd
  0
ENDSEC
  0
SECTION
  2
ENTITIES
  0
LINE
  5
4411
330
18
100
AcDbEntity
  8
0
100
AcDbLine
 10
8.515108844864101
 20
27.37585243322566
 30
0.0
 11
4.765108844864101
 21
27.37585243322566
 31
0.0
  0
LINE
  5
4412
330
18
100
AcDbEntity
  8
0
100
AcDbLine
 10
8.515108844864101
 20
27.37585243322566
 30
0.0
 11
8.515108844864101
 21
26.00085243322566
 31
0.0
  0
LINE
  5
4427
330
18
100
AcDbEntity
  8
0
100
AcDbLine
 10
4.765108844864101
 20
27.37585243322566
 30
0.0
 11
4.765108844864101
 21
26.37585243322566
 31
0.0
  0
LINE
  5
4428
330
18
100
AcDbEntity
  8
0
100
AcDbLine
 10
4.765108844864101
 20
26.37585243322566
 30
0.0
 11
6.552647665114289
 21
26.37585243322566
 31
0.0
  0
LINE
  5
4429
330
18
100
AcDbEntity
  8
0
100
AcDbLine
 10
8.515108844864101
 20
26.00085243322566
 30
0.0
 11
7.727570024613912
 21
26.00085243322566
 31
0.0
  0
LINE
  5
442A
330
18
100
AcDbEntity
  8
0
100
AcDbLine
 10
6.955139901064253
 20
26.28083690512559
 30
0.0
 11
7.32507778866395
 21
26.09586796132573
 31
0.0
  0
ARC
  5
4430
330
18
100
AcDbEntity
  8
0
100
AcDbCircle
 10
7.727570024613912
 20
26.90085243322566
 30
0.0
 40
0.9
100
AcDbArc
 50
243.434948822922
 51
270.0
  0
ARC
  5
4431
330
18
100
AcDbEntity
  8
0
100
AcDbCircle
 10
6.552647665114289
 20
25.47585243322566
 30
0.0
 40
0.9
100
AcDbArc
 50
63.43494882292185
 51
90.0
  0
DIMENSION
  5
4432
330
18
100
AcDbEntity
  8
DIM
100
AcDbDimension
  2
*D11
 10
10.41246833084216
 20
27.37585243322566
 30
0.0
 11
10.41246833084215
 21
26.68835243322567
 31
0.0
 70
    32
 71
     5
 42
1.375
  3
STANDARD
100
AcDbAlignedDimension
 13
8.515108844864101
 23
26.00085243322566
 33
0.0
 14
8.515108844864101
 24
27.37585243322566
 34
0.0
 50
90.0
100
AcDbRotatedDimension
  0
DIMENSION
  5
444A
330
18
100
AcDbEntity
  8
DIM
100
AcDbDimension
  2
*D12
 10
3.089224002281383
 20
26.37585243322566
 30
0.0
 11
3.089224002281379
 21
26.87585243322566
 31
0.0
 70
    32
 71
     5
  3
STANDARD
100
AcDbAlignedDimension
 13
4.765108844864101
 23
27.37585243322566
 33
0.0
 14
4.765108844864101
 24
26.37585243322566
 34
0.0
 50
90.0
100
AcDbRotatedDimension
  0
DIMENSION
  5
4458
330
18
100
AcDbEntity
  8
DIM
100
AcDbDimension
  2
*D13
 10
8.515108844864101
 20
28.6249746361106
 30
0.0
 11
6.640108844864101
 21
28.6249746361106
 31
0.0
 70
    32
 71
     5
 42
3.75
  3
STANDARD
100
AcDbAlignedDimension
 13
4.765108844864101
 23
27.37585243322566
 33
0.0
 14
8.515108844864101
 24
27.37585243322566
 34
0.0
100
AcDbRotatedDimension
  0
LINE
  5
4467
330
18
100
AcDbEntity
  8
0
100
AcDbLine
 10
4.765108844864101
 20
24.57619347367111
 30
0.0
 11
4.7651088448641
 21
15.57619347367111
 31
0.0
  0
LINE
  5
4468
330
18
100
AcDbEntity
  8
0
100
AcDbLine
 10
4.7651088448641
 20
15.57619347367111
 30
0.0
 11
8.5151088448641
 21
15.57619347367111
 31
0.0
  0
LINE
  5
4469
330
18
100
AcDbEntity
  8
0
100
AcDbLine
 10
8.5151088448641
 20
15.57619347367111
 30
0.0
 11
8.5151088448641
 21
24.57619347367111
 31
0.0
  0
LINE
  5
446B
330
18
100
AcDbEntity
  8
0
100
AcDbLine
 10
7.5151088448641
 20
24.57619347367111
 30
0.0
 11
7.515108844864097
 21
15.57619347367111
 31
0.0
  0
LINE
  5
446C
330
18
100
AcDbEntity
  8
0
100
AcDbLine
 10
4.765108844864101
 20
24.57619347367111
 30
0.0
 11
8.515108844864101
 21
24.57619347367111
 31
0.0
  0
DIMENSION
  5
446D
330
18
100
AcDbEntity
  8
DIM
100
AcDbDimension
  2
*D14
 10
10.47958218604026
 20
15.57619347367111
 30
0.0
 11
10.47958218604026
 21
20.07619347367112
 31
0.0
 70
    32
 71
     5
 42
9.000000000000001
  3
STANDARD
100
AcDbAlignedDimension
 13
8.515108844864101
 23
24.57619347367111
 33
0.0
 14
8.515108844864101
 24
15.57619347367111
 34
0.0
 50
90.0
100
AcDbRotatedDimension
  0
ENDSEC
  0
SECTION
  2
OBJECTS
  0
DICTIONARY
  5
C
330
0
100
AcDbDictionary
281
     1
  3
ACAD_COLOR
350
436E
  3
ACAD_GROUP
350
D
  3
ACAD_IMAGE_DICT
350
21
  3
ACAD_IMAGE_VARS
350
20
  3
ACAD_LAYOUT
350
436F
  3
ACAD_MATERIAL
350
436D
  3
ACAD_MLINESTYLE
350
1B
  3
ACAD_PLOTSETTINGS
350
4370
  3
ACAD_PLOTSTYLENAME
350
436B
  3
ACDBVARIABLEDICTIONARY
350
34D4
  0
DICTIONARY
  5
436E
102
{ACAD_REACTORS
330
C
102
}
330
C
100
AcDbDictionary
281
     1
  0
DICTIONARY
  5
D
102
{ACAD_REACTORS
330
C
102
}
330
C
100
AcDbDictionary
281
     1
  0
DICTIONARY
  5
21
102
{ACAD_REACTORS
330
C
102
}
330
C
100
AcDbDictionary
281
     1
  3
3304-1
350
22
  3
3304-1B
350
1C41
  3
3304-2
350
25
  3
3304-2B
350
1C44
  3
3304-3
350
28
  3
3304-3B
350
1C47
  0
RASTERVARIABLES
  5
20
102
{ACAD_REACTORS
330
C
102
}
330
C
100
AcDbRasterVariables
 90
        0
 70
     1
 71
     1
 72
     0
  0
DICTIONARY
  5
436F
102
{ACAD_REACTORS
330
C
102
}
330
C
100
AcDbDictionary
281
     1
  3
Layout1
350
4372
  3
Model
350
4371
  0
DICTIONARY
  5
436D
102
{ACAD_REACTORS
330
C
102
}
330
C
100
AcDbDictionary
281
     1
  0
DICTIONARY
  5
1B
102
{ACAD_REACTORS
330
C
102
}
330
C
100
AcDbDictionary
281
     1
  3
STANDARD
350
1C
  0
DICTIONARY
  5
4370
102
{ACAD_REACTORS
330
C
102
}
330
C
100
AcDbDictionary
281
     1
  0
ACDBDICTIONARYWDFLT
  5
436B
102
{ACAD_REACTORS
330
C
102
}
330
C
100
AcDbDictionary
281
     1
  3
Normal
350
436C
100
AcDbDictionaryWithDefault
340
436C
  0
DICTIONARY
  5
34D4
102
{ACAD_REACTORS
330
C
102
}
330
C
100
AcDbDictionary
281
     1
  3
SORTENTS
350
34D5
  0
IMAGEDEF
  5
22
102
{ACAD_REACTORS
330
21
102
}
330
21
100
AcDbRasterImageDef
 90
        0
  1
U:\TPDWG\MichelQ\3304-1.tif
 10
2243.0
 20
3009.0
 11
0.0705555555555556
 21
0.0705555555555556
280
     1
281
     5
  0
IMAGEDEF
  5
1C41
102
{ACAD_REACTORS
330
21
102
}
330
21
100
AcDbRasterImageDef
 90
        0
  1
U:\TPDWG\MichelQ\3304-1b.TIF
 10
2202.0
 20
2931.0
 11
0.0705555555555556
 21
0.0705555555555556
280
     1
281
     5
  0
IMAGEDEF
  5
25
102
{ACAD_REACTORS
330
21
102
}
330
21
100
AcDbRasterImageDef
 90
        0
  1
U:\TPDWG\MichelQ\3304-2.tif
 10
2243.0
 20
3009.0
 11
0.0705555555555556
 21
0.0705555555555556
280
     1
281
     5
  0
IMAGEDEF
  5
1C44
102
{ACAD_REACTORS
330
21
102
}
330
21
100
AcDbRasterImageDef
 90
        0
  1
U:\TPDWG\MichelQ\3304-2b.TIF
 10
2202.0
 20
2931.0
 11
0.0705555555555556
 21
0.0705555555555556
280
     1
281
     5
  0
IMAGEDEF
  5
28
102
{ACAD_REACTORS
330
21
102
}
330
21
100
AcDbRasterImageDef
 90
        0
  1
U:\TPDWG\MichelQ\3304-3.tif
 10
2243.0
 20
3009.0
 11
0.0705555555555556
 21
0.0705555555555556
280
     1
281
     5
  0
IMAGEDEF
  5
1C47
102
{ACAD_REACTORS
330
21
102
}
330
21
100
AcDbRasterImageDef
 90
        0
  1
U:\TPDWG\MichelQ\3304-3b.TIF
 10
2202.0
 20
2931.0
 11
0.0705555555555556
 21
0.0705555555555556
280
     1
281
     5
  0
LAYOUT
  5
4372
102
{ACAD_REACTORS
330
436F
102
}
330
436F
100
AcDbPlotSettings
  1

  2
None
  4

  6

 40
0.0
 41
0.0
 42
0.0
 43
0.0
 44
0.0
 45
0.0
 46
0.0
 47
0.0
 48
0.0
 49
0.0
140
0.0
141
0.0
142
1.0
143
1.0
 70
   688
 72
     0
 73
     0
 74
     5
  7

 75
    16
147
1.0
 76
     0
 77
     2
 78
   300
148
0.0
149
0.0
100
AcDbLayout
  1
Layout1
 70
     1
 71
     1
 10
0.0
 20
0.0
 11
420.0
 21
297.0
 12
0.0
 22
0.0
 32
0.0
 14
1.000000000000000E+20
 24
1.000000000000000E+20
 34
1.000000000000000E+20
 15
-1.000000000000000E+20
 25
-1.000000000000000E+20
 35
-1.000000000000000E+20
146
0.0
 13
0.0
 23
0.0
 33
0.0
 16
1.0
 26
0.0
 36
0.0
 17
0.0
 27
1.0
 37
0.0
 76
     0
330
15
  0
LAYOUT
  5
4371
102
{ACAD_REACTORS
330
436F
102
}
330
436F
100
AcDbPlotSettings
  1

  2
None
  4

  6

 40
0.0
 41
0.0
 42
0.0
 43
0.0
 44
0.0
 45
0.0
 46
0.0
 47
0.0
 48
0.0
 49
0.0
140
0.0
141
0.0
142
1.0
143
1.0
 70
  1712
 72
     0
 73
     0
 74
     0
  7

 75
     0
147
1.0
 76
     0
 77
     2
 78
   300
148
0.0
149
0.0
100
AcDbLayout
  1
Model
 70
     1
 71
     0
 10
0.0
 20
0.0
 11
12.0
 21
9.0
 12
0.0
 22
0.0
 32
0.0
 14
0.0
 24
0.0
 34
0.0
 15
0.0
 25
0.0
 35
0.0
146
0.0
 13
0.0
 23
0.0
 33
0.0
 16
1.0
 26
0.0
 36
0.0
 17
0.0
 27
1.0
 37
0.0
 76
     0
330
18
  0
MLINESTYLE
  5
1C
102
{ACAD_REACTORS
330
1B
102
}
330
1B
100
AcDbMlineStyle
  2
STANDARD
 70
     0
  3

 62
   256
 51
90.0
 52
90.0
 71
     2
 49
0.5
 62
   256
  6
BYLAYER
 49
-0.5
 62
   256
  6
BYLAYER
  0
ACDBPLACEHOLDER
  5
436C
102
{ACAD_REACTORS
330
436B
102
}
330
436B
  0
DICTIONARYVAR
  5
34D5
102
{ACAD_REACTORS
330
34D4
102
}
330
34D4
100
DictionaryVariables
280
     0
  1
96
  0
ENDSEC
  0
EOF
