  0
SECTION
  2
HEADER
  9
$ACADVER
  1
AC1018
  9
$ACADMAINTVER
 70
     0
  9
$DWGCODEPAGE
  3
ANSI_1252
  9
$INSBASE
 10
0.0
 20
0.0
 30
0.0
  9
$EXTMIN
 10
17.30409646199287
 20
9.504738271894815
 30
0.0
  9
$EXTMAX
 10
30.1391604212157
 20
20.49532329619941
 30
0.0
  9
$LIMMIN
 10
0.0
 20
0.0
  9
$LIMMAX
 10
12.0
 20
9.0
  9
$ORTHOMODE
 70
     0
  9
$REGENMODE
 70
     1
  9
$FILLMODE
 70
     1
  9
$QTEXTMODE
 70
     0
  9
$MIRRTEXT
 70
     1
  9
$LTSCALE
 40
1.0
  9
$ATTMODE
 70
     1
  9
$TEXTSIZE
 40
0.25
  9
$TRACEWID
 40
0.05
  9
$TEXTSTYLE
  7
STANDARD
  9
$CLAYER
  8
0
  9
$CELTYPE
  6
BYLAYER
  9
$CECOLOR
 62
   256
  9
$CELTSCALE
 40
1.0
  9
$DISPSILH
 70
     0
  9
$DIMSCALE
 40
1.0
  9
$DIMASZ
 40
0.18
  9
$DIMEXO
 40
0.0625
  9
$DIMDLI
 40
0.38
  9
$DIMRND
 40
0.0
  9
$DIMDLE
 40
0.0
  9
$DIMEXE
 40
0.18
  9
$DIMTP
 40
0.0
  9
$DIMTM
 40
0.0
  9
$DIMTXT
 40
0.18
  9
$DIMCEN
 40
0.09
  9
$DIMTSZ
 40
0.0
  9
$DIMTOL
 70
     0
  9
$DIMLIM
 70
     0
  9
$DIMTIH
 70
     1
  9
$DIMTOH
 70
     1
  9
$DIMSE1
 70
     0
  9
$DIMSE2
 70
     0
  9
$DIMTAD
 70
     0
  9
$DIMZIN
 70
     0
  9
$DIMBLK
  1

  9
$DIMASO
 70
     1
  9
$DIMSHO
 70
     1
  9
$DIMPOST
  1

  9
$DIMAPOST
  1

  9
$DIMALT
 70
     0
  9
$DIMALTD
 70
     2
  9
$DIMALTF
 40
25.4
  9
$DIMLFAC
 40
1.0
  9
$DIMTOFL
 70
     0
  9
$DIMTVP
 40
0.0
  9
$DIMTIX
 70
     0
  9
$DIMSOXD
 70
     0
  9
$DIMSAH
 70
     0
  9
$DIMBLK1
  1

  9
$DIMBLK2
  1

  9
$DIMSTYLE
  2
STANDARD
  9
$DIMCLRD
 70
     0
  9
$DIMCLRE
 70
     0
  9
$DIMCLRT
 70
     0
  9
$DIMTFAC
 40
1.0
  9
$DIMGAP
 40
0.09
  9
$DIMJUST
 70
     0
  9
$DIMSD1
 70
     0
  9
$DIMSD2
 70
     0
  9
$DIMTOLJ
 70
     1
  9
$DIMTZIN
 70
     0
  9
$DIMALTZ
 70
     0
  9
$DIMALTTZ
 70
     0
  9
$DIMUPT
 70
     0
  9
$DIMDEC
 70
     4
  9
$DIMTDEC
 70
     4
  9
$DIMALTU
 70
     2
  9
$DIMALTTD
 70
     2
  9
$DIMTXSTY
  7
STANDARD
  9
$DIMAUNIT
 70
     0
  9
$DIMADEC
 70
     0
  9
$DIMALTRND
 40
0.0
  9
$DIMAZIN
 70
     0
  9
$DIMDSEP
 70
    46
  9
$DIMATFIT
 70
     3
  9
$DIMFRAC
 70
     0
  9
$DIMLDRBLK
  1

  9
$DIMLUNIT
 70
     2
  9
$DIMLWD
 70
    -2
  9
$DIMLWE
 70
    -2
  9
$DIMTMOVE
 70
     0
  9
$LUNITS
 70
     4
  9
$LUPREC
 70
     4
  9
$SKETCHINC
 40
0.1
  9
$FILLETRAD
 40
0.4
  9
$AUNITS
 70
     0
  9
$AUPREC
 70
     0
  9
$MENU
  1
.
  9
$ELEVATION
 40
0.0
  9
$PELEVATION
 40
0.0
  9
$THICKNESS
 40
0.0
  9
$LIMCHECK
 70
     0
  9
$CHAMFERA
 40
0.5
  9
$CHAMFERB
 40
0.5
  9
$CHAMFERC
 40
1.0
  9
$CHAMFERD
 40
0.0
  9
$SKPOLY
 70
     0
  9
$TDCREATE
 40
2451160.318790972
  9
$TDUCREATE
 40
2451160.485457639
  9
$TDUPDATE
 40
2453529.599660868
  9
$TDUUPDATE
 40
2453529.766327535
  9
$TDINDWG
 40
0.7358700347
  9
$TDUSRTIMER
 40
0.7358700347
  9
$USRTIMER
 70
     1
  9
$ANGBASE
 50
0.0
  9
$ANGDIR
 70
     0
  9
$PDMODE
 70
     3
  9
$PDSIZE
 40
1.0
  9
$PLINEWID
 40
0.0
  9
$SPLFRAME
 70
     0
  9
$SPLINETYPE
 70
     6
  9
$SPLINESEGS
 70
     8
  9
$HANDSEED
  5
16A0F
  9
$SURFTAB1
 70
     6
  9
$SURFTAB2
 70
     6
  9
$SURFTYPE
 70
     6
  9
$SURFU
 70
     6
  9
$SURFV
 70
     6
  9
$UCSBASE
  2

  9
$UCSNAME
  2

  9
$UCSORG
 10
0.0
 20
0.0
 30
0.0
  9
$UCSXDIR
 10
1.0
 20
0.0
 30
0.0
  9
$UCSYDIR
 10
0.0
 20
1.0
 30
0.0
  9
$UCSORTHOREF
  2

  9
$UCSORTHOVIEW
 70
     0
  9
$UCSORGTOP
 10
0.0
 20
0.0
 30
0.0
  9
$UCSORGBOTTOM
 10
0.0
 20
0.0
 30
0.0
  9
$UCSORGLEFT
 10
0.0
 20
0.0
 30
0.0
  9
$UCSORGRIGHT
 10
0.0
 20
0.0
 30
0.0
  9
$UCSORGFRONT
 10
0.0
 20
0.0
 30
0.0
  9
$UCSORGBACK
 10
0.0
 20
0.0
 30
0.0
  9
$PUCSBASE
  2

  9
$PUCSNAME
  2

  9
$PUCSORG
 10
0.0
 20
0.0
 30
0.0
  9
$PUCSXDIR
 10
1.0
 20
0.0
 30
0.0
  9
$PUCSYDIR
 10
0.0
 20
1.0
 30
0.0
  9
$PUCSORTHOREF
  2

  9
$PUCSORTHOVIEW
 70
     0
  9
$PUCSORGTOP
 10
0.0
 20
0.0
 30
0.0
  9
$PUCSORGBOTTOM
 10
0.0
 20
0.0
 30
0.0
  9
$PUCSORGLEFT
 10
0.0
 20
0.0
 30
0.0
  9
$PUCSORGRIGHT
 10
0.0
 20
0.0
 30
0.0
  9
$PUCSORGFRONT
 10
0.0
 20
0.0
 30
0.0
  9
$PUCSORGBACK
 10
0.0
 20
0.0
 30
0.0
  9
$USERI1
 70
     0
  9
$USERI2
 70
     0
  9
$USERI3
 70
     0
  9
$USERI4
 70
     0
  9
$USERI5
 70
     0
  9
$USERR1
 40
0.0
  9
$USERR2
 40
0.0
  9
$USERR3
 40
0.0
  9
$USERR4
 40
0.0
  9
$USERR5
 40
0.0
  9
$WORLDVIEW
 70
     1
  9
$SHADEDGE
 70
     3
  9
$SHADEDIF
 70
    70
  9
$TILEMODE
 70
     1
  9
$MAXACTVP
 70
    48
  9
$PINSBASE
 10
0.0
 20
0.0
 30
0.0
  9
$PLIMCHECK
 70
     0
  9
$PEXTMIN
 10
1.000000000000000E+20
 20
1.000000000000000E+20
 30
1.000000000000000E+20
  9
$PEXTMAX
 10
-1.000000000000000E+20
 20
-1.000000000000000E+20
 30
-1.000000000000000E+20
  9
$PLIMMIN
 10
0.0
 20
0.0
  9
$PLIMMAX
 10
12.0
 20
9.0
  9
$UNITMODE
 70
     0
  9
$VISRETAIN
 70
     1
  9
$PLINEGEN
 70
     0
  9
$PSLTSCALE
 70
     1
  9
$TREEDEPTH
 70
  3020
  9
$CMLSTYLE
  2
STANDARD
  9
$CMLJUST
 70
     0
  9
$CMLSCALE
 40
1.0
  9
$PROXYGRAPHICS
 70
     1
  9
$MEASUREMENT
 70
     0
  9
$CELWEIGHT
370
    -1
  9
$ENDCAPS
280
     0
  9
$JOINSTYLE
280
     0
  9
$LWDISPLAY
290
     0
  9
$INSUNITS
 70
     0
  9
$HYPERLINKBASE
  1

  9
$STYLESHEET
  1

  9
$XEDIT
290
     1
  9
$CEPSNTYPE
380
     0
  9
$PSTYLEMODE
290
     1
  9
$FINGERPRINTGUID
  2
{5934CA56-9F00-4F7E-97E7-9E21D65AE8A1}
  9
$VERSIONGUID
  2
{F5FF7CA6-321E-42BB-9855-8F1859EA75E0}
  9
$EXTNAMES
290
     1
  9
$PSVPSCALE
 40
0.0
  9
$OLESTARTUP
290
     0
  9
$SORTENTS
280
    96
  9
$INDEXCTL
280
     0
  9
$HIDETEXT
280
     0
  9
$XCLIPFRAME
290
     0
  9
$HALOGAP
280
     0
  9
$OBSCOLOR
 70
   257
  9
$OBSLTYPE
280
     0
  9
$INTERSECTIONDISPLAY
280
     0
  9
$INTERSECTIONCOLOR
 70
   257
  9
$DIMASSOC
280
     1
  9
$PROJECTNAME
  1

  0
ENDSEC
  0
SECTION
  2
CLASSES
  0
CLASS
  1
RASTERVARIABLES
  2
AcDbRasterVariables
  3
ISM
 90
        0
 91
        1
280
     0
281
     0
  0
CLASS
  1
IMAGEDEF
  2
AcDbRasterImageDef
  3
ISM
 90
        0
 91
        3
280
     0
281
     0
  0
CLASS
  1
IMAGEDEF_REACTOR
  2
AcDbRasterImageDefReactor
  3
ISM
 90
        1
 91
        0
280
     0
281
     0
  0
CLASS
  1
IMAGE
  2
AcDbRasterImage
  3
ISM
 90
      127
 91
        0
280
     0
281
     1
  0
CLASS
  1
DICTIONARYVAR
  2
AcDbDictionaryVar
  3
ObjectDBX Classes
 90
        0
 91
        1
280
     0
281
     0
  0
CLASS
  1
ACDBDICTIONARYWDFLT
  2
AcDbDictionaryWithDefault
  3
ObjectDBX Classes
 90
        0
 91
        1
280
     0
281
     0
  0
ENDSEC
  0
SECTION
  2
TABLES
  0
TABLE
  2
VPORT
  5
8
330
0
100
AcDbSymbolTable
 70
     3
  0
VPORT
  5
16A0E
330
8
100
AcDbSymbolTableRecord
100
AcDbViewportTableRecord
  2
*Active
 70
     0
 10
0.0
 20
0.0
 11
1.0
 21
1.0
 12
24.48246864070882
 22
17.23036798937229
 13
0.0
 23
0.0
 14
0.5
 24
0.5
 15
0.5
 25
0.5
 16
0.0
 26
0.0
 36
1.0
 17
0.0
 27
0.0
 37
0.0
 40
9.028210806980441
 41
1.955307262569832
 42
50.0
 43
0.0
 44
0.0
 50
0.0
 51
0.0
 71
     0
 72
   100
 73
     1
 74
     1
 75
     0
 76
     0
 77
     0
 78
     0
281
     0
 65
     1
110
0.0
120
0.0
130
0.0
111
1.0
121
0.0
131
0.0
112
0.0
122
1.0
132
0.0
 79
     0
146
0.0
  0
ENDTAB
  0
TABLE
  2
LTYPE
  5
5
330
0
100
AcDbSymbolTable
 70
     1
  0
LTYPE
  5
12
330
5
100
AcDbSymbolTableRecord
100
AcDbLinetypeTableRecord
  2
BYBLOCK
 70
     0
  3

 72
    65
 73
     0
 40
0.0
  0
LTYPE
  5
13
330
5
100
AcDbSymbolTableRecord
100
AcDbLinetypeTableRecord
  2
BYLAYER
 70
     0
  3

 72
    65
 73
     0
 40
0.0
  0
LTYPE
  5
14
330
5
100
AcDbSymbolTableRecord
100
AcDbLinetypeTableRecord
  2
CONTINUOUS
 70
     0
  3
Solid line
 72
    65
 73
     0
 40
0.0
  0
ENDTAB
  0
TABLE
  2
LAYER
  5
2
330
0
100
AcDbSymbolTable
 70
     3
  0
LAYER
  5
E
330
2
100
AcDbSymbolTableRecord
100
AcDbLayerTableRecord
  2
0
 70
     0
 62
     7
  6
CONTINUOUS
370
    -3
390
16865
  0
LAYER
  5
1686F
330
2
100
AcDbSymbolTableRecord
100
AcDbLayerTableRecord
  2
Defpoints
 70
     0
 62
     7
  6
CONTINUOUS
290
     0
370
    -3
390
16865
  0
LAYER
  5
168B5
330
2
100
AcDbSymbolTableRecord
100
AcDbLayerTableRecord
  2
DIM
 70
     0
 62
    -3
  6
CONTINUOUS
370
    -3
390
16865
  0
ENDTAB
  0
TABLE
  2
STYLE
  5
3
330
0
100
AcDbSymbolTable
 70
     1
  0
STYLE
  5
F
330
3
100
AcDbSymbolTableRecord
100
AcDbTextStyleTableRecord
  2
STANDARD
 70
     0
 40
0.0
 41
1.0
 50
0.0
 71
     0
 42
0.25
  3
txt
  4

  0
ENDTAB
  0
TABLE
  2
VIEW
  5
6
330
0
100
AcDbSymbolTable
 70
     0
  0
ENDTAB
  0
TABLE
  2
UCS
  5
7
330
0
100
AcDbSymbolTable
 70
     0
  0
ENDTAB
  0
TABLE
  2
APPID
  5
9
330
0
100
AcDbSymbolTable
 70
     1
  0
APPID
  5
10
330
9
100
AcDbSymbolTableRecord
100
AcDbRegAppTableRecord
  2
ACAD
 70
     0
  0
ENDTAB
  0
TABLE
  2
DIMSTYLE
  5
A
330
0
100
AcDbSymbolTable
 70
     1
100
AcDbDimStyleTable
 71
     1
340
1D
  0
DIMSTYLE
105
1D
102
{ACAD_REACTORS
330
16987
330
16995
330
169C9
330
169FF
102
}
330
A
100
AcDbSymbolTableRecord
100
AcDbDimStyleTableRecord
  2
STANDARD
 70
     0
340
F
  0
ENDTAB
  0
TABLE
  2
BLOCK_RECORD
  5
1
330
0
100
AcDbSymbolTable
 70
    18
  0
BLOCK_RECORD
  5
18
330
1
100
AcDbSymbolTableRecord
100
AcDbBlockTableRecord
  2
*MODEL_SPACE
340
1686A
  0
BLOCK_RECORD
  5
15
330
1
100
AcDbSymbolTableRecord
100
AcDbBlockTableRecord
  2
*PAPER_SPACE
340
1686B
  0
BLOCK_RECORD
  5
16850
330
1
100
AcDbSymbolTableRecord
100
AcDbBlockTableRecord
  2
6005T_E
340
0
  0
BLOCK_RECORD
  5
1685A
330
1
100
AcDbSymbolTableRecord
100
AcDbBlockTableRecord
  2
6005T_C
340
0
  0
BLOCK_RECORD
  5
168B7
330
1
100
AcDbSymbolTableRecord
100
AcDbBlockTableRecord
  2
*D7
340
0
  0
BLOCK_RECORD
  5
168CF
330
1
100
AcDbSymbolTableRecord
100
AcDbBlockTableRecord
  2
*D8
340
0
  0
BLOCK_RECORD
  5
168DD
330
1
100
AcDbSymbolTableRecord
100
AcDbBlockTableRecord
  2
*D9
340
0
  0
BLOCK_RECORD
  5
168EB
330
1
100
AcDbSymbolTableRecord
100
AcDbBlockTableRecord
  2
*D10
340
0
  0
BLOCK_RECORD
  5
16988
330
1
100
AcDbSymbolTableRecord
100
AcDbBlockTableRecord
  2
*D12
340
0
  0
BLOCK_RECORD
  5
16996
330
1
100
AcDbSymbolTableRecord
100
AcDbBlockTableRecord
  2
*D13
340
0
  0
BLOCK_RECORD
  5
169A6
330
1
100
AcDbSymbolTableRecord
100
AcDbBlockTableRecord
  2
*D14
340
0
  0
BLOCK_RECORD
  5
169B4
330
1
100
AcDbSymbolTableRecord
100
AcDbBlockTableRecord
  2
*D15
340
0
  0
BLOCK_RECORD
  5
169CA
330
1
100
AcDbSymbolTableRecord
100
AcDbBlockTableRecord
  2
*D16
340
0
  0
BLOCK_RECORD
  5
16A00
330
1
100
AcDbSymbolTableRecord
100
AcDbBlockTableRecord
  2
*D17
340
0
  0
ENDTAB
  0
ENDSEC
  0
SECTION
  2
BLOCKS
  0
BLOCK
  5
19
330
18
100
AcDbEntity
  8
0
100
AcDbBlockBegin
  2
*MODEL_SPACE
 70
     0
 10
0.0
 20
0.0
 30
0.0
  3
*MODEL_SPACE
  1

  0
ENDBLK
  5
1A
330
18
100
AcDbEntity
  8
0
100
AcDbBlockEnd
  0
BLOCK
  5
16
330
15
100
AcDbEntity
 67
     1
  8
0
100
AcDbBlockBegin
  2
*PAPER_SPACE
 70
     0
 10
0.0
 20
0.0
 30
0.0
  3
*PAPER_SPACE
  1

  0
ENDBLK
  5
17
330
15
100
AcDbEntity
 67
     1
  8
0
100
AcDbBlockEnd
  0
BLOCK
  5
16851
330
16850
100
AcDbEntity
  8
0
100
AcDbBlockBegin
  2
6005T_E
 70
     0
 10
0.0
 20
0.0
 30
0.0
  3
6005T_E
  1

  0
LINE
  5
16852
330
16850
100
AcDbEntity
  8
0
100
AcDbLine
 10
0.0000000000000036
 20
1.375
 30
0.0
 11
0.9526815780603001
 21
1.375
 31
0.0
  0
LINE
  5
16853
330
16850
100
AcDbEntity
  8
0
100
AcDbLine
 10
0.0
 20
0.0
 30
0.0
 11
3.749999999999996
 21
0.0
 31
0.0
  0
LINE
  5
16854
330
16850
100
AcDbEntity
  8
0
100
AcDbLine
 10
0.0
 20
0.0
 30
0.0
 11
0.0000000000000036
 21
1.375
 31
0.0
  0
LINE
  5
16855
330
16850
100
AcDbEntity
  8
0
100
AcDbLine
 10
3.749999999999996
 20
0.0
 30
0.0
 11
3.749999999999992
 21
0.9999999999999982
 31
0.0
  0
LINE
  5
16856
330
16850
100
AcDbEntity
  8
0
100
AcDbLine
 10
1.875000000000003
 20
1.0
 30
0.0
 11
3.749999999999992
 21
0.9999999999999982
 31
0.0
  0
ARC
  5
16857
330
16850
100
AcDbEntity
  8
0
100
AcDbCircle
 10
0.9526815780603001
 20
0.875
 30
0.0
 40
0.5
100
AcDbArc
 50
65.22485943116826
 51
90.0
  0
LINE
  5
16858
330
16850
100
AcDbEntity
  8
0
100
AcDbLine
 10
1.162210666791171
 20
1.328979692250227
 30
0.0
 11
1.875000000000003
 21
1.0
 31
0.0
  0
ENDBLK
  5
16859
330
16850
100
AcDbEntity
  8
0
100
AcDbBlockEnd
  0
BLOCK
  5
1685B
330
1685A
100
AcDbEntity
  8
0
100
AcDbBlockBegin
  2
6005T_C
 70
     0
 10
0.0
 20
0.0
 30
0.0
  3
6005T_C
  1

  0
LINE
  5
1685C
330
1685A
100
AcDbEntity
  8
0
100
AcDbLine
 10
0.8750000000000071
 20
-1.375
 30
0.0
 11
0.8750000000000035
 21
0.0000000000000018
 31
0.0
  0
LINE
  5
1685D
330
1685A
100
AcDbEntity
  8
0
100
AcDbLine
 10
0.0000000000000071
 20
-1.374999999999998
 30
0.0
 11
0.0
 21
0.0
 31
0.0
  0
LINE
  5
1685E
330
1685A
100
AcDbEntity
  8
0
100
AcDbLine
 10
0.0000000000000071
 20
-1.374999999999998
 30
0.0
 11
0.8750000000000071
 21
-1.375
 31
0.0
  0
LINE
  5
1685F
330
1685A
100
AcDbEntity
  8
0
100
AcDbLine
 10
0.0
 20
-0.3750000000000018
 30
0.0
 11
0.8750000000000035
 21
-0.3750000000000018
 31
0.0
  0
LINE
  5
16860
330
1685A
100
AcDbEntity
  8
0
100
AcDbLine
 10
0.0
 20
0.0
 30
0.0
 11
0.8750000000000035
 21
0.0000000000000018
 31
0.0
  0
ENDBLK
  5
16861
330
1685A
100
AcDbEntity
  8
0
100
AcDbBlockEnd
  0
BLOCK
  5
168C2
330
168B7
100
AcDbEntity
  8
0
100
AcDbBlockBegin
  2
*D7
 70
     1
 10
0.0
 20
0.0
 30
0.0
  3
*D7
  1

  0
LINE
  5
16973
330
168B7
100
AcDbEntity
  8
DIM
 62
     0
370
    -2
100
AcDbLine
 10
24.91466918876479
 20
15.15519007668863
 30
0.0
 11
24.91466918876479
 21
15.97965770401765
 31
0.0
  0
LINE
  5
16974
330
168B7
100
AcDbEntity
  8
DIM
 62
     0
370
    -2
100
AcDbLine
 10
21.16466918876479
 20
15.15519007668863
 30
0.0
 11
21.16466918876479
 21
15.97965770401765
 31
0.0
  0
LINE
  5
16975
330
168B7
100
AcDbEntity
  8
DIM
 62
     0
370
    -2
100
AcDbLine
 10
24.73466918876479
 20
15.79965770401765
 30
0.0
 11
23.54966918876479
 21
15.79965770401765
 31
0.0
  0
LINE
  5
16976
330
168B7
100
AcDbEntity
  8
DIM
 62
     0
370
    -2
100
AcDbLine
 10
21.34466918876479
 20
15.79965770401765
 30
0.0
 11
22.52966918876479
 21
15.79965770401765
 31
0.0
  0
SOLID
  5
16977
330
168B7
100
AcDbEntity
  8
DIM
 62
     0
100
AcDbTrace
 10
24.73466918876479
 20
15.82965770401765
 30
0.0
 11
24.73466918876479
 21
15.76965770401765
 31
0.0
 12
24.91466918876479
 22
15.79965770401765
 32
0.0
 13
24.91466918876479
 23
15.79965770401765
 33
0.0
  0
SOLID
  5
16978
330
168B7
100
AcDbEntity
  8
DIM
 62
     0
100
AcDbTrace
 10
21.34466918876479
 20
15.82965770401765
 30
0.0
 11
21.34466918876479
 21
15.76965770401765
 31
0.0
 12
21.16466918876479
 22
15.79965770401765
 32
0.0
 13
21.16466918876479
 23
15.79965770401765
 33
0.0
  0
MTEXT
  5
16979
330
168B7
100
AcDbEntity
  8
DIM
 62
     0
100
AcDbMText
 10
23.03966918876479
 20
15.79965770401765
 30
0.0
 40
0.18
 41
0.0
 71
     5
 72
     1
  1
\A1;3.7500
 73
     1
 44
1.0
  0
POINT
  5
1697A
330
168B7
100
AcDbEntity
  8
Defpoints
 62
     0
100
AcDbPoint
 10
24.91466918876479
 20
15.09269007668863
 30
0.0
  0
POINT
  5
1697B
330
168B7
100
AcDbEntity
  8
Defpoints
 62
     0
100
AcDbPoint
 10
21.16466918876479
 20
15.09269007668863
 30
0.0
  0
POINT
  5
1697C
330
168B7
100
AcDbEntity
  8
Defpoints
 62
     0
100
AcDbPoint
 10
21.16466918876479
 20
15.79965770401765
 30
0.0
  0
ENDBLK
  5
168C3
330
168B7
100
AcDbEntity
  8
0
100
AcDbBlockEnd
  0
BLOCK
  5
168DA
330
168CF
100
AcDbEntity
  8
0
100
AcDbBlockBegin
  2
*D8
 70
     1
 10
0.0
 20
0.0
 30
0.0
  3
*D8
  1

  0
LINE
  5
16969
330
168CF
100
AcDbEntity
  8
DIM
 62
     0
370
    -2
100
AcDbLine
 10
24.97716918876478
 20
13.71769007668863
 30
0.0
 11
26.04282227431375
 21
13.71769007668863
 31
0.0
  0
LINE
  5
1696A
330
168CF
100
AcDbEntity
  8
DIM
 62
     0
370
    -2
100
AcDbLine
 10
24.97716918876478
 20
15.09269007668863
 30
0.0
 11
26.04282227431375
 21
15.09269007668863
 31
0.0
  0
LINE
  5
1696B
330
168CF
100
AcDbEntity
  8
DIM
 62
     0
370
    -2
100
AcDbLine
 10
25.86282227431376
 20
13.89769007668863
 30
0.0
 11
25.86282227431376
 21
14.22519007668863
 31
0.0
  0
LINE
  5
1696C
330
168CF
100
AcDbEntity
  8
DIM
 62
     0
370
    -2
100
AcDbLine
 10
25.86282227431376
 20
14.91269007668863
 30
0.0
 11
25.86282227431376
 21
14.58519007668862
 31
0.0
  0
SOLID
  5
1696D
330
168CF
100
AcDbEntity
  8
DIM
 62
     0
100
AcDbTrace
 10
25.83282227431376
 20
13.89769007668863
 30
0.0
 11
25.89282227431376
 21
13.89769007668863
 31
0.0
 12
25.86282227431376
 22
13.71769007668863
 32
0.0
 13
25.86282227431376
 23
13.71769007668863
 33
0.0
  0
SOLID
  5
1696E
330
168CF
100
AcDbEntity
  8
DIM
 62
     0
100
AcDbTrace
 10
25.83282227431376
 20
14.91269007668863
 30
0.0
 11
25.89282227431376
 21
14.91269007668863
 31
0.0
 12
25.86282227431376
 22
15.09269007668863
 32
0.0
 13
25.86282227431376
 23
15.09269007668863
 33
0.0
  0
MTEXT
  5
1696F
330
168CF
100
AcDbEntity
  8
DIM
 62
     0
100
AcDbMText
 10
25.86282227431375
 20
14.40519007668863
 30
0.0
 40
0.18
 41
0.0
 71
     5
 72
     1
  1
\A1;1.3750
 73
     1
 44
1.0
  0
POINT
  5
16970
330
168CF
100
AcDbEntity
  8
Defpoints
 62
     0
100
AcDbPoint
 10
24.91466918876478
 20
13.71769007668863
 30
0.0
  0
POINT
  5
16971
330
168CF
100
AcDbEntity
  8
Defpoints
 62
     0
100
AcDbPoint
 10
24.91466918876478
 20
15.09269007668863
 30
0.0
  0
POINT
  5
16972
330
168CF
100
AcDbEntity
  8
Defpoints
 62
     0
100
AcDbPoint
 10
25.86282227431376
 20
15.09269007668863
 30
0.0
  0
ENDBLK
  5
168DB
330
168CF
100
AcDbEntity
  8
0
100
AcDbBlockEnd
  0
BLOCK
  5
168E8
330
168DD
100
AcDbEntity
  8
0
100
AcDbBlockBegin
  2
*D9
 70
     1
 10
0.0
 20
0.0
 30
0.0
  3
*D9
  1

  0
LINE
  5
1697D
330
168DD
100
AcDbEntity
  8
DIM
 62
     0
370
    -2
100
AcDbLine
 10
21.10216918876479
 20
14.09269007668863
 30
0.0
 11
20.31342109137986
 21
14.09269007668863
 31
0.0
  0
LINE
  5
1697E
330
168DD
100
AcDbEntity
  8
DIM
 62
     0
370
    -2
100
AcDbLine
 10
21.1021691887648
 20
15.09269007668863
 30
0.0
 11
20.31342109137986
 21
15.09269007668863
 31
0.0
  0
LINE
  5
1697F
330
168DD
100
AcDbEntity
  8
DIM
 62
     0
370
    -2
100
AcDbLine
 10
20.49342109137985
 20
14.27269007668863
 30
0.0
 11
20.49342109137985
 21
14.41269007668863
 31
0.0
  0
LINE
  5
16980
330
168DD
100
AcDbEntity
  8
DIM
 62
     0
370
    -2
100
AcDbLine
 10
20.49342109137985
 20
14.91269007668863
 30
0.0
 11
20.49342109137985
 21
14.77269007668863
 31
0.0
  0
SOLID
  5
16981
330
168DD
100
AcDbEntity
  8
DIM
 62
     0
100
AcDbTrace
 10
20.46342109137985
 20
14.27269007668863
 30
0.0
 11
20.52342109137986
 21
14.27269007668863
 31
0.0
 12
20.49342109137985
 22
14.09269007668863
 32
0.0
 13
20.49342109137985
 23
14.09269007668863
 33
0.0
  0
SOLID
  5
16982
330
168DD
100
AcDbEntity
  8
DIM
 62
     0
100
AcDbTrace
 10
20.46342109137985
 20
14.91269007668863
 30
0.0
 11
20.52342109137986
 21
14.91269007668863
 31
0.0
 12
20.49342109137985
 22
15.09269007668863
 32
0.0
 13
20.49342109137985
 23
15.09269007668863
 33
0.0
  0
MTEXT
  5
16983
330
168DD
100
AcDbEntity
  8
DIM
 62
     0
100
AcDbMText
 10
20.49342109137985
 20
14.59269007668863
 30
0.0
 40
0.18
 41
0.0
 71
     5
 72
     1
  1
\A1;1.0000
 73
     1
 44
1.0
  0
POINT
  5
16984
330
168DD
100
AcDbEntity
  8
Defpoints
 62
     0
100
AcDbPoint
 10
21.16466918876479
 20
14.09269007668863
 30
0.0
  0
POINT
  5
16985
330
168DD
100
AcDbEntity
  8
Defpoints
 62
     0
100
AcDbPoint
 10
21.16466918876479
 20
15.09269007668863
 30
0.0
  0
POINT
  5
16986
330
168DD
100
AcDbEntity
  8
Defpoints
 62
     0
100
AcDbPoint
 10
20.49342109137985
 20
15.09269007668863
 30
0.0
  0
ENDBLK
  5
168E9
330
168DD
100
AcDbEntity
  8
0
100
AcDbBlockEnd
  0
BLOCK
  5
168F6
330
168EB
100
AcDbEntity
  8
0
100
AcDbBlockBegin
  2
*D10
 70
     1
 10
0.0
 20
0.0
 30
0.0
  3
*D10
  1

  0
LINE
  5
16902
330
168EB
100
AcDbEntity
  8
DIM
 62
     0
370
    -2
100
AcDbLine
 10
27.40832886008697
 20
11.82920589922384
 30
0.0
 11
27.40832886008697
 21
12.80622972049093
 31
0.0
  0
LINE
  5
16903
330
168EB
100
AcDbEntity
  8
DIM
 62
     0
370
    -2
100
AcDbLine
 10
26.53332886008696
 20
11.82920589922384
 30
0.0
 11
26.53332886008696
 21
12.80622972049093
 31
0.0
  0
LINE
  5
16904
330
168EB
100
AcDbEntity
  8
DIM
 62
     0
370
    -2
100
AcDbLine
 10
27.22832886008696
 20
12.62622972049093
 30
0.0
 11
26.71332886008696
 21
12.62622972049093
 31
0.0
  0
LINE
  5
16905
330
168EB
100
AcDbEntity
  8
DIM
 62
     0
370
    -2
100
AcDbLine
 10
26.53332886008696
 20
12.62622972049093
 30
0.0
 11
26.35332886008696
 21
12.62622972049093
 31
0.0
  0
SOLID
  5
16906
330
168EB
100
AcDbEntity
  8
DIM
 62
     0
100
AcDbTrace
 10
27.22832886008696
 20
12.65622972049093
 30
0.0
 11
27.22832886008696
 21
12.59622972049093
 31
0.0
 12
27.40832886008697
 22
12.62622972049093
 32
0.0
 13
27.40832886008697
 23
12.62622972049093
 33
0.0
  0
SOLID
  5
16907
330
168EB
100
AcDbEntity
  8
DIM
 62
     0
100
AcDbTrace
 10
26.71332886008696
 20
12.65622972049093
 30
0.0
 11
26.71332886008696
 21
12.59622972049093
 31
0.0
 12
26.53332886008696
 22
12.62622972049093
 32
0.0
 13
26.53332886008696
 23
12.62622972049093
 33
0.0
  0
MTEXT
  5
16908
330
168EB
100
AcDbEntity
  8
DIM
 62
     0
100
AcDbMText
 10
25.84332886008696
 20
12.62622972049093
 30
0.0
 40
0.18
 41
0.0
 71
     5
 72
     1
  1
\A1;0.8750
 73
     1
 44
1.0
  0
POINT
  5
16909
330
168EB
100
AcDbEntity
  8
Defpoints
 62
     0
100
AcDbPoint
 10
27.40832886008697
 20
11.76670589922384
 30
0.0
  0
POINT
  5
1690A
330
168EB
100
AcDbEntity
  8
Defpoints
 62
     0
100
AcDbPoint
 10
26.53332886008696
 20
11.76670589922384
 30
0.0
  0
POINT
  5
1690B
330
168EB
100
AcDbEntity
  8
Defpoints
 62
     0
100
AcDbPoint
 10
26.53332886008696
 20
12.62622972049093
 30
0.0
  0
ENDBLK
  5
168F7
330
168EB
100
AcDbEntity
  8
0
100
AcDbBlockEnd
  0
BLOCK
  5
16993
330
16988
100
AcDbEntity
  8
0
100
AcDbBlockBegin
  2
*D12
 70
     1
 10
0.0
 20
0.0
 30
0.0
  3
*D12
  1

  0
LINE
  5
169EB
330
16988
100
AcDbEntity
  8
DIM
 62
     0
370
    -2
100
AcDbLine
 10
21.11618824336624
 20
14.33507961098834
 30
0.0
 11
20.0590430400404
 21
14.33507961098834
 31
0.0
  0
LINE
  5
169EC
330
16988
100
AcDbEntity
  8
DIM
 62
     0
370
    -2
100
AcDbLine
 10
21.11618824336624
 20
15.33507961098834
 30
0.0
 11
20.0590430400404
 21
15.33507961098834
 31
0.0
  0
LINE
  5
169ED
330
16988
100
AcDbEntity
  8
DIM
 62
     0
370
    -2
100
AcDbLine
 10
20.2390430400404
 20
14.51507961098834
 30
0.0
 11
20.2390430400404
 21
14.65507961098834
 31
0.0
  0
LINE
  5
169EE
330
16988
100
AcDbEntity
  8
DIM
 62
     0
370
    -2
100
AcDbLine
 10
20.2390430400404
 20
15.15507961098834
 30
0.0
 11
20.2390430400404
 21
15.01507961098834
 31
0.0
  0
SOLID
  5
169EF
330
16988
100
AcDbEntity
  8
DIM
 62
     0
100
AcDbTrace
 10
20.2090430400404
 20
14.51507961098834
 30
0.0
 11
20.26904304004041
 21
14.51507961098834
 31
0.0
 12
20.2390430400404
 22
14.33507961098834
 32
0.0
 13
20.2390430400404
 23
14.33507961098834
 33
0.0
  0
SOLID
  5
169F0
330
16988
100
AcDbEntity
  8
DIM
 62
     0
100
AcDbTrace
 10
20.2090430400404
 20
15.15507961098834
 30
0.0
 11
20.26904304004041
 21
15.15507961098834
 31
0.0
 12
20.2390430400404
 22
15.33507961098834
 32
0.0
 13
20.2390430400404
 23
15.33507961098834
 33
0.0
  0
MTEXT
  5
169F1
330
16988
100
AcDbEntity
  8
DIM
 62
     0
100
AcDbMText
 10
20.2390430400404
 20
14.83507961098834
 30
0.0
 40
0.18
 41
0.0
 71
     5
 72
     1
  1
\A1;1.0000
 73
     1
 44
1.0
  0
POINT
  5
169F2
330
16988
100
AcDbEntity
  8
Defpoints
 62
     0
100
AcDbPoint
 10
21.17868824336624
 20
14.33507961098834
 30
0.0
  0
POINT
  5
169F3
330
16988
100
AcDbEntity
  8
Defpoints
 62
     0
100
AcDbPoint
 10
21.17868824336624
 20
15.33507961098834
 30
0.0
  0
POINT
  5
169F4
330
16988
100
AcDbEntity
  8
Defpoints
 62
     0
100
AcDbPoint
 10
20.2390430400404
 20
15.33507961098834
 30
0.0
  0
ENDBLK
  5
16994
330
16988
100
AcDbEntity
  8
0
100
AcDbBlockEnd
  0
BLOCK
  5
169A1
330
16996
100
AcDbEntity
  8
0
100
AcDbBlockBegin
  2
*D13
 70
     1
 10
0.0
 20
0.0
 30
0.0
  3
*D13
  1

  0
LINE
  5
169F5
330
16996
100
AcDbEntity
  8
DIM
 62
     0
370
    -2
100
AcDbLine
 10
24.99118824336624
 20
15.33507961098834
 30
0.0
 11
26.47035804551612
 21
15.33507961098834
 31
0.0
  0
LINE
  5
169F6
330
16996
100
AcDbEntity
  8
DIM
 62
     0
370
    -2
100
AcDbLine
 10
24.99118824336623
 20
13.96007961098834
 30
0.0
 11
26.47035804551612
 21
13.96007961098834
 31
0.0
  0
LINE
  5
169F7
330
16996
100
AcDbEntity
  8
DIM
 62
     0
370
    -2
100
AcDbLine
 10
26.29035804551612
 20
15.15507961098834
 30
0.0
 11
26.29035804551612
 21
14.82757961098834
 31
0.0
  0
LINE
  5
169F8
330
16996
100
AcDbEntity
  8
DIM
 62
     0
370
    -2
100
AcDbLine
 10
26.29035804551612
 20
14.14007961098834
 30
0.0
 11
26.29035804551612
 21
14.46757961098834
 31
0.0
  0
SOLID
  5
169F9
330
16996
100
AcDbEntity
  8
DIM
 62
     0
100
AcDbTrace
 10
26.26035804551611
 20
15.15507961098834
 30
0.0
 11
26.32035804551612
 21
15.15507961098834
 31
0.0
 12
26.29035804551612
 22
15.33507961098834
 32
0.0
 13
26.29035804551612
 23
15.33507961098834
 33
0.0
  0
SOLID
  5
169FA
330
16996
100
AcDbEntity
  8
DIM
 62
     0
100
AcDbTrace
 10
26.26035804551611
 20
14.14007961098834
 30
0.0
 11
26.32035804551612
 21
14.14007961098834
 31
0.0
 12
26.29035804551612
 22
13.96007961098834
 32
0.0
 13
26.29035804551612
 23
13.96007961098834
 33
0.0
  0
MTEXT
  5
169FB
330
16996
100
AcDbEntity
  8
DIM
 62
     0
100
AcDbMText
 10
26.29035804551611
 20
14.64757961098834
 30
0.0
 40
0.18
 41
0.0
 71
     5
 72
     1
  1
\A1;1.3750
 73
     1
 44
1.0
  0
POINT
  5
169FC
330
16996
100
AcDbEntity
  8
Defpoints
 62
     0
100
AcDbPoint
 10
24.92868824336623
 20
15.33507961098834
 30
0.0
  0
POINT
  5
169FD
330
16996
100
AcDbEntity
  8
Defpoints
 62
     0
100
AcDbPoint
 10
24.92868824336623
 20
13.96007961098834
 30
0.0
  0
POINT
  5
169FE
330
16996
100
AcDbEntity
  8
Defpoints
 62
     0
100
AcDbPoint
 10
26.29035804551612
 20
13.96007961098834
 30
0.0
  0
ENDBLK
  5
169A2
330
16996
100
AcDbEntity
  8
0
100
AcDbBlockEnd
  0
BLOCK
  5
169B1
330
169A6
100
AcDbEntity
  8
0
100
AcDbBlockBegin
  2
*D14
 70
     1
 10
0.0
 20
0.0
 30
0.0
  3
*D14
  1

  0
LINE
  5
169A7
330
169A6
100
AcDbEntity
  8
0
 62
     0
370
    -2
100
AcDbLine
 10
23.97606403592791
 20
13.66683065672976
 30
0.0
 11
23.97606403592791
 21
12.98489756800387
 31
0.0
  0
LINE
  5
169A8
330
169A6
100
AcDbEntity
  8
0
 62
     0
370
    -2
100
AcDbLine
 10
25.03600733566675
 20
13.65519007668863
 30
0.0
 11
25.03600733566675
 21
12.98489756800387
 31
0.0
  0
LINE
  5
169A9
330
169A6
100
AcDbEntity
  8
0
 62
     0
370
    -2
100
AcDbLine
 10
23.79606403592791
 20
13.16489756800387
 30
0.0
 11
23.61606403592791
 21
13.16489756800387
 31
0.0
  0
LINE
  5
169AA
330
169A6
100
AcDbEntity
  8
0
 62
     0
370
    -2
100
AcDbLine
 10
25.21600733566674
 20
13.16489756800387
 30
0.0
 11
25.39600733566674
 21
13.16489756800387
 31
0.0
  0
SOLID
  5
169AB
330
169A6
100
AcDbEntity
  8
0
 62
     0
100
AcDbTrace
 10
23.79606403592791
 20
13.19489756800387
 30
0.0
 11
23.79606403592791
 21
13.13489756800388
 31
0.0
 12
23.97606403592791
 22
13.16489756800387
 32
0.0
 13
23.97606403592791
 23
13.16489756800387
 33
0.0
  0
SOLID
  5
169AC
330
169A6
100
AcDbEntity
  8
0
 62
     0
100
AcDbTrace
 10
25.21600733566674
 20
13.19489756800387
 30
0.0
 11
25.21600733566674
 21
13.13489756800388
 31
0.0
 12
25.03600733566675
 22
13.16489756800387
 32
0.0
 13
25.03600733566675
 23
13.16489756800387
 33
0.0
  0
MTEXT
  5
169AD
330
169A6
100
AcDbEntity
  8
0
 62
     0
100
AcDbMText
 10
24.50603568579733
 20
13.16489756800387
 30
0.0
 40
0.18
 41
0.0
 71
     5
 72
     1
  1
\A1;1.0599
 73
     1
 44
1.0
  0
POINT
  5
169AE
330
169A6
100
AcDbEntity
  8
Defpoints
 62
     0
100
AcDbPoint
 10
23.97606403592791
 20
13.72933065672976
 30
0.0
  0
POINT
  5
169AF
330
169A6
100
AcDbEntity
  8
Defpoints
 62
     0
100
AcDbPoint
 10
25.03600733566675
 20
13.71769007668863
 30
0.0
  0
POINT
  5
169B0
330
169A6
100
AcDbEntity
  8
Defpoints
 62
     0
100
AcDbPoint
 10
25.03600733566675
 20
13.16489756800387
 30
0.0
  0
ENDBLK
  5
169B2
330
169A6
100
AcDbEntity
  8
0
100
AcDbBlockEnd
  0
BLOCK
  5
169BF
330
169B4
100
AcDbEntity
  8
0
100
AcDbBlockBegin
  2
*D15
 70
     1
 10
0.0
 20
0.0
 30
0.0
  3
*D15
  1

  0
LINE
  5
169B5
330
169B4
100
AcDbEntity
  8
0
 62
     0
370
    -2
100
AcDbLine
 10
23.16100733566674
 20
14.03019007668863
 30
0.0
 11
23.16100733566674
 21
13.39777876921637
 31
0.0
  0
LINE
  5
169B6
330
169B4
100
AcDbEntity
  8
0
 62
     0
370
    -2
100
AcDbLine
 10
21.28600733566675
 20
14.03019007668863
 30
0.0
 11
21.28600733566675
 21
13.39777876921637
 31
0.0
  0
LINE
  5
169B7
330
169B4
100
AcDbEntity
  8
0
 62
     0
370
    -2
100
AcDbLine
 10
22.98100733566674
 20
13.57777876921637
 30
0.0
 11
22.71850733566675
 21
13.57777876921637
 31
0.0
  0
LINE
  5
169B8
330
169B4
100
AcDbEntity
  8
0
 62
     0
370
    -2
100
AcDbLine
 10
21.46600733566675
 20
13.57777876921637
 30
0.0
 11
21.72850733566674
 21
13.57777876921637
 31
0.0
  0
SOLID
  5
169B9
330
169B4
100
AcDbEntity
  8
0
 62
     0
100
AcDbTrace
 10
22.98100733566674
 20
13.60777876921637
 30
0.0
 11
22.98100733566674
 21
13.54777876921637
 31
0.0
 12
23.16100733566674
 22
13.57777876921637
 32
0.0
 13
23.16100733566674
 23
13.57777876921637
 33
0.0
  0
SOLID
  5
169BA
330
169B4
100
AcDbEntity
  8
0
 62
     0
100
AcDbTrace
 10
21.46600733566675
 20
13.60777876921637
 30
0.0
 11
21.46600733566675
 21
13.54777876921637
 31
0.0
 12
21.28600733566675
 22
13.57777876921637
 32
0.0
 13
21.28600733566675
 23
13.57777876921637
 33
0.0
  0
MTEXT
  5
169BB
330
169B4
100
AcDbEntity
  8
0
 62
     0
100
AcDbMText
 10
22.22350733566675
 20
13.57777876921637
 30
0.0
 40
0.18
 41
0.0
 71
     5
 72
     1
  1
\A1;1.8750
 73
     1
 44
1.0
  0
POINT
  5
169BC
330
169B4
100
AcDbEntity
  8
Defpoints
 62
     0
100
AcDbPoint
 10
23.16100733566674
 20
14.09269007668863
 30
0.0
  0
POINT
  5
169BD
330
169B4
100
AcDbEntity
  8
Defpoints
 62
     0
100
AcDbPoint
 10
21.28600733566675
 20
14.09269007668863
 30
0.0
  0
POINT
  5
169BE
330
169B4
100
AcDbEntity
  8
Defpoints
 62
     0
100
AcDbPoint
 10
21.28600733566675
 20
13.57777876921637
 30
0.0
  0
ENDBLK
  5
169C0
330
169B4
100
AcDbEntity
  8
0
100
AcDbBlockEnd
  0
BLOCK
  5
169D5
330
169CA
100
AcDbEntity
  8
0
100
AcDbBlockBegin
  2
*D16
 70
     1
 10
0.0
 20
0.0
 30
0.0
  3
*D16
  1

  0
LINE
  5
169CB
330
169CA
100
AcDbEntity
  8
DIM
 62
     0
370
    -2
100
AcDbLine
 10
25.05368824336624
 20
19.46617244438177
 30
0.0
 11
26.2757556797478
 21
19.46617244438177
 31
0.0
  0
LINE
  5
169CC
330
169CA
100
AcDbEntity
  8
DIM
 62
     0
370
    -2
100
AcDbLine
 10
25.05368824336624
 20
18.46617244438177
 30
0.0
 11
26.2757556797478
 21
18.46617244438177
 31
0.0
  0
LINE
  5
169CD
330
169CA
100
AcDbEntity
  8
DIM
 62
     0
370
    -2
100
AcDbLine
 10
26.0957556797478
 20
19.28617244438177
 30
0.0
 11
26.0957556797478
 21
19.14617244438177
 31
0.0
  0
LINE
  5
169CE
330
169CA
100
AcDbEntity
  8
DIM
 62
     0
370
    -2
100
AcDbLine
 10
26.0957556797478
 20
18.64617244438177
 30
0.0
 11
26.0957556797478
 21
18.78617244438177
 31
0.0
  0
SOLID
  5
169CF
330
169CA
100
AcDbEntity
  8
DIM
 62
     0
100
AcDbTrace
 10
26.0657556797478
 20
19.28617244438177
 30
0.0
 11
26.1257556797478
 21
19.28617244438177
 31
0.0
 12
26.0957556797478
 22
19.46617244438177
 32
0.0
 13
26.0957556797478
 23
19.46617244438177
 33
0.0
  0
SOLID
  5
169D0
330
169CA
100
AcDbEntity
  8
DIM
 62
     0
100
AcDbTrace
 10
26.0657556797478
 20
18.64617244438177
 30
0.0
 11
26.1257556797478
 21
18.64617244438177
 31
0.0
 12
26.0957556797478
 22
18.46617244438177
 32
0.0
 13
26.0957556797478
 23
18.46617244438177
 33
0.0
  0
MTEXT
  5
169D1
330
169CA
100
AcDbEntity
  8
DIM
 62
     0
100
AcDbMText
 10
26.0957556797478
 20
18.96617244438178
 30
0.0
 40
0.18
 41
0.0
 71
     5
 72
     1
  1
\A1;1.0000
 73
     1
 44
1.0
  0
POINT
  5
169D2
330
169CA
100
AcDbEntity
  8
Defpoints
 62
     0
100
AcDbPoint
 10
24.99118824336624
 20
19.46617244438177
 30
0.0
  0
POINT
  5
169D3
330
169CA
100
AcDbEntity
  8
Defpoints
 62
     0
100
AcDbPoint
 10
24.99118824336624
 20
18.46617244438177
 30
0.0
  0
POINT
  5
169D4
330
169CA
100
AcDbEntity
  8
Defpoints
 62
     0
100
AcDbPoint
 10
26.0957556797478
 20
18.46617244438177
 30
0.0
  0
ENDBLK
  5
169D6
330
169CA
100
AcDbEntity
  8
0
100
AcDbBlockEnd
  0
BLOCK
  5
16A0B
330
16A00
100
AcDbEntity
  8
0
100
AcDbBlockBegin
  2
*D17
 70
     1
 10
0.0
 20
0.0
 30
0.0
  3
*D17
  1

  0
LINE
  5
16A01
330
16A00
100
AcDbEntity
  8
DIM
 62
     0
370
    -2
100
AcDbLine
 10
24.99118824336624
 20
18.40367244438177
 30
0.0
 11
24.99118824336624
 21
17.50665311452694
 31
0.0
  0
LINE
  5
16A02
330
16A00
100
AcDbEntity
  8
DIM
 62
     0
370
    -2
100
AcDbLine
 10
21.24118824336624
 20
18.40367244438177
 30
0.0
 11
21.24118824336624
 21
17.50665311452694
 31
0.0
  0
LINE
  5
16A03
330
16A00
100
AcDbEntity
  8
DIM
 62
     0
370
    -2
100
AcDbLine
 10
24.81118824336624
 20
17.68665311452694
 30
0.0
 11
23.62618824336624
 21
17.68665311452694
 31
0.0
  0
LINE
  5
16A04
330
16A00
100
AcDbEntity
  8
DIM
 62
     0
370
    -2
100
AcDbLine
 10
21.42118824336623
 20
17.68665311452694
 30
0.0
 11
22.60618824336623
 21
17.68665311452694
 31
0.0
  0
SOLID
  5
16A05
330
16A00
100
AcDbEntity
  8
DIM
 62
     0
100
AcDbTrace
 10
24.81118824336624
 20
17.71665311452694
 30
0.0
 11
24.81118824336624
 21
17.65665311452694
 31
0.0
 12
24.99118824336624
 22
17.68665311452694
 32
0.0
 13
24.99118824336624
 23
17.68665311452694
 33
0.0
  0
SOLID
  5
16A06
330
16A00
100
AcDbEntity
  8
DIM
 62
     0
100
AcDbTrace
 10
21.42118824336623
 20
17.71665311452694
 30
0.0
 11
21.42118824336623
 21
17.65665311452694
 31
0.0
 12
21.24118824336624
 22
17.68665311452694
 32
0.0
 13
21.24118824336624
 23
17.68665311452694
 33
0.0
  0
MTEXT
  5
16A07
330
16A00
100
AcDbEntity
  8
DIM
 62
     0
100
AcDbMText
 10
23.11618824336624
 20
17.68665311452694
 30
0.0
 40
0.18
 41
0.0
 71
     5
 72
     1
  1
\A1;3.7500
 73
     1
 44
1.0
  0
POINT
  5
16A08
330
16A00
100
AcDbEntity
  8
Defpoints
 62
     0
100
AcDbPoint
 10
24.99118824336624
 20
18.46617244438177
 30
0.0
  0
POINT
  5
16A09
330
16A00
100
AcDbEntity
  8
Defpoints
 62
     0
100
AcDbPoint
 10
21.24118824336624
 20
18.46617244438177
 30
0.0
  0
POINT
  5
16A0A
330
16A00
100
AcDbEntity
  8
Defpoints
 62
     0
100
AcDbPoint
 10
21.24118824336624
 20
17.68665311452694
 30
0.0
  0
ENDBLK
  5
16A0C
330
16A00
100
AcDbEntity
  8
0
100
AcDbBlockEnd
  0
ENDSEC
  0
SECTION
  2
ENTITIES
  0
LINE
  5
1683F
330
18
100
AcDbEntity
  8
0
100
AcDbLine
 10
24.92868824336623
 20
15.33507961098834
 30
0.0
 11
21.17868824336624
 21
15.33507961098834
 31
0.0
  0
LINE
  5
16841
330
18
100
AcDbEntity
  8
0
100
AcDbLine
 10
24.92868824336623
 20
15.33507961098834
 30
0.0
 11
24.92868824336623
 21
13.96007961098834
 31
0.0
  0
LINE
  5
16842
330
18
100
AcDbEntity
  8
0
100
AcDbLine
 10
21.17868824336624
 20
15.33507961098834
 30
0.0
 11
21.17868824336624
 21
14.33507961098834
 31
0.0
  0
LINE
  5
16843
330
18
100
AcDbEntity
  8
0
100
AcDbLine
 10
24.92868824336623
 20
13.96007961098834
 30
0.0
 11
23.97600666530594
 21
13.96007961098834
 31
0.0
  0
LINE
  5
16846
330
18
100
AcDbEntity
  8
0
100
AcDbLine
 10
22.96583350581448
 20
14.33507961098834
 30
0.0
 11
21.17868824336624
 21
14.33507961098834
 31
0.0
  0
LINE
  5
16847
330
18
100
AcDbEntity
  8
0
100
AcDbLine
 10
23.76647757657506
 20
14.00609991873811
 30
0.0
 11
23.13345677679917
 21
14.29826336478852
 31
0.0
  0
ARC
  5
16848
330
18
100
AcDbEntity
  8
0
100
AcDbCircle
 10
23.97600666530594
 20
14.46007961098834
 30
0.0
 40
0.5
100
AcDbArc
 50
245.2248594311683
 51
270.0
  0
MTEXT
  5
16925
330
18
100
AcDbEntity
  8
0
100
AcDbMText
 10
21.24118824336624
 20
20.49532329619941
 30
0.0
 40
0.25
 41
6.173374851326968
 71
     1
 72
     5
  1
Vue de face / Front View
 73
     1
 44
1.0
  0
MTEXT
  5
16928
330
18
100
AcDbEntity
  8
0
100
AcDbMText
 10
21.13386915106573
 20
16.41080247862138
 30
0.0
 40
0.25
 41
6.173374851326968
 71
     1
 72
     5
  1
Vue de dessus / Top View
 73
     1
 44
1.0
  0
LINE
  5
1692B
330
18
100
AcDbEntity
  8
0
100
AcDbLine
 10
21.24118824336624
 20
19.46617244438177
 30
0.0
 11
21.24118824336624
 21
18.46617244438177
 31
0.0
  0
DIMENSION
  5
16987
330
18
100
AcDbEntity
  8
DIM
100
AcDbDimension
  2
*D12
 10
20.2390430400404
 20
15.33507961098834
 30
0.0
 11
20.2390430400404
 21
14.83507961098834
 31
0.0
 70
    32
 71
     5
 42
0.9999999999999982
  3
STANDARD
100
AcDbAlignedDimension
 13
21.17868824336624
 23
14.33507961098834
 33
0.0
 14
21.17868824336624
 24
15.33507961098834
 34
0.0
 50
90.0
100
AcDbRotatedDimension
  0
DIMENSION
  5
16995
330
18
100
AcDbEntity
  8
DIM
100
AcDbDimension
  2
*D13
 10
26.29035804551612
 20
13.96007961098834
 30
0.0
 11
26.29035804551611
 21
14.64757961098834
 31
0.0
 70
    32
 71
     5
 42
1.375
  3
STANDARD
100
AcDbAlignedDimension
 13
24.92868824336623
 23
15.33507961098834
 33
0.0
 14
24.92868824336623
 24
13.96007961098834
 34
0.0
 50
90.0
100
AcDbRotatedDimension
  0
LINE
  5
169A3
330
18
100
AcDbEntity
  8
0
100
AcDbLine
 10
21.24118824336624
 20
19.46617244438177
 30
0.0
 11
24.99118824336624
 21
19.46617244438177
 31
0.0
  0
LINE
  5
169A4
330
18
100
AcDbEntity
  8
0
100
AcDbLine
 10
24.99118824336624
 20
19.46617244438177
 30
0.0
 11
24.99118824336624
 21
18.46617244438177
 31
0.0
  0
LINE
  5
169C2
330
18
100
AcDbEntity
  8
0
100
AcDbLine
 10
23.11618824336624
 20
18.46617244438177
 30
0.0
 11
23.11618824336624
 21
19.46617244438177
 31
0.0
  0
LINE
  5
169C4
330
18
100
AcDbEntity
  8
0
100
AcDbLine
 10
23.99118824336623
 20
18.46617244438177
 30
0.0
 11
23.99118824336623
 21
19.46617244438177
 31
0.0
  0
LINE
  5
169C5
330
18
100
AcDbEntity
  8
0
100
AcDbLine
 10
21.24118824336624
 20
18.46617244438177
 30
0.0
 11
24.99118824336624
 21
18.46617244438177
 31
0.0
  0
ARC
  5
169C8
330
18
100
AcDbEntity
  8
0
100
AcDbCircle
 10
22.96583350581448
 20
13.93507961098834
 30
0.0
 40
0.4
100
AcDbArc
 50
65.22485943116826
 51
89.99999999999994
  0
DIMENSION
  5
169C9
330
18
100
AcDbEntity
  8
DIM
100
AcDbDimension
  2
*D16
 10
26.0957556797478
 20
18.46617244438177
 30
0.0
 11
26.0957556797478
 21
18.96617244438178
 31
0.0
 70
    32
 71
     5
  3
STANDARD
100
AcDbAlignedDimension
 13
24.99118824336624
 23
19.46617244438177
 33
0.0
 14
24.99118824336624
 24
18.46617244438177
 34
0.0
 50
90.0
100
AcDbRotatedDimension
  0
DIMENSION
  5
169FF
330
18
100
AcDbEntity
  8
DIM
100
AcDbDimension
  2
*D17
 10
21.24118824336624
 20
17.68665311452694
 30
0.0
 11
23.11618824336624
 21
17.68665311452694
 31
0.0
 70
    32
 71
     5
 42
3.75
  3
STANDARD
100
AcDbAlignedDimension
 13
24.99118824336624
 23
18.46617244438177
 33
0.0
 14
21.24118824336624
 24
18.46617244438177
 34
0.0
100
AcDbRotatedDimension
  0
ENDSEC
  0
SECTION
  2
OBJECTS
  0
DICTIONARY
  5
C
330
0
100
AcDbDictionary
281
     1
  3
ACAD_COLOR
350
16867
  3
ACAD_GROUP
350
D
  3
ACAD_IMAGE_DICT
350
21
  3
ACAD_IMAGE_VARS
350
20
  3
ACAD_LAYOUT
350
16868
  3
ACAD_MATERIAL
350
16866
  3
ACAD_MLINESTYLE
350
1B
  3
ACAD_PLOTSETTINGS
350
16869
  3
ACAD_PLOTSTYLENAME
350
16864
  3
ACDBVARIABLEDICTIONARY
350
15452
  0
DICTIONARY
  5
16867
102
{ACAD_REACTORS
330
C
102
}
330
C
100
AcDbDictionary
281
     1
  0
DICTIONARY
  5
D
102
{ACAD_REACTORS
330
C
102
}
330
C
100
AcDbDictionary
281
     1
  0
DICTIONARY
  5
21
102
{ACAD_REACTORS
330
C
102
}
330
C
100
AcDbDictionary
281
     1
  3
1001T
350
14E25
  3
2208-1
350
1568F
  3
2208-2
350
15690
  0
RASTERVARIABLES
  5
20
102
{ACAD_REACTORS
330
C
102
}
330
C
100
AcDbRasterVariables
 90
        0
 70
     1
 71
     1
 72
     0
  0
DICTIONARY
  5
16868
102
{ACAD_REACTORS
330
C
102
}
330
C
100
AcDbDictionary
281
     1
  3
Layout1
350
1686B
  3
Model
350
1686A
  0
DICTIONARY
  5
16866
102
{ACAD_REACTORS
330
C
102
}
330
C
100
AcDbDictionary
281
     1
  0
DICTIONARY
  5
1B
102
{ACAD_REACTORS
330
C
102
}
330
C
100
AcDbDictionary
281
     1
  3
STANDARD
350
1C
  0
DICTIONARY
  5
16869
102
{ACAD_REACTORS
330
C
102
}
330
C
100
AcDbDictionary
281
     1
  0
ACDBDICTIONARYWDFLT
  5
16864
102
{ACAD_REACTORS
330
C
102
}
330
C
100
AcDbDictionary
281
     1
  3
Normal
350
16865
100
AcDbDictionaryWithDefault
340
16865
  0
DICTIONARY
  5
15452
102
{ACAD_REACTORS
330
C
102
}
330
C
100
AcDbDictionary
281
     1
  3
SORTENTS
350
15453
  0
IMAGEDEF
  5
14E25
102
{ACAD_REACTORS
330
21
102
}
330
21
100
AcDbRasterImageDef
 90
        0
  1
U:\TPDWG\MichelQ\1001t.tif
 10
3054.0
 20
3298.0
 11
0.0705555555555556
 21
0.0705555555555556
280
     1
281
     5
  0
IMAGEDEF
  5
1568F
102
{ACAD_REACTORS
330
21
102
}
330
21
100
AcDbRasterImageDef
 90
        0
  1
U:\TPDWG\MichelQ\2208-1.tif
 10
2916.0
 20
3526.0
 11
0.0705555555555556
 21
0.0705555555555556
280
     1
281
     5
  0
IMAGEDEF
  5
15690
102
{ACAD_REACTORS
330
21
102
}
330
21
100
AcDbRasterImageDef
 90
        0
  1
U:\TPDWG\MichelQ\2208-2.tif
 10
2916.0
 20
3526.0
 11
0.0705555555555556
 21
0.0705555555555556
280
     1
281
     5
  0
LAYOUT
  5
1686B
102
{ACAD_REACTORS
330
16868
102
}
330
16868
100
AcDbPlotSettings
  1

  2
None
  4

  6

 40
0.0
 41
0.0
 42
0.0
 43
0.0
 44
0.0
 45
0.0
 46
0.0
 47
0.0
 48
0.0
 49
0.0
140
0.0
141
0.0
142
1.0
143
1.0
 70
   688
 72
     0
 73
     0
 74
     5
  7

 75
    16
147
1.0
 76
     0
 77
     2
 78
   300
148
0.0
149
0.0
100
AcDbLayout
  1
Layout1
 70
     1
 71
     1
 10
0.0
 20
0.0
 11
12.0
 21
9.0
 12
0.0
 22
0.0
 32
0.0
 14
1.000000000000000E+20
 24
1.000000000000000E+20
 34
1.000000000000000E+20
 15
-1.000000000000000E+20
 25
-1.000000000000000E+20
 35
-1.000000000000000E+20
146
0.0
 13
0.0
 23
0.0
 33
0.0
 16
1.0
 26
0.0
 36
0.0
 17
0.0
 27
1.0
 37
0.0
 76
     0
330
15
  0
LAYOUT
  5
1686A
102
{ACAD_REACTORS
330
16868
102
}
330
16868
100
AcDbPlotSettings
  1

  2
None
  4

  6

 40
0.0
 41
0.0
 42
0.0
 43
0.0
 44
0.0
 45
0.0
 46
0.0
 47
0.0
 48
0.0
 49
0.0
140
0.0
141
0.0
142
1.0
143
1.0
 70
  1712
 72
     0
 73
     0
 74
     0
  7

 75
     0
147
1.0
 76
     0
 77
     2
 78
   300
148
0.0
149
0.0
100
AcDbLayout
  1
Model
 70
     1
 71
     0
 10
0.0
 20
0.0
 11
12.0
 21
9.0
 12
0.0
 22
0.0
 32
0.0
 14
0.0
 24
0.0
 34
0.0
 15
0.0
 25
0.0
 35
0.0
146
0.0
 13
0.0
 23
0.0
 33
0.0
 16
1.0
 26
0.0
 36
0.0
 17
0.0
 27
1.0
 37
0.0
 76
     0
330
18
  0
MLINESTYLE
  5
1C
102
{ACAD_REACTORS
330
1B
102
}
330
1B
100
AcDbMlineStyle
  2
STANDARD
 70
     0
  3

 62
   256
 51
90.0
 52
90.0
 71
     2
 49
0.5
 62
   256
  6
BYLAYER
 49
-0.5
 62
   256
  6
BYLAYER
  0
ACDBPLACEHOLDER
  5
16865
102
{ACAD_REACTORS
330
16864
102
}
330
16864
  0
DICTIONARYVAR
  5
15453
102
{ACAD_REACTORS
330
15452
102
}
330
15452
100
DictionaryVariables
280
     0
  1
96
  0
ENDSEC
  0
EOF
