  0
SECTION
  2
HEADER
  9
$ACADVER
  1
AC1018
  9
$ACADMAINTVER
 70
     0
  9
$DWGCODEPAGE
  3
ANSI_1252
  9
$INSBASE
 10
0.0
 20
0.0
 30
0.0
  9
$EXTMIN
 10
24.10922663262771
 20
5.319249051160489
 30
0.0
  9
$EXTMAX
 10
38.83433516279848
 20
12.25929484839437
 30
0.0
  9
$LIMMIN
 10
0.0
 20
0.0
  9
$LIMMAX
 10
420.0
 20
297.0
  9
$ORTHOMODE
 70
     0
  9
$REGENMODE
 70
     1
  9
$FILLMODE
 70
     1
  9
$QTEXTMODE
 70
     0
  9
$MIRRTEXT
 70
     1
  9
$LTSCALE
 40
0.04
  9
$ATTMODE
 70
     1
  9
$TEXTSIZE
 40
0.09375
  9
$TRACEWID
 40
1.0
  9
$TEXTSTYLE
  7
STYLE1
  9
$CLAYER
  8
0
  9
$CELTYPE
  6
BYLAYER
  9
$CECOLOR
 62
   256
  9
$CELTSCALE
 40
1.0
  9
$DISPSILH
 70
     0
  9
$DIMSCALE
 40
1.0
  9
$DIMASZ
 40
0.18
  9
$DIMEXO
 40
0.0625
  9
$DIMDLI
 40
0.38
  9
$DIMRND
 40
0.0
  9
$DIMDLE
 40
0.0
  9
$DIMEXE
 40
0.18
  9
$DIMTP
 40
0.0
  9
$DIMTM
 40
0.0
  9
$DIMTXT
 40
0.3675
  9
$DIMCEN
 40
0.09
  9
$DIMTSZ
 40
0.0
  9
$DIMTOL
 70
     0
  9
$DIMLIM
 70
     0
  9
$DIMTIH
 70
     1
  9
$DIMTOH
 70
     1
  9
$DIMSE1
 70
     0
  9
$DIMSE2
 70
     0
  9
$DIMTAD
 70
     0
  9
$DIMZIN
 70
     0
  9
$DIMBLK
  1

  9
$DIMASO
 70
     1
  9
$DIMSHO
 70
     1
  9
$DIMPOST
  1

  9
$DIMAPOST
  1

  9
$DIMALT
 70
     0
  9
$DIMALTD
 70
     2
  9
$DIMALTF
 40
25.4
  9
$DIMLFAC
 40
1.0
  9
$DIMTOFL
 70
     0
  9
$DIMTVP
 40
0.0
  9
$DIMTIX
 70
     0
  9
$DIMSOXD
 70
     0
  9
$DIMSAH
 70
     0
  9
$DIMBLK1
  1

  9
$DIMBLK2
  1

  9
$DIMSTYLE
  2
STANDARD
  9
$DIMCLRD
 70
     0
  9
$DIMCLRE
 70
     0
  9
$DIMCLRT
 70
     0
  9
$DIMTFAC
 40
1.0
  9
$DIMGAP
 40
0.09
  9
$DIMJUST
 70
     0
  9
$DIMSD1
 70
     0
  9
$DIMSD2
 70
     0
  9
$DIMTOLJ
 70
     1
  9
$DIMTZIN
 70
     0
  9
$DIMALTZ
 70
     0
  9
$DIMALTTZ
 70
     0
  9
$DIMUPT
 70
     0
  9
$DIMDEC
 70
     4
  9
$DIMTDEC
 70
     4
  9
$DIMALTU
 70
     2
  9
$DIMALTTD
 70
     2
  9
$DIMTXSTY
  7
STANDARD
  9
$DIMAUNIT
 70
     0
  9
$DIMADEC
 70
     0
  9
$DIMALTRND
 40
0.0
  9
$DIMAZIN
 70
     0
  9
$DIMDSEP
 70
    46
  9
$DIMATFIT
 70
     3
  9
$DIMFRAC
 70
     0
  9
$DIMLDRBLK
  1

  9
$DIMLUNIT
 70
     2
  9
$DIMLWD
 70
    -2
  9
$DIMLWE
 70
    -2
  9
$DIMTMOVE
 70
     0
  9
$LUNITS
 70
     4
  9
$LUPREC
 70
     4
  9
$SKETCHINC
 40
1.0
  9
$FILLETRAD
 40
0.05
  9
$AUNITS
 70
     0
  9
$AUPREC
 70
     0
  9
$MENU
  1
.
  9
$ELEVATION
 40
0.0
  9
$PELEVATION
 40
0.0
  9
$THICKNESS
 40
0.0
  9
$LIMCHECK
 70
     0
  9
$CHAMFERA
 40
10.0
  9
$CHAMFERB
 40
10.0
  9
$CHAMFERC
 40
20.0
  9
$CHAMFERD
 40
0.0
  9
$SKPOLY
 70
     0
  9
$TDCREATE
 40
2451158.432431366
  9
$TDUCREATE
 40
2451158.599098032
  9
$TDUPDATE
 40
2453536.591541030
  9
$TDUUPDATE
 40
2453536.758207697
  9
$TDINDWG
 40
0.6517371759
  9
$TDUSRTIMER
 40
0.6517371759
  9
$USRTIMER
 70
     1
  9
$ANGBASE
 50
0.0
  9
$ANGDIR
 70
     0
  9
$PDMODE
 70
     3
  9
$PDSIZE
 40
0.25
  9
$PLINEWID
 40
0.0
  9
$SPLFRAME
 70
     0
  9
$SPLINETYPE
 70
     6
  9
$SPLINESEGS
 70
     8
  9
$HANDSEED
  5
38C5
  9
$SURFTAB1
 70
     6
  9
$SURFTAB2
 70
     6
  9
$SURFTYPE
 70
     6
  9
$SURFU
 70
     6
  9
$SURFV
 70
     6
  9
$UCSBASE
  2

  9
$UCSNAME
  2

  9
$UCSORG
 10
0.0
 20
0.0
 30
0.0
  9
$UCSXDIR
 10
1.0
 20
0.0
 30
0.0
  9
$UCSYDIR
 10
0.0
 20
1.0
 30
0.0
  9
$UCSORTHOREF
  2

  9
$UCSORTHOVIEW
 70
     0
  9
$UCSORGTOP
 10
0.0
 20
0.0
 30
0.0
  9
$UCSORGBOTTOM
 10
0.0
 20
0.0
 30
0.0
  9
$UCSORGLEFT
 10
0.0
 20
0.0
 30
0.0
  9
$UCSORGRIGHT
 10
0.0
 20
0.0
 30
0.0
  9
$UCSORGFRONT
 10
0.0
 20
0.0
 30
0.0
  9
$UCSORGBACK
 10
0.0
 20
0.0
 30
0.0
  9
$PUCSBASE
  2

  9
$PUCSNAME
  2

  9
$PUCSORG
 10
0.0
 20
0.0
 30
0.0
  9
$PUCSXDIR
 10
1.0
 20
0.0
 30
0.0
  9
$PUCSYDIR
 10
0.0
 20
1.0
 30
0.0
  9
$PUCSORTHOREF
  2

  9
$PUCSORTHOVIEW
 70
     0
  9
$PUCSORGTOP
 10
0.0
 20
0.0
 30
0.0
  9
$PUCSORGBOTTOM
 10
0.0
 20
0.0
 30
0.0
  9
$PUCSORGLEFT
 10
0.0
 20
0.0
 30
0.0
  9
$PUCSORGRIGHT
 10
0.0
 20
0.0
 30
0.0
  9
$PUCSORGFRONT
 10
0.0
 20
0.0
 30
0.0
  9
$PUCSORGBACK
 10
0.0
 20
0.0
 30
0.0
  9
$USERI1
 70
     0
  9
$USERI2
 70
     0
  9
$USERI3
 70
     0
  9
$USERI4
 70
     0
  9
$USERI5
 70
     0
  9
$USERR1
 40
0.0
  9
$USERR2
 40
0.0
  9
$USERR3
 40
0.0
  9
$USERR4
 40
0.0
  9
$USERR5
 40
0.0
  9
$WORLDVIEW
 70
     1
  9
$SHADEDGE
 70
     3
  9
$SHADEDIF
 70
    70
  9
$TILEMODE
 70
     1
  9
$MAXACTVP
 70
    48
  9
$PINSBASE
 10
0.0
 20
0.0
 30
0.0
  9
$PLIMCHECK
 70
     0
  9
$PEXTMIN
 10
26.64733987609782
 20
20.31633067121299
 30
-0.0015258207003583
  9
$PEXTMAX
 10
240.0567634637198
 20
182.8968206270327
 30
0.0000000349246037
  9
$PLIMMIN
 10
-6.350006103515625
 20
-6.349999904632568
  9
$PLIMMAX
 10
273.0499877929688
 20
209.5499939918518
  9
$UNITMODE
 70
     0
  9
$VISRETAIN
 70
     1
  9
$PLINEGEN
 70
     0
  9
$PSLTSCALE
 70
     1
  9
$TREEDEPTH
 70
  3020
  9
$CMLSTYLE
  2
STANDARD
  9
$CMLJUST
 70
     0
  9
$CMLSCALE
 40
20.0
  9
$PROXYGRAPHICS
 70
     1
  9
$MEASUREMENT
 70
     1
  9
$CELWEIGHT
370
    -1
  9
$ENDCAPS
280
     0
  9
$JOINSTYLE
280
     0
  9
$LWDISPLAY
290
     0
  9
$INSUNITS
 70
     0
  9
$HYPERLINKBASE
  1

  9
$STYLESHEET
  1

  9
$XEDIT
290
     1
  9
$CEPSNTYPE
380
     0
  9
$PSTYLEMODE
290
     1
  9
$FINGERPRINTGUID
  2
{53769D9F-81F7-476F-8E8F-9EFBCE0C1643}
  9
$VERSIONGUID
  2
{186F9654-B1BF-4354-8FC7-20A1AFD20FF5}
  9
$EXTNAMES
290
     1
  9
$PSVPSCALE
 40
0.0
  9
$OLESTARTUP
290
     0
  9
$SORTENTS
280
    96
  9
$INDEXCTL
280
     0
  9
$HIDETEXT
280
     0
  9
$XCLIPFRAME
290
     0
  9
$HALOGAP
280
     0
  9
$OBSCOLOR
 70
   257
  9
$OBSLTYPE
280
     0
  9
$INTERSECTIONDISPLAY
280
     0
  9
$INTERSECTIONCOLOR
 70
   257
  9
$DIMASSOC
280
     1
  9
$PROJECTNAME
  1

  0
ENDSEC
  0
SECTION
  2
CLASSES
  0
CLASS
  1
RASTERVARIABLES
  2
AcDbRasterVariables
  3
ISM
 90
        0
 91
        1
280
     0
281
     0
  0
CLASS
  1
IMAGEDEF
  2
AcDbRasterImageDef
  3
ISM
 90
        0
 91
        6
280
     0
281
     0
  0
CLASS
  1
IMAGEDEF_REACTOR
  2
AcDbRasterImageDefReactor
  3
ISM
 90
        1
 91
        0
280
     0
281
     0
  0
CLASS
  1
IMAGE
  2
AcDbRasterImage
  3
ISM
 90
      127
 91
        0
280
     0
281
     1
  0
CLASS
  1
DICTIONARYVAR
  2
AcDbDictionaryVar
  3
ObjectDBX Classes
 90
        0
 91
        1
280
     0
281
     0
  0
CLASS
  1
ACDBDICTIONARYWDFLT
  2
AcDbDictionaryWithDefault
  3
ObjectDBX Classes
 90
        0
 91
        1
280
     0
281
     0
  0
ENDSEC
  0
SECTION
  2
TABLES
  0
TABLE
  2
VPORT
  5
8
330
0
100
AcDbSymbolTable
 70
    13
  0
VPORT
  5
38C4
330
8
100
AcDbSymbolTableRecord
100
AcDbViewportTableRecord
  2
*Active
 70
     0
 10
0.0
 20
0.0
 11
1.0
 21
1.0
 12
28.7059418064172
 22
8.447965504624779
 13
0.0
 23
0.0
 14
10.0
 24
10.0
 15
10.0
 25
10.0
 16
0.0
 26
0.0
 36
1.0
 17
0.0
 27
0.0
 37
0.0
 40
9.046037983114221
 41
1.955307262569832
 42
50.0
 43
0.0
 44
0.0
 50
0.0
 51
0.0
 71
     0
 72
   100
 73
     1
 74
     1
 75
     0
 76
     0
 77
     0
 78
     0
281
     0
 65
     1
110
0.0
120
0.0
130
0.0
111
1.0
121
0.0
131
0.0
112
0.0
122
1.0
132
0.0
 79
     0
146
0.0
  0
ENDTAB
  0
TABLE
  2
LTYPE
  5
5
330
0
100
AcDbSymbolTable
 70
     1
  0
LTYPE
  5
12
330
5
100
AcDbSymbolTableRecord
100
AcDbLinetypeTableRecord
  2
BYBLOCK
 70
     0
  3

 72
    65
 73
     0
 40
0.0
  0
LTYPE
  5
13
330
5
100
AcDbSymbolTableRecord
100
AcDbLinetypeTableRecord
  2
BYLAYER
 70
     0
  3

 72
    65
 73
     0
 40
0.0
  0
LTYPE
  5
14
330
5
100
AcDbSymbolTableRecord
100
AcDbLinetypeTableRecord
  2
CONTINUOUS
 70
     0
  3
Solid line
 72
    65
 73
     0
 40
0.0
  0
ENDTAB
  0
TABLE
  2
LAYER
  5
2
330
0
100
AcDbSymbolTable
 70
     3
  0
LAYER
  5
E
330
2
100
AcDbSymbolTableRecord
100
AcDbLayerTableRecord
  2
0
 70
     0
 62
     7
  6
CONTINUOUS
370
    -3
390
37DC
  0
LAYER
  5
37E7
330
2
100
AcDbSymbolTableRecord
100
AcDbLayerTableRecord
  2
Defpoints
 70
     0
 62
     7
  6
CONTINUOUS
290
     0
370
    -3
390
37DC
  0
LAYER
  5
3896
330
2
100
AcDbSymbolTableRecord
100
AcDbLayerTableRecord
  2
DIM
 70
     0
 62
    -3
  6
CONTINUOUS
370
    -3
390
37DC
  0
ENDTAB
  0
TABLE
  2
STYLE
  5
3
330
0
100
AcDbSymbolTable
 70
     2
  0
STYLE
  5
F
330
3
100
AcDbSymbolTableRecord
100
AcDbTextStyleTableRecord
  2
STANDARD
 70
     0
 40
0.0
 41
1.0
 50
0.0
 71
     0
 42
2.5
  3
txt
  4

  0
STYLE
  5
36AA
330
3
100
AcDbSymbolTableRecord
100
AcDbTextStyleTableRecord
  2
STYLE1
 70
     0
 40
0.09375
 41
1.0
 50
0.0
 71
     0
 42
0.09375
  3
simplex.shx
  4

  0
ENDTAB
  0
TABLE
  2
VIEW
  5
6
330
0
100
AcDbSymbolTable
 70
     0
  0
ENDTAB
  0
TABLE
  2
UCS
  5
7
330
0
100
AcDbSymbolTable
 70
     0
  0
ENDTAB
  0
TABLE
  2
APPID
  5
9
330
0
100
AcDbSymbolTable
 70
     1
  0
APPID
  5
10
330
9
100
AcDbSymbolTableRecord
100
AcDbRegAppTableRecord
  2
ACAD
 70
     0
  0
ENDTAB
  0
TABLE
  2
DIMSTYLE
  5
A
330
0
100
AcDbSymbolTable
 70
     1
100
AcDbDimStyleTable
 71
     1
340
1D
  0
DIMSTYLE
105
1D
102
{ACAD_REACTORS
330
3897
330
38A5
330
38B3
102
}
330
A
100
AcDbSymbolTableRecord
100
AcDbDimStyleTableRecord
  2
STANDARD
 70
     0
140
0.3675
340
F
  0
ENDTAB
  0
TABLE
  2
BLOCK_RECORD
  5
1
330
0
100
AcDbSymbolTable
 70
     6
  0
BLOCK_RECORD
  5
18
330
1
100
AcDbSymbolTableRecord
100
AcDbBlockTableRecord
  2
*MODEL_SPACE
340
37E1
  0
BLOCK_RECORD
  5
15
330
1
100
AcDbSymbolTableRecord
100
AcDbBlockTableRecord
  2
*PAPER_SPACE
340
37E2
  0
BLOCK_RECORD
  5
37CD
330
1
100
AcDbSymbolTableRecord
100
AcDbBlockTableRecord
  2
6008R_E
340
0
  0
BLOCK_RECORD
  5
37E8
330
1
100
AcDbSymbolTableRecord
100
AcDbBlockTableRecord
  2
*D1
340
0
  0
BLOCK_RECORD
  5
37F6
330
1
100
AcDbSymbolTableRecord
100
AcDbBlockTableRecord
  2
*D2
340
0
  0
BLOCK_RECORD
  5
3898
330
1
100
AcDbSymbolTableRecord
100
AcDbBlockTableRecord
  2
*D3
340
0
  0
BLOCK_RECORD
  5
38A6
330
1
100
AcDbSymbolTableRecord
100
AcDbBlockTableRecord
  2
*D4
340
0
  0
BLOCK_RECORD
  5
38B4
330
1
100
AcDbSymbolTableRecord
100
AcDbBlockTableRecord
  2
*D5
340
0
  0
ENDTAB
  0
ENDSEC
  0
SECTION
  2
BLOCKS
  0
BLOCK
  5
19
330
18
100
AcDbEntity
  8
0
100
AcDbBlockBegin
  2
*MODEL_SPACE
 70
     0
 10
0.0
 20
0.0
 30
0.0
  3
*MODEL_SPACE
  1

  0
ENDBLK
  5
1A
330
18
100
AcDbEntity
  8
0
100
AcDbBlockEnd
  0
BLOCK
  5
16
330
15
100
AcDbEntity
 67
     1
  8
0
100
AcDbBlockBegin
  2
*PAPER_SPACE
 70
     0
 10
0.0
 20
0.0
 30
0.0
  3
*PAPER_SPACE
  1

  0
ENDBLK
  5
17
330
15
100
AcDbEntity
 67
     1
  8
0
100
AcDbBlockEnd
  0
BLOCK
  5
37CE
330
37CD
100
AcDbEntity
  8
0
100
AcDbBlockBegin
  2
6008R_E
 70
     0
 10
0.0
 20
0.0
 30
0.0
  3
6008R_E
  1

  0
CIRCLE
  5
37CF
330
37CD
100
AcDbEntity
  8
0
100
AcDbCircle
 10
0.0
 20
3.0
 30
0.0
 40
1.65625
  0
CIRCLE
  5
37D0
330
37CD
100
AcDbEntity
  8
0
100
AcDbCircle
 10
0.0
 20
3.0
 30
0.0
 40
1.34375
  0
LINE
  5
37D1
330
37CD
100
AcDbEntity
  8
0
100
AcDbLine
 10
-3.0
 20
0.0
 30
0.0
 11
-3.0
 21
6.0
 31
0.0
  0
LINE
  5
37D2
330
37CD
100
AcDbEntity
  8
0
100
AcDbLine
 10
3.0
 20
0.0
 30
0.0
 11
3.0
 21
6.0
 31
0.0
  0
LINE
  5
37D3
330
37CD
100
AcDbEntity
  8
0
100
AcDbLine
 10
-3.0
 20
0.0
 30
0.0
 11
3.0
 21
0.0
 31
0.0
  0
CIRCLE
  5
37D4
330
37CD
100
AcDbEntity
  8
0
100
AcDbCircle
 10
0.0
 20
3.0
 30
0.0
 40
0.46875
  0
CIRCLE
  5
37D5
330
37CD
100
AcDbEntity
  8
0
100
AcDbCircle
 10
0.0
 20
3.0
 30
0.0
 40
0.21875
  0
LINE
  5
37D6
330
37CD
100
AcDbEntity
  8
0
100
AcDbLine
 10
-3.0
 20
6.0
 30
0.0
 11
3.0
 21
6.0
 31
0.0
  0
ENDBLK
  5
37D7
330
37CD
100
AcDbEntity
  8
0
100
AcDbBlockEnd
  0
BLOCK
  5
37F3
330
37E8
100
AcDbEntity
  8
0
100
AcDbBlockBegin
  2
*D1
 70
     1
 10
0.0
 20
0.0
 30
0.0
  3
*D1
  1

  0
LINE
  5
37E9
330
37E8
100
AcDbEntity
  8
0
 62
     0
370
    -2
100
AcDbLine
 10
21.63005028084879
 20
11.39553649508478
 30
0.0
 11
21.63005028084879
 21
12.66629738042476
 31
0.0
  0
LINE
  5
37EA
330
37E8
100
AcDbEntity
  8
0
 62
     0
370
    -2
100
AcDbLine
 10
15.63005028084879
 20
11.39553649508478
 30
0.0
 11
15.63005028084879
 21
12.66629738042476
 31
0.0
  0
LINE
  5
37EB
330
37E8
100
AcDbEntity
  8
0
 62
     0
370
    -2
100
AcDbLine
 10
21.45005028084879
 20
12.48629738042476
 30
0.0
 11
19.51630028084879
 21
12.48629738042476
 31
0.0
  0
LINE
  5
37EC
330
37E8
100
AcDbEntity
  8
0
 62
     0
370
    -2
100
AcDbLine
 10
15.81005028084879
 20
12.48629738042476
 30
0.0
 11
17.74380028084879
 21
12.48629738042476
 31
0.0
  0
SOLID
  5
37ED
330
37E8
100
AcDbEntity
  8
0
 62
     0
100
AcDbTrace
 10
21.45005028084879
 20
12.51629738042476
 30
0.0
 11
21.45005028084879
 21
12.45629738042477
 31
0.0
 12
21.63005028084879
 22
12.48629738042476
 32
0.0
 13
21.63005028084879
 23
12.48629738042476
 33
0.0
  0
SOLID
  5
37EE
330
37E8
100
AcDbEntity
  8
0
 62
     0
100
AcDbTrace
 10
15.81005028084879
 20
12.51629738042476
 30
0.0
 11
15.81005028084879
 21
12.45629738042477
 31
0.0
 12
15.63005028084879
 22
12.48629738042476
 32
0.0
 13
15.63005028084879
 23
12.48629738042476
 33
0.0
  0
MTEXT
  5
37EF
330
37E8
100
AcDbEntity
  8
0
 62
     0
100
AcDbMText
 10
18.63005028084879
 20
12.48629738042476
 30
0.0
 40
0.3675
 41
0.0
 71
     5
 72
     1
  1
\A1;6.0000
 73
     1
 44
1.0
  0
POINT
  5
37F0
330
37E8
100
AcDbEntity
  8
Defpoints
 62
     0
100
AcDbPoint
 10
21.63005028084879
 20
11.33303649508478
 30
0.0
  0
POINT
  5
37F1
330
37E8
100
AcDbEntity
  8
Defpoints
 62
     0
100
AcDbPoint
 10
15.63005028084879
 20
11.33303649508478
 30
0.0
  0
POINT
  5
37F2
330
37E8
100
AcDbEntity
  8
Defpoints
 62
     0
100
AcDbPoint
 10
15.63005028084879
 20
12.48629738042476
 30
0.0
  0
ENDBLK
  5
37F4
330
37E8
100
AcDbEntity
  8
0
100
AcDbBlockEnd
  0
BLOCK
  5
3801
330
37F6
100
AcDbEntity
  8
0
100
AcDbBlockBegin
  2
*D2
 70
     1
 10
0.0
 20
0.0
 30
0.0
  3
*D2
  1

  0
LINE
  5
37F7
330
37F6
100
AcDbEntity
  8
0
 62
     0
370
    -2
100
AcDbLine
 10
21.69255028084879
 20
11.33303649508478
 30
0.0
 11
23.60279217249409
 21
11.33303649508478
 31
0.0
  0
LINE
  5
37F8
330
37F6
100
AcDbEntity
  8
0
 62
     0
370
    -2
100
AcDbLine
 10
21.69255028084879
 20
5.333036495084783
 30
0.0
 11
23.60279217249408
 21
5.333036495084782
 31
0.0
  0
LINE
  5
37F9
330
37F6
100
AcDbEntity
  8
0
 62
     0
370
    -2
100
AcDbLine
 10
23.42279217249409
 20
11.15303649508478
 30
0.0
 11
23.42279217249409
 21
8.606786495084783
 31
0.0
  0
LINE
  5
37FA
330
37F6
100
AcDbEntity
  8
0
 62
     0
370
    -2
100
AcDbLine
 10
23.42279217249409
 20
5.513036495084782
 30
0.0
 11
23.42279217249409
 21
8.059286495084784
 31
0.0
  0
SOLID
  5
37FB
330
37F6
100
AcDbEntity
  8
0
 62
     0
100
AcDbTrace
 10
23.39279217249409
 20
11.15303649508478
 30
0.0
 11
23.45279217249409
 21
11.15303649508478
 31
0.0
 12
23.42279217249409
 22
11.33303649508478
 32
0.0
 13
23.42279217249409
 23
11.33303649508478
 33
0.0
  0
SOLID
  5
37FC
330
37F6
100
AcDbEntity
  8
0
 62
     0
100
AcDbTrace
 10
23.39279217249409
 20
5.513036495084782
 30
0.0
 11
23.45279217249409
 21
5.513036495084782
 31
0.0
 12
23.42279217249409
 22
5.333036495084782
 32
0.0
 13
23.42279217249409
 23
5.333036495084782
 33
0.0
  0
MTEXT
  5
37FD
330
37F6
100
AcDbEntity
  8
0
 62
     0
100
AcDbMText
 10
23.42279217249409
 20
8.333036495084787
 30
0.0
 40
0.3675
 41
0.0
 71
     5
 72
     1
  1
\A1;6.0000
 73
     1
 44
1.0
  0
POINT
  5
37FE
330
37F6
100
AcDbEntity
  8
Defpoints
 62
     0
100
AcDbPoint
 10
21.63005028084879
 20
11.33303649508478
 30
0.0
  0
POINT
  5
37FF
330
37F6
100
AcDbEntity
  8
Defpoints
 62
     0
100
AcDbPoint
 10
21.63005028084879
 20
5.333036495084783
 30
0.0
  0
POINT
  5
3800
330
37F6
100
AcDbEntity
  8
Defpoints
 62
     0
100
AcDbPoint
 10
23.42279217249409
 20
5.333036495084782
 30
0.0
  0
ENDBLK
  5
3802
330
37F6
100
AcDbEntity
  8
0
100
AcDbBlockEnd
  0
BLOCK
  5
38A3
330
3898
100
AcDbEntity
  8
0
100
AcDbBlockBegin
  2
*D3
 70
     1
 10
0.0
 20
0.0
 30
0.0
  3
*D3
  1

  0
LINE
  5
3899
330
3898
100
AcDbEntity
  8
DIM
 62
     0
370
    -2
100
AcDbLine
 10
29.98422663262771
 20
11.25674905116049
 30
0.0
 11
29.98422663262771
 21
12.17995122074096
 31
0.0
  0
LINE
  5
389A
330
3898
100
AcDbEntity
  8
DIM
 62
     0
370
    -2
100
AcDbLine
 10
24.10922663262771
 20
11.25674905116049
 30
0.0
 11
24.10922663262771
 21
12.17995122074096
 31
0.0
  0
LINE
  5
389B
330
3898
100
AcDbEntity
  8
DIM
 62
     0
370
    -2
100
AcDbLine
 10
29.80422663262771
 20
11.99995122074096
 30
0.0
 11
28.02485163262771
 21
11.99995122074096
 31
0.0
  0
LINE
  5
389C
330
3898
100
AcDbEntity
  8
DIM
 62
     0
370
    -2
100
AcDbLine
 10
24.28922663262771
 20
11.99995122074096
 30
0.0
 11
26.06860163262771
 21
11.99995122074096
 31
0.0
  0
SOLID
  5
389D
330
3898
100
AcDbEntity
  8
DIM
 62
     0
100
AcDbTrace
 10
29.80422663262771
 20
12.02995122074096
 30
0.0
 11
29.80422663262771
 21
11.96995122074096
 31
0.0
 12
29.98422663262771
 22
11.99995122074096
 32
0.0
 13
29.98422663262771
 23
11.99995122074096
 33
0.0
  0
SOLID
  5
389E
330
3898
100
AcDbEntity
  8
DIM
 62
     0
100
AcDbTrace
 10
24.28922663262771
 20
12.02995122074096
 30
0.0
 11
24.28922663262771
 21
11.96995122074096
 31
0.0
 12
24.10922663262771
 22
11.99995122074096
 32
0.0
 13
24.10922663262771
 23
11.99995122074096
 33
0.0
  0
MTEXT
  5
389F
330
3898
100
AcDbEntity
  8
DIM
 62
     0
100
AcDbMText
 10
27.04672663262771
 20
11.99995122074096
 30
0.0
 40
0.3675
 41
0.0
 71
     5
 72
     1
  1
\A1;5.8750
 73
     1
 44
1.0
  0
POINT
  5
38A0
330
3898
100
AcDbEntity
  8
Defpoints
 62
     0
100
AcDbPoint
 10
29.98422663262771
 20
11.19424905116049
 30
0.0
  0
POINT
  5
38A1
330
3898
100
AcDbEntity
  8
Defpoints
 62
     0
100
AcDbPoint
 10
24.10922663262771
 20
11.19424905116049
 30
0.0
  0
POINT
  5
38A2
330
3898
100
AcDbEntity
  8
Defpoints
 62
     0
100
AcDbPoint
 10
24.10922663262771
 20
11.99995122074096
 30
0.0
  0
ENDBLK
  5
38A4
330
3898
100
AcDbEntity
  8
0
100
AcDbBlockEnd
  0
BLOCK
  5
38B1
330
38A6
100
AcDbEntity
  8
0
100
AcDbBlockBegin
  2
*D4
 70
     1
 10
0.0
 20
0.0
 30
0.0
  3
*D4
  1

  0
LINE
  5
38A7
330
38A6
100
AcDbEntity
  8
DIM
 62
     0
370
    -2
100
AcDbLine
 10
31.83433516279849
 20
11.25674905116049
 30
0.0
 11
31.83433516279849
 21
12.25554484839437
 31
0.0
  0
LINE
  5
38A8
330
38A6
100
AcDbEntity
  8
DIM
 62
     0
370
    -2
100
AcDbLine
 10
32.95933516279848
 20
11.25674905116049
 30
0.0
 11
32.95933516279848
 21
12.25554484839437
 31
0.0
  0
LINE
  5
38A9
330
38A6
100
AcDbEntity
  8
DIM
 62
     0
370
    -2
100
AcDbLine
 10
32.01433516279849
 20
12.07554484839437
 30
0.0
 11
32.77933516279848
 21
12.07554484839437
 31
0.0
  0
LINE
  5
38AA
330
38A6
100
AcDbEntity
  8
DIM
 62
     0
370
    -2
100
AcDbLine
 10
32.95933516279848
 20
12.07554484839437
 30
0.0
 11
33.13933516279848
 21
12.07554484839437
 31
0.0
  0
SOLID
  5
38AB
330
38A6
100
AcDbEntity
  8
DIM
 62
     0
100
AcDbTrace
 10
32.01433516279849
 20
12.10554484839436
 30
0.0
 11
32.01433516279849
 21
12.04554484839437
 31
0.0
 12
31.83433516279849
 22
12.07554484839437
 32
0.0
 13
31.83433516279849
 23
12.07554484839437
 33
0.0
  0
SOLID
  5
38AC
330
38A6
100
AcDbEntity
  8
DIM
 62
     0
100
AcDbTrace
 10
32.77933516279848
 20
12.10554484839436
 30
0.0
 11
32.77933516279848
 21
12.04554484839437
 31
0.0
 12
32.95933516279848
 22
12.07554484839437
 32
0.0
 13
32.95933516279848
 23
12.07554484839437
 33
0.0
  0
MTEXT
  5
38AD
330
38A6
100
AcDbEntity
  8
DIM
 62
     0
100
AcDbMText
 10
33.99496016279849
 20
12.07554484839437
 30
0.0
 40
0.3675
 41
0.0
 71
     5
 72
     1
  1
\A1;1.1250
 73
     1
 44
1.0
  0
POINT
  5
38AE
330
38A6
100
AcDbEntity
  8
Defpoints
 62
     0
100
AcDbPoint
 10
31.83433516279849
 20
11.19424905116049
 30
0.0
  0
POINT
  5
38AF
330
38A6
100
AcDbEntity
  8
Defpoints
 62
     0
100
AcDbPoint
 10
32.95933516279848
 20
11.19424905116049
 30
0.0
  0
POINT
  5
38B0
330
38A6
100
AcDbEntity
  8
Defpoints
 62
     0
100
AcDbPoint
 10
32.95933516279848
 20
12.07554484839437
 30
0.0
  0
ENDBLK
  5
38B2
330
38A6
100
AcDbEntity
  8
0
100
AcDbBlockEnd
  0
BLOCK
  5
38BF
330
38B4
100
AcDbEntity
  8
0
100
AcDbBlockBegin
  2
*D5
 70
     1
 10
0.0
 20
0.0
 30
0.0
  3
*D5
  1

  0
LINE
  5
38B5
330
38B4
100
AcDbEntity
  8
DIM
 62
     0
370
    -2
100
AcDbLine
 10
33.02183516279848
 20
11.19424905116049
 30
0.0
 11
34.76486804924766
 21
11.19424905116049
 31
0.0
  0
LINE
  5
38B6
330
38B4
100
AcDbEntity
  8
DIM
 62
     0
370
    -2
100
AcDbLine
 10
33.02183516279848
 20
5.31924905116049
 30
0.0
 11
34.76486804924766
 21
5.319249051160489
 31
0.0
  0
LINE
  5
38B7
330
38B4
100
AcDbEntity
  8
DIM
 62
     0
370
    -2
100
AcDbLine
 10
34.58486804924766
 20
11.01424905116049
 30
0.0
 11
34.58486804924766
 21
8.530499051160489
 31
0.0
  0
LINE
  5
38B8
330
38B4
100
AcDbEntity
  8
DIM
 62
     0
370
    -2
100
AcDbLine
 10
34.58486804924766
 20
5.499249051160489
 30
0.0
 11
34.58486804924766
 21
7.982999051160489
 31
0.0
  0
SOLID
  5
38B9
330
38B4
100
AcDbEntity
  8
DIM
 62
     0
100
AcDbTrace
 10
34.55486804924766
 20
11.01424905116049
 30
0.0
 11
34.61486804924766
 21
11.01424905116049
 31
0.0
 12
34.58486804924766
 22
11.19424905116049
 32
0.0
 13
34.58486804924766
 23
11.19424905116049
 33
0.0
  0
SOLID
  5
38BA
330
38B4
100
AcDbEntity
  8
DIM
 62
     0
100
AcDbTrace
 10
34.55486804924766
 20
5.499249051160489
 30
0.0
 11
34.61486804924766
 21
5.499249051160489
 31
0.0
 12
34.58486804924766
 22
5.319249051160489
 32
0.0
 13
34.58486804924766
 23
5.319249051160489
 33
0.0
  0
MTEXT
  5
38BB
330
38B4
100
AcDbEntity
  8
DIM
 62
     0
100
AcDbMText
 10
34.58486804924766
 20
8.256749051160495
 30
0.0
 40
0.3675
 41
0.0
 71
     5
 72
     1
  1
\A1;5.8750
 73
     1
 44
1.0
  0
POINT
  5
38BC
330
38B4
100
AcDbEntity
  8
Defpoints
 62
     0
100
AcDbPoint
 10
32.95933516279848
 20
11.19424905116049
 30
0.0
  0
POINT
  5
38BD
330
38B4
100
AcDbEntity
  8
Defpoints
 62
     0
100
AcDbPoint
 10
32.95933516279848
 20
5.31924905116049
 30
0.0
  0
POINT
  5
38BE
330
38B4
100
AcDbEntity
  8
Defpoints
 62
     0
100
AcDbPoint
 10
34.58486804924766
 20
5.319249051160489
 30
0.0
  0
ENDBLK
  5
38C0
330
38B4
100
AcDbEntity
  8
0
100
AcDbBlockEnd
  0
ENDSEC
  0
SECTION
  2
ENTITIES
  0
LINE
  5
3803
330
18
100
AcDbEntity
  8
0
100
AcDbLine
 10
24.10922663262771
 20
5.31924905116049
 30
0.0
 11
29.98422663262771
 21
5.31924905116049
 31
0.0
  0
LINE
  5
3804
330
18
100
AcDbEntity
  8
0
100
AcDbLine
 10
29.98422663262771
 20
5.31924905116049
 30
0.0
 11
29.98422663262771
 21
11.19424905116049
 31
0.0
  0
LINE
  5
3805
330
18
100
AcDbEntity
  8
0
100
AcDbLine
 10
29.98422663262771
 20
11.19424905116049
 30
0.0
 11
24.10922663262771
 21
11.19424905116049
 31
0.0
  0
LINE
  5
3806
330
18
100
AcDbEntity
  8
0
100
AcDbLine
 10
24.10922663262771
 20
11.19424905116049
 30
0.0
 11
24.10922663262771
 21
5.31924905116049
 31
0.0
  0
CIRCLE
  5
380B
330
18
100
AcDbEntity
  8
0
100
AcDbCircle
 10
27.04672663262771
 20
8.25674905116049
 30
0.0
 40
1.75
  0
CIRCLE
  5
380D
330
18
100
AcDbEntity
  8
0
100
AcDbCircle
 10
27.04672663262771
 20
8.25674905116049
 30
0.0
 40
1.4375
  0
CIRCLE
  5
380F
330
18
100
AcDbEntity
  8
0
100
AcDbCircle
 10
27.04672663262771
 20
8.25674905116049
 30
0.0
 40
1.3125
  0
CIRCLE
  5
3811
330
18
100
AcDbEntity
  8
0
100
AcDbCircle
 10
27.04672663262771
 20
8.25674905116049
 30
0.0
 40
0.5625
  0
CIRCLE
  5
3816
330
18
100
AcDbEntity
  8
0
100
AcDbCircle
 10
27.04672663262771
 20
8.25674905116049
 30
0.0
 40
0.25
  0
CIRCLE
  5
3818
330
18
100
AcDbEntity
  8
0
100
AcDbCircle
 10
27.04672663262771
 20
8.25674905116049
 30
0.0
 40
0.40625
  0
LINE
  5
3819
330
18
100
AcDbEntity
  8
0
100
AcDbLine
 10
31.83433516279848
 20
5.31924905116049
 30
0.0
 11
32.95933516279848
 21
5.31924905116049
 31
0.0
  0
LINE
  5
381A
330
18
100
AcDbEntity
  8
0
100
AcDbLine
 10
32.95933516279848
 20
5.31924905116049
 30
0.0
 11
32.95933516279848
 21
11.19424905116049
 31
0.0
  0
LINE
  5
381B
330
18
100
AcDbEntity
  8
0
100
AcDbLine
 10
32.95933516279848
 20
11.19424905116049
 30
0.0
 11
31.83433516279849
 21
11.19424905116049
 31
0.0
  0
LINE
  5
381C
330
18
100
AcDbEntity
  8
0
100
AcDbLine
 10
31.83433516279849
 20
11.19424905116049
 30
0.0
 11
31.83433516279848
 21
5.31924905116049
 31
0.0
  0
LINE
  5
384B
330
18
100
AcDbEntity
  8
0
100
AcDbLine
 10
32.00933516279849
 20
9.69424905116049
 30
0.0
 11
32.27183516279848
 21
9.69424905116049
 31
0.0
  0
LINE
  5
3854
330
18
100
AcDbEntity
  8
0
100
AcDbLine
 10
31.83433516279849
 20
10.00674905116049
 30
0.0
 11
31.95933516279849
 21
10.00674905116049
 31
0.0
  0
LINE
  5
3855
330
18
100
AcDbEntity
  8
0
100
AcDbLine
 10
31.95933516279849
 20
10.00674905116049
 30
0.0
 11
31.95933516279849
 21
9.744249051160487
 31
0.0
  0
LINE
  5
3856
330
18
100
AcDbEntity
  8
0
100
AcDbLine
 10
31.83433516279849
 20
10.00674905116049
 30
0.0
 11
31.95933516279849
 21
10.00674905116049
 31
0.0
  0
ARC
  5
385C
330
18
100
AcDbEntity
  8
0
100
AcDbCircle
 10
32.34475182946513
 20
8.256749051160491
 30
0.0
 40
0.26041666666666
100
AcDbArc
 50
118.3374898490535
 51
241.6625101509464
  0
SPLINE
  5
385D
330
18
100
AcDbEntity
  8
0
100
AcDbSpline
210
0.0
220
0.0
230
1.0
 70
     8
 71
     3
 72
    11
 73
     7
 74
     5
 42
0.0000000001
 43
0.0000000001
 44
0.0000000001
 40
0.0
 40
0.0
 40
0.0
 40
0.0
 40
0.0670949434211411
 40
0.1125416002758155
 40
0.2057657463966575
 40
0.2856188472604878
 40
0.2856188472604878
 40
0.2856188472604878
 40
0.2856188472604878
 10
32.20933516279848
 20
8.74112405166592
 30
0.0
 10
32.21304718006243
 20
8.718345595906725
 30
0.0
 10
32.21927352651768
 20
8.680138188131429
 30
0.0
 10
32.26509829544047
 20
8.629074136902417
 30
0.0
 10
32.28953174337863
 20
8.545322199857032
 30
0.0
 10
32.24273300897895
 20
8.504700798592999
 30
0.0
 10
32.22114135482785
 20
8.485959196742484
 30
0.0
 11
32.20933516279848
 21
8.74112405166592
 31
0.0
 11
32.22716646442091
 21
8.676441935782655
 31
0.0
 11
32.25280641963701
 21
8.638918725421824
 31
0.0
 11
32.27183516279848
 21
8.54765729680242
 31
0.0
 11
32.22114135482785
 21
8.485959196742484
 31
0.0
  0
SPLINE
  5
385F
330
18
100
AcDbEntity
  8
0
100
AcDbSpline
210
0.0
220
0.0
230
1.0
 70
     8
 71
     3
 72
    16
 73
    12
 74
    10
 42
0.0000000001
 43
0.0000000001
 44
0.0000000001
 40
0.0
 40
0.0
 40
0.0
 40
0.0
 40
0.0770083277863594
 40
0.1245022872228436
 40
0.1961446194443058
 40
0.4512369995573652
 40
0.7556169031418861
 40
0.8344328048334629
 40
0.8595998023581977
 40
0.9294769266550661
 40
0.9919769266550661
 40
0.9919769266550661
 40
0.9919769266550661
 40
0.9919769266550661
 10
32.20933516279848
 20
8.741124051665913
 30
0.0
 10
32.21342515552294
 20
8.767297748327273
 30
0.0
 10
32.22003760204082
 20
8.809613757427705
 30
0.0
 10
32.26632650546216
 20
8.858053631558441
 30
0.0
 10
32.31934112748026
 20
8.97226482241863
 30
0.0
 10
32.34617523096827
 20
9.186102998586854
 30
0.0
 10
32.3417428074289
 20
9.392578441008502
 30
0.0
 10
32.33046263658588
 20
9.535550081522963
 30
0.0
 10
32.29327638043114
 20
9.580522962388123
 30
0.0
 10
32.26539327489526
 20
9.628164047312893
 30
0.0
 10
32.26976915327887
 20
9.673054604888889
 30
0.0
 10
32.27183516279848
 20
9.69424905116049
 30
0.0
 11
32.20933516279848
 21
8.741124051665913
 31
0.0
 11
32.23031619451857
 21
8.815219118009174
 31
0.0
 11
32.25884163550067
 21
8.853192469187739
 31
0.0
 11
32.29179545813796
 21
8.916805905973696
 31
0.0
 11
32.33832658249487
 21
9.167618538944658
 31
0.0
 11
32.33517685239722
 21
9.471982145353891
 31
0.0
 11
32.31785331579818
 21
9.548870645398814
 31
0.0
 11
32.30308516279848
 21
9.56924905116049
 31
0.0
 11
32.27183516279848
 21
9.63174905116049
 31
0.0
 11
32.27183516279848
 21
9.69424905116049
 31
0.0
  0
ARC
  5
3863
330
18
100
AcDbEntity
  8
0
100
AcDbCircle
 10
32.00933516279849
 20
9.744249051160489
 30
0.0
 40
0.05
100
AcDbArc
 50
180.0
 51
270.0
  0
LINE
  5
387A
330
18
100
AcDbEntity
  8
0
100
AcDbLine
 10
31.83433516279849
 20
10.00674905116049
 30
0.0
 11
31.95933516279849
 21
10.00674905116049
 31
0.0
  0
LINE
  5
387C
330
18
100
AcDbEntity
  8
0
100
AcDbLine
 10
31.83433516279849
 20
10.00674905116049
 30
0.0
 11
31.95933516279849
 21
10.00674905116049
 31
0.0
  0
SPLINE
  5
3885
330
18
100
AcDbEntity
  8
0
100
AcDbSpline
210
0.0
220
0.0
230
1.0
 70
     8
 71
     3
 72
    11
 73
     7
 74
     5
 42
0.0000000001
 43
0.0000000001
 44
0.0000000001
 40
0.0
 40
0.0
 40
0.0
 40
0.0
 40
0.0670949434211411
 40
0.1125416002758155
 40
0.2057657463966575
 40
0.2856188472604878
 40
0.2856188472604878
 40
0.2856188472604878
 40
0.2856188472604878
 10
32.20933516279848
 20
7.772374050655059
 30
0.0
 10
32.21304718006243
 20
7.795152506414254
 30
0.0
 10
32.21927352651768
 20
7.83335991418955
 30
0.0
 10
32.26509829544046
 20
7.884423965418562
 30
0.0
 10
32.28953174337863
 20
7.968175902463947
 30
0.0
 10
32.24273300897895
 20
8.00879730372798
 30
0.0
 10
32.22114135482785
 20
8.027538905578495
 30
0.0
 11
32.20933516279848
 21
7.772374050655059
 31
0.0
 11
32.22716646442091
 21
7.837056166538324
 31
0.0
 11
32.25280641963701
 21
7.874579376899156
 31
0.0
 11
32.27183516279848
 21
7.96584080551856
 31
0.0
 11
32.22114135482785
 21
8.027538905578495
 31
0.0
  0
SPLINE
  5
3886
330
18
100
AcDbEntity
  8
0
100
AcDbSpline
210
0.0
220
0.0
230
1.0
 70
     8
 71
     3
 72
    16
 73
    12
 74
    10
 42
0.0000000001
 43
0.0000000001
 44
0.0000000001
 40
0.0
 40
0.0
 40
0.0
 40
0.0
 40
0.0770083277863594
 40
0.1245022872228436
 40
0.1961446194443058
 40
0.4512369995573652
 40
0.7556169031418861
 40
0.8344328048334629
 40
0.8595998023581977
 40
0.9294769266550661
 40
0.9919769266550661
 40
0.9919769266550661
 40
0.9919769266550661
 40
0.9919769266550661
 10
32.20933516279848
 20
7.772374050655066
 30
0.0
 10
32.21342515552294
 20
7.746200353993707
 30
0.0
 10
32.22003760204082
 20
7.703884344893275
 30
0.0
 10
32.26632650546216
 20
7.655444470762539
 30
0.0
 10
32.31934112748026
 20
7.54123327990235
 30
0.0
 10
32.34617523096827
 20
7.327395103734126
 30
0.0
 10
32.3417428074289
 20
7.120919661312477
 30
0.0
 10
32.33046263658587
 20
6.977948020798017
 30
0.0
 10
32.29327638043114
 20
6.932975139932857
 30
0.0
 10
32.26539327489526
 20
6.885334055008087
 30
0.0
 10
32.26976915327887
 20
6.84044349743209
 30
0.0
 10
32.27183516279848
 20
6.81924905116049
 30
0.0
 11
32.20933516279848
 21
7.772374050655066
 31
0.0
 11
32.23031619451857
 21
7.698278984311805
 31
0.0
 11
32.25884163550067
 21
7.660305633133241
 31
0.0
 11
32.29179545813796
 21
7.596692196347284
 31
0.0
 11
32.33832658249487
 21
7.345879563376321
 31
0.0
 11
32.33517685239722
 21
7.041515956967089
 31
0.0
 11
32.31785331579818
 21
6.964627456922166
 31
0.0
 11
32.30308516279848
 21
6.94424905116049
 31
0.0
 11
32.27183516279848
 21
6.88174905116049
 31
0.0
 11
32.27183516279848
 21
6.81924905116049
 31
0.0
  0
LINE
  5
3887
330
18
100
AcDbEntity
  8
0
100
AcDbLine
 10
31.83433516279848
 20
6.50674905116049
 30
0.0
 11
31.95933516279848
 21
6.50674905116049
 31
0.0
  0
LINE
  5
3888
330
18
100
AcDbEntity
  8
0
100
AcDbLine
 10
32.00933516279849
 20
6.81924905116049
 30
0.0
 11
32.27183516279848
 21
6.81924905116049
 31
0.0
  0
LINE
  5
3889
330
18
100
AcDbEntity
  8
0
100
AcDbLine
 10
31.83433516279848
 20
6.50674905116049
 30
0.0
 11
31.95933516279848
 21
6.50674905116049
 31
0.0
  0
LINE
  5
388B
330
18
100
AcDbEntity
  8
0
100
AcDbLine
 10
31.95933516279849
 20
6.50674905116049
 30
0.0
 11
31.95933516279849
 21
6.769249051160493
 31
0.0
  0
ARC
  5
388C
330
18
100
AcDbEntity
  8
0
100
AcDbCircle
 10
32.00933516279849
 20
6.769249051160494
 30
0.0
 40
0.05
100
AcDbArc
 50
90.00000000000003
 51
180.0
  0
LINE
  5
388D
330
18
100
AcDbEntity
  8
0
100
AcDbLine
 10
31.83433516279849
 20
6.50674905116049
 30
0.0
 11
31.95933516279849
 21
6.50674905116049
 31
0.0
  0
LINE
  5
388E
330
18
100
AcDbEntity
  8
0
100
AcDbLine
 10
31.83433516279849
 20
6.50674905116049
 30
0.0
 11
31.95933516279849
 21
6.50674905116049
 31
0.0
  0
DIMENSION
  5
3897
330
18
100
AcDbEntity
  8
DIM
100
AcDbDimension
  2
*D3
 10
24.10922663262771
 20
11.99995122074096
 30
0.0
 11
27.04672663262771
 21
11.99995122074096
 31
0.0
 70
    32
 71
     5
 42
5.875
  3
STANDARD
100
AcDbAlignedDimension
 13
29.98422663262771
 23
11.19424905116049
 33
0.0
 14
24.10922663262771
 24
11.19424905116049
 34
0.0
100
AcDbRotatedDimension
  0
DIMENSION
  5
38A5
330
18
100
AcDbEntity
  8
DIM
100
AcDbDimension
  2
*D4
 10
32.95933516279848
 20
12.07554484839437
 30
0.0
 11
33.99496016279849
 21
12.07554484839437
 31
0.0
 70
    32
 71
     5
 42
1.124999999999992
  3
STANDARD
100
AcDbAlignedDimension
 13
31.83433516279849
 23
11.19424905116049
 33
0.0
 14
32.95933516279848
 24
11.19424905116049
 34
0.0
100
AcDbRotatedDimension
  0
DIMENSION
  5
38B3
330
18
100
AcDbEntity
  8
DIM
100
AcDbDimension
  2
*D5
 10
34.58486804924766
 20
5.319249051160489
 30
0.0
 11
34.58486804924766
 21
8.256749051160495
 31
0.0
 70
    32
 71
     5
 42
5.875
  3
STANDARD
100
AcDbAlignedDimension
 13
32.95933516279848
 23
11.19424905116049
 33
0.0
 14
32.95933516279848
 24
5.31924905116049
 34
0.0
 50
90.0
100
AcDbRotatedDimension
  0
VIEWPORT
  5
3892
330
15
100
AcDbEntity
 67
     1
  8
0
100
AcDbViewport
 10
133.3499908447265
 20
101.5999970436096
 30
0.0
 40
446.6355739657439
 41
228.4221935424805
 68
     2
 69
     1
 12
133.3499908447265
 22
101.5999970436096
 13
0.0
 23
0.0
 14
10.0
 24
10.0
 15
10.0
 25
10.0
 16
0.0
 26
0.0
 36
1.0
 17
0.0
 27
0.0
 37
0.0
 42
50.0
 43
0.0
 44
0.0
 45
228.4221935424805
 50
0.0
 51
0.0
 72
   100
 90
    32800
  1

281
     0
 71
     1
 74
     0
110
0.0
120
0.0
130
0.0
111
1.0
121
0.0
131
0.0
112
0.0
122
1.0
132
0.0
 79
     0
146
0.0
170
     0
  0
VIEWPORT
  5
3894
330
15
100
AcDbEntity
 67
     1
  8
0
100
AcDbViewport
 10
133.3499939441681
 20
101.5999939441681
 30
0.0
 40
213.3599903106689
 41
162.5599903106689
 68
     1
 69
     2
 12
28.5544367489582
 22
8.03191039455927
 13
0.0
 23
0.0
 14
10.0
 24
10.0
 15
10.0
 25
10.0
 16
0.0
 26
0.0
 36
1.0
 17
0.0
 27
0.0
 37
0.0
 42
50.0
 43
0.0
 44
0.0
 45
11.42127663334581
 50
0.0
 51
0.0
 72
   100
 90
    32800
  1

281
     0
 71
     1
 74
     0
110
0.0
120
0.0
130
0.0
111
1.0
121
0.0
131
0.0
112
0.0
122
1.0
132
0.0
 79
     0
146
0.0
170
     0
  0
ENDSEC
  0
SECTION
  2
OBJECTS
  0
DICTIONARY
  5
C
330
0
100
AcDbDictionary
281
     1
  3
ACAD_COLOR
350
37DE
  3
ACAD_GROUP
350
D
  3
ACAD_IMAGE_DICT
350
21
  3
ACAD_IMAGE_VARS
350
20
  3
ACAD_LAYOUT
350
37DF
  3
ACAD_MATERIAL
350
37DD
  3
ACAD_MLINESTYLE
350
1B
  3
ACAD_PLOTSETTINGS
350
37E0
  3
ACAD_PLOTSTYLENAME
350
37DB
  3
ACDBVARIABLEDICTIONARY
350
34D4
  0
DICTIONARY
  5
37DE
102
{ACAD_REACTORS
330
C
102
}
330
C
100
AcDbDictionary
281
     1
  0
DICTIONARY
  5
D
102
{ACAD_REACTORS
330
C
102
}
330
C
100
AcDbDictionary
281
     1
  0
DICTIONARY
  5
21
102
{ACAD_REACTORS
330
C
102
}
330
C
100
AcDbDictionary
281
     1
  3
3304-1
350
22
  3
3304-1B
350
1C41
  3
3304-2
350
25
  3
3304-2B
350
1C44
  3
3304-3
350
28
  3
3304-3B
350
1C47
  0
RASTERVARIABLES
  5
20
102
{ACAD_REACTORS
330
C
102
}
330
C
100
AcDbRasterVariables
 90
        0
 70
     1
 71
     1
 72
     0
  0
DICTIONARY
  5
37DF
102
{ACAD_REACTORS
330
C
102
}
330
C
100
AcDbDictionary
281
     1
  3
Layout1
350
37E2
  3
Model
350
37E1
  0
DICTIONARY
  5
37DD
102
{ACAD_REACTORS
330
C
102
}
330
C
100
AcDbDictionary
281
     1
  0
DICTIONARY
  5
1B
102
{ACAD_REACTORS
330
C
102
}
330
C
100
AcDbDictionary
281
     1
  3
STANDARD
350
1C
  0
DICTIONARY
  5
37E0
102
{ACAD_REACTORS
330
C
102
}
330
C
100
AcDbDictionary
281
     1
  0
ACDBDICTIONARYWDFLT
  5
37DB
102
{ACAD_REACTORS
330
C
102
}
330
C
100
AcDbDictionary
281
     1
  3
Normal
350
37DC
100
AcDbDictionaryWithDefault
340
37DC
  0
DICTIONARY
  5
34D4
102
{ACAD_REACTORS
330
C
102
}
330
C
100
AcDbDictionary
281
     1
  3
SORTENTS
350
34D5
  0
IMAGEDEF
  5
22
102
{ACAD_REACTORS
330
21
102
}
330
21
100
AcDbRasterImageDef
 90
        0
  1
U:\TPDWG\MichelQ\3304-1.tif
 10
2243.0
 20
3009.0
 11
0.0705555555555556
 21
0.0705555555555556
280
     1
281
     5
  0
IMAGEDEF
  5
1C41
102
{ACAD_REACTORS
330
21
102
}
330
21
100
AcDbRasterImageDef
 90
        0
  1
U:\TPDWG\MichelQ\3304-1b.TIF
 10
2202.0
 20
2931.0
 11
0.0705555555555556
 21
0.0705555555555556
280
     1
281
     5
  0
IMAGEDEF
  5
25
102
{ACAD_REACTORS
330
21
102
}
330
21
100
AcDbRasterImageDef
 90
        0
  1
U:\TPDWG\MichelQ\3304-2.tif
 10
2243.0
 20
3009.0
 11
0.0705555555555556
 21
0.0705555555555556
280
     1
281
     5
  0
IMAGEDEF
  5
1C44
102
{ACAD_REACTORS
330
21
102
}
330
21
100
AcDbRasterImageDef
 90
        0
  1
U:\TPDWG\MichelQ\3304-2b.TIF
 10
2202.0
 20
2931.0
 11
0.0705555555555556
 21
0.0705555555555556
280
     1
281
     5
  0
IMAGEDEF
  5
28
102
{ACAD_REACTORS
330
21
102
}
330
21
100
AcDbRasterImageDef
 90
        0
  1
U:\TPDWG\MichelQ\3304-3.tif
 10
2243.0
 20
3009.0
 11
0.0705555555555556
 21
0.0705555555555556
280
     1
281
     5
  0
IMAGEDEF
  5
1C47
102
{ACAD_REACTORS
330
21
102
}
330
21
100
AcDbRasterImageDef
 90
        0
  1
U:\TPDWG\MichelQ\3304-3b.TIF
 10
2202.0
 20
2931.0
 11
0.0705555555555556
 21
0.0705555555555556
280
     1
281
     5
  0
LAYOUT
  5
37E2
102
{ACAD_REACTORS
330
37DF
102
}
330
37DF
100
AcDbPlotSettings
  1

  2
none_device
  4
Letter_(8.50_x_11.00_Inches)
  6

 40
6.349999904632568
 41
6.349999904632568
 42
6.350006103515625
 43
6.350006103515625
 44
215.8999938964844
 45
279.3999938964844
 46
0.0
 47
0.0
 48
0.0
 49
0.0
140
0.0
141
0.0
142
1.0
143
1.0
 70
   688
 72
     1
 73
     1
 74
     5
  7

 75
    16
147
1.0
 76
     1
 77
     2
 78
   300
148
0.0
149
0.0
100
AcDbLayout
  1
Layout1
 70
     1
 71
     1
 10
-6.350006103515625
 20
-6.349999904632568
 11
273.0499877929688
 21
209.5499939918518
 12
0.0
 22
0.0
 32
0.0
 14
26.64733987609782
 24
20.31633067121299
 34
-0.0015258207003583
 15
240.0567634637198
 25
182.8968206270327
 35
0.0000000349246037
146
0.0
 13
0.0
 23
0.0
 33
0.0
 16
1.0
 26
0.0
 36
0.0
 17
0.0
 27
1.0
 37
0.0
 76
     0
330
15
331
3894
  0
LAYOUT
  5
37E1
102
{ACAD_REACTORS
330
37DF
102
}
330
37DF
100
AcDbPlotSettings
  1

  2
None
  4

  6

 40
0.0
 41
0.0
 42
0.0
 43
0.0
 44
0.0
 45
0.0
 46
0.0
 47
0.0
 48
0.0
 49
0.0
140
0.0
141
0.0
142
1.0
143
1.0
 70
  1712
 72
     0
 73
     0
 74
     0
  7

 75
     0
147
1.0
 76
     0
 77
     2
 78
   300
148
0.0
149
0.0
100
AcDbLayout
  1
Model
 70
     1
 71
     0
 10
0.0
 20
0.0
 11
12.0
 21
9.0
 12
0.0
 22
0.0
 32
0.0
 14
0.0
 24
0.0
 34
0.0
 15
0.0
 25
0.0
 35
0.0
146
0.0
 13
0.0
 23
0.0
 33
0.0
 16
1.0
 26
0.0
 36
0.0
 17
0.0
 27
1.0
 37
0.0
 76
     0
330
18
  0
MLINESTYLE
  5
1C
102
{ACAD_REACTORS
330
1B
102
}
330
1B
100
AcDbMlineStyle
  2
STANDARD
 70
     0
  3

 62
   256
 51
90.0
 52
90.0
 71
     2
 49
0.5
 62
   256
  6
BYLAYER
 49
-0.5
 62
   256
  6
BYLAYER
  0
ACDBPLACEHOLDER
  5
37DC
102
{ACAD_REACTORS
330
37DB
102
}
330
37DB
  0
DICTIONARYVAR
  5
34D5
102
{ACAD_REACTORS
330
34D4
102
}
330
34D4
100
DictionaryVariables
280
     0
  1
96
  0
ENDSEC
  0
EOF
