  0
SECTION
  2
HEADER
  9
$ACADVER
  1
AC1018
  9
$ACADMAINTVER
 70
     0
  9
$DWGCODEPAGE
  3
ANSI_1252
  9
$INSBASE
 10
0.0
 20
0.0
 30
0.0
  9
$EXTMIN
 10
19.57510051084538
 20
4.865969265746574
 30
0.0
  9
$EXTMAX
 10
28.56310485549274
 20
12.18353320833605
 30
0.0
  9
$LIMMIN
 10
0.0
 20
0.0
  9
$LIMMAX
 10
12.0
 20
9.0
  9
$ORTHOMODE
 70
     0
  9
$REGENMODE
 70
     1
  9
$FILLMODE
 70
     1
  9
$QTEXTMODE
 70
     0
  9
$MIRRTEXT
 70
     1
  9
$LTSCALE
 40
1.0
  9
$ATTMODE
 70
     1
  9
$TEXTSIZE
 40
0.25
  9
$TRACEWID
 40
0.05
  9
$TEXTSTYLE
  7
STANDARD
  9
$CLAYER
  8
0
  9
$CELTYPE
  6
BYLAYER
  9
$CECOLOR
 62
   256
  9
$CELTSCALE
 40
1.0
  9
$DISPSILH
 70
     0
  9
$DIMSCALE
 40
1.0
  9
$DIMASZ
 40
0.18
  9
$DIMEXO
 40
0.0625
  9
$DIMDLI
 40
0.38
  9
$DIMRND
 40
0.0
  9
$DIMDLE
 40
0.0
  9
$DIMEXE
 40
0.18
  9
$DIMTP
 40
0.0
  9
$DIMTM
 40
0.0
  9
$DIMTXT
 40
0.18
  9
$DIMCEN
 40
0.09
  9
$DIMTSZ
 40
0.0
  9
$DIMTOL
 70
     0
  9
$DIMLIM
 70
     0
  9
$DIMTIH
 70
     1
  9
$DIMTOH
 70
     1
  9
$DIMSE1
 70
     0
  9
$DIMSE2
 70
     0
  9
$DIMTAD
 70
     0
  9
$DIMZIN
 70
     0
  9
$DIMBLK
  1

  9
$DIMASO
 70
     1
  9
$DIMSHO
 70
     1
  9
$DIMPOST
  1

  9
$DIMAPOST
  1

  9
$DIMALT
 70
     0
  9
$DIMALTD
 70
     2
  9
$DIMALTF
 40
25.4
  9
$DIMLFAC
 40
1.0
  9
$DIMTOFL
 70
     0
  9
$DIMTVP
 40
0.0
  9
$DIMTIX
 70
     0
  9
$DIMSOXD
 70
     0
  9
$DIMSAH
 70
     0
  9
$DIMBLK1
  1

  9
$DIMBLK2
  1

  9
$DIMSTYLE
  2
STANDARD
  9
$DIMCLRD
 70
     0
  9
$DIMCLRE
 70
     0
  9
$DIMCLRT
 70
     0
  9
$DIMTFAC
 40
1.0
  9
$DIMGAP
 40
0.09
  9
$DIMJUST
 70
     0
  9
$DIMSD1
 70
     0
  9
$DIMSD2
 70
     0
  9
$DIMTOLJ
 70
     1
  9
$DIMTZIN
 70
     0
  9
$DIMALTZ
 70
     0
  9
$DIMALTTZ
 70
     0
  9
$DIMUPT
 70
     0
  9
$DIMDEC
 70
     4
  9
$DIMTDEC
 70
     4
  9
$DIMALTU
 70
     2
  9
$DIMALTTD
 70
     2
  9
$DIMTXSTY
  7
STANDARD
  9
$DIMAUNIT
 70
     0
  9
$DIMADEC
 70
     0
  9
$DIMALTRND
 40
0.0
  9
$DIMAZIN
 70
     0
  9
$DIMDSEP
 70
    46
  9
$DIMATFIT
 70
     3
  9
$DIMFRAC
 70
     0
  9
$DIMLDRBLK
  1

  9
$DIMLUNIT
 70
     2
  9
$DIMLWD
 70
    -2
  9
$DIMLWE
 70
    -2
  9
$DIMTMOVE
 70
     0
  9
$LUNITS
 70
     4
  9
$LUPREC
 70
     4
  9
$SKETCHINC
 40
0.1
  9
$FILLETRAD
 40
0.0
  9
$AUNITS
 70
     0
  9
$AUPREC
 70
     0
  9
$MENU
  1
.
  9
$ELEVATION
 40
0.0
  9
$PELEVATION
 40
0.0
  9
$THICKNESS
 40
0.0
  9
$LIMCHECK
 70
     0
  9
$CHAMFERA
 40
0.5
  9
$CHAMFERB
 40
0.5
  9
$CHAMFERC
 40
1.0
  9
$CHAMFERD
 40
0.0
  9
$SKPOLY
 70
     0
  9
$TDCREATE
 40
2451160.318790972
  9
$TDUCREATE
 40
2451160.485457639
  9
$TDUPDATE
 40
2453529.601594826
  9
$TDUUPDATE
 40
2453529.768261493
  9
$TDINDWG
 40
0.7411886806
  9
$TDUSRTIMER
 40
0.7411886806
  9
$USRTIMER
 70
     1
  9
$ANGBASE
 50
0.0
  9
$ANGDIR
 70
     0
  9
$PDMODE
 70
     3
  9
$PDSIZE
 40
1.0
  9
$PLINEWID
 40
0.0
  9
$SPLFRAME
 70
     0
  9
$SPLINETYPE
 70
     6
  9
$SPLINESEGS
 70
     8
  9
$HANDSEED
  5
16AD3
  9
$SURFTAB1
 70
     6
  9
$SURFTAB2
 70
     6
  9
$SURFTYPE
 70
     6
  9
$SURFU
 70
     6
  9
$SURFV
 70
     6
  9
$UCSBASE
  2

  9
$UCSNAME
  2

  9
$UCSORG
 10
0.0
 20
0.0
 30
0.0
  9
$UCSXDIR
 10
1.0
 20
0.0
 30
0.0
  9
$UCSYDIR
 10
0.0
 20
1.0
 30
0.0
  9
$UCSORTHOREF
  2

  9
$UCSORTHOVIEW
 70
     0
  9
$UCSORGTOP
 10
0.0
 20
0.0
 30
0.0
  9
$UCSORGBOTTOM
 10
0.0
 20
0.0
 30
0.0
  9
$UCSORGLEFT
 10
0.0
 20
0.0
 30
0.0
  9
$UCSORGRIGHT
 10
0.0
 20
0.0
 30
0.0
  9
$UCSORGFRONT
 10
0.0
 20
0.0
 30
0.0
  9
$UCSORGBACK
 10
0.0
 20
0.0
 30
0.0
  9
$PUCSBASE
  2

  9
$PUCSNAME
  2

  9
$PUCSORG
 10
0.0
 20
0.0
 30
0.0
  9
$PUCSXDIR
 10
1.0
 20
0.0
 30
0.0
  9
$PUCSYDIR
 10
0.0
 20
1.0
 30
0.0
  9
$PUCSORTHOREF
  2

  9
$PUCSORTHOVIEW
 70
     0
  9
$PUCSORGTOP
 10
0.0
 20
0.0
 30
0.0
  9
$PUCSORGBOTTOM
 10
0.0
 20
0.0
 30
0.0
  9
$PUCSORGLEFT
 10
0.0
 20
0.0
 30
0.0
  9
$PUCSORGRIGHT
 10
0.0
 20
0.0
 30
0.0
  9
$PUCSORGFRONT
 10
0.0
 20
0.0
 30
0.0
  9
$PUCSORGBACK
 10
0.0
 20
0.0
 30
0.0
  9
$USERI1
 70
     0
  9
$USERI2
 70
     0
  9
$USERI3
 70
     0
  9
$USERI4
 70
     0
  9
$USERI5
 70
     0
  9
$USERR1
 40
0.0
  9
$USERR2
 40
0.0
  9
$USERR3
 40
0.0
  9
$USERR4
 40
0.0
  9
$USERR5
 40
0.0
  9
$WORLDVIEW
 70
     1
  9
$SHADEDGE
 70
     3
  9
$SHADEDIF
 70
    70
  9
$TILEMODE
 70
     1
  9
$MAXACTVP
 70
    48
  9
$PINSBASE
 10
0.0
 20
0.0
 30
0.0
  9
$PLIMCHECK
 70
     0
  9
$PEXTMIN
 10
1.049743681505489
 20
0.7996673802841308
 30
-0.0015258207003583
  9
$PEXTMAX
 10
9.450622583565561
 20
7.200576801086516
 30
0.0000000349246037
  9
$PLIMMIN
 10
-0.2500002402958907
 20
-0.2499999962453767
  9
$PLIMMAX
 10
10.74999951940821
 20
8.249999763458731
  9
$UNITMODE
 70
     0
  9
$VISRETAIN
 70
     1
  9
$PLINEGEN
 70
     0
  9
$PSLTSCALE
 70
     1
  9
$TREEDEPTH
 70
  3020
  9
$CMLSTYLE
  2
STANDARD
  9
$CMLJUST
 70
     0
  9
$CMLSCALE
 40
1.0
  9
$PROXYGRAPHICS
 70
     1
  9
$MEASUREMENT
 70
     0
  9
$CELWEIGHT
370
    -1
  9
$ENDCAPS
280
     0
  9
$JOINSTYLE
280
     0
  9
$LWDISPLAY
290
     0
  9
$INSUNITS
 70
     0
  9
$HYPERLINKBASE
  1

  9
$STYLESHEET
  1

  9
$XEDIT
290
     1
  9
$CEPSNTYPE
380
     0
  9
$PSTYLEMODE
290
     1
  9
$FINGERPRINTGUID
  2
{5934CA56-9F00-4F7E-97E7-9E21D65AE8A1}
  9
$VERSIONGUID
  2
{5E4428D2-015E-4C6D-A7CF-D50FBD94661F}
  9
$EXTNAMES
290
     1
  9
$PSVPSCALE
 40
0.0
  9
$OLESTARTUP
290
     0
  9
$SORTENTS
280
    96
  9
$INDEXCTL
280
     0
  9
$HIDETEXT
280
     0
  9
$XCLIPFRAME
290
     0
  9
$HALOGAP
280
     0
  9
$OBSCOLOR
 70
   257
  9
$OBSLTYPE
280
     0
  9
$INTERSECTIONDISPLAY
280
     0
  9
$INTERSECTIONCOLOR
 70
   257
  9
$DIMASSOC
280
     1
  9
$PROJECTNAME
  1

  0
ENDSEC
  0
SECTION
  2
CLASSES
  0
CLASS
  1
RASTERVARIABLES
  2
AcDbRasterVariables
  3
ISM
 90
        0
 91
        1
280
     0
281
     0
  0
CLASS
  1
IMAGEDEF
  2
AcDbRasterImageDef
  3
ISM
 90
        0
 91
        3
280
     0
281
     0
  0
CLASS
  1
IMAGEDEF_REACTOR
  2
AcDbRasterImageDefReactor
  3
ISM
 90
        1
 91
        0
280
     0
281
     0
  0
CLASS
  1
IMAGE
  2
AcDbRasterImage
  3
ISM
 90
      127
 91
        0
280
     0
281
     1
  0
CLASS
  1
DICTIONARYVAR
  2
AcDbDictionaryVar
  3
ObjectDBX Classes
 90
        0
 91
        1
280
     0
281
     0
  0
CLASS
  1
ACDBDICTIONARYWDFLT
  2
AcDbDictionaryWithDefault
  3
ObjectDBX Classes
 90
        0
 91
        1
280
     0
281
     0
  0
ENDSEC
  0
SECTION
  2
TABLES
  0
TABLE
  2
VPORT
  5
8
330
0
100
AcDbSymbolTable
 70
     5
  0
VPORT
  5
16AD2
330
8
100
AcDbSymbolTableRecord
100
AcDbViewportTableRecord
  2
*Active
 70
     0
 10
0.0
 20
0.0
 11
1.0
 21
1.0
 12
24.77840045930415
 22
8.559667176318431
 13
0.0
 23
0.0
 14
0.5
 24
0.5
 15
0.5
 25
0.5
 16
0.0
 26
0.0
 36
1.0
 17
0.0
 27
0.0
 37
0.0
 40
11.01107184950545
 41
1.955307262569832
 42
50.0
 43
0.0
 44
0.0
 50
0.0
 51
0.0
 71
     0
 72
   100
 73
     1
 74
     1
 75
     0
 76
     0
 77
     0
 78
     0
281
     0
 65
     1
110
0.0
120
0.0
130
0.0
111
1.0
121
0.0
131
0.0
112
0.0
122
1.0
132
0.0
 79
     0
146
0.0
  0
ENDTAB
  0
TABLE
  2
LTYPE
  5
5
330
0
100
AcDbSymbolTable
 70
     1
  0
LTYPE
  5
12
330
5
100
AcDbSymbolTableRecord
100
AcDbLinetypeTableRecord
  2
BYBLOCK
 70
     0
  3

 72
    65
 73
     0
 40
0.0
  0
LTYPE
  5
13
330
5
100
AcDbSymbolTableRecord
100
AcDbLinetypeTableRecord
  2
BYLAYER
 70
     0
  3

 72
    65
 73
     0
 40
0.0
  0
LTYPE
  5
14
330
5
100
AcDbSymbolTableRecord
100
AcDbLinetypeTableRecord
  2
CONTINUOUS
 70
     0
  3
Solid line
 72
    65
 73
     0
 40
0.0
  0
ENDTAB
  0
TABLE
  2
LAYER
  5
2
330
0
100
AcDbSymbolTable
 70
     4
  0
LAYER
  5
E
330
2
100
AcDbSymbolTableRecord
100
AcDbLayerTableRecord
  2
0
 70
     0
 62
     7
  6
CONTINUOUS
370
    -3
390
16865
  0
LAYER
  5
1686F
330
2
100
AcDbSymbolTableRecord
100
AcDbLayerTableRecord
  2
Defpoints
 70
     0
 62
     7
  6
CONTINUOUS
290
     0
370
    -3
390
16865
  0
LAYER
  5
16A42
330
2
100
AcDbSymbolTableRecord
100
AcDbLayerTableRecord
  2
DIM
 70
     0
 62
    -3
  6
CONTINUOUS
370
    -3
390
16865
  0
ENDTAB
  0
TABLE
  2
STYLE
  5
3
330
0
100
AcDbSymbolTable
 70
     2
  0
STYLE
  5
F
330
3
100
AcDbSymbolTableRecord
100
AcDbTextStyleTableRecord
  2
STANDARD
 70
     0
 40
0.0
 41
1.0
 50
0.0
 71
     0
 42
0.25
  3
txt
  4

  0
STYLE
  5
16912
330
3
100
AcDbSymbolTableRecord
100
AcDbTextStyleTableRecord
  2
ITALICT
 70
     0
 40
4.0
 41
1.0
 50
0.0
 71
     0
 42
4.0
  3
italict.shx
  4

  0
ENDTAB
  0
TABLE
  2
VIEW
  5
6
330
0
100
AcDbSymbolTable
 70
     0
  0
ENDTAB
  0
TABLE
  2
UCS
  5
7
330
0
100
AcDbSymbolTable
 70
     0
  0
ENDTAB
  0
TABLE
  2
APPID
  5
9
330
0
100
AcDbSymbolTable
 70
     1
  0
APPID
  5
10
330
9
100
AcDbSymbolTableRecord
100
AcDbRegAppTableRecord
  2
ACAD
 70
     0
  0
ENDTAB
  0
TABLE
  2
DIMSTYLE
  5
A
330
0
100
AcDbSymbolTable
 70
     1
100
AcDbDimStyleTable
 71
     1
340
1D
  0
DIMSTYLE
105
1D
102
{ACAD_REACTORS
330
16930
330
16952
330
16985
330
16A63
102
}
330
A
100
AcDbSymbolTableRecord
100
AcDbDimStyleTableRecord
  2
STANDARD
 70
     0
340
F
  0
ENDTAB
  0
TABLE
  2
BLOCK_RECORD
  5
1
330
0
100
AcDbSymbolTable
 70
    11
  0
BLOCK_RECORD
  5
18
330
1
100
AcDbSymbolTableRecord
100
AcDbBlockTableRecord
  2
*MODEL_SPACE
340
1686A
  0
BLOCK_RECORD
  5
15
330
1
100
AcDbSymbolTableRecord
100
AcDbBlockTableRecord
  2
*PAPER_SPACE
340
1686B
  0
BLOCK_RECORD
  5
16850
330
1
100
AcDbSymbolTableRecord
100
AcDbBlockTableRecord
  2
6005T_E
340
0
  0
BLOCK_RECORD
  5
1685A
330
1
100
AcDbSymbolTableRecord
100
AcDbBlockTableRecord
  2
6005T_C
340
0
  0
BLOCK_RECORD
  5
16931
330
1
100
AcDbSymbolTableRecord
100
AcDbBlockTableRecord
  2
*D4
340
0
  0
BLOCK_RECORD
  5
16953
330
1
100
AcDbSymbolTableRecord
100
AcDbBlockTableRecord
  2
*D5
340
0
  0
BLOCK_RECORD
  5
16986
330
1
100
AcDbSymbolTableRecord
100
AcDbBlockTableRecord
  2
*D7
340
0
  0
BLOCK_RECORD
  5
16A43
330
1
100
AcDbSymbolTableRecord
100
AcDbBlockTableRecord
  2
A$C7E1B3074
340
0
  0
BLOCK_RECORD
  5
16A64
330
1
100
AcDbSymbolTableRecord
100
AcDbBlockTableRecord
  2
*D10
340
0
  0
ENDTAB
  0
ENDSEC
  0
SECTION
  2
BLOCKS
  0
BLOCK
  5
19
330
18
100
AcDbEntity
  8
0
100
AcDbBlockBegin
  2
*MODEL_SPACE
 70
     0
 10
0.0
 20
0.0
 30
0.0
  3
*MODEL_SPACE
  1

  0
ENDBLK
  5
1A
330
18
100
AcDbEntity
  8
0
100
AcDbBlockEnd
  0
BLOCK
  5
16
330
15
100
AcDbEntity
 67
     1
  8
0
100
AcDbBlockBegin
  2
*PAPER_SPACE
 70
     0
 10
0.0
 20
0.0
 30
0.0
  3
*PAPER_SPACE
  1

  0
ENDBLK
  5
17
330
15
100
AcDbEntity
 67
     1
  8
0
100
AcDbBlockEnd
  0
BLOCK
  5
16851
330
16850
100
AcDbEntity
  8
0
100
AcDbBlockBegin
  2
6005T_E
 70
     0
 10
0.0
 20
0.0
 30
0.0
  3
6005T_E
  1

  0
LINE
  5
16852
330
16850
100
AcDbEntity
  8
0
100
AcDbLine
 10
0.0000000000000036
 20
1.375
 30
0.0
 11
0.9526815780603001
 21
1.375
 31
0.0
  0
LINE
  5
16853
330
16850
100
AcDbEntity
  8
0
100
AcDbLine
 10
0.0
 20
0.0
 30
0.0
 11
3.749999999999996
 21
0.0
 31
0.0
  0
LINE
  5
16854
330
16850
100
AcDbEntity
  8
0
100
AcDbLine
 10
0.0
 20
0.0
 30
0.0
 11
0.0000000000000036
 21
1.375
 31
0.0
  0
LINE
  5
16855
330
16850
100
AcDbEntity
  8
0
100
AcDbLine
 10
3.749999999999996
 20
0.0
 30
0.0
 11
3.749999999999992
 21
0.9999999999999982
 31
0.0
  0
LINE
  5
16856
330
16850
100
AcDbEntity
  8
0
100
AcDbLine
 10
1.875000000000003
 20
1.0
 30
0.0
 11
3.749999999999992
 21
0.9999999999999982
 31
0.0
  0
ARC
  5
16857
330
16850
100
AcDbEntity
  8
0
100
AcDbCircle
 10
0.9526815780603001
 20
0.875
 30
0.0
 40
0.5
100
AcDbArc
 50
65.22485943116826
 51
90.0
  0
LINE
  5
16858
330
16850
100
AcDbEntity
  8
0
100
AcDbLine
 10
1.162210666791171
 20
1.328979692250227
 30
0.0
 11
1.875000000000003
 21
1.0
 31
0.0
  0
ENDBLK
  5
16859
330
16850
100
AcDbEntity
  8
0
100
AcDbBlockEnd
  0
BLOCK
  5
1685B
330
1685A
100
AcDbEntity
  8
0
100
AcDbBlockBegin
  2
6005T_C
 70
     0
 10
0.0
 20
0.0
 30
0.0
  3
6005T_C
  1

  0
LINE
  5
1685C
330
1685A
100
AcDbEntity
  8
0
100
AcDbLine
 10
0.8750000000000071
 20
-1.375
 30
0.0
 11
0.8750000000000035
 21
0.0000000000000018
 31
0.0
  0
LINE
  5
1685D
330
1685A
100
AcDbEntity
  8
0
100
AcDbLine
 10
0.0000000000000071
 20
-1.374999999999998
 30
0.0
 11
0.0
 21
0.0
 31
0.0
  0
LINE
  5
1685E
330
1685A
100
AcDbEntity
  8
0
100
AcDbLine
 10
0.0000000000000071
 20
-1.374999999999998
 30
0.0
 11
0.8750000000000071
 21
-1.375
 31
0.0
  0
LINE
  5
1685F
330
1685A
100
AcDbEntity
  8
0
100
AcDbLine
 10
0.0
 20
-0.3750000000000018
 30
0.0
 11
0.8750000000000035
 21
-0.3750000000000018
 31
0.0
  0
LINE
  5
16860
330
1685A
100
AcDbEntity
  8
0
100
AcDbLine
 10
0.0
 20
0.0
 30
0.0
 11
0.8750000000000035
 21
0.0000000000000018
 31
0.0
  0
ENDBLK
  5
16861
330
1685A
100
AcDbEntity
  8
0
100
AcDbBlockEnd
  0
BLOCK
  5
1693C
330
16931
100
AcDbEntity
  8
0
100
AcDbBlockBegin
  2
*D4
 70
     1
 10
0.0
 20
0.0
 30
0.0
  3
*D4
  1

  0
LINE
  5
16AA2
330
16931
100
AcDbEntity
  8
DIM
 62
     0
370
    -2
100
AcDbLine
 10
27.09607719198747
 20
6.990969265746575
 30
0.0
 11
28.33810485549275
 21
6.990969265746575
 31
0.0
  0
LINE
  5
16AA3
330
16931
100
AcDbEntity
  8
DIM
 62
     0
370
    -2
100
AcDbLine
 10
27.09607719198747
 20
4.865969265746574
 30
0.0
 11
28.33810485549275
 21
4.865969265746574
 31
0.0
  0
LINE
  5
16AA4
330
16931
100
AcDbEntity
  8
DIM
 62
     0
370
    -2
100
AcDbLine
 10
28.15810485549274
 20
6.810969265746575
 30
0.0
 11
28.15810485549274
 21
6.108469265746575
 31
0.0
  0
LINE
  5
16AA5
330
16931
100
AcDbEntity
  8
DIM
 62
     0
370
    -2
100
AcDbLine
 10
28.15810485549274
 20
5.045969265746574
 30
0.0
 11
28.15810485549274
 21
5.748469265746575
 31
0.0
  0
SOLID
  5
16AA6
330
16931
100
AcDbEntity
  8
DIM
 62
     0
100
AcDbTrace
 10
28.12810485549274
 20
6.810969265746575
 30
0.0
 11
28.18810485549274
 21
6.810969265746575
 31
0.0
 12
28.15810485549274
 22
6.990969265746575
 32
0.0
 13
28.15810485549274
 23
6.990969265746575
 33
0.0
  0
SOLID
  5
16AA7
330
16931
100
AcDbEntity
  8
DIM
 62
     0
100
AcDbTrace
 10
28.12810485549274
 20
5.045969265746574
 30
0.0
 11
28.18810485549274
 21
5.045969265746574
 31
0.0
 12
28.15810485549274
 22
4.865969265746574
 32
0.0
 13
28.15810485549274
 23
4.865969265746574
 33
0.0
  0
MTEXT
  5
16AA8
330
16931
100
AcDbEntity
  8
DIM
 62
     0
100
AcDbMText
 10
28.15810485549274
 20
5.92846926574658
 30
0.0
 40
0.18
 41
0.0
 71
     5
 72
     1
  1
\A1;2.1250
 73
     1
 44
1.0
  0
POINT
  5
16AA9
330
16931
100
AcDbEntity
  8
Defpoints
 62
     0
100
AcDbPoint
 10
27.03357719198747
 20
6.990969265746575
 30
0.0
  0
POINT
  5
16AAA
330
16931
100
AcDbEntity
  8
Defpoints
 62
     0
100
AcDbPoint
 10
27.03357719198747
 20
4.865969265746574
 30
0.0
  0
POINT
  5
16AAB
330
16931
100
AcDbEntity
  8
Defpoints
 62
     0
100
AcDbPoint
 10
28.15810485549274
 20
4.865969265746574
 30
0.0
  0
ENDBLK
  5
1693D
330
16931
100
AcDbEntity
  8
0
100
AcDbBlockEnd
  0
BLOCK
  5
1695E
330
16953
100
AcDbEntity
  8
0
100
AcDbBlockBegin
  2
*D5
 70
     1
 10
0.0
 20
0.0
 30
0.0
  3
*D5
  1

  0
LINE
  5
16AAC
330
16953
100
AcDbEntity
  8
DIM
 62
     0
370
    -2
100
AcDbLine
 10
20.97107719198747
 20
6.990969265746578
 30
0.0
 11
20.09609557025633
 21
6.990969265746578
 31
0.0
  0
LINE
  5
16AAD
330
16953
100
AcDbEntity
  8
DIM
 62
     0
370
    -2
100
AcDbLine
 10
20.97107719198747
 20
5.615969265746578
 30
0.0
 11
20.09609557025633
 21
5.615969265746578
 31
0.0
  0
LINE
  5
16AAE
330
16953
100
AcDbEntity
  8
DIM
 62
     0
370
    -2
100
AcDbLine
 10
20.27609557025633
 20
6.810969265746578
 30
0.0
 11
20.27609557025633
 21
6.483469265746578
 31
0.0
  0
LINE
  5
16AAF
330
16953
100
AcDbEntity
  8
DIM
 62
     0
370
    -2
100
AcDbLine
 10
20.27609557025633
 20
5.795969265746578
 30
0.0
 11
20.27609557025633
 21
6.123469265746578
 31
0.0
  0
SOLID
  5
16AB0
330
16953
100
AcDbEntity
  8
DIM
 62
     0
100
AcDbTrace
 10
20.24609557025633
 20
6.810969265746578
 30
0.0
 11
20.30609557025633
 21
6.810969265746578
 31
0.0
 12
20.27609557025633
 22
6.990969265746578
 32
0.0
 13
20.27609557025633
 23
6.990969265746578
 33
0.0
  0
SOLID
  5
16AB1
330
16953
100
AcDbEntity
  8
DIM
 62
     0
100
AcDbTrace
 10
20.24609557025633
 20
5.795969265746578
 30
0.0
 11
20.30609557025633
 21
5.795969265746578
 31
0.0
 12
20.27609557025633
 22
5.615969265746578
 32
0.0
 13
20.27609557025633
 23
5.615969265746578
 33
0.0
  0
MTEXT
  5
16AB2
330
16953
100
AcDbEntity
  8
DIM
 62
     0
100
AcDbMText
 10
20.27609557025633
 20
6.303469265746581
 30
0.0
 40
0.18
 41
0.0
 71
     5
 72
     1
  1
\A1;1.3750
 73
     1
 44
1.0
  0
POINT
  5
16AB3
330
16953
100
AcDbEntity
  8
Defpoints
 62
     0
100
AcDbPoint
 10
21.03357719198747
 20
6.990969265746578
 30
0.0
  0
POINT
  5
16AB4
330
16953
100
AcDbEntity
  8
Defpoints
 62
     0
100
AcDbPoint
 10
21.03357719198747
 20
5.615969265746578
 30
0.0
  0
POINT
  5
16AB5
330
16953
100
AcDbEntity
  8
Defpoints
 62
     0
100
AcDbPoint
 10
20.27609557025633
 20
5.615969265746578
 30
0.0
  0
ENDBLK
  5
1695F
330
16953
100
AcDbEntity
  8
0
100
AcDbBlockEnd
  0
BLOCK
  5
16991
330
16986
100
AcDbEntity
  8
0
100
AcDbBlockBegin
  2
*D7
 70
     1
 10
0.0
 20
0.0
 30
0.0
  3
*D7
  1

  0
LINE
  5
16AC0
330
16986
100
AcDbEntity
  8
DIM
 62
     0
370
    -2
100
AcDbLine
 10
20.97107719198747
 20
10.15438235651842
 30
0.0
 11
19.75510051084539
 21
10.15438235651842
 31
0.0
  0
LINE
  5
16AC1
330
16986
100
AcDbEntity
  8
DIM
 62
     0
370
    -2
100
AcDbLine
 10
20.97107719198747
 20
11.15438235651842
 30
0.0
 11
19.75510051084539
 21
11.15438235651842
 31
0.0
  0
LINE
  5
16AC2
330
16986
100
AcDbEntity
  8
DIM
 62
     0
370
    -2
100
AcDbLine
 10
19.93510051084539
 20
10.33438235651842
 30
0.0
 11
19.93510051084539
 21
10.47438235651842
 31
0.0
  0
LINE
  5
16AC3
330
16986
100
AcDbEntity
  8
DIM
 62
     0
370
    -2
100
AcDbLine
 10
19.93510051084539
 20
10.97438235651842
 30
0.0
 11
19.93510051084539
 21
10.83438235651842
 31
0.0
  0
SOLID
  5
16AC4
330
16986
100
AcDbEntity
  8
DIM
 62
     0
100
AcDbTrace
 10
19.90510051084539
 20
10.33438235651842
 30
0.0
 11
19.96510051084539
 21
10.33438235651842
 31
0.0
 12
19.93510051084539
 22
10.15438235651842
 32
0.0
 13
19.93510051084539
 23
10.15438235651842
 33
0.0
  0
SOLID
  5
16AC5
330
16986
100
AcDbEntity
  8
DIM
 62
     0
100
AcDbTrace
 10
19.90510051084539
 20
10.97438235651842
 30
0.0
 11
19.96510051084539
 21
10.97438235651842
 31
0.0
 12
19.93510051084539
 22
11.15438235651842
 32
0.0
 13
19.93510051084539
 23
11.15438235651842
 33
0.0
  0
MTEXT
  5
16AC6
330
16986
100
AcDbEntity
  8
DIM
 62
     0
100
AcDbMText
 10
19.93510051084538
 20
10.65438235651842
 30
0.0
 40
0.18
 41
0.0
 71
     5
 72
     1
  1
\A1;1.0000
 73
     1
 44
1.0
  0
POINT
  5
16AC7
330
16986
100
AcDbEntity
  8
Defpoints
 62
     0
100
AcDbPoint
 10
21.03357719198747
 20
10.15438235651842
 30
0.0
  0
POINT
  5
16AC8
330
16986
100
AcDbEntity
  8
Defpoints
 62
     0
100
AcDbPoint
 10
21.03357719198747
 20
11.15438235651842
 30
0.0
  0
POINT
  5
16AC9
330
16986
100
AcDbEntity
  8
Defpoints
 62
     0
100
AcDbPoint
 10
19.93510051084539
 20
11.15438235651842
 30
0.0
  0
ENDBLK
  5
16992
330
16986
100
AcDbEntity
  8
0
100
AcDbBlockEnd
  0
BLOCK
  5
16A45
330
16A43
100
AcDbEntity
  8
0
100
AcDbBlockBegin
  2
A$C7E1B3074
 70
     0
 10
0.0
 20
0.0
 30
0.0
  3
A$C7E1B3074
  1

  0
MTEXT
  5
16A44
330
16A43
100
AcDbEntity
  8
DIM
100
AcDbMText
 10
0.0000001825533786
 20
9.333333370032107
 30
0.0
 40
4.0
 41
34.5625
 71
     1
 72
     5
  1
{\H0.5x;Aile de face /\PWing Front View}
 73
     1
 44
1.0
  0
ENDBLK
  5
16A46
330
16A43
100
AcDbEntity
  8
0
100
AcDbBlockEnd
  0
BLOCK
  5
16A6F
330
16A64
100
AcDbEntity
  8
0
100
AcDbBlockBegin
  2
*D10
 70
     1
 10
0.0
 20
0.0
 30
0.0
  3
*D10
  1

  0
LINE
  5
16AB6
330
16A64
100
AcDbEntity
  8
DIM
 62
     0
370
    -2
100
AcDbLine
 10
21.03357719198747
 20
10.09188235651842
 30
0.0
 11
21.03357719198747
 21
8.931754338780205
 31
0.0
  0
LINE
  5
16AB7
330
16A64
100
AcDbEntity
  8
DIM
 62
     0
370
    -2
100
AcDbLine
 10
27.03357719198747
 20
10.09188235651842
 30
0.0
 11
27.03357719198747
 21
8.931754338780205
 31
0.0
  0
LINE
  5
16AB8
330
16A64
100
AcDbEntity
  8
DIM
 62
     0
370
    -2
100
AcDbLine
 10
21.21357719198747
 20
9.111754338780205
 30
0.0
 11
23.55357719198747
 21
9.111754338780205
 31
0.0
  0
LINE
  5
16AB9
330
16A64
100
AcDbEntity
  8
DIM
 62
     0
370
    -2
100
AcDbLine
 10
26.85357719198747
 20
9.111754338780205
 30
0.0
 11
24.51357719198747
 21
9.111754338780205
 31
0.0
  0
SOLID
  5
16ABA
330
16A64
100
AcDbEntity
  8
DIM
 62
     0
100
AcDbTrace
 10
21.21357719198747
 20
9.141754338780204
 30
0.0
 11
21.21357719198747
 21
9.081754338780205
 31
0.0
 12
21.03357719198747
 22
9.111754338780205
 32
0.0
 13
21.03357719198747
 23
9.111754338780205
 33
0.0
  0
SOLID
  5
16ABB
330
16A64
100
AcDbEntity
  8
DIM
 62
     0
100
AcDbTrace
 10
26.85357719198747
 20
9.141754338780204
 30
0.0
 11
26.85357719198747
 21
9.081754338780205
 31
0.0
 12
27.03357719198747
 22
9.111754338780205
 32
0.0
 13
27.03357719198747
 23
9.111754338780205
 33
0.0
  0
MTEXT
  5
16ABC
330
16A64
100
AcDbEntity
  8
DIM
 62
     0
100
AcDbMText
 10
24.03357719198747
 20
9.111754338780205
 30
0.0
 40
0.18
 41
0.0
 71
     5
 72
     1
  1
\A1;6.0000
 73
     1
 44
1.0
  0
POINT
  5
16ABD
330
16A64
100
AcDbEntity
  8
Defpoints
 62
     0
100
AcDbPoint
 10
21.03357719198747
 20
10.15438235651842
 30
0.0
  0
POINT
  5
16ABE
330
16A64
100
AcDbEntity
  8
Defpoints
 62
     0
100
AcDbPoint
 10
27.03357719198747
 20
10.15438235651842
 30
0.0
  0
POINT
  5
16ABF
330
16A64
100
AcDbEntity
  8
Defpoints
 62
     0
100
AcDbPoint
 10
27.03357719198747
 20
9.111754338780205
 30
0.0
  0
ENDBLK
  5
16A70
330
16A64
100
AcDbEntity
  8
0
100
AcDbBlockEnd
  0
ENDSEC
  0
SECTION
  2
ENTITIES
  0
LINE
  5
1691D
330
18
100
AcDbEntity
  8
0
100
AcDbLine
 10
21.03357719198747
 20
5.615969265746578
 30
0.0
 11
24.53357719198747
 21
4.865969265746576
 31
0.0
  0
LINE
  5
1691E
330
18
100
AcDbEntity
  8
0
100
AcDbLine
 10
27.03357719198747
 20
6.990969265746575
 30
0.0
 11
21.03357719198747
 21
6.990969265746578
 31
0.0
  0
LINE
  5
1691F
330
18
100
AcDbEntity
  8
0
100
AcDbLine
 10
21.03357719198747
 20
6.990969265746578
 30
0.0
 11
21.03357719198747
 21
5.615969265746578
 31
0.0
  0
LINE
  5
16920
330
18
100
AcDbEntity
  8
0
100
AcDbLine
 10
27.03357719198747
 20
4.865969265746574
 30
0.0
 11
24.53357719198747
 21
4.865969265746576
 31
0.0
  0
LINE
  5
16921
330
18
100
AcDbEntity
  8
0
100
AcDbLine
 10
27.03357719198747
 20
6.990969265746575
 30
0.0
 11
27.03357719198747
 21
4.865969265746574
 31
0.0
  0
DIMENSION
  5
16930
330
18
100
AcDbEntity
  8
DIM
100
AcDbDimension
  2
*D4
 10
28.15810485549274
 20
4.865969265746574
 30
0.0
 11
28.15810485549274
 21
5.92846926574658
 31
0.0
 70
   160
 71
     5
 42
2.125
  3
STANDARD
100
AcDbAlignedDimension
 13
27.03357719198747
 23
6.990969265746575
 33
0.0
 14
27.03357719198747
 24
4.865969265746574
 34
0.0
 50
270.0
100
AcDbRotatedDimension
  0
DIMENSION
  5
16952
330
18
100
AcDbEntity
  8
DIM
100
AcDbDimension
  2
*D5
 10
20.27609557025633
 20
5.615969265746578
 30
0.0
 11
20.27609557025633
 21
6.303469265746581
 31
0.0
 70
    32
 71
     5
 42
1.375
  3
STANDARD
100
AcDbAlignedDimension
 13
21.03357719198747
 23
6.990969265746578
 33
0.0
 14
21.03357719198747
 24
5.615969265746578
 34
0.0
 50
270.0
100
AcDbRotatedDimension
  0
LINE
  5
16970
330
18
100
AcDbEntity
  8
0
100
AcDbLine
 10
27.03357719198747
 20
10.15438235651842
 30
0.0
 11
27.03357719198747
 21
11.15438235651842
 31
0.0
  0
LINE
  5
16971
330
18
100
AcDbEntity
  8
0
100
AcDbLine
 10
27.03357719198747
 20
11.15438235651842
 30
0.0
 11
21.03357719198747
 21
11.15438235651842
 31
0.0
  0
LINE
  5
16972
330
18
100
AcDbEntity
  8
0
100
AcDbLine
 10
21.03357719198747
 20
11.15438235651842
 30
0.0
 11
21.03357719198747
 21
10.15438235651842
 31
0.0
  0
LINE
  5
16983
330
18
100
AcDbEntity
  8
0
100
AcDbLine
 10
24.53357719198747
 20
10.15438235651842
 30
0.0
 11
24.53357719198747
 21
11.15438235651842
 31
0.0
  0
LINE
  5
16984
330
18
100
AcDbEntity
  8
0
100
AcDbLine
 10
27.03357719198747
 20
10.15438235651842
 30
0.0
 11
21.03357719198747
 21
10.15438235651842
 31
0.0
  0
DIMENSION
  5
16985
330
18
100
AcDbEntity
  8
DIM
100
AcDbDimension
  2
*D7
 10
19.93510051084539
 20
11.15438235651842
 30
0.0
 11
19.93510051084538
 21
10.65438235651842
 31
0.0
 70
    32
 71
     5
  3
STANDARD
100
AcDbAlignedDimension
 13
21.03357719198747
 23
10.15438235651842
 33
0.0
 14
21.03357719198747
 24
11.15438235651842
 34
0.0
 50
90.0
100
AcDbRotatedDimension
  0
MTEXT
  5
16A47
330
18
100
AcDbEntity
  8
0
100
AcDbMText
 10
21.03357719198747
 20
12.18353320833605
 30
0.0
 40
0.25
 41
6.173374851326968
 71
     1
 72
     5
  1
Vue de face / Front View
 73
     1
 44
1.0
  0
MTEXT
  5
16A4E
330
18
100
AcDbEntity
  8
0
100
AcDbMText
 10
21.03357719198747
 20
7.856622856458319
 30
0.0
 40
0.25
 41
6.173374851326968
 71
     1
 72
     5
  1
Vue de dessus / Top View
 73
     1
 44
1.0
  0
DIMENSION
  5
16A63
330
18
100
AcDbEntity
  8
DIM
100
AcDbDimension
  2
*D10
 10
27.03357719198747
 20
9.111754338780205
 30
0.0
 11
24.03357719198747
 21
9.111754338780205
 31
0.0
 70
    32
 71
     5
 42
6.0
  3
STANDARD
100
AcDbAlignedDimension
 13
21.03357719198747
 23
10.15438235651842
 33
0.0
 14
27.03357719198747
 24
10.15438235651842
 34
0.0
100
AcDbRotatedDimension
  0
VIEWPORT
  5
16ACE
330
15
100
AcDbEntity
 67
     1
  8
0
100
AcDbViewport
 10
5.249999639556163
 20
3.999999883606677
 30
0.0
 40
17.58407771518677
 41
8.992999745766947
 68
     1
 69
     1
 12
5.249999639556163
 22
3.999999883606677
 13
0.0
 23
0.0
 14
10.0
 24
10.0
 15
10.0
 25
10.0
 16
0.0
 26
0.0
 36
1.0
 17
0.0
 27
0.0
 37
0.0
 42
50.0
 43
0.0
 44
0.0
 45
8.992999745766947
 50
0.0
 51
0.0
 72
   100
 90
    32800
  1

281
     0
 71
     1
 74
     0
110
0.0
120
0.0
130
0.0
111
1.0
121
0.0
131
0.0
112
0.0
122
1.0
132
0.0
 79
     0
146
0.0
170
     0
  0
VIEWPORT
  5
16AD0
330
15
100
AcDbEntity
 67
     1
  8
0
100
AcDbViewport
 10
5.24999976158142
 20
3.99999976158142
 30
0.0
 40
8.399999618530271
 41
6.399999618530272
 68
     2
 69
     2
 12
24.06910268316906
 22
8.524751237041314
 13
0.0
 23
0.0
 14
0.5
 24
0.5
 15
0.5
 25
0.5
 16
0.0
 26
0.0
 36
1.0
 17
0.0
 27
0.0
 37
0.0
 42
50.0
 43
0.0
 44
0.0
 45
7.491103008421641
 50
0.0
 51
0.0
 72
   100
 90
    32800
  1

281
     0
 71
     1
 74
     0
110
0.0
120
0.0
130
0.0
111
1.0
121
0.0
131
0.0
112
0.0
122
1.0
132
0.0
 79
     0
146
0.0
170
     0
  0
ENDSEC
  0
SECTION
  2
OBJECTS
  0
DICTIONARY
  5
C
330
0
100
AcDbDictionary
281
     1
  3
ACAD_COLOR
350
16867
  3
ACAD_GROUP
350
D
  3
ACAD_IMAGE_DICT
350
21
  3
ACAD_IMAGE_VARS
350
20
  3
ACAD_LAYOUT
350
16868
  3
ACAD_MATERIAL
350
16866
  3
ACAD_MLINESTYLE
350
1B
  3
ACAD_PLOTSETTINGS
350
16869
  3
ACAD_PLOTSTYLENAME
350
16864
  3
ACDBVARIABLEDICTIONARY
350
15452
  0
DICTIONARY
  5
16867
102
{ACAD_REACTORS
330
C
102
}
330
C
100
AcDbDictionary
281
     1
  0
DICTIONARY
  5
D
102
{ACAD_REACTORS
330
C
102
}
330
C
100
AcDbDictionary
281
     1
  0
DICTIONARY
  5
21
102
{ACAD_REACTORS
330
C
102
}
330
C
100
AcDbDictionary
281
     1
  3
1001T
350
14E25
  3
2208-1
350
1568F
  3
2208-2
350
15690
  0
RASTERVARIABLES
  5
20
102
{ACAD_REACTORS
330
C
102
}
330
C
100
AcDbRasterVariables
 90
        0
 70
     1
 71
     1
 72
     0
  0
DICTIONARY
  5
16868
102
{ACAD_REACTORS
330
C
102
}
330
C
100
AcDbDictionary
281
     1
  3
Layout1
350
1686B
  3
Model
350
1686A
  0
DICTIONARY
  5
16866
102
{ACAD_REACTORS
330
C
102
}
330
C
100
AcDbDictionary
281
     1
  0
DICTIONARY
  5
1B
102
{ACAD_REACTORS
330
C
102
}
330
C
100
AcDbDictionary
281
     1
  3
STANDARD
350
1C
  0
DICTIONARY
  5
16869
102
{ACAD_REACTORS
330
C
102
}
330
C
100
AcDbDictionary
281
     1
  0
ACDBDICTIONARYWDFLT
  5
16864
102
{ACAD_REACTORS
330
C
102
}
330
C
100
AcDbDictionary
281
     1
  3
Normal
350
16865
100
AcDbDictionaryWithDefault
340
16865
  0
DICTIONARY
  5
15452
102
{ACAD_REACTORS
330
C
102
}
330
C
100
AcDbDictionary
281
     1
  3
SORTENTS
350
15453
  0
IMAGEDEF
  5
14E25
102
{ACAD_REACTORS
330
21
102
}
330
21
100
AcDbRasterImageDef
 90
        0
  1
U:\TPDWG\MichelQ\1001t.tif
 10
3054.0
 20
3298.0
 11
0.0705555555555556
 21
0.0705555555555556
280
     1
281
     5
  0
IMAGEDEF
  5
1568F
102
{ACAD_REACTORS
330
21
102
}
330
21
100
AcDbRasterImageDef
 90
        0
  1
U:\TPDWG\MichelQ\2208-1.tif
 10
2916.0
 20
3526.0
 11
0.0705555555555556
 21
0.0705555555555556
280
     1
281
     5
  0
IMAGEDEF
  5
15690
102
{ACAD_REACTORS
330
21
102
}
330
21
100
AcDbRasterImageDef
 90
        0
  1
U:\TPDWG\MichelQ\2208-2.tif
 10
2916.0
 20
3526.0
 11
0.0705555555555556
 21
0.0705555555555556
280
     1
281
     5
  0
LAYOUT
  5
1686B
102
{ACAD_REACTORS
330
16868
102
}
330
16868
100
AcDbPlotSettings
  1

  2
none_device
  4
Letter_(8.50_x_11.00_Inches)
  6

 40
6.349999904632568
 41
6.349999904632568
 42
6.350006103515625
 43
6.350006103515625
 44
215.8999938964844
 45
279.3999938964844
 46
0.0
 47
0.0
 48
0.0
 49
0.0
140
0.0
141
0.0
142
1.0
143
1.0
 70
   688
 72
     0
 73
     1
 74
     5
  7

 75
    16
147
1.0
 76
     1
 77
     2
 78
   300
148
0.0
149
0.0
100
AcDbLayout
  1
Layout1
 70
     1
 71
     1
 10
-0.2500002402958907
 20
-0.2499999962453767
 11
10.74999951940821
 21
8.249999763458731
 12
0.0
 22
0.0
 32
0.0
 14
1.049743681505489
 24
0.7996673802841308
 34
-0.0015258207003583
 15
9.450622583565561
 25
7.200576801086516
 35
0.0000000349246037
146
0.0
 13
0.0
 23
0.0
 33
0.0
 16
1.0
 26
0.0
 36
0.0
 17
0.0
 27
1.0
 37
0.0
 76
     0
330
15
331
16ACE
  0
LAYOUT
  5
1686A
102
{ACAD_REACTORS
330
16868
102
}
330
16868
100
AcDbPlotSettings
  1

  2
None
  4

  6

 40
0.0
 41
0.0
 42
0.0
 43
0.0
 44
0.0
 45
0.0
 46
0.0
 47
0.0
 48
0.0
 49
0.0
140
0.0
141
0.0
142
1.0
143
1.0
 70
  1712
 72
     0
 73
     0
 74
     0
  7

 75
     0
147
1.0
 76
     0
 77
     2
 78
   300
148
0.0
149
0.0
100
AcDbLayout
  1
Model
 70
     1
 71
     0
 10
0.0
 20
0.0
 11
12.0
 21
9.0
 12
0.0
 22
0.0
 32
0.0
 14
0.0
 24
0.0
 34
0.0
 15
0.0
 25
0.0
 35
0.0
146
0.0
 13
0.0
 23
0.0
 33
0.0
 16
1.0
 26
0.0
 36
0.0
 17
0.0
 27
1.0
 37
0.0
 76
     0
330
18
  0
MLINESTYLE
  5
1C
102
{ACAD_REACTORS
330
1B
102
}
330
1B
100
AcDbMlineStyle
  2
STANDARD
 70
     0
  3

 62
   256
 51
90.0
 52
90.0
 71
     2
 49
0.5
 62
   256
  6
BYLAYER
 49
-0.5
 62
   256
  6
BYLAYER
  0
ACDBPLACEHOLDER
  5
16865
102
{ACAD_REACTORS
330
16864
102
}
330
16864
  0
DICTIONARYVAR
  5
15453
102
{ACAD_REACTORS
330
15452
102
}
330
15452
100
DictionaryVariables
280
     0
  1
96
  0
ENDSEC
  0
EOF
