  0
SECTION
  2
HEADER
  9
$ACADVER
  1
AC1018
  9
$ACADMAINTVER
 70
     0
  9
$DWGCODEPAGE
  3
ANSI_1252
  9
$INSBASE
 10
0.0
 20
0.0
 30
0.0
  9
$EXTMIN
 10
11.88741673233769
 20
5.375230619866671
 30
0.0
  9
$EXTMAX
 10
38.08993936104096
 20
20.17706770494319
 30
0.0
  9
$LIMMIN
 10
0.0
 20
0.0
  9
$LIMMAX
 10
12.0
 20
9.0
  9
$ORTHOMODE
 70
     0
  9
$REGENMODE
 70
     1
  9
$FILLMODE
 70
     1
  9
$QTEXTMODE
 70
     0
  9
$MIRRTEXT
 70
     1
  9
$LTSCALE
 40
1.0
  9
$ATTMODE
 70
     1
  9
$TEXTSIZE
 40
0.2
  9
$TRACEWID
 40
0.05
  9
$TEXTSTYLE
  7
STANDARD
  9
$CLAYER
  8
0
  9
$CELTYPE
  6
BYLAYER
  9
$CECOLOR
 62
   256
  9
$CELTSCALE
 40
1.0
  9
$DISPSILH
 70
     0
  9
$DIMSCALE
 40
1.0
  9
$DIMASZ
 40
0.18
  9
$DIMEXO
 40
0.0625
  9
$DIMDLI
 40
0.38
  9
$DIMRND
 40
0.0
  9
$DIMDLE
 40
0.0
  9
$DIMEXE
 40
0.18
  9
$DIMTP
 40
0.0
  9
$DIMTM
 40
0.0
  9
$DIMTXT
 40
0.5
  9
$DIMCEN
 40
0.09
  9
$DIMTSZ
 40
0.0
  9
$DIMTOL
 70
     0
  9
$DIMLIM
 70
     0
  9
$DIMTIH
 70
     1
  9
$DIMTOH
 70
     1
  9
$DIMSE1
 70
     0
  9
$DIMSE2
 70
     0
  9
$DIMTAD
 70
     0
  9
$DIMZIN
 70
     0
  9
$DIMBLK
  1

  9
$DIMASO
 70
     1
  9
$DIMSHO
 70
     1
  9
$DIMPOST
  1

  9
$DIMAPOST
  1

  9
$DIMALT
 70
     0
  9
$DIMALTD
 70
     2
  9
$DIMALTF
 40
25.4
  9
$DIMLFAC
 40
1.0
  9
$DIMTOFL
 70
     0
  9
$DIMTVP
 40
0.0
  9
$DIMTIX
 70
     0
  9
$DIMSOXD
 70
     0
  9
$DIMSAH
 70
     0
  9
$DIMBLK1
  1

  9
$DIMBLK2
  1

  9
$DIMSTYLE
  2
STANDARD
  9
$DIMCLRD
 70
     0
  9
$DIMCLRE
 70
     0
  9
$DIMCLRT
 70
     0
  9
$DIMTFAC
 40
1.0
  9
$DIMGAP
 40
0.09
  9
$DIMJUST
 70
     0
  9
$DIMSD1
 70
     0
  9
$DIMSD2
 70
     0
  9
$DIMTOLJ
 70
     1
  9
$DIMTZIN
 70
     0
  9
$DIMALTZ
 70
     0
  9
$DIMALTTZ
 70
     0
  9
$DIMUPT
 70
     0
  9
$DIMDEC
 70
     4
  9
$DIMTDEC
 70
     4
  9
$DIMALTU
 70
     2
  9
$DIMALTTD
 70
     2
  9
$DIMTXSTY
  7
STANDARD
  9
$DIMAUNIT
 70
     0
  9
$DIMADEC
 70
     0
  9
$DIMALTRND
 40
0.0
  9
$DIMAZIN
 70
     0
  9
$DIMDSEP
 70
    46
  9
$DIMATFIT
 70
     3
  9
$DIMFRAC
 70
     0
  9
$DIMLDRBLK
  1

  9
$DIMLUNIT
 70
     5
  9
$DIMLWD
 70
    -2
  9
$DIMLWE
 70
    -2
  9
$DIMTMOVE
 70
     0
  9
$LUNITS
 70
     4
  9
$LUPREC
 70
     4
  9
$SKETCHINC
 40
0.1
  9
$FILLETRAD
 40
0.0
  9
$AUNITS
 70
     0
  9
$AUPREC
 70
     0
  9
$MENU
  1
.
  9
$ELEVATION
 40
0.0
  9
$PELEVATION
 40
0.0
  9
$THICKNESS
 40
0.0
  9
$LIMCHECK
 70
     0
  9
$CHAMFERA
 40
0.5
  9
$CHAMFERB
 40
0.5
  9
$CHAMFERC
 40
1.0
  9
$CHAMFERD
 40
0.0
  9
$SKPOLY
 70
     0
  9
$TDCREATE
 40
2451160.318790972
  9
$TDUCREATE
 40
2451160.485457639
  9
$TDUPDATE
 40
2453537.435801192
  9
$TDUUPDATE
 40
2453537.602467859
  9
$TDINDWG
 40
0.3483605903
  9
$TDUSRTIMER
 40
0.3483605903
  9
$USRTIMER
 70
     1
  9
$ANGBASE
 50
0.0
  9
$ANGDIR
 70
     0
  9
$PDMODE
 70
     3
  9
$PDSIZE
 40
0.25
  9
$PLINEWID
 40
0.0
  9
$SPLFRAME
 70
     0
  9
$SPLINETYPE
 70
     6
  9
$SPLINESEGS
 70
     8
  9
$HANDSEED
  5
11445
  9
$SURFTAB1
 70
     6
  9
$SURFTAB2
 70
     6
  9
$SURFTYPE
 70
     6
  9
$SURFU
 70
     6
  9
$SURFV
 70
     6
  9
$UCSBASE
  2

  9
$UCSNAME
  2

  9
$UCSORG
 10
0.0
 20
0.0
 30
0.0
  9
$UCSXDIR
 10
1.0
 20
0.0
 30
0.0
  9
$UCSYDIR
 10
0.0
 20
1.0
 30
0.0
  9
$UCSORTHOREF
  2

  9
$UCSORTHOVIEW
 70
     0
  9
$UCSORGTOP
 10
0.0
 20
0.0
 30
0.0
  9
$UCSORGBOTTOM
 10
0.0
 20
0.0
 30
0.0
  9
$UCSORGLEFT
 10
0.0
 20
0.0
 30
0.0
  9
$UCSORGRIGHT
 10
0.0
 20
0.0
 30
0.0
  9
$UCSORGFRONT
 10
0.0
 20
0.0
 30
0.0
  9
$UCSORGBACK
 10
0.0
 20
0.0
 30
0.0
  9
$PUCSBASE
  2

  9
$PUCSNAME
  2

  9
$PUCSORG
 10
0.0
 20
0.0
 30
0.0
  9
$PUCSXDIR
 10
1.0
 20
0.0
 30
0.0
  9
$PUCSYDIR
 10
0.0
 20
1.0
 30
0.0
  9
$PUCSORTHOREF
  2

  9
$PUCSORTHOVIEW
 70
     0
  9
$PUCSORGTOP
 10
0.0
 20
0.0
 30
0.0
  9
$PUCSORGBOTTOM
 10
0.0
 20
0.0
 30
0.0
  9
$PUCSORGLEFT
 10
0.0
 20
0.0
 30
0.0
  9
$PUCSORGRIGHT
 10
0.0
 20
0.0
 30
0.0
  9
$PUCSORGFRONT
 10
0.0
 20
0.0
 30
0.0
  9
$PUCSORGBACK
 10
0.0
 20
0.0
 30
0.0
  9
$USERI1
 70
     0
  9
$USERI2
 70
     0
  9
$USERI3
 70
     0
  9
$USERI4
 70
     0
  9
$USERI5
 70
     0
  9
$USERR1
 40
0.0
  9
$USERR2
 40
0.0
  9
$USERR3
 40
0.0
  9
$USERR4
 40
0.0
  9
$USERR5
 40
0.0
  9
$WORLDVIEW
 70
     1
  9
$SHADEDGE
 70
     3
  9
$SHADEDIF
 70
    70
  9
$TILEMODE
 70
     1
  9
$MAXACTVP
 70
    48
  9
$PINSBASE
 10
0.0
 20
0.0
 30
0.0
  9
$PLIMCHECK
 70
     0
  9
$PEXTMIN
 10
1.000000000000000E+20
 20
1.000000000000000E+20
 30
1.000000000000000E+20
  9
$PEXTMAX
 10
-1.000000000000000E+20
 20
-1.000000000000000E+20
 30
-1.000000000000000E+20
  9
$PLIMMIN
 10
0.0
 20
0.0
  9
$PLIMMAX
 10
12.0
 20
9.0
  9
$UNITMODE
 70
     0
  9
$VISRETAIN
 70
     1
  9
$PLINEGEN
 70
     0
  9
$PSLTSCALE
 70
     1
  9
$TREEDEPTH
 70
  3020
  9
$CMLSTYLE
  2
STANDARD
  9
$CMLJUST
 70
     0
  9
$CMLSCALE
 40
1.0
  9
$PROXYGRAPHICS
 70
     1
  9
$MEASUREMENT
 70
     0
  9
$CELWEIGHT
370
    -1
  9
$ENDCAPS
280
     0
  9
$JOINSTYLE
280
     0
  9
$LWDISPLAY
290
     0
  9
$INSUNITS
 70
     0
  9
$HYPERLINKBASE
  1

  9
$STYLESHEET
  1

  9
$XEDIT
290
     1
  9
$CEPSNTYPE
380
     0
  9
$PSTYLEMODE
290
     1
  9
$FINGERPRINTGUID
  2
{4307C68E-6E59-4B79-83FA-863EAFCD425A}
  9
$VERSIONGUID
  2
{D8B22003-1480-41B6-8C43-E59729329FA0}
  9
$EXTNAMES
290
     1
  9
$PSVPSCALE
 40
0.0
  9
$OLESTARTUP
290
     0
  9
$SORTENTS
280
   127
  9
$INDEXCTL
280
     0
  9
$HIDETEXT
280
     0
  9
$XCLIPFRAME
290
     0
  9
$HALOGAP
280
     0
  9
$OBSCOLOR
 70
   257
  9
$OBSLTYPE
280
     0
  9
$INTERSECTIONDISPLAY
280
     0
  9
$INTERSECTIONCOLOR
 70
   257
  9
$DIMASSOC
280
     1
  9
$PROJECTNAME
  1

  0
ENDSEC
  0
SECTION
  2
CLASSES
  0
CLASS
  1
RASTERVARIABLES
  2
AcDbRasterVariables
  3
ISM
 90
        0
 91
        1
280
     0
281
     0
  0
CLASS
  1
IMAGEDEF
  2
AcDbRasterImageDef
  3
ISM
 90
        0
 91
        2
280
     0
281
     0
  0
CLASS
  1
IMAGEDEF_REACTOR
  2
AcDbRasterImageDefReactor
  3
ISM
 90
        1
 91
        0
280
     0
281
     0
  0
CLASS
  1
IMAGE
  2
AcDbRasterImage
  3
ISM
 90
      127
 91
        0
280
     0
281
     1
  0
CLASS
  1
ACDBDICTIONARYWDFLT
  2
AcDbDictionaryWithDefault
  3
ObjectDBX Classes
 90
        0
 91
        1
280
     0
281
     0
  0
ENDSEC
  0
SECTION
  2
TABLES
  0
TABLE
  2
VPORT
  5
8
330
0
100
AcDbSymbolTable
 70
     3
  0
VPORT
  5
11444
330
8
100
AcDbSymbolTableRecord
100
AcDbViewportTableRecord
  2
*Active
 70
     0
 10
0.0
 20
0.0
 11
1.0
 21
1.0
 12
24.90834156070035
 22
11.56927031513283
 13
0.0
 23
0.0
 14
0.5
 24
0.5
 15
0.5
 25
0.5
 16
0.0
 26
0.0
 36
1.0
 17
0.0
 27
0.0
 37
0.0
 40
21.91738071484353
 41
1.955307262569832
 42
50.0
 43
0.0
 44
0.0
 50
0.0
 51
0.0
 71
     0
 72
   100
 73
     1
 74
     1
 75
     0
 76
     0
 77
     0
 78
     0
281
     0
 65
     1
110
0.0
120
0.0
130
0.0
111
1.0
121
0.0
131
0.0
112
0.0
122
1.0
132
0.0
 79
     0
146
0.0
  0
ENDTAB
  0
TABLE
  2
LTYPE
  5
5
330
0
100
AcDbSymbolTable
 70
     1
  0
LTYPE
  5
12
330
5
100
AcDbSymbolTableRecord
100
AcDbLinetypeTableRecord
  2
BYBLOCK
 70
     0
  3

 72
    65
 73
     0
 40
0.0
  0
LTYPE
  5
13
330
5
100
AcDbSymbolTableRecord
100
AcDbLinetypeTableRecord
  2
BYLAYER
 70
     0
  3

 72
    65
 73
     0
 40
0.0
  0
LTYPE
  5
14
330
5
100
AcDbSymbolTableRecord
100
AcDbLinetypeTableRecord
  2
CONTINUOUS
 70
     0
  3
Solid line
 72
    65
 73
     0
 40
0.0
  0
ENDTAB
  0
TABLE
  2
LAYER
  5
2
330
0
100
AcDbSymbolTable
 70
     3
  0
LAYER
  5
E
330
2
100
AcDbSymbolTableRecord
100
AcDbLayerTableRecord
  2
0
 70
     0
 62
     7
  6
CONTINUOUS
370
    -3
390
10FF0
  0
LAYER
  5
1138C
330
2
100
AcDbSymbolTableRecord
100
AcDbLayerTableRecord
  2
DIM
 70
     0
 62
    -3
  6
CONTINUOUS
370
    -3
390
10FF0
  0
LAYER
  5
1138E
330
2
100
AcDbSymbolTableRecord
100
AcDbLayerTableRecord
  2
Defpoints
 70
     0
 62
     7
  6
CONTINUOUS
290
     0
370
    -3
390
10FF0
  0
ENDTAB
  0
TABLE
  2
STYLE
  5
3
330
0
100
AcDbSymbolTable
 70
     1
  0
STYLE
  5
F
330
3
100
AcDbSymbolTableRecord
100
AcDbTextStyleTableRecord
  2
STANDARD
 70
     0
 40
0.0
 41
1.0
 50
0.0
 71
     0
 42
0.2
  3
txt
  4

  0
ENDTAB
  0
TABLE
  2
VIEW
  5
6
330
0
100
AcDbSymbolTable
 70
     0
  0
ENDTAB
  0
TABLE
  2
UCS
  5
7
330
0
100
AcDbSymbolTable
 70
     0
  0
ENDTAB
  0
TABLE
  2
APPID
  5
9
330
0
100
AcDbSymbolTable
 70
     1
  0
APPID
  5
10
330
9
100
AcDbSymbolTableRecord
100
AcDbRegAppTableRecord
  2
ACAD
 70
     0
  0
ENDTAB
  0
TABLE
  2
DIMSTYLE
  5
A
330
0
100
AcDbSymbolTable
 70
     1
100
AcDbDimStyleTable
 71
     1
340
1D
  0
DIMSTYLE
105
1D
102
{ACAD_REACTORS
330
1138D
330
113C4
330
113D2
102
}
330
A
100
AcDbSymbolTableRecord
100
AcDbDimStyleTableRecord
  2
STANDARD
 70
     0
140
0.5
277
     5
340
F
  0
ENDTAB
  0
TABLE
  2
BLOCK_RECORD
  5
1
330
0
100
AcDbSymbolTable
 70
     4
  0
BLOCK_RECORD
  5
18
330
1
100
AcDbSymbolTableRecord
100
AcDbBlockTableRecord
  2
*MODEL_SPACE
340
10FF5
  0
BLOCK_RECORD
  5
15
330
1
100
AcDbSymbolTableRecord
100
AcDbBlockTableRecord
  2
*PAPER_SPACE
340
10FF6
  0
BLOCK_RECORD
  5
10D81
330
1
100
AcDbSymbolTableRecord
100
AcDbBlockTableRecord
  2
2206_E
340
0
  0
BLOCK_RECORD
  5
1138F
330
1
100
AcDbSymbolTableRecord
100
AcDbBlockTableRecord
  2
*D1
340
0
  0
BLOCK_RECORD
  5
113C5
330
1
100
AcDbSymbolTableRecord
100
AcDbBlockTableRecord
  2
*D2
340
0
  0
BLOCK_RECORD
  5
113D3
330
1
100
AcDbSymbolTableRecord
100
AcDbBlockTableRecord
  2
*D3
340
0
  0
ENDTAB
  0
ENDSEC
  0
SECTION
  2
BLOCKS
  0
BLOCK
  5
19
330
18
100
AcDbEntity
  8
0
100
AcDbBlockBegin
  2
*MODEL_SPACE
 70
     0
 10
0.0
 20
0.0
 30
0.0
  3
*MODEL_SPACE
  1

  0
ENDBLK
  5
1A
330
18
100
AcDbEntity
  8
0
100
AcDbBlockEnd
  0
BLOCK
  5
16
330
15
100
AcDbEntity
 67
     1
  8
0
100
AcDbBlockBegin
  2
*PAPER_SPACE
 70
     0
 10
0.0
 20
0.0
 30
0.0
  3
*PAPER_SPACE
  1

  0
ENDBLK
  5
17
330
15
100
AcDbEntity
 67
     1
  8
0
100
AcDbBlockEnd
  0
BLOCK
  5
10D82
330
10D81
100
AcDbEntity
  8
0
100
AcDbBlockBegin
  2
2206_E
 70
     0
 10
0.0
 20
0.0
 30
0.0
  3
2206_E
  1

  0
POLYLINE
  5
10D83
330
10D81
100
AcDbEntity
  8
0
100
AcDb2dPolyline
 66
     1
 10
0.0
 20
0.0
 30
0.0
 70
     4
 75
     6
  0
VERTEX
  5
10D84
330
10D83
100
AcDbEntity
  8
0
100
AcDbVertex
100
AcDb2dVertex
 10
-2.902521978185415
 20
-1.487662905431072
 30
0.0
 70
    16
  0
VERTEX
  5
10D85
330
10D83
100
AcDbEntity
  8
0
100
AcDbVertex
100
AcDb2dVertex
 10
-2.902521978185415
 20
-1.487662905431072
 30
0.0
 70
     8
  0
VERTEX
  5
10D86
330
10D83
100
AcDbEntity
  8
0
100
AcDbVertex
100
AcDb2dVertex
 10
-2.682999503985051
 20
-1.397671096884963
 30
0.0
 70
     8
  0
VERTEX
  5
10D87
330
10D83
100
AcDbEntity
  8
0
100
AcDbVertex
100
AcDb2dVertex
 10
-2.459259818122671
 20
-1.335451248552615
 30
0.0
 70
     8
  0
VERTEX
  5
10D88
330
10D83
100
AcDbEntity
  8
0
100
AcDbVertex
100
AcDb2dVertex
 10
-2.235260086377238
 20
-1.29881799984275
 30
0.0
 70
     8
  0
VERTEX
  5
10D89
330
10D83
100
AcDbEntity
  8
0
100
AcDbVertex
100
AcDb2dVertex
 10
-2.014957474527712
 20
-1.285585990164079
 30
0.0
 70
     8
  0
VERTEX
  5
10D8A
330
10D83
100
AcDbEntity
  8
0
100
AcDbVertex
100
AcDb2dVertex
 10
-1.802309148353055
 20
-1.293569858925327
 30
0.0
 70
     8
  0
VERTEX
  5
10D8B
330
10D83
100
AcDbEntity
  8
0
100
AcDbVertex
100
AcDb2dVertex
 10
-1.601272273632229
 20
-1.320584245535204
 30
0.0
 70
     8
  0
VERTEX
  5
10D8C
330
10D83
100
AcDbEntity
  8
0
100
AcDbVertex
100
AcDb2dVertex
 10
-1.415804016144196
 20
-1.364443789402439
 30
0.0
 70
     8
  0
VERTEX
  5
10D8D
330
10D83
100
AcDbEntity
  8
0
100
AcDbVertex
100
AcDb2dVertex
 10
-1.24986154166792
 20
-1.42296312993573
 30
0.0
 70
     8
  0
VERTEX
  5
10D8E
330
10D83
100
AcDbEntity
  8
0
100
AcDbVertex
100
AcDb2dVertex
 10
-1.106482448198155
 20
-1.494096487738179
 30
0.0
 70
     8
  0
VERTEX
  5
10D8F
330
10D83
100
AcDbEntity
  8
0
100
AcDbVertex
100
AcDb2dVertex
 10
-0.9850260625928601
 20
-1.576356408190282
 30
0.0
 70
     8
  0
VERTEX
  5
10D90
330
10D83
100
AcDbEntity
  8
0
100
AcDbVertex
100
AcDb2dVertex
 10
-0.8839321439257847
 20
-1.668395017866917
 30
0.0
 70
     8
  0
VERTEX
  5
10D91
330
10D83
100
AcDbEntity
  8
0
100
AcDbVertex
100
AcDb2dVertex
 10
-0.801640451270682
 20
-1.768864443342948
 30
0.0
 70
     8
  0
VERTEX
  5
10D92
330
10D83
100
AcDbEntity
  8
0
100
AcDbVertex
100
AcDb2dVertex
 10
-0.7365907437013047
 20
-1.876416811193251
 30
0.0
 70
     8
  0
VERTEX
  5
10D93
330
10D83
100
AcDbEntity
  8
0
100
AcDbVertex
100
AcDb2dVertex
 10
-0.6872227802914033
 20
-1.989704247992694
 30
0.0
 70
     8
  0
VERTEX
  5
10D94
330
10D83
100
AcDbEntity
  8
0
100
AcDbVertex
100
AcDb2dVertex
 10
-0.6519763201147324
 20
-2.107378880316147
 30
0.0
 70
     8
  0
VERTEX
  5
10D95
330
10D83
100
AcDbEntity
  8
0
100
AcDbVertex
100
AcDb2dVertex
 10
-0.6292911222450411
 20
-2.228092834738486
 30
0.0
 70
     8
  0
VERTEX
  5
10D96
330
10D83
100
AcDbEntity
  8
0
100
AcDbVertex
100
AcDb2dVertex
 10
-0.6178590811974001
 20
-2.350438018387499
 30
0.0
 70
     8
  0
VERTEX
  5
10D97
330
10D83
100
AcDbEntity
  8
0
100
AcDbVertex
100
AcDb2dVertex
 10
-0.6173806332521359
 20
-2.472765460602703
 30
0.0
 70
     8
  0
VERTEX
  5
10D98
330
10D83
100
AcDbEntity
  8
0
100
AcDbVertex
100
AcDb2dVertex
 10
-0.6278083501308931
 20
-2.593365971276528
 30
0.0
 70
     8
  0
VERTEX
  5
10D99
330
10D83
100
AcDbEntity
  8
0
100
AcDbVertex
100
AcDb2dVertex
 10
-0.6490948035553128
 20
-2.710530360301412
 30
0.0
 70
     8
  0
VERTEX
  5
10D9A
330
10D83
100
AcDbEntity
  8
0
100
AcDbVertex
100
AcDb2dVertex
 10
-0.6811925652470397
 20
-2.822549437569788
 30
0.0
 70
     8
  0
VERTEX
  5
10D9B
330
10D83
100
AcDbEntity
  8
0
100
AcDbVertex
100
AcDb2dVertex
 10
-0.7240542069277165
 20
-2.927714012974092
 30
0.0
 70
     8
  0
VERTEX
  5
10D9C
330
10D83
100
AcDbEntity
  8
0
100
AcDbVertex
100
AcDb2dVertex
 10
-0.7776323003189863
 20
-3.024314896406762
 30
0.0
 70
     8
  0
VERTEX
  5
10D9D
330
10D83
100
AcDbEntity
  8
0
100
AcDbVertex
100
AcDb2dVertex
 10
-0.8418794171424952
 20
-3.110642897760229
 30
0.0
 70
     8
  0
VERTEX
  5
10D9E
330
10D83
100
AcDbEntity
  8
0
100
AcDbVertex
100
AcDb2dVertex
 10
-0.9164535958702302
 20
-3.185335420326149
 30
0.0
 70
     8
  0
VERTEX
  5
10D9F
330
10D83
100
AcDbEntity
  8
0
100
AcDbVertex
100
AcDb2dVertex
 10
-0.9998347419755777
 20
-3.248416240993053
 30
0.0
 70
     8
  0
VERTEX
  5
10DA0
330
10D83
100
AcDbEntity
  8
0
100
AcDbVertex
100
AcDb2dVertex
 10
-1.090208227682262
 20
-3.300255730048688
 30
0.0
 70
     8
  0
VERTEX
  5
10DA1
330
10D83
100
AcDbEntity
  8
0
100
AcDbVertex
100
AcDb2dVertex
 10
-1.185759425214017
 20
-3.341224257780801
 30
0.0
 70
     8
  0
VERTEX
  5
10DA2
330
10D83
100
AcDbEntity
  8
0
100
AcDbVertex
100
AcDb2dVertex
 10
-1.284673706794572
 20
-3.371692194477143
 30
0.0
 70
     8
  0
VERTEX
  5
10DA3
330
10D83
100
AcDbEntity
  8
0
100
AcDbVertex
100
AcDb2dVertex
 10
-1.385136444647658
 20
-3.392029910425458
 30
0.0
 70
     8
  0
VERTEX
  5
10DA4
330
10D83
100
AcDbEntity
  8
0
100
AcDbVertex
100
AcDb2dVertex
 10
-1.485333010997001
 20
-3.402607775913502
 30
0.0
 70
     8
  0
VERTEX
  5
10DA5
330
10D83
100
AcDbEntity
  8
0
100
AcDbVertex
100
AcDb2dVertex
 10
-1.583448778066335
 20
-3.403796161229015
 30
0.0
 70
     8
  0
VERTEX
  5
10DA6
330
10D83
100
AcDbEntity
  8
0
100
AcDbVertex
100
AcDb2dVertex
 10
-1.677868507652869
 20
-3.395912456939003
 30
0.0
 70
     8
  0
VERTEX
  5
10DA7
330
10D83
100
AcDbEntity
  8
0
100
AcDbVertex
100
AcDb2dVertex
 10
-1.767774519847739
 20
-3.379062134727483
 30
0.0
 70
     8
  0
VERTEX
  5
10DA8
330
10D83
100
AcDbEntity
  8
0
100
AcDbVertex
100
AcDb2dVertex
 10
-1.852548524315567
 20
-3.353297686557731
 30
0.0
 70
     8
  0
VERTEX
  5
10DA9
330
10D83
100
AcDbEntity
  8
0
100
AcDbVertex
100
AcDb2dVertex
 10
-1.931572230720972
 20
-3.318671604393017
 30
0.0
 70
     8
  0
VERTEX
  5
10DAA
330
10D83
100
AcDbEntity
  8
0
100
AcDbVertex
100
AcDb2dVertex
 10
-2.004227348728571
 20
-3.275236380196615
 30
0.0
 70
     8
  0
VERTEX
  5
10DAB
330
10D83
100
AcDbEntity
  8
0
100
AcDbVertex
100
AcDb2dVertex
 10
-2.069895588002987
 20
-3.223044505931795
 30
0.0
 70
     8
  0
VERTEX
  5
10DAC
330
10D83
100
AcDbEntity
  8
0
100
AcDbVertex
100
AcDb2dVertex
 10
-2.127958658208838
 20
-3.162148473561833
 30
0.0
 70
     8
  0
VERTEX
  5
10DAD
330
10D83
100
AcDbEntity
  8
0
100
AcDbVertex
100
AcDb2dVertex
 10
-2.17779826901074
 20
-3.092600775050001
 30
0.0
 70
     8
  0
VERTEX
  5
10DAE
330
10D83
100
AcDbEntity
  8
0
100
AcDbVertex
100
AcDb2dVertex
 10
-2.218845378736508
 20
-3.014774066861221
 30
0.0
 70
     8
  0
VERTEX
  5
10DAF
330
10D83
100
AcDbEntity
  8
0
100
AcDbVertex
100
AcDb2dVertex
 10
-2.250727940366724
 20
-2.930321663467003
 30
0.0
 70
     8
  0
VERTEX
  5
10DB0
330
10D83
100
AcDbEntity
  8
0
100
AcDbVertex
100
AcDb2dVertex
 10
-2.273123155545166
 20
-2.84121704384051
 30
0.0
 70
     8
  0
VERTEX
  5
10DB1
330
10D83
100
AcDbEntity
  8
0
100
AcDbVertex
100
AcDb2dVertex
 10
-2.285708225915609
 20
-2.749433686954903
 30
0.0
 70
     8
  0
VERTEX
  5
10DB2
330
10D83
100
AcDbEntity
  8
0
100
AcDbVertex
100
AcDb2dVertex
 10
-2.288160353121829
 20
-2.656945071783345
 30
0.0
 70
     8
  0
VERTEX
  5
10DB3
330
10D83
100
AcDbEntity
  8
0
100
AcDbVertex
100
AcDb2dVertex
 10
-2.280156738807601
 20
-2.565724677298995
 30
0.0
 70
     8
  0
VERTEX
  5
10DB4
330
10D83
100
AcDbEntity
  8
0
100
AcDbVertex
100
AcDb2dVertex
 10
-2.261374584616705
 20
-2.477745982475015
 30
0.0
 70
     8
  0
VERTEX
  5
10DB5
330
10D83
100
AcDbEntity
  8
0
100
AcDbVertex
100
AcDb2dVertex
 10
-2.231491092192912
 20
-2.394982466284568
 30
0.0
 70
     8
  0
VERTEX
  5
10DB6
330
10D83
100
AcDbEntity
  8
0
100
AcDbVertex
100
AcDb2dVertex
 10
-2.190554600038817
 20
-2.319206434190716
 30
0.0
 70
     8
  0
VERTEX
  5
10DB7
330
10D83
100
AcDbEntity
  8
0
100
AcDbVertex
100
AcDb2dVertex
 10
-2.140097994092274
 20
-2.251385497616112
 30
0.0
 70
     8
  0
VERTEX
  5
10DB8
330
10D83
100
AcDbEntity
  8
0
100
AcDbVertex
100
AcDb2dVertex
 10
-2.082025297149954
 20
-2.19228609447332
 30
0.0
 70
     8
  0
VERTEX
  5
10DB9
330
10D83
100
AcDbEntity
  8
0
100
AcDbVertex
100
AcDb2dVertex
 10
-2.018240532008524
 20
-2.142674662674895
 30
0.0
 70
     8
  0
VERTEX
  5
10DBA
330
10D83
100
AcDbEntity
  8
0
100
AcDbVertex
100
AcDb2dVertex
 10
-1.950647721464658
 20
-2.103317640133401
 30
0.0
 70
     8
  0
VERTEX
  5
10DBB
330
10D83
100
AcDbEntity
  8
0
100
AcDbVertex
100
AcDb2dVertex
 10
-1.881150888315024
 20
-2.074981464761389
 30
0.0
 70
     8
  0
VERTEX
  5
10DBC
330
10D83
100
AcDbEntity
  8
0
100
AcDbVertex
100
AcDb2dVertex
 10
-1.811654055356292
 20
-2.058432574471428
 30
0.0
 70
     8
  0
VERTEX
  5
10DBD
330
10D83
100
AcDbEntity
  8
0
100
AcDbVertex
100
AcDb2dVertex
 10
-1.744061245385134
 20
-2.054437407176063
 30
0.0
 70
     8
  0
VERTEX
  5
10DBE
330
10D83
100
AcDbEntity
  8
0
100
AcDbVertex
100
AcDb2dVertex
 10
-1.680519945399842
 20
-2.06363274718215
 30
0.0
 70
     8
  0
VERTEX
  5
10DBF
330
10D83
100
AcDbEntity
  8
0
100
AcDbVertex
100
AcDb2dVertex
 10
-1.624151499205201
 20
-2.086136764373666
 30
0.0
 70
     8
  0
VERTEX
  5
10DC0
330
10D83
100
AcDbEntity
  8
0
100
AcDbVertex
100
AcDb2dVertex
 10
-1.578320714807622
 20
-2.121937975028888
 30
0.0
 70
     8
  0
VERTEX
  5
10DC1
330
10D83
100
AcDbEntity
  8
0
100
AcDbVertex
100
AcDb2dVertex
 10
-1.546392400213514
 20
-2.171024895426082
 30
0.0
 70
     8
  0
VERTEX
  5
10DC2
330
10D83
100
AcDbEntity
  8
0
100
AcDbVertex
100
AcDb2dVertex
 10
-1.53173136342929
 20
-2.23338604184352
 30
0.0
 70
     8
  0
VERTEX
  5
10DC3
330
10D83
100
AcDbEntity
  8
0
100
AcDbVertex
100
AcDb2dVertex
 10
-1.537702412461355
 20
-2.30900993055947
 30
0.0
 70
     8
  0
VERTEX
  5
10DC4
330
10D83
100
AcDbEntity
  8
0
100
AcDbVertex
100
AcDb2dVertex
 10
-1.567670355316122
 20
-2.397885077852206
 30
0.0
 70
     8
  0
VERTEX
  5
10DC5
330
10D83
100
AcDbEntity
  8
0
100
AcDbVertex
100
AcDb2dVertex
 10
-1.625
 20
-2.499999999999994
 30
0.0
 70
     8
  0
VERTEX
  5
10DC6
330
10D83
100
AcDbEntity
  8
0
100
AcDbVertex
100
AcDb2dVertex
 10
-2.326269143226209
 20
-1.208712926275293
 30
0.0
 70
    16
  0
VERTEX
  5
10DC7
330
10D83
100
AcDbEntity
  8
0
100
AcDbVertex
100
AcDb2dVertex
 10
-0.9993767545669491
 20
-1.289902478471329
 30
0.0
 70
    16
  0
VERTEX
  5
10DC8
330
10D83
100
AcDbEntity
  8
0
100
AcDbVertex
100
AcDb2dVertex
 10
-0.5119468941838825
 20
-2.210050715551798
 30
0.0
 70
    16
  0
VERTEX
  5
10DC9
330
10D83
100
AcDbEntity
  8
0
100
AcDbVertex
100
AcDb2dVertex
 10
-0.7285824021677705
 20
-3.238451667752396
 30
0.0
 70
    16
  0
VERTEX
  5
10DCA
330
10D83
100
AcDbEntity
  8
0
100
AcDbVertex
100
AcDb2dVertex
 10
-1.625000000000001
 20
-3.499999999999996
 30
0.0
 70
    16
  0
VERTEX
  5
10DCB
330
10D83
100
AcDbEntity
  8
0
100
AcDbVertex
100
AcDb2dVertex
 10
-2.272110266230232
 20
-3.184325299621708
 30
0.0
 70
    16
  0
VERTEX
  5
10DCC
330
10D83
100
AcDbEntity
  8
0
100
AcDbVertex
100
AcDb2dVertex
 10
-2.353348549143507
 20
-2.318303451813175
 30
0.0
 70
    16
  0
VERTEX
  5
10DCD
330
10D83
100
AcDbEntity
  8
0
100
AcDbVertex
100
AcDb2dVertex
 10
-1.70344209035321
 20
-1.912355690833006
 30
0.0
 70
    16
  0
VERTEX
  5
10DCE
330
10D83
100
AcDbEntity
  8
0
100
AcDbVertex
100
AcDb2dVertex
 10
-1.432647737954038
 20
-2.210050715551798
 30
0.0
 70
    16
  0
VERTEX
  5
10DCF
330
10D83
100
AcDbEntity
  8
0
100
AcDbVertex
100
AcDb2dVertex
 10
-1.625
 20
-2.499999999999996
 30
0.0
 70
    16
  0
SEQEND
  5
10DD0
330
10D83
100
AcDbEntity
  8
0
  0
LWPOLYLINE
  5
10DD1
330
10D81
100
AcDbEntity
  8
0
100
AcDbPolyline
 90
       87
 70
     0
 43
0.0
 10
-2.902521978185415
 20
-1.487662905431072
 10
-2.911303530291789
 20
-1.495584259139882
 10
-2.921980648637475
 20
-1.505033125513755
 10
-2.933170453709907
 20
-1.514950223799306
 10
-2.945953087763641
 20
-1.526421125590374
 10
-2.961038607077181
 20
-1.540202959653349
 10
-2.978718468084364
 20
-1.556690781223778
 10
-2.998721063818866
 20
-1.57578791030485
 10
-3.020685716515949
 20
-1.597319634029101
 10
-3.044248556348829
 20
-1.621105457826836
 10
-3.06903377459448
 20
-1.646948823596272
 10
-3.094658769867702
 20
-1.674639847411512
 10
-3.120736914550775
 20
-1.703955512291763
 10
-3.146939978484593
 20
-1.73472953448805
 10
-3.173175154161258
 20
-1.767038013316756
 10
-3.199371418748667
 20
-1.800846729042383
 10
-3.225228862051864
 20
-1.835797770790478
 10
-3.25040519555518
 20
-1.871459282092249
 10
-3.274569400596645
 20
-1.907391927248294
 10
-3.29739672490249
 20
-1.94313948035651
 10
-3.318565267322713
 20
-1.978217137833237
 10
-3.337769078676545
 20
-2.012122184826715
 10
-3.354872156790444
 20
-2.044594867595698
 10
-3.370105908017494
 20
-2.075995038640755
 10
-3.383774446791833
 20
-2.106856610378709
 10
-3.396160690780613
 20
-2.137747892091191
 10
-3.407517902595803
 20
-2.169266128653767
 10
-3.418058809052407
 20
-2.202010116963037
 10
-3.427953029997166
 20
-2.236552511805022
 10
-3.437332401476623
 20
-2.273417604237298
 10
-3.446260923550346
 20
-2.312889465197585
 10
-3.454662352199783
 20
-2.354593803388276
 10
-3.462439448584206
 20
-2.397960990096009
 10
-3.469518431950335
 20
-2.442445056937426
 10
-3.475842860963767
 20
-2.487521687600168
 10
-3.481368528779738
 20
-2.532678841563868
 10
-3.486060425809663
 20
-2.577408538140488
 10
-3.489883595398954
 20
-2.621111959743547
 10
-3.492785781118599
 20
-2.663119250907563
 10
-3.494713636393365
 20
-2.703817741377694
 10
-3.495636163300951
 20
-2.744353827472149
 10
-3.495496802572901
 20
-2.78603040715172
 10
-3.494196448633561
 20
-2.830134161452448
 10
-3.49159964939857
 20
-2.877871383880183
 10
-3.487551393551069
 20
-2.930335365162733
 10
-3.48190761828398
 20
-2.98837455328023
 10
-3.474558581965032
 20
-3.052078442028337
 10
-3.465270824716462
 20
-3.12085143931803
 10
-3.453721862718362
 20
-3.19446551624159
 10
-3.439572595321275
 20
-3.272802977661786
 10
-3.422482681926041
 20
-3.355729276423605
 10
-3.402110209460151
 20
-3.443099265835325
 10
-3.378111393713573
 20
-3.534761150878367
 10
-3.350115672837237
 20
-3.630643302961461
 10
-3.317746224549577
 20
-3.73086527500698
 10
-3.281014873290041
 20
-3.835077305274504
 10
-3.240156008533098
 20
-3.94246278086674
 10
-3.195439073191728
 20
-4.052154044669165
 10
-3.147137996034773
 20
-4.163310727242759
 10
-3.095531493917537
 20
-4.275110437976678
 10
-3.040904193154934
 20
-4.386742060681541
 10
-2.983522864950856
 20
-4.497450057859566
 10
-2.923554609145398
 20
-4.606772262019978
 10
-2.861171931606422
 20
-4.714609069849613
 10
-2.796647935573576
 20
-4.820768178029819
 10
-2.730284456827732
 20
-4.925013105659186
 10
-2.662385962469583
 20
-5.02710981597715
 10
-2.593259401198135
 20
-5.126826265817356
 10
-2.523214195933595
 20
-5.223931928946029
 10
-2.452513305043716
 20
-5.318262771098991
 10
-2.381115996390773
 20
-5.410148938589212
 10
-2.308604365095868
 20
-5.500801186554411
 10
-2.234670121732223
 20
-5.591392756629094
 10
-2.159099341524083
 20
-5.68299951511307
 10
-2.081730595679806
 20
-5.776661175927792
 10
-2.002452792031942
 20
-5.873384547683897
 10
-1.921197072897829
 20
-5.974148066899438
 10
-1.837998789196033
 20
-6.079813112960863
 10
-1.753418429655059
 20
-6.190360064069901
 10
-1.668992414493942
 20
-6.30369622506862
 10
-1.586181511297406
 20
-6.417636999649483
 10
-1.506388135959229
 20
-6.530090835837651
 10
-1.431012090596295
 20
-6.638986355290233
 10
-1.361420687747813
 20
-6.742320382006932
 10
-1.298897538865485
 20
-6.838252573497433
 10
-1.244591961403825
 20
-6.925236758947281
 10
-1.202021861365683
 20
-6.997759042656106
  0
LINE
  5
10DD2
330
10D81
100
AcDbEntity
  8
0
100
AcDbLine
 10
-0.0000000000000036
 20
-12.50045601019217
 30
0.0
 11
0.0
 21
0.0
 31
0.0
  0
LWPOLYLINE
  5
10DD3
330
10D81
100
AcDbEntity
  8
0
100
AcDbPolyline
 90
      448
 70
     0
 43
0.0
 10
-3.468668186214231
 20
-0.4537403156375568
 10
-3.461747504234583
 20
-0.4678902986058873
 10
-3.449689878241428
 20
-0.4925951766779165
 10
-3.439039703666391
 20
-0.5140854385042673
 10
-3.429432085697367
 20
-0.532718264232102
 10
-3.420502129522254
 20
-0.5488508340085759
 10
-3.411884940328944
 20
-0.562840327980851
 10
-3.403215623305334
 20
-0.5750439262960861
 10
-3.394173964767314
 20
-0.5858163285103366
 10
-3.384618475542747
 20
-0.5955023118152916
 10
-3.374452347587494
 20
-0.6044441728115402
 10
-3.363578772857415
 20
-0.6129842080996682
 10
-3.351900943308368
 20
-0.6214647142802648
 10
-3.339322050896215
 20
-0.6302279879539192
 10
-3.325745287576812
 20
-0.6396163257212209
 10
-3.311073845306022
 20
-0.6499720241827589
 10
-3.295291589638358
 20
-0.6615208006457465
 10
-3.278705080522959
 20
-0.6740220552439418
 10
-3.261701551507615
 20
-0.6871186088177091
 10
-3.244668236140124
 20
-0.7004532822074303
 10
-3.227992367968276
 20
-0.7136688962534806
 10
-3.212061180539866
 20
-0.7264082717962346
 10
-3.197261907402685
 20
-0.738314229676071
 10
-3.183981782104527
 20
-0.7490295907333611
 10
-3.172506265223765
 20
-0.7583038334663712
 10
-3.162713725461081
 20
-0.7663130670048944
 10
-3.154380758547738
 20
-0.7733400581366006
 10
-3.147283960214992
 20
-0.7796675736491708
 10
-3.141199926194109
 20
-0.7855783803302785
 10
-3.135905252216346
 20
-0.7913552449676118
 10
-3.131176534012968
 20
-0.7972809343488301
 10
-3.126790367315235
 20
-0.8036382152616248
 10
-3.122563064285658
 20
-0.810672648307694
 10
-3.118469802811754
 20
-0.8184809693448471
 10
-3.114525477212291
 20
-0.8271227080449179
 10
-3.110744981806035
 20
-0.8366573940797437
 10
-3.107143210911758
 20
-0.8471445571211617
 10
-3.103735058848224
 20
-0.8586437268410058
 10
-3.100535419934203
 20
-0.8712144329111097
 10
-3.09755918848846
 20
-0.8849162050033072
 10
-3.094808847202177
 20
-0.8997589646825545
 10
-3.092237232256179
 20
-0.9155542010862411
 10
-3.089784768203704
 20
-0.9320637952448649
 10
-3.087391879597992
 20
-0.9490496281889377
 10
-3.08499899099228
 20
-0.966273580948961
 10
-3.082546526939806
 20
-0.9834975345554468
 10
-3.079974911993808
 20
-1.000483370038892
 10
-3.077224570707524
 20
-1.016992968429804
 10
-3.07425826827437
 20
-1.03281797554758
 10
-3.071128132448468
 20
-1.047869096367193
 10
-3.067908631624112
 20
-1.062086800652487
 10
-3.064674234195601
 20
-1.075411558167342
 10
-3.061499408557237
 20
-1.087783838675598
 10
-3.058458623103312
 20
-1.099144111941129
 10
-3.055626346228129
 20
-1.109432847727788
 10
-3.053077046325981
 20
-1.118590515799432
 10
-3.05088519179117
 20
-1.126594792199949
 10
-3.04912525101799
 20
-1.133572178093317
 10
-3.047871692400741
 20
-1.139686380923542
 10
-3.047198984333721
 20
-1.145101108134639
 10
-3.047181595211226
 20
-1.149980067170595
 10
-3.047893993427557
 20
-1.154486965475427
 10
-3.049410647377008
 20
-1.158785510493146
 10
-3.051806025453879
 20
-1.163039409667746
 10
-3.055184383166412
 20
-1.167447095991096
 10
-3.059769124478627
 20
-1.172345904646459
 10
-3.06581344046849
 20
-1.178107896364963
 10
-3.073570522213966
 20
-1.18510513187774
 10
-3.083293560793022
 20
-1.193709671915904
 10
-3.09523574728362
 20
-1.204293577210588
 10
-3.109650272763726
 20
-1.217228908492909
 10
-3.126790328311308
 20
-1.232887726494006
 10
-3.146804849800804
 20
-1.25155279739021
 10
-3.16942575229256
 20
-1.273149709138763
 10
-3.194280695643394
 20
-1.297514755142113
 10
-3.220997339710129
 20
-1.324484228802713
 10
-3.249203344349583
 20
-1.353894423523009
 10
-3.278526369418576
 20
-1.385581632705466
 10
-3.30859407477393
 20
-1.419382149752522
 10
-3.339034120272463
 20
-1.455132268066634
 10
-3.369494023948533
 20
-1.492643476879258
 10
-3.399700736546636
 20
-1.531628048737786
 10
-3.429401066988811
 20
-1.571773452018639
 10
-3.458341824197088
 20
-1.612767155098214
 10
-3.486269817093505
 20
-1.654296626352923
 10
-3.512931854600095
 20
-1.69604933415917
 10
-3.538074745638895
 20
-1.737712746893357
 10
-3.561445299131936
 20
-1.778974332931888
 10
-3.582857345083812
 20
-1.819628218215008
 10
-3.60239279782933
 20
-1.859895158938279
 10
-3.620200592785852
 20
-1.9001025688611
 10
-3.636429665370744
 20
-1.94057786174288
 10
-3.65122895100137
 20
-1.981648451343019
 10
-3.664747385095092
 20
-2.023641751420917
 10
-3.677133903069274
 20
-2.066885175735968
 10
-3.688537440341282
 20
-2.11170613804758
 10
-3.699079545555631
 20
-2.158311444929658
 10
-3.708772220265449
 20
-2.206425474214171
 10
-3.717600079251021
 20
-2.255651996547577
 10
-3.725547737292628
 20
-2.305594782576338
 10
-3.732599809170553
 20
-2.355857602946933
 10
-3.738740909665078
 20
-2.40604422830582
 10
-3.743955653556485
 20
-2.455758429299466
 10
-3.748228655625059
 20
-2.504603976574351
 10
-3.751530560009221
 20
-2.552396941001898
 10
-3.753776128279979
 20
-2.599802594353448
 10
-3.754866151366476
 20
-2.64769850862531
 10
-3.754701420197858
 20
-2.696962255813781
 10
-3.753182725703273
 20
-2.74847140791517
 10
-3.750210858811865
 20
-2.803103536925783
 10
-3.745686610452779
 20
-2.861736214841927
 10
-3.739510771555165
 20
-2.925247013659907
 10
-3.731540765331606
 20
-2.994333675876873
 10
-3.721460544128447
 20
-3.068974625993346
 10
-3.708910692575472
 20
-3.148968459010701
 10
-3.693531795302463
 20
-3.234113769930308
 10
-3.674964436939205
 20
-3.32420915375353
 10
-3.652849202115483
 20
-3.419053205481747
 10
-3.626826675461078
 20
-3.518444520116318
 10
-3.596537441605776
 20
-3.622181692658624
 10
-3.561721868034503
 20
-3.729977334098037
 10
-3.522519453652752
 20
-3.841200119376033
 10
-3.479169480221165
 20
-3.955132739422063
 10
-3.431911229500379
 20
-4.071057885165609
 10
-3.380983983251031
 20
-4.188258247536149
 10
-3.326627023233761
 20
-4.306016517463143
 10
-3.269079631209206
 20
-4.42361538587607
 10
-3.208581088938005
 20
-4.540337543704396
 10
-3.145380648406515
 20
-4.655552024599522
 10
-3.079767442503969
 20
-4.768973233100471
 10
-3.01204057434532
 20
-4.880401916468212
 10
-2.94249914704552
 20
-4.989638821963701
 10
-2.871442263719519
 20
-5.096484696847895
 10
-2.799169027482271
 20
-5.200740288381751
 10
-2.725978541448728
 20
-5.302206343826224
 10
-2.652169908733844
 20
-5.400683610442269
 10
-2.577965795045724
 20
-5.496182050753983
 10
-2.503283116465095
 20
-5.589548488337989
 10
-2.42796235166584
 20
-5.681838962034053
 10
-2.35184397932184
 20
-5.774109510681931
 10
-2.274768478106977
 20
-5.867416173121393
 10
-2.196576326695137
 20
-5.962814988192192
 10
-2.117108003760197
 20
-6.061361994734102
 10
-2.03620398797604
 20
-6.16411323158687
 10
-1.95398539094517
 20
-6.271573347334292
 10
-1.871695855984564
 20
-6.382041429536238
 10
-1.790859659339814
 20
-6.493265175496606
 10
-1.713001077256519
 20
-6.602992282519291
 10
-1.639644385980274
 20
-6.708970447908196
 10
-1.572313861756676
 20
-6.80894736896721
 10
-1.51253378083132
 20
-6.900670743000237
 10
-1.461828419449803
 20
-6.98188826731117
 10
-1.421266343512559
 20
-7.050989687704925
 10
-1.390093277539383
 20
-7.10893294399047
 10
-1.367099235704904
 20
-7.157318024477801
 10
-1.351074232183751
 20
-7.197744917476903
 10
-1.340808281150561
 20
-7.231813611297763
 10
-1.33509139677996
 20
-7.261124094250373
 10
-1.332713593246582
 20
-7.287276354644719
 10
-1.332464884725059
 20
-7.311870380790793
 10
-1.333322060860407
 20
-7.336196065244905
 10
-1.335009013179195
 20
-7.360302917548654
 10
-1.337436408678378
 20
-7.383930351489967
 10
-1.34051491435491
 20
-7.406817780856759
 10
-1.344155197205747
 20
-7.42870461943696
 10
-1.34826792422784
 20
-7.449330281018497
 10
-1.352763762418151
 20
-7.46843417938928
 10
-1.357553378773626
 20
-7.485755728337236
 10
-1.362572977424866
 20
-7.501103309277624
 10
-1.367860911037007
 20
-7.514561174134989
 10
-1.37348106940883
 20
-7.52628254246122
 10
-1.379497342339115
 20
-7.536420633808191
 10
-1.385973619626643
 20
-7.545128667727787
 10
-1.39297379107019
 20
-7.5525598637719
 10
-1.40056174646854
 20
-7.558867441492395
 10
-1.40880137562047
 20
-7.564204620441168
 10
-1.417720364227337
 20
-7.568713980150725
 10
-1.427201581600817
 20
-7.572495540076106
 10
-1.437091692955164
 20
-7.575638679652978
 10
-1.447237363504628
 20
-7.578232778317005
 10
-1.457485258463464
 20
-7.580367215503869
 10
-1.467682043045922
 20
-7.582131370649225
 10
-1.477674382466258
 20
-7.583614623188751
 10
-1.487308941938721
 20
-7.584906352558103
 10
-1.496528221071018
 20
-7.586132114992411
 10
-1.505658057044659
 20
-7.587562173924601
 10
-1.515120121434595
 20
-7.58950296958703
 10
-1.525336085815794
 20
-7.592260942212096
 10
-1.536727621763212
 20
-7.596142532032157
 10
-1.549716400851806
 20
-7.601454179279592
 10
-1.564724094656536
 20
-7.608502324186769
 10
-1.582172374752364
 20
-7.617593406986074
 10
-1.602284854749399
 20
-7.628910440468656
 10
-1.624492916398368
 20
-7.642142727660793
 10
-1.648029883485147
 20
-7.656856144147557
 10
-1.672129079795617
 20
-7.672616565514003
 10
-1.696023829115652
 20
-7.688989867345199
 10
-1.718947455231136
 20
-7.705541925226206
 10
-1.74013328192794
 20
-7.72183861474209
 10
-1.758814632991947
 20
-7.737445811477911
 10
-1.77441011227507
 20
-7.752031537950959
 10
-1.787079443893357
 20
-7.765672404407428
 10
-1.797167632028894
 20
-7.778547168025745
 10
-1.805019680863768
 20
-7.790834585984327
 10
-1.810980594580065
 20
-7.802713415461592
 10
-1.81539537735987
 20
-7.81436241363597
 10
-1.818609033385266
 20
-7.825960337685881
 10
-1.820966566838343
 20
-7.837685944789738
 10
-1.822755481204168
 20
-7.849677559008407
 10
-1.824033277179758
 20
-7.861911771932472
 10
-1.824799954765111
 20
-7.874324742034961
 10
-1.825055513960229
 20
-7.88685262778889
 10
-1.824799954765111
 20
-7.899431587667294
 10
-1.824033277179758
 20
-7.911997780143192
 10
-1.822755481204168
 20
-7.9244873636896
 10
-1.820966566838343
 20
-7.936836496779555
 10
-1.818643107883671
 20
-7.949040923518158
 10
-1.815667973347112
 20
-7.961334730538894
 10
-1.811900606037012
 20
-7.974011590107316
 10
-1.807200448761715
 20
-7.987365174488985
 10
-1.801426944329572
 20
-8.00168915594947
 10
-1.794439535548926
 20
-8.017277206754325
 10
-1.78609766522813
 20
-8.034422999169118
 10
-1.776260776175522
 20
-8.053420205459412
 10
-1.764867108496064
 20
-8.074424173876931
 10
-1.752170091481136
 20
-8.097036956618094
 10
-1.738501951718731
 20
-8.12072228186548
 10
-1.724194915796841
 20
-8.144943877801674
 10
-1.709581210303458
 20
-8.169165472609257
 10
-1.694993061826568
 20
-8.192850794470814
 10
-1.68076269695417
 20
-8.215463571568925
 10
-1.66722234227425
 20
-8.236467532086171
 10
-1.654610519428008
 20
-8.255458344188539
 10
-1.642790930269462
 20
-8.272559435975598
 10
-1.631533571705837
 20
-8.288026175530319
 10
-1.620608440644357
 20
-8.302113930935684
 10
-1.609785533992248
 20
-8.315078070274655
 10
-1.598834848656734
 20
-8.327173961630215
 10
-1.587526381545043
 20
-8.338656973085329
 10
-1.575630129564395
 20
-8.349782472722973
 10
-1.563005535142242
 20
-8.360739858493346
 10
-1.549869822786931
 20
-8.371454647815541
 10
-1.536529662527033
 20
-8.381786387975875
 10
-1.523291724391119
 20
-8.391594626260673
 10
-1.510462678407762
 20
-8.400738909956256
 10
-1.498349194605534
 20
-8.409078786348942
 10
-1.487257943013004
 20
-8.41647380272505
 10
-1.477495593658744
 20
-8.422783506370901
 10
-1.469294278853649
 20
-8.427920646268521
 10
-1.462587980037897
 20
-8.432010778182782
 10
-1.457236140933989
 20
-8.435232659574248
 10
-1.453098205264431
 20
-8.4377650479035
 10
-1.450033616751719
 20
-8.439786700631117
 10
-1.447901819118357
 20
-8.441476375217662
 10
-1.446562256086844
 20
-8.443012829123716
 10
-1.445874371379684
 20
-8.444574819809851
 10
-1.445718904938075
 20
-8.446362385292662
 10
-1.446061781577991
 20
-8.448660685812807
 10
-1.446890222334111
 20
-8.451776162166964
 10
-1.448191448241107
 20
-8.456015255151818
 10
-1.449952680333653
 20
-8.461684405564042
 10
-1.452161139646424
 20
-8.469090054200322
 10
-1.454804047214093
 20
-8.478538641857332
 10
-1.457868624071338
 20
-8.490336609331755
 10
-1.461318665358938
 20
-8.504711659132576
 10
-1.465024262642113
 20
-8.521576540618031
 10
-1.468832081592198
 20
-8.54076526485867
 10
-1.472588787880519
 20
-8.56211184292502
 10
-1.476141047178408
 20
-8.585450285887635
 10
-1.479335525157196
 20
-8.610614604817062
 10
-1.482018887488209
 20
-8.637438810783832
 10
-1.484037799842782
 20
-8.665756914858494
 10
-1.485260224187115
 20
-8.695409312377153
 10
-1.485639307666918
 20
-8.726261935738138
 10
-1.485149493722769
 20
-8.758187101605351
 10
-1.483765225795245
 20
-8.791057126642684
 10
-1.481460947324929
 20
-8.824744327514032
 10
-1.478211101752403
 20
-8.859121020883289
 10
-1.473990132518245
 20
-8.894059523414348
 10
-1.468772483063036
 20
-8.929432151771107
 10
-1.462536856253924
 20
-8.965096326044854
 10
-1.455278992664339
 20
-9.000849880036417
 10
-1.446998892294285
 20
-9.036475750974027
 10
-1.437696555143757
 20
-9.07175687608591
 10
-1.427371981212759
 20
-9.106476192600295
 10
-1.41602517050129
 20
-9.140416637745408
 10
-1.403656123009348
 20
-9.173361148749473
 10
-1.390264838736936
 20
-9.205092662840719
 10
-1.375859836384833
 20
-9.235426038387062
 10
-1.360483709456945
 20
-9.264303818315188
 10
-1.344187570157956
 20
-9.291700466691469
 10
-1.327022530692548
 20
-9.317590447582286
 10
-1.309039703265415
 20
-9.341948225054014
 10
-1.290290200081235
 20
-9.364748263173025
 10
-1.270825133344697
 20
-9.385965026005694
 10
-1.250695615260482
 20
-9.405572977618398
 10
-1.229988962130702
 20
-9.423561478226895
 10
-1.208937306647143
 20
-9.439979472644479
 10
-1.187808985599023
 20
-9.454890801833812
 10
-1.166872335775547
 20
-9.468359306757573
 10
-1.14639569396593
 20
-9.480448828378428
 10
-1.126647396959384
 20
-9.491223207659052
 10
-1.107895781545124
 20
-9.50074628556211
 10
-1.090409184512356
 20
-9.50908190305028
 10
-1.074409090024541
 20
-9.516304541622883
 10
-1.059929571742106
 20
-9.522531244925824
 10
-1.046957850699728
 20
-9.527889697141668
 10
-1.035481147932079
 20
-9.532507582452986
 10
-1.025486684473834
 20
-9.536512585042334
 10
-1.016961681359669
 20
-9.540032389092273
 10
-1.009893359624255
 20
-9.543194678785372
 10
-1.004268940302269
 20
-9.546127138304189
 10
-1.000068060374369
 20
-9.54910833276183
 10
-0.9972400206051492
 20
-9.553020350993563
 10
-0.9957265377051935
 20
-9.558896162765195
 10
-0.995469328385079
 20
-9.567768737842536
 10
-0.9964101093553878
 20
-9.580671045991392
 10
-0.9984905973267004
 20
-9.598636056977575
 10
-1.001652509009595
 20
-9.622696740566894
 10
-1.005837561114656
 20
-9.653886066525155
 10
-1.010956989623814
 20
-9.692769649499542
 10
-1.016800107604407
 20
-9.738043683662743
 10
-1.023125747395129
 20
-9.787937008068812
 10
-1.029692741334672
 20
-9.840678461771817
 10
-1.036259921761725
 20
-9.894496883825814
 10
-1.042586121014982
 20
-9.947621113284865
 10
-1.048430171433135
 20
-9.998279989203027
 10
-1.053550905354875
 20
-10.04470235063436
 10
-1.057758893671749
 20
-10.08553098276778
 10
-1.061071661486728
 20
-10.12106445533158
 10
-1.063558472455641
 20
-10.15201528418891
 10
-1.065288590234313
 20
-10.17909598520293
 10
-1.066331278478571
 20
-10.20301907423679
 10
-1.066755800844243
 20
-10.22449706715364
 10
-1.066631420987157
 20
-10.24424247981662
 10
-1.066027402563138
 20
-10.2629678280889
 10
-1.065007877545721
 20
-10.28129677564701
 10
-1.063616451179267
 20
-10.29949757742099
 10
-1.061891597025852
 20
-10.31774963615428
 10
-1.059871788647543
 20
-10.33623235459034
 10
-1.05759549960641
 20
-10.35512513547257
 10
-1.055101203464525
 20
-10.37460738154444
 10
-1.052427373783958
 20
-10.39485849554937
 10
-1.049612484126781
 20
-10.4160578802308
 10
-1.046680046241222
 20
-10.43831659445005
 10
-1.043593724620157
 20
-10.46147232154003
 10
-1.040302221942621
 20
-10.48529440095153
 10
-1.036754240887649
 20
-10.50955217213535
 10
-1.032898484134273
 20
-10.53401497454224
 10
-1.028683654361532
 20
-10.55845214762303
 10
-1.024058454248455
 20
-10.58263303082849
 10
-1.018971586474084
 20
-10.60632696360941
 10
-1.013314045659726
 20
-10.62944424459407
 10
-1.006745994195823
 20
-10.65245900912074
 10
-0.9988698864150897
 20
-10.67598635170514
 10
-0.9892881766502412
 20
-10.70064136686301
 10
-0.9776033192339923
 20
-10.72703914911012
 10
-0.9634177684990632
 20
-10.75579479296218
 10
-0.946333978778167
 20
-10.78752339293495
 10
-0.9259544044040222
 20
-10.82284004354417
 10
-0.9021016460839135
 20
-10.86207578529099
 10
-0.8754788900234053
 20
-10.90442544261815
 10
-0.8470094688026286
 20
-10.94879978595383
 10
-0.8176167150017192
 20
-10.99410958572617
 10
-0.78822396120081
 20
-11.03926561236335
 10
-0.7597545399800332
 20
-11.08317863629352
 10
-0.7331317839195269
 20
-11.12475942794485
 10
-0.7092790255994182
 20
-11.16291875774548
 10
-0.6889015885184211
 20
-11.19685358584482
 10
-0.6718327598495702
 20
-11.2269056312772
 10
-0.6576878176844741
 20
-11.2537028027982
 10
-0.6460820401147452
 20
-11.27787300916339
 10
-0.636630705231994
 20
-11.30004415912833
 10
-0.6289490911278311
 20
-11.3208441614486
 10
-0.622652475893867
 20
-11.34090092487977
 10
-0.6173561376217159
 20
-11.36084235817741
 10
-0.6127266506574359
 20
-11.38116822544158
 10
-0.6086357743649025
 20
-11.4018657121503
 10
-0.6050065643624336
 20
-11.42279385912609
 10
-0.6017620762683542
 20
-11.44381170719143
 10
-0.5988253657009892
 20
-11.46477829716885
 10
-0.5961194882786529
 20
-11.48555266988085
 10
-0.5935674996196738
 20
-11.50599386614994
 10
-0.5910924553423698
 20
-11.52596092679863
 10
-0.5886409218229663
 20
-11.54534065740003
 10
-0.586253508469266
 20
-11.56413092252964
 10
-0.5839943354469757
 20
-11.58235735151359
 10
-0.581927522921804
 20
-11.600045573678
 10
-0.5801171910594558
 20
-11.61722121834897
 10
-0.5786274600256363
 20
-11.63390991485262
 10
-0.5775224499860521
 20
-11.65013729251508
 10
-0.5768662811064065
 20
-11.66592898066245
 10
-0.5767038375331666
 20
-11.68128497952986
 10
-0.5770030593358442
 20
-11.69610277298849
 10
-0.5777126505646973
 20
-11.71025421581851
 10
-0.5787813152699961
 20
-11.72361116280012
 10
-0.5801577575020041
 20
-11.7360454687135
 10
-0.5817906813109915
 20
-11.74742898833883
 10
-0.5836287907472233
 20
-11.7576335764563
 10
-0.5856207898609629
 20
-11.76653108784608
 10
-0.5877581294796173
 20
-11.77405317824988
 10
-0.5902032475391348
 20
-11.7803707072554
 10
-0.5931613287526077
 20
-11.78571433541184
 10
-0.5968375578331262
 20
-11.79031472326842
 10
-0.6014371194937756
 20
-11.79440253137434
 10
-0.6071651984476479
 20
-11.79820842027883
 10
-0.6142269794078335
 20
-11.80196305053108
 10
-0.6228276470874175
 20
-11.80589708268031
 10
-0.6330911672315161
 20
-11.81022409134047
 10
-0.6448166297133398
 20
-11.81508930738448
 10
-0.6577219054381179
 20
-11.82062087575002
 10
-0.6715248653110848
 20
-11.82694694137472
 10
-0.6859433802374753
 20
-11.83419564919628
 10
-0.7006953211225202
 20
-11.84249514415233
 10
-0.7154985588714525
 20
-11.85197357118056
 10
-0.7300709643895065
 20
-11.86275907521862
 10
-0.7441554315036641
 20
-11.87493386893357
 10
-0.7575949457279006
 20
-11.88839643591006
 10
-0.7702575154979386
 20
-11.90299932746215
 10
-0.7820111492495024
 20
-11.9185950949039
 10
-0.7927238554183163
 20
-11.93503628954934
 10
-0.8022636424401028
 20
-11.95217546271253
 10
-0.8104985187505882
 20
-11.96986516570752
 10
-0.8172964927854948
 20
-11.98795794984836
 10
-0.8225684564999582
 20
-12.00632262083381
 10
-0.8263968359267472
 20
-12.02489300190136
 10
-0.8289069406180491
 20
-12.04361917067323
 10
-0.8302240801260456
 20
-12.06245120477162
 10
-0.8304735640029203
 20
-12.08133918181873
 10
-0.8297807018008551
 20
-12.10023317943679
 10
-0.8282708030720336
 20
-12.11908327524797
 10
-0.8260691773686392
 20
-12.13783954687451
 10
-0.8232647134527351
 20
-12.15647456158878
 10
-0.8198006169259031
 20
-12.17505084526399
 10
-0.8155836725996046
 20
-12.19365341342352
 10
-0.8105206652853027
 20
-12.21236728159075
 10
-0.8045183797944623
 20
-12.23127746528907
 10
-0.7974836009385449
 20
-12.25046898004185
 10
-0.789323113529008
 20
-12.27002684137249
 10
-0.7799437023773202
 20
-12.29003606480436
 10
-0.7690713652981245
 20
-12.31067303461301
 10
-0.7557089521187895
 20
-12.33247961008265
 10
-0.7386785256698687
 20
-12.35608901924964
 10
-0.7168021487819179
 20
-12.38213449015033
 10
-0.6889018842854889
 20
-12.41124925082108
 10
-0.6537997950111354
 20
-12.44406652929827
 10
-0.6103179437894096
 20
-12.48121955361824
 10
-0.586095612218994
 20
-12.50045601019217
  0
POLYLINE
  5
10F95
330
10D81
100
AcDbEntity
  8
0
100
AcDb2dPolyline
 66
     1
 10
0.0
 20
0.0
 30
0.0
 70
     4
 75
     6
  0
VERTEX
  5
10F96
330
10F95
100
AcDbEntity
  8
0
100
AcDbVertex
100
AcDb2dVertex
 10
-1.244591961403825
 20
-6.925236758947281
 30
0.0
 70
    16
  0
VERTEX
  5
10F97
330
10F95
100
AcDbEntity
  8
0
100
AcDbVertex
100
AcDb2dVertex
 10
-1.244591961403825
 20
-6.925236758947283
 30
0.0
 70
     8
  0
VERTEX
  5
10F98
330
10F95
100
AcDbEntity
  8
0
100
AcDbVertex
100
AcDb2dVertex
 10
-1.12866974455507
 20
-7.053756594934069
 30
0.0
 70
     8
  0
VERTEX
  5
10F99
330
10F95
100
AcDbEntity
  8
0
100
AcDbVertex
100
AcDb2dVertex
 10
-1.025181111260351
 20
-7.157094687818657
 30
0.0
 70
     8
  0
VERTEX
  5
10F9A
330
10F95
100
AcDbEntity
  8
0
100
AcDbVertex
100
AcDb2dVertex
 10
-0.9329704056177945
 20
-7.239707165019746
 30
0.0
 70
     8
  0
VERTEX
  5
10F9B
330
10F95
100
AcDbEntity
  8
0
100
AcDbVertex
100
AcDb2dVertex
 10
-0.8508819717255224
 20
-7.306050153956022
 30
0.0
 70
     8
  0
VERTEX
  5
10F9C
330
10F95
100
AcDbEntity
  8
0
100
AcDbVertex
100
AcDb2dVertex
 10
-0.7777601536816601
 20
-7.360579782046178
 30
0.0
 70
     8
  0
VERTEX
  5
10F9D
330
10F95
100
AcDbEntity
  8
0
100
AcDbVertex
100
AcDb2dVertex
 10
-0.7124492955843316
 20
-7.407752176708903
 30
0.0
 70
     8
  0
VERTEX
  5
10F9E
330
10F95
100
AcDbEntity
  8
0
100
AcDbVertex
100
AcDb2dVertex
 10
-0.6537937415316595
 20
-7.452023465362893
 30
0.0
 70
     8
  0
VERTEX
  5
10F9F
330
10F95
100
AcDbEntity
  8
0
100
AcDbVertex
100
AcDb2dVertex
 10
-0.600637835621777
 20
-7.497849775426848
 30
0.0
 70
     8
  0
VERTEX
  5
10FA0
330
10F95
100
AcDbEntity
  8
0
100
AcDbVertex
100
AcDb2dVertex
 10
-0.5519767621282963
 20
-7.548833228846575
 30
0.0
 70
     8
  0
VERTEX
  5
10FA1
330
10F95
100
AcDbEntity
  8
0
100
AcDbVertex
100
AcDb2dVertex
 10
-0.5074090660268542
 20
-7.605159925676426
 30
0.0
 70
     8
  0
VERTEX
  5
10FA2
330
10F95
100
AcDbEntity
  8
0
100
AcDbVertex
100
AcDb2dVertex
 10
-0.4666841324685827
 20
-7.666161960497879
 30
0.0
 70
     8
  0
VERTEX
  5
10FA3
330
10F95
100
AcDbEntity
  8
0
100
AcDbVertex
100
AcDb2dVertex
 10
-0.4295513466046206
 20
-7.731171427892409
 30
0.0
 70
     8
  0
VERTEX
  5
10FA4
330
10F95
100
AcDbEntity
  8
0
100
AcDbVertex
100
AcDb2dVertex
 10
-0.3957600935860945
 20
-7.799520422441494
 30
0.0
 70
     8
  0
VERTEX
  5
10FA5
330
10F95
100
AcDbEntity
  8
0
100
AcDbVertex
100
AcDb2dVertex
 10
-0.3650597585641417
 20
-7.870541038726608
 30
0.0
 70
     8
  0
VERTEX
  5
10FA6
330
10F95
100
AcDbEntity
  8
0
100
AcDbVertex
100
AcDb2dVertex
 10
-0.3371997266898994
 20
-7.943565371329231
 30
0.0
 70
     8
  0
VERTEX
  5
10FA7
330
10F95
100
AcDbEntity
  8
0
100
AcDbVertex
100
AcDb2dVertex
 10
-0.311929383114494
 20
-8.017925514830835
 30
0.0
 70
     8
  0
VERTEX
  5
10FA8
330
10F95
100
AcDbEntity
  8
0
100
AcDbVertex
100
AcDb2dVertex
 10
-0.2890677282248593
 20
-8.09308923210674
 30
0.0
 70
     8
  0
VERTEX
  5
10FA9
330
10F95
100
AcDbEntity
  8
0
100
AcDbVertex
100
AcDb2dVertex
 10
-0.2687122233511108
 20
-8.169066959207599
 30
0.0
 70
     8
  0
VERTEX
  5
10FAA
330
10F95
100
AcDbEntity
  8
0
100
AcDbVertex
100
AcDb2dVertex
 10
-0.2510299450591553
 20
-8.246004800477914
 30
0.0
 70
     8
  0
VERTEX
  5
10FAB
330
10F95
100
AcDbEntity
  8
0
100
AcDbVertex
100
AcDb2dVertex
 10
-0.236187969914905
 20
-8.324048860262179
 30
0.0
 70
     8
  0
VERTEX
  5
10FAC
330
10F95
100
AcDbEntity
  8
0
100
AcDbVertex
100
AcDb2dVertex
 10
-0.2243533744842754
 20
-8.40334524290489
 30
0.0
 70
     8
  0
VERTEX
  5
10FAD
330
10F95
100
AcDbEntity
  8
0
100
AcDbVertex
100
AcDb2dVertex
 10
-0.2156932353331733
 20
-8.484040052750545
 30
0.0
 70
     8
  0
VERTEX
  5
10FAE
330
10F95
100
AcDbEntity
  8
0
100
AcDbVertex
100
AcDb2dVertex
 10
-0.210374629027509
 20
-8.56627939414364
 30
0.0
 70
     8
  0
VERTEX
  5
10FAF
330
10F95
100
AcDbEntity
  8
0
100
AcDbVertex
100
AcDb2dVertex
 10
-0.2085646321331982
 20
-8.650209371428671
 30
0.0
 70
     8
  0
VERTEX
  5
10FB0
330
10F95
100
AcDbEntity
  8
0
100
AcDbVertex
100
AcDb2dVertex
 10
-0.2104755711671409
 20
-8.735729103065898
 30
0.0
 70
     8
  0
VERTEX
  5
10FB1
330
10F95
100
AcDbEntity
  8
0
100
AcDbVertex
100
AcDb2dVertex
 10
-0.2165007724502139
 20
-8.821749763978635
 30
0.0
 70
     8
  0
VERTEX
  5
10FB2
330
10F95
100
AcDbEntity
  8
0
100
AcDbVertex
100
AcDb2dVertex
 10
-0.2270788122542893
 20
-8.906935543205964
 30
0.0
 70
     8
  0
VERTEX
  5
10FB3
330
10F95
100
AcDbEntity
  8
0
100
AcDbVertex
100
AcDb2dVertex
 10
-0.2426482668512371
 20
-8.98995062978696
 30
0.0
 70
     8
  0
VERTEX
  5
10FB4
330
10F95
100
AcDbEntity
  8
0
100
AcDbVertex
100
AcDb2dVertex
 10
-0.2636477125129257
 20
-9.069459212760706
 30
0.0
 70
     8
  0
VERTEX
  5
10FB5
330
10F95
100
AcDbEntity
  8
0
100
AcDbVertex
100
AcDb2dVertex
 10
-0.2905157255112254
 20
-9.144125481166277
 30
0.0
 70
     8
  0
VERTEX
  5
10FB6
330
10F95
100
AcDbEntity
  8
0
100
AcDbVertex
100
AcDb2dVertex
 10
-0.3236908821180098
 20
-9.212613624042754
 30
0.0
 70
     8
  0
VERTEX
  5
10FB7
330
10F95
100
AcDbEntity
  8
0
100
AcDbVertex
100
AcDb2dVertex
 10
-0.3636117586051437
 20
-9.273587830429214
 30
0.0
 70
     8
  0
VERTEX
  5
10FB8
330
10F95
100
AcDbEntity
  8
0
100
AcDbVertex
100
AcDb2dVertex
 10
-0.4104141048043993
 20
-9.3259697112549
 30
0.0
 70
     8
  0
VERTEX
  5
10FB9
330
10F95
100
AcDbEntity
  8
0
100
AcDbVertex
100
AcDb2dVertex
 10
-0.4630223647871326
 20
-9.369710565009711
 30
0.0
 70
     8
  0
VERTEX
  5
10FBA
330
10F95
100
AcDbEntity
  8
0
100
AcDbVertex
100
AcDb2dVertex
 10
-0.5200581561846072
 20
-9.405019112073706
 30
0.0
 70
     8
  0
VERTEX
  5
10FBB
330
10F95
100
AcDbEntity
  8
0
100
AcDbVertex
100
AcDb2dVertex
 10
-0.5801430966280794
 20
-9.432104072826946
 30
0.0
 70
     8
  0
VERTEX
  5
10FBC
330
10F95
100
AcDbEntity
  8
0
100
AcDbVertex
100
AcDb2dVertex
 10
-0.6418988037488056
 20
-9.451174167649494
 30
0.0
 70
     8
  0
VERTEX
  5
10FBD
330
10F95
100
AcDbEntity
  8
0
100
AcDbVertex
100
AcDb2dVertex
 10
-0.7039468951780492
 20
-9.462438116921408
 30
0.0
 70
     8
  0
VERTEX
  5
10FBE
330
10F95
100
AcDbEntity
  8
0
100
AcDbVertex
100
AcDb2dVertex
 10
-0.7649089885470648
 20
-9.46610464102275
 30
0.0
 70
     8
  0
VERTEX
  5
10FBF
330
10F95
100
AcDbEntity
  8
0
100
AcDbVertex
100
AcDb2dVertex
 10
-0.823406701487114
 20
-9.462382460333584
 30
0.0
 70
     8
  0
VERTEX
  5
10FC0
330
10F95
100
AcDbEntity
  8
0
100
AcDbVertex
100
AcDb2dVertex
 10
-0.8782426513273691
 20
-9.451501167300877
 30
0.0
 70
     8
  0
VERTEX
  5
10FC1
330
10F95
100
AcDbEntity
  8
0
100
AcDbVertex
100
AcDb2dVertex
 10
-0.9289434541886691
 20
-9.43377384263924
 30
0.0
 70
     8
  0
VERTEX
  5
10FC2
330
10F95
100
AcDbEntity
  8
0
100
AcDbVertex
100
AcDb2dVertex
 10
-0.9752167258897674
 20
-9.409534439130199
 30
0.0
 70
     8
  0
VERTEX
  5
10FC3
330
10F95
100
AcDbEntity
  8
0
100
AcDbVertex
100
AcDb2dVertex
 10
-1.016770082249415
 20
-9.379116909555273
 30
0.0
 70
     8
  0
VERTEX
  5
10FC4
330
10F95
100
AcDbEntity
  8
0
100
AcDbVertex
100
AcDb2dVertex
 10
-1.053311139086368
 20
-9.342855206695984
 30
0.0
 70
     8
  0
VERTEX
  5
10FC5
330
10F95
100
AcDbEntity
  8
0
100
AcDbVertex
100
AcDb2dVertex
 10
-1.084547512219378
 20
-9.301083283333856
 30
0.0
 70
     8
  0
VERTEX
  5
10FC6
330
10F95
100
AcDbEntity
  8
0
100
AcDbVertex
100
AcDb2dVertex
 10
-1.110186817467198
 20
-9.254135092250407
 30
0.0
 70
     8
  0
VERTEX
  5
10FC7
330
10F95
100
AcDbEntity
  8
0
100
AcDbVertex
100
AcDb2dVertex
 10
-1.129936670648582
 20
-9.202344586227162
 30
0.0
 70
     8
  0
VERTEX
  5
10FC8
330
10F95
100
AcDbEntity
  8
0
100
AcDbVertex
100
AcDb2dVertex
 10
-1.143457697274259
 20
-9.146277049900342
 30
0.0
 70
     8
  0
VERTEX
  5
10FC9
330
10F95
100
AcDbEntity
  8
0
100
AcDbVertex
100
AcDb2dVertex
 10
-1.150222561622854
 20
-9.087423095324965
 30
0.0
 70
     8
  0
VERTEX
  5
10FCA
330
10F95
100
AcDbEntity
  8
0
100
AcDbVertex
100
AcDb2dVertex
 10
-1.149656937664969
 20
-9.027504666410749
 30
0.0
 70
     8
  0
VERTEX
  5
10FCB
330
10F95
100
AcDbEntity
  8
0
100
AcDbVertex
100
AcDb2dVertex
 10
-1.141186499371208
 20
-8.968243707067413
 30
0.0
 70
     8
  0
VERTEX
  5
10FCC
330
10F95
100
AcDbEntity
  8
0
100
AcDbVertex
100
AcDb2dVertex
 10
-1.124236920712171
 20
-8.911362161204676
 30
0.0
 70
     8
  0
VERTEX
  5
10FCD
330
10F95
100
AcDbEntity
  8
0
100
AcDbVertex
100
AcDb2dVertex
 10
-1.098233875658458
 20
-8.858581972732254
 30
0.0
 70
     8
  0
VERTEX
  5
10FCE
330
10F95
100
AcDbEntity
  8
0
100
AcDbVertex
100
AcDb2dVertex
 10
-1.062603038180672
 20
-8.811625085559869
 30
0.0
 70
     8
  0
VERTEX
  5
10FCF
330
10F95
100
AcDbEntity
  8
0
100
AcDbVertex
100
AcDb2dVertex
 10
-1.016770082249417
 20
-8.772213443597239
 30
0.0
 70
     8
  0
VERTEX
  5
10FD0
330
10F95
100
AcDbEntity
  8
0
100
AcDbVertex
100
AcDb2dVertex
 10
-0.9612431993617498
 20
-8.742162914924419
 30
0.0
 70
     8
  0
VERTEX
  5
10FD1
330
10F95
100
AcDbEntity
  8
0
100
AcDbVertex
100
AcDb2dVertex
 10
-0.9008606511205687
 20
-8.723665064302824
 30
0.0
 70
     8
  0
VERTEX
  5
10FD2
330
10F95
100
AcDbEntity
  8
0
100
AcDbVertex
100
AcDb2dVertex
 10
-0.8415432166552268
 20
-8.71900538066421
 30
0.0
 70
     8
  0
VERTEX
  5
10FD3
330
10F95
100
AcDbEntity
  8
0
100
AcDbVertex
100
AcDb2dVertex
 10
-0.7892116750950838
 20
-8.73046935294033
 30
0.0
 70
     8
  0
VERTEX
  5
10FD4
330
10F95
100
AcDbEntity
  8
0
100
AcDbVertex
100
AcDb2dVertex
 10
-0.7497868055694941
 20
-8.760342470062939
 30
0.0
 70
     8
  0
VERTEX
  5
10FD5
330
10F95
100
AcDbEntity
  8
0
100
AcDbVertex
100
AcDb2dVertex
 10
-0.7291893872078106
 20
-8.810910220963787
 30
0.0
 70
     8
  0
VERTEX
  5
10FD6
330
10F95
100
AcDbEntity
  8
0
100
AcDbVertex
100
AcDb2dVertex
 10
-0.7333401991393896
 20
-8.884458094574631
 30
0.0
 70
     8
  0
VERTEX
  5
10FD7
330
10F95
100
AcDbEntity
  8
0
100
AcDbVertex
100
AcDb2dVertex
 10
-0.7681600204935873
 20
-8.983271579827224
 30
0.0
 70
     8
  0
VERTEX
  5
10FD8
330
10F95
100
AcDbEntity
  8
0
100
AcDbVertex
100
AcDb2dVertex
 10
-0.9178606887112046
 20
-7.305492981198252
 30
0.0
 70
    16
  0
VERTEX
  5
10FD9
330
10F95
100
AcDbEntity
  8
0
100
AcDbVertex
100
AcDb2dVertex
 10
-0.5543019183854519
 20
-7.433730854587938
 30
0.0
 70
    16
  0
VERTEX
  5
10FDA
330
10F95
100
AcDbEntity
  8
0
100
AcDbVertex
100
AcDb2dVertex
 10
-0.286979266314777
 20
-8.010801189705922
 30
0.0
 70
    16
  0
VERTEX
  5
10FDB
330
10F95
100
AcDbEntity
  8
0
100
AcDbVertex
100
AcDb2dVertex
 10
-0.1693573150424079
 20
-8.630617475573387
 30
0.0
 70
    16
  0
VERTEX
  5
10FDC
330
10F95
100
AcDbEntity
  8
0
100
AcDbVertex
100
AcDb2dVertex
 10
-0.286979266314777
 20
-9.367985136572546
 30
0.0
 70
    16
  0
VERTEX
  5
10FDD
330
10F95
100
AcDbEntity
  8
0
100
AcDbVertex
100
AcDb2dVertex
 10
-0.8643961713293428
 20
-9.538968960711713
 30
0.0
 70
    16
  0
VERTEX
  5
10FDE
330
10F95
100
AcDbEntity
  8
0
100
AcDbVertex
100
AcDb2dVertex
 10
-1.195876257290532
 20
-9.250433782582099
 30
0.0
 70
    16
  0
VERTEX
  5
10FDF
330
10F95
100
AcDbEntity
  8
0
100
AcDbVertex
100
AcDb2dVertex
 10
-1.131718823400024
 20
-8.673363426322868
 30
0.0
 70
    16
  0
VERTEX
  5
10FE0
330
10F95
100
AcDbEntity
  8
0
100
AcDbVertex
100
AcDb2dVertex
 10
-0.6291522362039182
 20
-8.684049924580861
 30
0.0
 70
    16
  0
VERTEX
  5
10FE1
330
10F95
100
AcDbEntity
  8
0
100
AcDbVertex
100
AcDb2dVertex
 10
-0.7681600204935855
 20
-8.983271579827224
 30
0.0
 70
    16
  0
SEQEND
  5
10FE2
330
10F95
100
AcDbEntity
  8
0
  0
LINE
  5
10FE3
330
10D81
100
AcDbEntity
  8
0
100
AcDbLine
 10
-0.0000000000000036
 20
-12.50045601019217
 30
0.0
 11
-0.586095612218994
 21
-12.50045601019217
 31
0.0
  0
LINE
  5
10FE4
330
10D81
100
AcDbEntity
  8
0
100
AcDbLine
 10
-3.094808847202177
 20
-0.8997589646825545
 30
0.0
 11
0.0
 21
-0.8997589646825545
 31
0.0
  0
LINE
  5
10FE5
330
10D81
100
AcDbEntity
  8
0
100
AcDbLine
 10
-3.468668186214231
 20
-0.4537403156375568
 30
0.0
 11
0.0
 21
-0.4537403156375568
 31
0.0
  0
LINE
  5
10FE6
330
10D81
100
AcDbEntity
  8
0
100
AcDbLine
 10
-3.468668186214231
 20
0.0000000000000071
 30
0.0
 11
0.0
 21
0.0
 31
0.0
  0
LINE
  5
10FE7
330
10D81
100
AcDbEntity
  8
0
100
AcDbLine
 10
-3.468668186214231
 20
-0.4537403156375568
 30
0.0
 11
-3.468668186214231
 21
0.0000000000000071
 31
0.0
  0
ENDBLK
  5
10FE8
330
10D81
100
AcDbEntity
  8
0
100
AcDbBlockEnd
  0
BLOCK
  5
1139A
330
1138F
100
AcDbEntity
  8
0
100
AcDbBlockBegin
  2
*D1
 70
     1
 10
0.0
 20
0.0
 30
0.0
  3
*D1
  1

  0
LINE
  5
11425
330
1138F
100
AcDbEntity
  8
DIM
 62
     0
370
    -2
100
AcDbLine
 10
27.07885060917622
 20
18.18384358557917
 30
0.0
 11
25.04817695163233
 21
18.18384358557917
 31
0.0
  0
LINE
  5
11426
330
1138F
100
AcDbEntity
  8
DIM
 62
     0
370
    -2
100
AcDbLine
 10
27.07885061448168
 20
5.55884358557917
 30
0.0
 11
25.04817695163233
 21
5.558843585579171
 31
0.0
  0
LINE
  5
11427
330
1138F
100
AcDbEntity
  8
DIM
 62
     0
370
    -2
100
AcDbLine
 10
25.22817695163233
 20
18.00384358557917
 30
0.0
 11
25.22817695163233
 21
12.5446769189125
 31
0.0
  0
LINE
  5
11428
330
1138F
100
AcDbEntity
  8
DIM
 62
     0
370
    -2
100
AcDbLine
 10
25.22817695163233
 20
5.738843585579171
 30
0.0
 11
25.22817695163233
 21
11.19801025224584
 31
0.0
  0
SOLID
  5
11429
330
1138F
100
AcDbEntity
  8
DIM
 62
     0
100
AcDbTrace
 10
25.19817695163233
 20
18.00384358557917
 30
0.0
 11
25.25817695163233
 21
18.00384358557917
 31
0.0
 12
25.22817695163233
 22
18.18384358557917
 32
0.0
 13
25.22817695163233
 23
18.18384358557917
 33
0.0
  0
SOLID
  5
1142A
330
1138F
100
AcDbEntity
  8
DIM
 62
     0
100
AcDbTrace
 10
25.19817695163232
 20
5.738843585579171
 30
0.0
 11
25.25817695163233
 21
5.738843585579171
 31
0.0
 12
25.22817695163233
 22
5.558843585579171
 32
0.0
 13
25.22817695163233
 23
5.558843585579171
 33
0.0
  0
MTEXT
  5
1142B
330
1138F
100
AcDbEntity
  8
DIM
 62
     0
100
AcDbMText
 10
25.22817695163233
 20
11.87134358557917
 30
0.0
 40
0.5
 41
0.0
 71
     5
 72
     1
  1
\A1;12{\H1.000000x;\S5/8;}
 73
     1
 44
1.0
  0
POINT
  5
1142C
330
1138F
100
AcDbEntity
  8
Defpoints
 62
     0
100
AcDbPoint
 10
27.14135060917622
 20
18.18384358557917
 30
0.0
  0
POINT
  5
1142D
330
1138F
100
AcDbEntity
  8
Defpoints
 62
     0
100
AcDbPoint
 10
27.14135061448168
 20
5.55884358557917
 30
0.0
  0
POINT
  5
1142E
330
1138F
100
AcDbEntity
  8
Defpoints
 62
     0
100
AcDbPoint
 10
25.22817695163233
 20
5.558843585579171
 30
0.0
  0
ENDBLK
  5
1139B
330
1138F
100
AcDbEntity
  8
0
100
AcDbBlockEnd
  0
BLOCK
  5
113D0
330
113C5
100
AcDbEntity
  8
0
100
AcDbBlockBegin
  2
*D2
 70
     1
 10
0.0
 20
0.0
 30
0.0
  3
*D2
  1

  0
LINE
  5
11439
330
113C5
100
AcDbEntity
  8
DIM
 62
     0
370
    -2
100
AcDbLine
 10
19.69276186792241
 20
18.24634358557917
 30
0.0
 11
19.69276186792241
 21
19.6196561378927
 31
0.0
  0
LINE
  5
1143A
330
113C5
100
AcDbEntity
  8
DIM
 62
     0
370
    -2
100
AcDbLine
 10
23.31776186792241
 20
18.24634358557917
 30
0.0
 11
23.31776186792241
 21
19.6196561378927
 31
0.0
  0
LINE
  5
1143B
330
113C5
100
AcDbEntity
  8
DIM
 62
     0
370
    -2
100
AcDbLine
 10
19.87276186792241
 20
19.4396561378927
 30
0.0
 11
20.99859520125574
 21
19.4396561378927
 31
0.0
  0
LINE
  5
1143C
330
113C5
100
AcDbEntity
  8
DIM
 62
     0
370
    -2
100
AcDbLine
 10
23.13776186792241
 20
19.4396561378927
 30
0.0
 11
22.01192853458907
 21
19.4396561378927
 31
0.0
  0
SOLID
  5
1143D
330
113C5
100
AcDbEntity
  8
DIM
 62
     0
100
AcDbTrace
 10
19.87276186792241
 20
19.4696561378927
 30
0.0
 11
19.87276186792241
 21
19.40965613789269
 31
0.0
 12
19.69276186792241
 22
19.4396561378927
 32
0.0
 13
19.69276186792241
 23
19.4396561378927
 33
0.0
  0
SOLID
  5
1143E
330
113C5
100
AcDbEntity
  8
DIM
 62
     0
100
AcDbTrace
 10
23.13776186792241
 20
19.4696561378927
 30
0.0
 11
23.13776186792241
 21
19.40965613789269
 31
0.0
 12
23.31776186792241
 22
19.4396561378927
 32
0.0
 13
23.31776186792241
 23
19.4396561378927
 33
0.0
  0
MTEXT
  5
1143F
330
113C5
100
AcDbEntity
  8
DIM
 62
     0
100
AcDbMText
 10
21.50526186792241
 20
19.4396561378927
 30
0.0
 40
0.5
 41
0.0
 71
     5
 72
     1
  1
\A1;3{\H1.000000x;\S5/8;}
 73
     1
 44
1.0
  0
POINT
  5
11440
330
113C5
100
AcDbEntity
  8
Defpoints
 62
     0
100
AcDbPoint
 10
19.69276186792241
 20
18.18384358557917
 30
0.0
  0
POINT
  5
11441
330
113C5
100
AcDbEntity
  8
Defpoints
 62
     0
100
AcDbPoint
 10
23.31776186792241
 20
18.18384358557917
 30
0.0
  0
POINT
  5
11442
330
113C5
100
AcDbEntity
  8
Defpoints
 62
     0
100
AcDbPoint
 10
23.31776186792241
 20
19.4396561378927
 30
0.0
  0
ENDBLK
  5
113D1
330
113C5
100
AcDbEntity
  8
0
100
AcDbBlockEnd
  0
BLOCK
  5
113DE
330
113D3
100
AcDbEntity
  8
0
100
AcDbBlockBegin
  2
*D3
 70
     1
 10
0.0
 20
0.0
 30
0.0
  3
*D3
  1

  0
LINE
  5
1141B
330
113D3
100
AcDbEntity
  8
DIM
 62
     0
370
    -2
100
AcDbLine
 10
30.64135061448169
 20
18.24634358557917
 30
0.0
 11
30.64135061448169
 21
19.77373437160985
 31
0.0
  0
LINE
  5
1141C
330
113D3
100
AcDbEntity
  8
DIM
 62
     0
370
    -2
100
AcDbLine
 10
27.14135061448168
 20
18.24634358557917
 30
0.0
 11
27.14135061448168
 21
19.77373437160985
 31
0.0
  0
LINE
  5
1141D
330
113D3
100
AcDbEntity
  8
DIM
 62
     0
370
    -2
100
AcDbLine
 10
30.46135061448169
 20
19.59373437160985
 30
0.0
 11
29.39801728114835
 21
19.59373437160985
 31
0.0
  0
LINE
  5
1141E
330
113D3
100
AcDbEntity
  8
DIM
 62
     0
370
    -2
100
AcDbLine
 10
27.32135061448169
 20
19.59373437160985
 30
0.0
 11
28.38468394781502
 21
19.59373437160985
 31
0.0
  0
SOLID
  5
1141F
330
113D3
100
AcDbEntity
  8
DIM
 62
     0
100
AcDbTrace
 10
30.46135061448169
 20
19.62373437160986
 30
0.0
 11
30.46135061448169
 21
19.56373437160985
 31
0.0
 12
30.64135061448169
 22
19.59373437160985
 32
0.0
 13
30.64135061448169
 23
19.59373437160985
 33
0.0
  0
SOLID
  5
11420
330
113D3
100
AcDbEntity
  8
DIM
 62
     0
100
AcDbTrace
 10
27.32135061448169
 20
19.62373437160986
 30
0.0
 11
27.32135061448169
 21
19.56373437160985
 31
0.0
 12
27.14135061448168
 22
19.59373437160985
 32
0.0
 13
27.14135061448168
 23
19.59373437160985
 33
0.0
  0
MTEXT
  5
11421
330
113D3
100
AcDbEntity
  8
DIM
 62
     0
100
AcDbMText
 10
28.89135061448169
 20
19.59373437160985
 30
0.0
 40
0.5
 41
0.0
 71
     5
 72
     1
  1
\A1;3{\H1.000000x;\S1/2;}
 73
     1
 44
1.0
  0
POINT
  5
11422
330
113D3
100
AcDbEntity
  8
Defpoints
 62
     0
100
AcDbPoint
 10
30.64135061448169
 20
18.18384358557917
 30
0.0
  0
POINT
  5
11423
330
113D3
100
AcDbEntity
  8
Defpoints
 62
     0
100
AcDbPoint
 10
27.14135061448168
 20
18.18384358557917
 30
0.0
  0
POINT
  5
11424
330
113D3
100
AcDbEntity
  8
Defpoints
 62
     0
100
AcDbPoint
 10
27.14135061448168
 20
19.59373437160985
 30
0.0
  0
ENDBLK
  5
113DF
330
113D3
100
AcDbEntity
  8
0
100
AcDbBlockEnd
  0
ENDSEC
  0
SECTION
  2
ENTITIES
  0
LINE
  5
111C4
330
18
100
AcDbEntity
  8
0
100
AcDbLine
 10
20.15089601116459
 20
17.12550089065336
 30
0.0
 11
20.19276186792241
 21
16.88031586423311
 31
0.0
  0
LINE
  5
111C5
330
18
100
AcDbEntity
  8
0
100
AcDbLine
 10
22.85962772468023
 20
17.12550089065336
 30
0.0
 11
22.81776186792241
 21
16.88031586423311
 31
0.0
  0
LINE
  5
111C6
330
18
100
AcDbEntity
  8
0
100
AcDbLine
 10
20.05277183313174
 20
8.426021711793413
 30
0.0
 11
19.94276186792241
 21
8.444432503344421
 31
0.0
  0
LINE
  5
111C7
330
18
100
AcDbEntity
  8
0
100
AcDbLine
 10
22.95775190271307
 20
8.426021711793412
 30
0.0
 11
23.06776186792241
 21
8.444432503344421
 31
0.0
  0
ARC
  5
111C8
330
18
100
AcDbEntity
  8
0
100
AcDbCircle
 10
28.01635061448168
 20
9.027593585579168
 30
0.0
 40
0.625
100
AcDbArc
 50
281.5369590328154
 51
28.2780272730244
  0
ARC
  5
111C9
330
18
100
AcDbEntity
  8
0
100
AcDbCircle
 10
28.01635061448168
 20
9.027593585579168
 30
0.0
 40
0.625
100
AcDbArc
 50
28.2780272730244
 51
107.6236611888678
  0
ARC
  5
111CA
330
18
100
AcDbEntity
  8
0
100
AcDbCircle
 10
11.6017018236852
 20
24.22301401603806
 30
0.0
 40
21.70191545458629
100
AcDbArc
 50
321.5862153098927
 51
329.4769262272487
  0
ARC
  5
111CB
330
18
100
AcDbEntity
  8
0
100
AcDbCircle
 10
29.04636118618205
 20
15.61962795179895
 30
0.0
 40
1.505872938854414
100
AcDbArc
 50
45.15013296417506
 51
160.1297713953951
  0
LINE
  5
111CC
330
18
100
AcDbEntity
  8
0
100
AcDbLine
 10
23.09869140816904
 20
9.465093585579168
 30
0.0
 11
23.06776186792241
 21
9.465093585579168
 31
0.0
  0
LINE
  5
111CD
330
18
100
AcDbEntity
  8
0
100
AcDbLine
 10
23.09869140816904
 20
8.777593585579168
 30
0.0
 11
23.06776186792241
 21
8.777593585579168
 31
0.0
  0
ARC
  5
111CE
330
18
100
AcDbEntity
  8
0
100
AcDbCircle
 10
22.69997887081335
 20
9.12134358557917
 30
0.0
 40
0.5264368432629033
100
AcDbArc
 50
319.2337325553538
 51
40.76626744464593
  0
LINE
  5
111CF
330
18
100
AcDbEntity
  8
0
100
AcDbLine
 10
19.91183232767577
 20
9.465093585579168
 30
0.0
 11
19.94276186792241
 21
9.465093585579168
 31
0.0
  0
LINE
  5
111D0
330
18
100
AcDbEntity
  8
0
100
AcDbLine
 10
19.91183232767577
 20
8.777593585579168
 30
0.0
 11
19.94276186792241
 21
8.777593585579168
 31
0.0
  0
ARC
  5
111D1
330
18
100
AcDbEntity
  8
0
100
AcDbCircle
 10
20.31054486503146
 20
9.12134358557917
 30
0.0
 40
0.5264368432629033
100
AcDbArc
 50
139.233732555354
 51
220.7662674446462
  0
ARC
  5
111D2
330
18
100
AcDbEntity
  8
0
100
AcDbCircle
 10
26.56574342104078
 20
7.560458349858146
 30
0.0
 40
4.935599589865864
100
AcDbArc
 50
169.7370599325249
 51
179.1773709962524
  0
ARC
  5
111D3
330
18
100
AcDbEntity
  8
0
100
AcDbCircle
 10
-14.09957029912585
 20
27.29509390019991
 30
0.0
 40
40.77121803489769
100
AcDbArc
 50
332.0179022321637
 51
332.2026337177295
  0
ARC
  5
111D4
330
18
100
AcDbEntity
  8
0
100
AcDbCircle
 10
21.84266727855946
 20
8.150627332243551
 30
0.0
 40
0.2687558159949659
100
AcDbArc
 50
335.2279703424787
 51
29.58338873541334
  0
ARC
  5
111D5
330
18
100
AcDbEntity
  8
0
100
AcDbCircle
 10
22.02203519391964
 20
8.252453716698145
 30
0.0
 40
0.0625
100
AcDbArc
 50
29.58338873541306
 51
152.2026337177217
  0
ARC
  5
111D6
330
18
100
AcDbEntity
  8
0
100
AcDbCircle
 10
22.06020660677307
 20
6.178386233657459
 30
0.0
 40
0.120616048542162
100
AcDbArc
 50
320.4761479050127
 51
56.39030639682513
  0
ARC
  5
111D7
330
18
100
AcDbEntity
  8
0
100
AcDbCircle
 10
22.01006027436193
 20
6.047394357222016
 30
0.0
 40
0.2739748794424947
100
AcDbArc
 50
63.21160251679506
 51
160.0205861686042
  0
ARC
  5
111D8
330
18
100
AcDbEntity
  8
0
100
AcDbCircle
 10
22.51371622230816
 20
7.093284090374726
 30
0.0
 40
0.7889649543261359
100
AcDbArc
 50
189.1856957758903
 51
249.5376808036001
  0
ARC
  5
111D9
330
18
100
AcDbEntity
  8
0
100
AcDbCircle
 10
22.67524142252175
 20
7.018167424841111
 30
0.0
 40
1.022066867457404
100
AcDbArc
 50
177.2127214275054
 51
217.6173392050325
  0
ARC
  5
111DA
330
18
100
AcDbEntity
  8
0
100
AcDbCircle
 10
22.27318209171718
 20
7.951956541385065
 30
0.0
 40
0.20538876900897
100
AcDbArc
 50
155.2279703424787
 51
254.7306587350468
  0
ARC
  5
111DB
330
18
100
AcDbEntity
  8
0
100
AcDbCircle
 10
22.64124080368628
 20
7.60983266912069
 30
0.0
 40
0.972150804709396
100
AcDbArc
 50
134.9610394606915
 51
197.4863932065022
  0
ARC
  5
111DC
330
18
100
AcDbEntity
  8
0
100
AcDbCircle
 10
23.06271227710805
 20
7.550449475336694
 30
0.0
 40
1.31068103988432
100
AcDbArc
 50
152.0179022321637
 51
190.227823129201
  0
ARC
  5
111DD
330
18
100
AcDbEntity
  8
0
100
AcDbCircle
 10
22.13196824507519
 20
5.866779038632174
 30
0.0
 40
0.2358090614128745
100
AcDbArc
 50
84.82324122244365
 51
199.8825372887555
  0
ARC
  5
111DE
330
18
100
AcDbEntity
  8
0
100
AcDbCircle
 10
22.50253406067807
 20
5.716145200990712
 30
0.0
 40
0.5201908422473939
100
AcDbArc
 50
132.1801086124586
 51
178.7480004477918
  0
ARC
  5
111DF
330
18
100
AcDbEntity
  8
0
100
AcDbCircle
 10
23.26607535955059
 20
8.45726207037854
 30
0.0
 40
0.7248041441564045
100
AcDbArc
 50
187.5990587850797
 51
238.8263803888812
  0
LINE
  5
111E0
330
18
100
AcDbEntity
  8
0
100
AcDbLine
 10
22.44465984694651
 20
7.043323461492198
 30
0.0
 11
22.40052690091496
 21
6.989423846120512
 31
0.0
  0
ARC
  5
111E1
330
18
100
AcDbEntity
  8
0
100
AcDbCircle
 10
22.09517217182192
 20
6.882725853260838
 30
0.0
 40
0.5659565577201695
100
AcDbArc
 50
334.8194172822717
 51
2.866059038644571
  0
ARC
  5
111E2
330
18
100
AcDbEntity
  8
0
100
AcDbCircle
 10
21.90887976806729
 20
6.295066954457691
 30
0.0
 40
0.7798510783229226
100
AcDbArc
 50
21.7063970464684
 51
57.94721972690465
  0
ARC
  5
111E3
330
18
100
AcDbEntity
  8
0
100
AcDbCircle
 10
22.67594468823315
 20
7.178428942630578
 30
0.0
 40
0.2678547532574602
100
AcDbArc
 50
210.2914180592079
 51
266.6774838825335
  0
ARC
  5
111E4
330
18
100
AcDbEntity
  8
0
100
AcDbCircle
 10
22.69818331083073
 20
7.435320628130861
 30
0.0
 40
0.260221012225369
100
AcDbArc
 50
335.5272617982524
 51
24.47273820176688
  0
ARC
  5
111E5
330
18
100
AcDbEntity
  8
0
100
AcDbCircle
 10
22.12955074885753
 20
7.186844856711491
 30
0.0
 40
0.8313484069499727
100
AcDbArc
 50
308.7334123743509
 51
9.399707238735555
  0
ARC
  5
111E6
330
18
100
AcDbEntity
  8
0
100
AcDbCircle
 10
22.86412765618947
 20
7.886228301457942
 30
0.0
 40
0.562036889062422
100
AcDbArc
 50
204.201947130675
 51
276.2401061513313
  0
ARC
  5
111E7
330
18
100
AcDbEntity
  8
0
100
AcDbCircle
 10
23.07253066955944
 20
8.243013892841776
 30
0.0
 40
0.6979069626775504
100
AcDbArc
 50
209.3615127349034
 51
259.0472992229212
  0
ARC
  5
111E8
330
18
100
AcDbEntity
  8
0
100
AcDbCircle
 10
22.39114505876916
 20
7.415163512756354
 30
0.0
 40
0.5520701600815494
100
AcDbArc
 50
16.56059317352809
 51
71.93413125384923
  0
ARC
  5
111E9
330
18
100
AcDbEntity
  8
0
100
AcDbCircle
 10
18.4836429335367
 20
8.080618461434976
 30
0.0
 40
4.487421806942448
100
AcDbArc
 50
353.2466725265633
 51
4.414504155019578
  0
ARC
  5
111EA
330
18
100
AcDbEntity
  8
0
100
AcDbCircle
 10
21.82344451262344
 20
6.462952380646568
 30
0.0
 40
0.9261827659539502
100
AcDbArc
 50
298.4666746544278
 51
323.4790993195943
  0
LINE
  5
111EB
330
18
100
AcDbEntity
  8
0
100
AcDbLine
 10
22.56776186792241
 20
5.911766213774733
 30
0.0
 11
22.48941701527269
 21
6.082668286868109
 31
0.0
  0
ARC
  5
111EC
330
18
100
AcDbEntity
  8
0
100
AcDbCircle
 10
21.94959574029363
 20
6.311275073758446
 30
0.0
 40
0.7360276425196594
100
AcDbArc
 50
327.1261924875448
 51
21.70639704646827
  0
ARC
  5
111ED
330
18
100
AcDbEntity
  8
0
100
AcDbCircle
 10
21.8287697411975
 20
5.905481717264414
 30
0.0
 40
0.3791528083487194
100
AcDbArc
 50
305.3527842267175
 51
31.15286639438425
  0
ARC
  5
111EE
330
18
100
AcDbEntity
  8
0
100
AcDbCircle
 10
21.82811070816089
 20
6.206177883177426
 30
0.0
 40
0.7081785237480799
100
AcDbArc
 50
259.0391702669448
 51
308.0820075854961
  0
ARC
  5
111EF
330
18
100
AcDbEntity
  8
0
100
AcDbCircle
 10
22.09403689664958
 20
5.968546354851284
 30
0.0
 40
0.4115206599548602
100
AcDbArc
 50
16.10017721054587
 51
69.53768080360011
  0
ARC
  5
111F0
330
18
100
AcDbEntity
  8
0
100
AcDbCircle
 10
22.38856998920369
 20
7.511660163602554
 30
0.0
 40
0.5419817449058044
100
AcDbArc
 50
187.5743011355574
 51
268.6719488172202
  0
ARC
  5
111F1
330
18
100
AcDbEntity
  8
0
100
AcDbCircle
 10
22.72131085166797
 20
7.604837879352405
 30
0.0
 40
0.61719095990087
100
AcDbArc
 50
184.8254257319483
 51
243.3690418676006
  0
ARC
  5
111F2
330
18
100
AcDbEntity
  8
0
100
AcDbCircle
 10
23.56278976677571
 20
8.583776746279234
 30
0.0
 40
1.351605917220976
100
AcDbArc
 50
183.8207163487978
 51
206.3379509735356
  0
ARC
  5
111F3
330
18
100
AcDbEntity
  8
0
100
AcDbCircle
 10
22.20433807136801
 20
7.911268148867609
 30
0.0
 40
0.1641971116546653
100
AcDbArc
 50
278.6026455902824
 51
26.33795097353571
  0
ARC
  5
111F4
330
18
100
AcDbEntity
  8
0
100
AcDbCircle
 10
19.74444837629422
 20
8.45726207037854
 30
0.0
 40
0.7248041441564045
100
AcDbArc
 50
301.1736196111187
 51
352.4009412149201
  0
ARC
  5
111F5
330
18
100
AcDbEntity
  8
0
100
AcDbCircle
 10
24.52688080230811
 20
8.080618461434976
 30
0.0
 40
4.487421806942448
100
AcDbArc
 50
175.5854958449804
 51
186.7533274734366
  0
ARC
  5
111F6
330
18
100
AcDbEntity
  8
0
100
AcDbCircle
 10
16.44478031480404
 20
7.560458349858146
 30
0.0
 40
4.935599589865864
100
AcDbArc
 50
0.822629003747566
 51
10.26294006747501
  0
ARC
  5
111F7
330
18
100
AcDbEntity
  8
0
100
AcDbCircle
 10
20.98848854192518
 20
8.252453716698145
 30
0.0
 40
0.0625
100
AcDbArc
 50
27.79736628227833
 51
150.4166112645869
  0
ARC
  5
111F8
330
18
100
AcDbEntity
  8
0
100
AcDbCircle
 10
57.11009403497066
 20
27.29509390019991
 30
0.0
 40
40.77121803489769
100
AcDbArc
 50
207.7973662822705
 51
207.9820977678362
  0
ARC
  5
111F9
330
18
100
AcDbEntity
  8
0
100
AcDbCircle
 10
19.94781145873676
 20
7.550449475336694
 30
0.0
 40
1.31068103988432
100
AcDbArc
 50
349.772176870799
 51
27.98209776783626
  0
ARC
  5
111FA
330
18
100
AcDbEntity
  8
0
100
AcDbCircle
 10
20.36928293215853
 20
7.60983266912069
 30
0.0
 40
0.972150804709396
100
AcDbArc
 50
342.5136067934978
 51
45.03896053930847
  0
ARC
  5
111FB
330
18
100
AcDbEntity
  8
0
100
AcDbCircle
 10
21.16785645728535
 20
8.150627332243551
 30
0.0
 40
0.2687558159949659
100
AcDbArc
 50
150.4166112645866
 51
204.772029657524
  0
ARC
  5
111FC
330
18
100
AcDbEntity
  8
0
100
AcDbCircle
 10
20.73734164412763
 20
7.951956541385065
 30
0.0
 40
0.20538876900897
100
AcDbArc
 50
285.2693412649532
 51
24.77202965752392
  0
ARC
  5
111FD
330
18
100
AcDbEntity
  8
0
100
AcDbCircle
 10
20.8061856644768
 20
7.911268148867609
 30
0.0
 40
0.1641971116546653
100
AcDbArc
 50
153.6620490264543
 51
261.3973544097175
  0
ARC
  5
111FE
330
18
100
AcDbEntity
  8
0
100
AcDbCircle
 10
19.4477339690691
 20
8.583776746279234
 30
0.0
 40
1.351605917220976
100
AcDbArc
 50
333.6620490264545
 51
356.1792836512022
  0
ARC
  5
111FF
330
18
100
AcDbEntity
  8
0
100
AcDbCircle
 10
20.61937867707565
 20
7.415163512756354
 30
0.0
 40
0.5520701600815494
100
AcDbArc
 50
108.0658687461507
 51
163.4394068264719
  0
ARC
  5
11200
330
18
100
AcDbEntity
  8
0
100
AcDbCircle
 10
19.93799306628537
 20
8.243013892841776
 30
0.0
 40
0.6979069626775504
100
AcDbArc
 50
280.9527007770788
 51
330.6384872650966
  0
ARC
  5
11201
330
18
100
AcDbEntity
  8
0
100
AcDbCircle
 10
20.31234042501408
 20
7.435320628130861
 30
0.0
 40
0.260221012225369
100
AcDbArc
 50
155.5272617982311
 51
204.4727382017497
  0
ARC
  5
11202
330
18
100
AcDbEntity
  8
0
100
AcDbCircle
 10
20.14639607965534
 20
7.886228301457942
 30
0.0
 40
0.562036889062422
100
AcDbArc
 50
263.7598938486687
 51
335.7980528693234
  0
ARC
  5
11203
330
18
100
AcDbEntity
  8
0
100
AcDbCircle
 10
20.28921288417684
 20
7.604837879352405
 30
0.0
 40
0.61719095990087
100
AcDbArc
 50
296.6309581323993
 51
355.1745742680516
  0
ARC
  5
11204
330
18
100
AcDbEntity
  8
0
100
AcDbCircle
 10
20.62195374664112
 20
7.511660163602554
 30
0.0
 40
0.5419817449058044
100
AcDbArc
 50
271.3280511827798
 51
352.4256988644427
  0
LINE
  5
11205
330
18
100
AcDbEntity
  8
0
100
AcDbLine
 10
20.5658638888983
 20
7.043323461492198
 30
0.0
 11
20.60999683492985
 21
6.989423846120512
 31
0.0
  0
ARC
  5
11206
330
18
100
AcDbEntity
  8
0
100
AcDbCircle
 10
20.33457904761167
 20
7.178428942630578
 30
0.0
 40
0.2678547532574602
100
AcDbArc
 50
273.3225161174665
 51
329.708581940792
  0
ARC
  5
11207
330
18
100
AcDbEntity
  8
0
100
AcDbCircle
 10
20.9153515640229
 20
6.882725853260838
 30
0.0
 40
0.5659565577201695
100
AcDbArc
 50
177.1339409613554
 51
205.180582717732
  0
ARC
  5
11208
330
18
100
AcDbEntity
  8
0
100
AcDbCircle
 10
20.88097298698728
 20
7.186844856711491
 30
0.0
 40
0.8313484069499727
100
AcDbArc
 50
170.6002927612644
 51
231.266587625649
  0
ARC
  5
11209
330
18
100
AcDbEntity
  8
0
100
AcDbCircle
 10
21.10164396777752
 20
6.295066954457691
 30
0.0
 40
0.7798510783229226
100
AcDbArc
 50
122.0527802730953
 51
158.2936029535313
  0
ARC
  5
1120A
330
18
100
AcDbEntity
  8
0
100
AcDbCircle
 10
21.06092799555119
 20
6.311275073758446
 30
0.0
 40
0.7360276425196594
100
AcDbArc
 50
158.2936029535315
 51
212.8738075124553
  0
ARC
  5
1120B
330
18
100
AcDbEntity
  8
0
100
AcDbCircle
 10
21.33608639152429
 20
7.081255995867429
 30
0.0
 40
0.0241116928238851
100
AcDbArc
 50
326.2735412050512
 51
164.9359018891373
  0
ARC
  5
1120C
330
18
100
AcDbEntity
  8
0
100
AcDbCircle
 10
19.66471552593331
 20
7.53110311815114
 30
0.0
 40
1.706738677304409
100
AcDbArc
 50
340.7119670481832
 51
344.9359018891371
  0
ARC
  5
1120D
330
18
100
AcDbEntity
  8
0
100
AcDbCircle
 10
20.33528231332306
 20
7.018167424841111
 30
0.0
 40
1.022066867457404
100
AcDbArc
 50
322.3826607949675
 51
2.787278572494592
  0
ARC
  5
1120E
330
18
100
AcDbEntity
  8
0
100
AcDbCircle
 10
20.49680751353665
 20
7.093284090374726
 30
0.0
 40
0.7889649543261359
100
AcDbArc
 50
290.4623191963998
 51
350.8143042241095
  0
ARC
  5
1120F
330
18
100
AcDbEntity
  8
0
100
AcDbCircle
 10
20.91648683919524
 20
5.968546354851284
 30
0.0
 40
0.4115206599548602
100
AcDbArc
 50
110.4623191963998
 51
163.8998227894541
  0
LINE
  5
11210
330
18
100
AcDbEntity
  8
0
100
AcDbLine
 10
20.44276186792241
 20
5.911766213774733
 30
0.0
 11
20.52110672057212
 21
6.082668286868109
 31
0.0
  0
ARC
  5
11211
330
18
100
AcDbEntity
  8
0
100
AcDbCircle
 10
21.18707922322137
 20
6.462952380646568
 30
0.0
 40
0.9261827659539502
100
AcDbArc
 50
216.5209006804057
 51
241.5333253455722
  0
ARC
  5
11212
330
18
100
AcDbEntity
  8
0
100
AcDbCircle
 10
20.95031712907175
 20
6.178386233657459
 30
0.0
 40
0.120616048542162
100
AcDbArc
 50
123.6096936031748
 51
219.5238520949873
  0
ARC
  5
11213
330
18
100
AcDbEntity
  8
0
100
AcDbCircle
 10
21.18241302768392
 20
6.206177883177426
 30
0.0
 40
0.7081785237480799
100
AcDbArc
 50
231.9179924145039
 51
280.9608297330552
  0
ARC
  5
11214
330
18
100
AcDbEntity
  8
0
100
AcDbCircle
 10
21.18175399464732
 20
5.905481717264414
 30
0.0
 40
0.3791528083487194
100
AcDbArc
 50
148.8471336056157
 51
234.6472157732824
  0
ARC
  5
11215
330
18
100
AcDbEntity
  8
0
100
AcDbCircle
 10
20.50798967516674
 20
5.716145200990712
 30
0.0
 40
0.5201908422473939
100
AcDbArc
 50
1.251999552208203
 51
47.81989138754137
  0
ARC
  5
11216
330
18
100
AcDbEntity
  8
0
100
AcDbCircle
 10
20.87855549076963
 20
5.866779038632174
 30
0.0
 40
0.2358090614128745
100
AcDbArc
 50
340.1174627112444
 51
95.17675877755634
  0
ARC
  5
11217
330
18
100
AcDbEntity
  8
0
100
AcDbCircle
 10
21.00046346148288
 20
6.047394357222016
 30
0.0
 40
0.2739748794424947
100
AcDbArc
 50
19.97941383139588
 51
116.7883974832049
  0
ARC
  5
11218
330
18
100
AcDbEntity
  8
0
100
AcDbCircle
 10
21.73425443475939
 20
6.27503104163763
 30
0.0
 40
0.0625
100
AcDbArc
 50
338.5405817462658
 51
40.42384610743595
  0
ARC
  5
11219
330
18
100
AcDbEntity
  8
0
100
AcDbCircle
 10
21.27626930108542
 20
6.275031041637626
 30
0.0
 40
0.0625
100
AcDbArc
 50
139.5761538925665
 51
201.4594182537341
  0
ARC
  5
1121A
330
18
100
AcDbEntity
  8
0
100
AcDbCircle
 10
21.65022234402477
 20
5.565479719936345
 30
0.0
 40
0.0625
100
AcDbArc
 50
270.0
 51
7.951270584188412
  0
ARC
  5
1121B
330
18
100
AcDbEntity
  8
0
100
AcDbCircle
 10
21.36030139182006
 20
5.565479719936346
 30
0.0
 40
0.0625
100
AcDbArc
 50
172.0487294158107
 51
270.0
  0
ARC
  5
1121C
330
18
100
AcDbEntity
  8
0
100
AcDbCircle
 10
21.50526186792241
 20
5.978122617432989
 30
0.0
 40
0.4362967507701423
100
AcDbArc
 50
50.66098608345082
 51
129.3390139165506
  0
ARC
  5
1121D
330
18
100
AcDbEntity
  8
0
100
AcDbCircle
 10
23.04404904021115
 20
5.760160583143173
 30
0.0
 40
1.344856919015505
100
AcDbArc
 50
158.5405817462692
 51
187.9512705841891
  0
ARC
  5
1121E
330
18
100
AcDbEntity
  8
0
100
AcDbCircle
 10
19.96647469563366
 20
5.760160583143173
 30
0.0
 40
1.344856919015505
100
AcDbArc
 50
352.0487294158111
 51
21.45941825373072
  0
LINE
  5
1121F
330
18
100
AcDbEntity
  8
0
100
AcDbLine
 10
21.36030139182006
 20
5.502979719936346
 30
0.0
 11
21.65022234402477
 21
5.502979719936348
 31
0.0
  0
ARC
  5
11220
330
18
100
AcDbEntity
  8
0
100
AcDbCircle
 10
21.56087961817262
 20
10.23801226488131
 30
0.0
 40
0.1043721474037493
100
AcDbArc
 50
346.5594097769091
 51
86.21920033910523
  0
ARC
  5
11221
330
18
100
AcDbEntity
  8
0
100
AcDbCircle
 10
21.71413090558187
 20
10.11799993949054
 30
0.0
 40
0.0677636933629355
100
AcDbArc
 50
82.78158316599604
 51
168.440638557613
  0
ARC
  5
11222
330
18
100
AcDbEntity
  8
0
100
AcDbCircle
 10
22.33499752473536
 20
10.05301173215602
 30
0.0
 40
0.6915447643211622
100
AcDbArc
 50
166.5594097769093
 51
186.384445056365
  0
ARC
  5
11223
330
18
100
AcDbEntity
  8
0
100
AcDbCircle
 10
21.20316308449181
 20
9.653830180396136
 30
0.0
 40
0.4782340099816591
100
AcDbArc
 50
350.3129204123311
 51
13.54032565289652
  0
ARC
  5
11224
330
18
100
AcDbEntity
  8
0
100
AcDbCircle
 10
22.60711790711771
 20
10.02302745435792
 30
0.0
 40
0.9654979117868258
100
AcDbArc
 50
173.5445714519395
 51
191.3894325566706
  0
ARC
  5
11225
330
18
100
AcDbEntity
  8
0
100
AcDbCircle
 10
21.91752139670587
 20
9.812943693353352
 30
0.0
 40
0.1135931527947548
100
AcDbArc
 50
122.958303199842
 51
183.7225700765781
  0
ARC
  5
11226
330
18
100
AcDbEntity
  8
0
100
AcDbCircle
 10
22.73336700470849
 20
10.16003978031911
 30
0.0
 40
0.9795090634733526
100
AcDbArc
 50
195.6665903558726
 51
196.6691757898493
  0
ARC
  5
11227
330
18
100
AcDbEntity
  8
0
100
AcDbCircle
 10
21.86051277521655
 20
9.820568635265674
 30
0.0
 40
0.0878179838135571
100
AcDbArc
 50
336.574602039508
 51
93.12626973393479
  0
ARC
  5
11228
330
18
100
AcDbEntity
  8
0
100
AcDbCircle
 10
22.55221246553397
 20
9.967375229939273
 30
0.0
 40
0.7653443904291781
100
AcDbArc
 50
170.9996572788738
 51
192.205389903146
  0
ARC
  5
11229
330
18
100
AcDbEntity
  8
0
100
AcDbCircle
 10
22.18898806489751
 20
9.890783097560182
 30
0.0
 40
0.3941421809065632
100
AcDbArc
 50
181.7026261850914
 51
225.3260821645145
  0
ARC
  5
1122A
330
18
100
AcDbEntity
  8
0
100
AcDbCircle
 10
21.95728243619292
 20
9.845302772804812
 30
0.0
 40
0.2969315079121896
100
AcDbArc
 50
182.4973991468107
 51
236.605073672978
  0
ARC
  5
1122B
330
18
100
AcDbEntity
  8
0
100
AcDbCircle
 10
21.71191077310922
 20
10.10047109565073
 30
0.0
 40
0.0854325743279637
100
AcDbArc
 50
350.9996572788746
 51
82.78158316599624
  0
ARC
  5
1122C
330
18
100
AcDbEntity
  8
0
100
AcDbCircle
 10
20.23192471395991
 20
10.7339517806646
 30
0.0
 40
2.242903080896442
100
AcDbArc
 50
333.8310187587946
 51
353.3323718388284
  0
ARC
  5
1122D
330
18
100
AcDbEntity
  8
0
100
AcDbCircle
 10
20.70631450493711
 20
10.5103041777746
 30
0.0
 40
1.763473692499265
100
AcDbArc
 50
332.1797282458661
 51
356.7515880466578
  0
ARC
  5
1122E
330
18
100
AcDbEntity
  8
0
100
AcDbCircle
 10
22.09984888849522
 20
9.816074909665971
 30
0.0
 40
0.1616441656896708
100
AcDbArc
 50
190.8467795919664
 51
333.8310187587944
  0
ARC
  5
1122F
330
18
100
AcDbEntity
  8
0
100
AcDbCircle
 10
22.06389864517246
 20
9.764261692988652
 30
0.0
 40
0.2162235794566275
100
AcDbArc
 50
284.9251419699971
 51
339.1468550079268
  0
ARC
  5
11230
330
18
100
AcDbEntity
  8
0
100
AcDbCircle
 10
20.94662509067235
 20
9.764261692988652
 30
0.0
 40
0.2162235794566275
100
AcDbArc
 50
303.9133440573159
 51
314.6739178354853
  0
ARC
  5
11231
330
18
100
AcDbEntity
  8
0
100
AcDbCircle
 10
21.807360651353
 20
9.653830180396136
 30
0.0
 40
0.4782340099816591
100
AcDbArc
 50
166.4596743471035
 51
189.687079587669
  0
ARC
  5
11232
330
18
100
AcDbEntity
  8
0
100
AcDbCircle
 10
20.4034058287271
 20
10.02302745435792
 30
0.0
 40
0.9654979117868258
100
AcDbArc
 50
348.6105674433293
 51
6.455428548060432
  0
ARC
  5
11233
330
18
100
AcDbEntity
  8
0
100
AcDbCircle
 10
21.55882485804696
 20
10.10540608547383
 30
0.0
 40
0.236919792954287
100
AcDbArc
 50
87.83819471478501
 51
152.7862176230297
  0
ARC
  5
11234
330
18
100
AcDbEntity
  8
0
100
AcDbCircle
 10
20.67552621110946
 20
10.05301173215602
 30
0.0
 40
0.6915447643211622
100
AcDbArc
 50
353.615554943635
 51
13.44059022309072
  0
ARC
  5
11235
330
18
100
AcDbEntity
  8
0
100
AcDbCircle
 10
21.29639283026294
 20
10.11799993949054
 30
0.0
 40
0.0677636933629355
100
AcDbArc
 50
11.55936144238699
 51
97.21841683400397
  0
ARC
  5
11236
330
18
100
AcDbEntity
  8
0
100
AcDbCircle
 10
21.29861296273559
 20
10.10047109565073
 30
0.0
 40
0.0854325743279637
100
AcDbArc
 50
97.21841683400377
 51
189.0003427211254
  0
ARC
  5
11237
330
18
100
AcDbEntity
  8
0
100
AcDbCircle
 10
20.45831127031084
 20
9.967375229939273
 30
0.0
 40
0.7653443904291781
100
AcDbArc
 50
347.7946100968538
 51
9.000342721126196
  0
ARC
  5
11238
330
18
100
AcDbEntity
  8
0
100
AcDbCircle
 10
21.09300233913894
 20
9.812943693353352
 30
0.0
 40
0.1135931527947548
100
AcDbArc
 50
356.2774299234218
 51
57.04169680015795
  0
ARC
  5
11239
330
18
100
AcDbEntity
  8
0
100
AcDbCircle
 10
20.27715673113632
 20
10.16003978031911
 30
0.0
 40
0.9795090634733526
100
AcDbArc
 50
343.3308242101507
 51
344.3334096441274
  0
ARC
  5
1123A
330
18
100
AcDbEntity
  8
0
100
AcDbCircle
 10
21.0532412996519
 20
9.845302772804812
 30
0.0
 40
0.2969315079121896
100
AcDbArc
 50
303.394926327022
 51
357.5026008531892
  0
ARC
  5
1123B
330
18
100
AcDbEntity
  8
0
100
AcDbCircle
 10
-260.639230942991
 20
22.13145037738733
 30
0.0
 40
282.2572094570122
100
AcDbArc
 50
357.6318136980831
 51
357.6326388989274
  0
ARC
  5
1123C
330
18
100
AcDbEntity
  8
0
100
AcDbCircle
 10
21.15001096062826
 20
9.820568635265674
 30
0.0
 40
0.0878179838135571
100
AcDbArc
 50
86.87373026606522
 51
203.4253979604927
  0
ARC
  5
1123D
330
18
100
AcDbEntity
  8
0
100
AcDbCircle
 10
22.3042092309077
 20
10.5103041777746
 30
0.0
 40
1.763473692499265
100
AcDbArc
 50
183.2484119533422
 51
207.820271754134
  0
ARC
  5
1123E
330
18
100
AcDbEntity
  8
0
100
AcDbCircle
 10
20.94662509067235
 20
9.764261692988652
 30
0.0
 40
0.2162235794566275
100
AcDbArc
 50
200.8531449920732
 51
255.0748580300028
  0
ARC
  5
1123F
330
18
100
AcDbEntity
  8
0
100
AcDbCircle
 10
20.82153567094731
 20
9.890783097560182
 30
0.0
 40
0.3941421809065632
100
AcDbArc
 50
314.6739178354855
 51
358.2973738149086
  0
ARC
  5
11240
330
18
100
AcDbEntity
  8
0
100
AcDbCircle
 10
20.91067484734959
 20
9.816074909665971
 30
0.0
 40
0.1616441656896708
100
AcDbArc
 50
206.1689812412142
 51
349.1532204080335
  0
ARC
  5
11241
330
18
100
AcDbEntity
  8
0
100
AcDbCircle
 10
22.7785990218849
 20
10.7339517806646
 30
0.0
 40
2.242903080896442
100
AcDbArc
 50
186.6676281611716
 51
206.168981241214
  0
LINE
  5
11242
330
18
100
AcDbEntity
  8
0
100
AcDbLine
 10
22.81776186792241
 20
16.68722740464843
 30
0.0
 11
22.43553976832173
 21
16.64290674287204
 31
0.0
  0
LINE
  5
11243
330
18
100
AcDbEntity
  8
0
100
AcDbLine
 10
20.19276186792241
 20
16.68722740464843
 30
0.0
 11
20.54718743089261
 21
16.62492691222954
 31
0.0
  0
ARC
  5
11244
330
18
100
AcDbEntity
  8
0
100
AcDbCircle
 10
22.82263398715644
 20
17.41413317193191
 30
0.0
 40
0.1774100277041923
100
AcDbArc
 50
288.9552012881511
 51
353.0299834589517
  0
LINE
  5
11245
330
18
100
AcDbEntity
  8
0
100
AcDbLine
 10
22.88026186792241
 20
17.24634358557917
 30
0.0
 11
22.85962772468023
 21
17.12550089065336
 31
0.0
  0
LINE
  5
11246
330
18
100
AcDbEntity
  8
0
100
AcDbLine
 10
22.84176853019554
 20
16.68722740464843
 30
0.0
 11
22.81776186792241
 21
16.68722740464843
 31
0.0
  0
ARC
  5
11247
330
18
100
AcDbEntity
  8
0
100
AcDbCircle
 10
23.44660708270893
 20
16.86043662120276
 30
0.0
 40
0.6291511005361583
100
AcDbArc
 50
176.3570340081948
 51
195.9802641990467
  0
LINE
  5
11248
330
18
100
AcDbEntity
  8
0
100
AcDbLine
 10
23.06776186792241
 20
17.12550089065336
 30
0.0
 11
22.85962772468023
 21
17.12550089065336
 31
0.0
  0
LINE
  5
11249
330
18
100
AcDbEntity
  8
0
100
AcDbLine
 10
23.10431496094116
 20
16.02759358557917
 30
0.0
 11
23.06776186792241
 21
16.02759358557917
 31
0.0
  0
LINE
  5
1124A
330
18
100
AcDbEntity
  8
0
100
AcDbLine
 10
23.10431496094115
 20
15.21509358557917
 30
0.0
 11
23.06776186792241
 21
15.21509358557917
 31
0.0
  0
ARC
  5
1124B
330
18
100
AcDbEntity
  8
0
100
AcDbCircle
 10
22.63310923497535
 20
15.62134358557917
 30
0.0
 40
0.6221526329470674
100
AcDbArc
 50
319.2337325553538
 51
40.76626744464593
  0
LINE
  5
1124C
330
18
100
AcDbEntity
  8
0
100
AcDbLine
 10
22.81776186792241
 20
9.652593585579166
 30
0.0
 11
23.06776186792241
 21
9.603914095342263
 31
0.0
  0
ARC
  5
1124D
330
18
100
AcDbEntity
  8
0
100
AcDbCircle
 10
21.79384931206634
 20
8.76123432389501
 30
0.0
 40
0.303442817274635
100
AcDbArc
 50
221.8345190169556
 51
273.4305352261426
  0
LINE
  5
1124E
330
18
100
AcDbEntity
  8
0
100
AcDbLine
 10
22.81776186792241
 20
8.402593585579168
 30
0.0
 11
22.95775190271307
 21
8.426021711793412
 31
0.0
  0
ARC
  5
1124F
330
18
100
AcDbEntity
  8
0
100
AcDbCircle
 10
22.4394952361936
 20
8.04450615041622
 30
0.0
 40
0.5208764305485904
100
AcDbArc
 50
43.43024768636913
 51
106.7495699740503
  0
ARC
  5
11250
330
18
100
AcDbEntity
  8
0
100
AcDbCircle
 10
21.68691202000002
 20
10.5451344160001
 30
0.0
 40
2.090545255034435
100
AcDbArc
 50
273.4305352261427
 51
286.7495699740504
  0
ARC
  5
11251
330
18
100
AcDbEntity
  8
0
100
AcDbCircle
 10
22.4394952361936
 20
10.01068102074212
 30
0.0
 40
0.5208764305485904
100
AcDbArc
 50
253.2504300259496
 51
316.5697523136309
  0
ARC
  5
11252
330
18
100
AcDbEntity
  8
0
100
AcDbCircle
 10
21.68691202000002
 20
7.510052755158238
 30
0.0
 40
2.090545255034435
100
AcDbArc
 50
73.25043002594954
 51
86.56946477385728
  0
ARC
  5
11253
330
18
100
AcDbEntity
  8
0
100
AcDbCircle
 10
21.79384931206634
 20
9.293952847263327
 30
0.0
 40
0.303442817274635
100
AcDbArc
 50
86.56946477385728
 51
138.1654809830444
  0
LINE
  5
11254
330
18
100
AcDbEntity
  8
0
100
AcDbLine
 10
22.81776186792241
 20
16.68722740464843
 30
0.0
 11
22.81776186792241
 21
8.40259358557917
 31
0.0
  0
LINE
  5
11255
330
18
100
AcDbEntity
  8
0
100
AcDbLine
 10
23.06776186792241
 20
17.12550089065336
 30
0.0
 11
23.06776186792241
 21
8.444432503344421
 31
0.0
  0
ARC
  5
11256
330
18
100
AcDbEntity
  8
0
100
AcDbCircle
 10
21.22813799844015
 20
9.078029580112062
 30
0.0
 40
0.6204018614101753
100
AcDbArc
 50
267.2633716309792
 51
303.1905779222671
  0
ARC
  5
11257
330
18
100
AcDbEntity
  8
0
100
AcDbCircle
 10
20.57102849965122
 20
8.04450615041622
 30
0.0
 40
0.5208764305485904
100
AcDbArc
 50
73.25043002594954
 51
136.5697523136309
  0
ARC
  5
11258
330
18
100
AcDbEntity
  8
0
100
AcDbCircle
 10
21.32361171584479
 20
10.5451344160001
 30
0.0
 40
2.090545255034435
100
AcDbArc
 50
253.2504300259496
 51
266.5694647738572
  0
ARC
  5
11259
330
18
100
AcDbEntity
  8
0
100
AcDbCircle
 10
21.22813799844015
 20
8.977157591046275
 30
0.0
 40
0.6204018614101755
100
AcDbArc
 50
56.80942207773288
 51
92.73662836902081
  0
ARC
  5
1125A
330
18
100
AcDbEntity
  8
0
100
AcDbCircle
 10
21.32361171584479
 20
7.510052755158238
 30
0.0
 40
2.090545255034435
100
AcDbArc
 50
93.43053522614271
 51
106.7495699740504
  0
ARC
  5
1125B
330
18
100
AcDbEntity
  8
0
100
AcDbCircle
 10
20.57102849965122
 20
10.01068102074212
 30
0.0
 40
0.5208764305485904
100
AcDbArc
 50
223.4302476863691
 51
286.7495699740504
  0
CIRCLE
  5
1125C
330
18
100
AcDbEntity
  8
0
100
AcDbCircle
 10
21.56776186792241
 20
8.715093585579168
 30
0.0
 40
0.15625
  0
CIRCLE
  5
1125D
330
18
100
AcDbEntity
  8
0
100
AcDbCircle
 10
21.56776186792241
 20
9.340093585579168
 30
0.0
 40
0.15625
  0
CIRCLE
  5
1125E
330
18
100
AcDbEntity
  8
0
100
AcDbCircle
 10
21.56776186792241
 20
9.027593585579168
 30
0.0
 40
0.15625
  0
ARC
  5
1125F
330
18
100
AcDbEntity
  8
0
100
AcDbCircle
 10
21.92524552206185
 20
16.07834543376128
 30
0.0
 40
0.0633634382255318
100
AcDbArc
 50
213.0885815592003
 51
0.5288342728381962
  0
ARC
  5
11260
330
18
100
AcDbEntity
  8
0
100
AcDbCircle
 10
23.3164350456829
 20
15.42978499762718
 30
0.0
 40
1.517290160562577
100
AcDbArc
 50
177.4872559850874
 51
200.2872391582727
  0
ARC
  5
11261
330
18
100
AcDbEntity
  8
0
100
AcDbCircle
 10
21.93207562947689
 20
14.95378889959993
 30
0.0
 40
0.0633634382255318
100
AcDbArc
 50
232.2325596508731
 51
19.67281236451088
  0
ARC
  5
11262
330
18
100
AcDbEntity
  8
0
100
AcDbCircle
 10
24.90411492020236
 20
16.13458024164629
 30
0.0
 40
3.134688528619125
100
AcDbArc
 50
176.3190307098683
 51
203.4889411757973
  0
LINE
  5
11263
330
18
100
AcDbEntity
  8
0
100
AcDbLine
 10
22.01728262715876
 20
14.4675997768546
 30
0.0
 11
22.09355005149629
 21
14.4675997768546
 31
0.0
  0
ARC
  5
11264
330
18
100
AcDbEntity
  8
0
100
AcDbCircle
 10
23.00180519431318
 20
14.6909721446229
 30
0.0
 40
1.129502010648579
100
AcDbArc
 50
182.3111790754497
 51
224.431389239897
  0
LINE
  5
11265
330
18
100
AcDbEntity
  8
0
100
AcDbLine
 10
22.01728262715876
 20
13.17307453890336
 30
0.0
 11
22.09355005149629
 21
13.17307453890336
 31
0.0
  0
LINE
  5
11266
330
18
100
AcDbEntity
  8
0
100
AcDbLine
 10
22.09355005149629
 20
13.17307453890336
 30
0.0
 11
22.0874819353946
 21
13.21243717089222
 31
0.0
  0
ARC
  5
11267
330
18
100
AcDbEntity
  8
0
100
AcDbCircle
 10
21.93207562947689
 20
13.37031540532925
 30
0.0
 40
0.0633634382255318
100
AcDbArc
 50
232.2325596508731
 51
19.67281236451088
  0
ARC
  5
11268
330
18
100
AcDbEntity
  8
0
100
AcDbCircle
 10
23.3164350456829
 20
13.84631150335649
 30
0.0
 40
1.517290160562577
100
AcDbArc
 50
177.4872559850874
 51
200.2872391582727
  0
ARC
  5
11269
330
18
100
AcDbEntity
  8
0
100
AcDbCircle
 10
24.90411492020236
 20
14.55110674737561
 30
0.0
 40
3.134688528619125
100
AcDbArc
 50
176.3190307098683
 51
203.4889411757973
  0
LINE
  5
1126A
330
18
100
AcDbEntity
  8
0
100
AcDbLine
 10
22.09355005149629
 20
14.4675997768546
 30
0.0
 11
22.0291760212571
 21
14.88518098648894
 31
0.0
  0
LINE
  5
1126B
330
18
100
AcDbEntity
  8
0
100
AcDbLine
 10
22.17190696452407
 20
11.82461074937083
 30
0.0
 11
22.16583884842238
 21
11.86397338135969
 31
0.0
  0
LINE
  5
1126C
330
18
100
AcDbEntity
  8
0
100
AcDbLine
 10
22.09563954018655
 20
11.82461074937083
 30
0.0
 11
22.17190696452407
 21
11.82461074937083
 31
0.0
  0
ARC
  5
1126D
330
18
100
AcDbEntity
  8
0
100
AcDbCircle
 10
21.93207562947689
 20
12.07579016737801
 30
0.0
 40
0.0633634382255318
100
AcDbArc
 50
232.2325596508731
 51
19.67281236451088
  0
ARC
  5
1126E
330
18
100
AcDbEntity
  8
0
100
AcDbCircle
 10
23.3164350456829
 20
12.55178626540526
 30
0.0
 40
1.517290160562577
100
AcDbArc
 50
177.4872559850874
 51
200.2872391582727
  0
ARC
  5
1126F
330
18
100
AcDbEntity
  8
0
100
AcDbCircle
 10
22.01043254250467
 20
10.72732637784548
 30
0.0
 40
0.0633634382255318
100
AcDbArc
 50
232.2325596508731
 51
19.67281236451088
  0
ARC
  5
11270
330
18
100
AcDbEntity
  8
0
100
AcDbCircle
 10
24.98247183323015
 20
11.90811771989184
 30
0.0
 40
3.134688528619125
100
AcDbArc
 50
176.3190307098683
 51
203.4889411757973
  0
ARC
  5
11271
330
18
100
AcDbEntity
  8
0
100
AcDbCircle
 10
23.39479195871069
 20
11.20332247587273
 30
0.0
 40
1.517290160562577
100
AcDbArc
 50
177.4872559850874
 51
200.2872391582727
  0
ARC
  5
11272
330
18
100
AcDbEntity
  8
0
100
AcDbCircle
 10
24.90411492020236
 20
13.25658150942437
 30
0.0
 40
3.134688528619125
100
AcDbArc
 50
176.3190307098683
 51
203.4889411757973
  0
ARC
  5
11273
330
18
100
AcDbEntity
  8
0
100
AcDbCircle
 10
23.00180519431318
 20
13.39644690667167
 30
0.0
 40
1.129502010648579
100
AcDbArc
 50
182.3111790754497
 51
224.431389239897
  0
ARC
  5
11274
330
18
100
AcDbEntity
  8
0
100
AcDbCircle
 10
22.33921185669204
 20
16.17777720842672
 30
0.0
 40
0.0857898102739237
100
AcDbArc
 50
222.7223500537271
 51
46.66019056469224
  0
ARC
  5
11275
330
18
100
AcDbEntity
  8
0
100
AcDbCircle
 10
21.86838317140214
 20
15.90904121089737
 30
0.0
 40
0.4536976956911851
100
AcDbArc
 50
331.3142097181327
 51
19.41910960799188
  0
ARC
  5
11276
330
18
100
AcDbEntity
  8
0
100
AcDbCircle
 10
21.93388006382304
 20
14.7752000118751
 30
0.0
 40
0.4536976956911851
100
AcDbArc
 50
350.4581878098055
 51
38.56308769966469
  0
ARC
  5
11277
330
18
100
AcDbEntity
  8
0
100
AcDbCircle
 10
21.93388006382304
 20
13.19172651760442
 30
0.0
 40
0.4536976956911851
100
AcDbArc
 50
350.4581878098055
 51
38.56308769966469
  0
ARC
  5
11278
330
18
100
AcDbEntity
  8
0
100
AcDbCircle
 10
21.93388006382304
 20
11.89720127965318
 30
0.0
 40
0.4536976956911851
100
AcDbArc
 50
350.4581878098055
 51
38.56308769966469
  0
ARC
  5
11279
330
18
100
AcDbEntity
  8
0
100
AcDbCircle
 10
22.36889752759645
 20
10.95701673132907
 30
0.0
 40
0.0857898102739237
100
AcDbArc
 50
241.8663281453998
 51
65.80416865636505
  0
ARC
  5
1127A
330
18
100
AcDbEntity
  8
0
100
AcDbCircle
 10
22.01223697685082
 20
10.54873749012065
 30
0.0
 40
0.4536976956911851
100
AcDbArc
 50
350.4581878098055
 51
38.56308769966469
  0
ARC
  5
1127B
330
18
100
AcDbEntity
  8
0
100
AcDbCircle
 10
22.3205251661969
 20
15.01179633988378
 30
0.0
 40
0.3176724287256599
100
AcDbArc
 50
203.4889411757973
 51
281.0295611770239
  0
ARC
  5
1127C
330
18
100
AcDbEntity
  8
0
100
AcDbCircle
 10
22.87240261303325
 20
16.08183425560089
 30
0.0
 40
0.9856208307911973
100
AcDbArc
 50
194.4541010833687
 51
236.3115809867902
  0
ARC
  5
1127D
330
18
100
AcDbEntity
  8
0
100
AcDbCircle
 10
22.29054061456867
 20
15.18347925308352
 30
0.0
 40
0.0857898102739237
100
AcDbArc
 50
241.8663281453998
 51
65.80416865636505
  0
ARC
  5
1127E
330
18
100
AcDbEntity
  8
0
100
AcDbCircle
 10
24.00548027370707
 20
14.84327924952831
 30
0.0
 40
2.195670881143083
100
AcDbArc
 50
173.1868989605591
 51
218.5630876996647
  0
ARC
  5
1127F
330
18
100
AcDbEntity
  8
0
100
AcDbCircle
 10
22.29054061456867
 20
13.60000575881284
 30
0.0
 40
0.0857898102739237
100
AcDbArc
 50
241.8663281453998
 51
65.80416865636505
  0
ARC
  5
11280
330
18
100
AcDbEntity
  8
0
100
AcDbCircle
 10
22.87240261303325
 20
14.4983607613302
 30
0.0
 40
0.9856208307911973
100
AcDbArc
 50
194.4541010833687
 51
236.3115809867902
  0
ARC
  5
11281
330
18
100
AcDbEntity
  8
0
100
AcDbCircle
 10
22.3205251661969
 20
13.42832284561309
 30
0.0
 40
0.3176724287256599
100
AcDbArc
 50
203.4889411757973
 51
281.0295611770239
  0
ARC
  5
11282
330
18
100
AcDbEntity
  8
0
100
AcDbCircle
 10
22.62249767485614
 20
14.62742431509408
 30
0.0
 40
0.6259625683559711
100
AcDbArc
 50
194.7929048818654
 51
236.8260215501849
  0
ARC
  5
11283
330
18
100
AcDbEntity
  8
0
100
AcDbCircle
 10
22.27484372884031
 20
13.98634683435459
 30
0.0
 40
0.1172513493290563
100
AcDbArc
 50
227.2410212173364
 51
87.48857898468267
  0
ARC
  5
11284
330
18
100
AcDbEntity
  8
0
100
AcDbCircle
 10
22.27484372884031
 20
12.69182159640336
 30
0.0
 40
0.1172513493290563
100
AcDbArc
 50
227.2410212173364
 51
87.48857898468267
  0
ARC
  5
11285
330
18
100
AcDbEntity
  8
0
100
AcDbCircle
 10
22.62249767485614
 20
13.33289907714285
 30
0.0
 40
0.6259625683559711
100
AcDbArc
 50
194.7929048818654
 51
236.8260215501849
  0
ARC
  5
11286
330
18
100
AcDbEntity
  8
0
100
AcDbCircle
 10
22.3205251661969
 20
12.13379760766186
 30
0.0
 40
0.3176724287256599
100
AcDbArc
 50
203.4889411757973
 51
281.0295611770239
  0
ARC
  5
11287
330
18
100
AcDbEntity
  8
0
100
AcDbCircle
 10
22.87240261303325
 20
13.20383552337897
 30
0.0
 40
0.9856208307911973
100
AcDbArc
 50
194.4541010833687
 51
236.3115809867902
  0
ARC
  5
11288
330
18
100
AcDbEntity
  8
0
100
AcDbCircle
 10
22.29054061456867
 20
12.3054805208616
 30
0.0
 40
0.0857898102739237
100
AcDbArc
 50
241.8663281453998
 51
65.80416865636505
  0
ARC
  5
11289
330
18
100
AcDbEntity
  8
0
100
AcDbCircle
 10
24.00548027370707
 20
13.54875401157708
 30
0.0
 40
2.195670881143083
100
AcDbArc
 50
177.3935234688563
 51
218.5630876996647
  0
ARC
  5
1128A
330
18
100
AcDbEntity
  8
0
100
AcDbCircle
 10
22.95075952606103
 20
11.85537173384644
 30
0.0
 40
0.9856208307911973
100
AcDbArc
 50
194.4541010833687
 51
236.3115809867902
  0
ARC
  5
1128B
330
18
100
AcDbEntity
  8
0
100
AcDbCircle
 10
22.39888207922469
 20
10.78533381812933
 30
0.0
 40
0.3176724287256599
100
AcDbArc
 50
203.4889411757973
 51
281.0295611770239
  0
ARC
  5
1128C
330
18
100
AcDbEntity
  8
0
100
AcDbCircle
 10
22.70085458788392
 20
11.98443528761031
 30
0.0
 40
0.6259625683559711
100
AcDbArc
 50
194.7929048818654
 51
236.8260215501849
  0
ARC
  5
1128D
330
18
100
AcDbEntity
  8
0
100
AcDbCircle
 10
22.35320064186809
 20
11.34335780687083
 30
0.0
 40
0.1172513493290563
100
AcDbArc
 50
227.2410212173364
 51
87.48857898468267
  0
ARC
  5
1128E
330
18
100
AcDbEntity
  8
0
100
AcDbCircle
 10
23.08016210734096
 20
12.04798311713914
 30
0.0
 40
1.129502010648579
100
AcDbArc
 50
182.3111790754497
 51
224.431389239897
  0
ARC
  5
1128F
330
18
100
AcDbEntity
  8
0
100
AcDbCircle
 10
24.08383718673485
 20
12.20029022204455
 30
0.0
 40
2.195670881143083
100
AcDbArc
 50
184.5990325138554
 51
218.5630876996647
  0
ARC
  5
11290
330
18
100
AcDbEntity
  8
0
100
AcDbCircle
 10
22.31123595839785
 20
16.00575556695178
 30
0.0
 40
0.3176724287256599
100
AcDbArc
 50
184.3449630841254
 51
261.8855830853511
  0
LINE
  5
11291
330
18
100
AcDbEntity
  8
0
100
AcDbLine
 10
21.75526186792241
 20
16.68722740464842
 30
0.0
 11
21.63026186792241
 21
10.30998143991303
 31
0.0
  0
ARC
  5
11292
330
18
100
AcDbEntity
  8
0
100
AcDbCircle
 10
24.00548027370707
 20
16.426752743799
 30
0.0
 40
2.195670881143083
100
AcDbArc
 50
173.1868989605591
 51
218.5630876996647
  0
ARC
  5
11293
330
18
100
AcDbEntity
  8
0
100
AcDbCircle
 10
23.38914600582495
 20
16.07402661290582
 30
0.0
 40
1.517290160562577
100
AcDbArc
 50
158.3432778934147
 51
181.1432610665999
  0
ARC
  5
11294
330
18
100
AcDbEntity
  8
0
100
AcDbCircle
 10
25.12015591636611
 20
16.21917622384014
 30
0.0
 40
3.134688528619125
100
AcDbArc
 50
171.412857506368
 51
184.3449630841254
  0
ARC
  5
11295
330
18
100
AcDbEntity
  8
0
100
AcDbCircle
 10
23.18350474993413
 20
16.83563327644317
 30
0.0
 40
0.9856208307911973
100
AcDbArc
 50
188.6600157955183
 51
217.1676028951174
  0
ARC
  5
11296
330
18
100
AcDbEntity
  8
0
100
AcDbCircle
 10
24.36703399507439
 20
16.78989188909366
 30
0.0
 40
2.195670881143083
100
AcDbArc
 50
182.6799950752034
 51
199.4191096079917
  0
ARC
  5
11297
330
18
100
AcDbEntity
  8
0
100
AcDbCircle
 10
19.62137773001986
 20
16.07402661290582
 30
0.0
 40
1.517290160562577
100
AcDbArc
 50
358.8567389334
 51
21.65672210658541
  0
ARC
  5
11298
330
18
100
AcDbEntity
  8
0
100
AcDbCircle
 10
21.08527821378296
 20
16.07834543376128
 30
0.0
 40
0.0633634382255318
100
AcDbArc
 50
179.4711657271618
 51
326.9114184407996
  0
ARC
  5
11299
330
18
100
AcDbEntity
  8
0
100
AcDbCircle
 10
17.89036781947871
 20
16.21917622384014
 30
0.0
 40
3.134688528619125
100
AcDbArc
 50
355.6550369158745
 51
8.58714249363191
  0
ARC
  5
1129A
330
18
100
AcDbEntity
  8
0
100
AcDbCircle
 10
21.14214056444267
 20
15.90904121089737
 30
0.0
 40
0.4536976956911851
100
AcDbArc
 50
160.5808903920081
 51
208.6857902818673
  0
ARC
  5
1129B
330
18
100
AcDbEntity
  8
0
100
AcDbCircle
 10
20.69928777744697
 20
16.00575556695178
 30
0.0
 40
0.3176724287256599
100
AcDbArc
 50
278.1144169146488
 51
355.6550369158745
  0
ARC
  5
1129C
330
18
100
AcDbEntity
  8
0
100
AcDbCircle
 10
19.82701898591068
 20
16.83563327644317
 30
0.0
 40
0.9856208307911973
100
AcDbArc
 50
322.8323971048826
 51
351.3399842044817
  0
ARC
  5
1129D
330
18
100
AcDbEntity
  8
0
100
AcDbCircle
 10
20.67131187915278
 20
16.17777720842672
 30
0.0
 40
0.0857898102739237
100
AcDbArc
 50
133.3398094353077
 51
317.2776499462729
  0
ARC
  5
1129E
330
18
100
AcDbEntity
  8
0
100
AcDbCircle
 10
18.64348974077042
 20
16.78989188909366
 30
0.0
 40
2.195670881143083
100
AcDbArc
 50
340.5808903920083
 51
357.3200049247966
  0
LINE
  5
1129F
330
18
100
AcDbEntity
  8
0
100
AcDbLine
 10
20.91488419565827
 20
11.82461074937083
 30
0.0
 11
20.83861677132075
 21
11.82461074937083
 31
0.0
  0
LINE
  5
112A0
330
18
100
AcDbEntity
  8
0
100
AcDbLine
 10
20.83861677132075
 20
11.82461074937083
 30
0.0
 11
20.84468488742243
 21
11.86397338135969
 31
0.0
  0
ARC
  5
112A1
330
18
100
AcDbEntity
  8
0
100
AcDbCircle
 10
21.00009119334014
 20
10.72732637784548
 30
0.0
 40
0.0633634382255318
100
AcDbArc
 50
160.327187635489
 51
307.7674403491269
  0
ARC
  5
112A2
330
18
100
AcDbEntity
  8
0
100
AcDbCircle
 10
19.61573177713413
 20
11.20332247587273
 30
0.0
 40
1.517290160562577
100
AcDbArc
 50
339.7127608417272
 51
2.512744014912596
  0
ARC
  5
112A3
330
18
100
AcDbEntity
  8
0
100
AcDbCircle
 10
18.02805190261467
 20
11.90811771989184
 30
0.0
 40
3.134688528619125
100
AcDbArc
 50
336.5110588242017
 51
3.680969290131684
  0
ARC
  5
112A4
330
18
100
AcDbEntity
  8
0
100
AcDbCircle
 10
19.93036162850385
 20
12.04798311713914
 30
0.0
 40
1.129502010648579
100
AcDbArc
 50
315.5686107601029
 51
357.6888209245503
  0
ARC
  5
112A5
330
18
100
AcDbEntity
  8
0
100
AcDbCircle
 10
20.998286758994
 20
10.54873749012065
 30
0.0
 40
0.4536976956911851
100
AcDbArc
 50
141.4369123003353
 51
189.5418121901944
  0
ARC
  5
112A6
330
18
100
AcDbEntity
  8
0
100
AcDbCircle
 10
20.65732309397672
 20
11.34335780687083
 30
0.0
 40
0.1172513493290563
100
AcDbArc
 50
92.51142101531725
 51
312.7589787826636
  0
ARC
  5
112A7
330
18
100
AcDbEntity
  8
0
100
AcDbCircle
 10
20.30966914796089
 20
11.98443528761031
 30
0.0
 40
0.6259625683559711
100
AcDbArc
 50
303.173978449815
 51
345.2070951181345
  0
ARC
  5
112A8
330
18
100
AcDbEntity
  8
0
100
AcDbCircle
 10
20.61164165662013
 20
10.78533381812933
 30
0.0
 40
0.3176724287256599
100
AcDbArc
 50
258.9704388229761
 51
336.5110588242017
  0
ARC
  5
112A9
330
18
100
AcDbEntity
  8
0
100
AcDbCircle
 10
20.05976420978378
 20
11.85537173384644
 30
0.0
 40
0.9856208307911973
100
AcDbArc
 50
303.6884190132098
 51
345.5458989166313
  0
ARC
  5
112AA
330
18
100
AcDbEntity
  8
0
100
AcDbCircle
 10
20.64162620824836
 20
10.95701673132907
 30
0.0
 40
0.0857898102739237
100
AcDbArc
 50
114.1958313436349
 51
298.1336718546002
  0
ARC
  5
112AB
330
18
100
AcDbEntity
  8
0
100
AcDbCircle
 10
18.92668654910997
 20
12.20029022204455
 30
0.0
 40
2.195670881143083
100
AcDbArc
 50
321.4369123003354
 51
355.4009674861446
  0
LINE
  5
112AC
330
18
100
AcDbEntity
  8
0
100
AcDbLine
 10
20.99324110868605
 20
13.17307453890336
 30
0.0
 11
20.91697368434853
 21
13.17307453890336
 31
0.0
  0
ARC
  5
112AD
330
18
100
AcDbEntity
  8
0
100
AcDbCircle
 10
20.00871854153164
 20
13.39644690667167
 30
0.0
 40
1.129502010648579
100
AcDbArc
 50
315.5686107601029
 51
357.6888209245503
  0
ARC
  5
112AE
330
18
100
AcDbEntity
  8
0
100
AcDbCircle
 10
21.07844810636793
 20
12.07579016737801
 30
0.0
 40
0.0633634382255318
100
AcDbArc
 50
160.327187635489
 51
307.7674403491269
  0
ARC
  5
112AF
330
18
100
AcDbEntity
  8
0
100
AcDbCircle
 10
19.69408869016191
 20
12.55178626540526
 30
0.0
 40
1.517290160562577
100
AcDbArc
 50
339.7127608417272
 51
2.512744014912596
  0
ARC
  5
112B0
330
18
100
AcDbEntity
  8
0
100
AcDbCircle
 10
18.10640881564245
 20
13.25658150942437
 30
0.0
 40
3.134688528619125
100
AcDbArc
 50
336.5110588242017
 51
3.680969290131684
  0
LINE
  5
112B1
330
18
100
AcDbEntity
  8
0
100
AcDbLine
 10
20.91697368434853
 20
13.17307453890336
 30
0.0
 11
20.92304180045021
 21
13.21243717089222
 31
0.0
  0
ARC
  5
112B2
330
18
100
AcDbEntity
  8
0
100
AcDbCircle
 10
21.07664367202178
 20
11.89720127965318
 30
0.0
 40
0.4536976956911851
100
AcDbArc
 50
141.4369123003353
 51
189.5418121901944
  0
ARC
  5
112B3
330
18
100
AcDbEntity
  8
0
100
AcDbCircle
 10
19.00504346213775
 20
13.54875401157708
 30
0.0
 40
2.195670881143083
100
AcDbArc
 50
321.4369123003354
 51
2.606476531143725
  0
ARC
  5
112B4
330
18
100
AcDbEntity
  8
0
100
AcDbCircle
 10
20.71998312127615
 20
12.3054805208616
 30
0.0
 40
0.0857898102739237
100
AcDbArc
 50
114.1958313436349
 51
298.1336718546002
  0
ARC
  5
112B5
330
18
100
AcDbEntity
  8
0
100
AcDbCircle
 10
20.13812112281156
 20
13.20383552337897
 30
0.0
 40
0.9856208307911973
100
AcDbArc
 50
303.6884190132098
 51
345.5458989166313
  0
ARC
  5
112B6
330
18
100
AcDbEntity
  8
0
100
AcDbCircle
 10
20.68999856964791
 20
12.13379760766186
 30
0.0
 40
0.3176724287256599
100
AcDbArc
 50
258.9704388229761
 51
336.5110588242017
  0
ARC
  5
112B7
330
18
100
AcDbEntity
  8
0
100
AcDbCircle
 10
20.38802606098867
 20
13.33289907714285
 30
0.0
 40
0.6259625683559711
100
AcDbArc
 50
303.173978449815
 51
345.2070951181345
  0
ARC
  5
112B8
330
18
100
AcDbEntity
  8
0
100
AcDbCircle
 10
20.73568000700451
 20
12.69182159640336
 30
0.0
 40
0.1172513493290563
100
AcDbArc
 50
92.51142101531725
 51
312.7589787826636
  0
ARC
  5
112B9
330
18
100
AcDbEntity
  8
0
100
AcDbCircle
 10
20.73568000700451
 20
13.98634683435459
 30
0.0
 40
0.1172513493290563
100
AcDbArc
 50
92.51142101531725
 51
312.7589787826636
  0
LINE
  5
112BA
330
18
100
AcDbEntity
  8
0
100
AcDbLine
 10
20.91697368434853
 20
14.4675997768546
 30
0.0
 11
20.98134771458771
 21
14.88518098648894
 31
0.0
  0
LINE
  5
112BB
330
18
100
AcDbEntity
  8
0
100
AcDbLine
 10
20.99324110868605
 20
14.4675997768546
 30
0.0
 11
20.91697368434853
 21
14.4675997768546
 31
0.0
  0
ARC
  5
112BC
330
18
100
AcDbEntity
  8
0
100
AcDbCircle
 10
20.38802606098867
 20
14.62742431509408
 30
0.0
 40
0.6259625683559711
100
AcDbArc
 50
303.173978449815
 51
345.2070951181345
  0
ARC
  5
112BD
330
18
100
AcDbEntity
  8
0
100
AcDbCircle
 10
20.00871854153164
 20
14.6909721446229
 30
0.0
 40
1.129502010648579
100
AcDbArc
 50
315.5686107601029
 51
357.6888209245503
  0
ARC
  5
112BE
330
18
100
AcDbEntity
  8
0
100
AcDbCircle
 10
19.69408869016191
 20
13.84631150335649
 30
0.0
 40
1.517290160562577
100
AcDbArc
 50
339.7127608417272
 51
2.512744014912596
  0
ARC
  5
112BF
330
18
100
AcDbEntity
  8
0
100
AcDbCircle
 10
21.07844810636793
 20
13.37031540532925
 30
0.0
 40
0.0633634382255318
100
AcDbArc
 50
160.327187635489
 51
307.7674403491269
  0
ARC
  5
112C0
330
18
100
AcDbEntity
  8
0
100
AcDbCircle
 10
18.10640881564245
 20
14.55110674737561
 30
0.0
 40
3.134688528619125
100
AcDbArc
 50
336.5110588242017
 51
3.680969290131684
  0
ARC
  5
112C1
330
18
100
AcDbEntity
  8
0
100
AcDbCircle
 10
21.07664367202178
 20
13.19172651760442
 30
0.0
 40
0.4536976956911851
100
AcDbArc
 50
141.4369123003353
 51
189.5418121901944
  0
ARC
  5
112C2
330
18
100
AcDbEntity
  8
0
100
AcDbCircle
 10
20.68999856964791
 20
13.42832284561309
 30
0.0
 40
0.3176724287256599
100
AcDbArc
 50
258.9704388229761
 51
336.5110588242017
  0
ARC
  5
112C3
330
18
100
AcDbEntity
  8
0
100
AcDbCircle
 10
20.13812112281156
 20
14.4983607613302
 30
0.0
 40
0.9856208307911973
100
AcDbArc
 50
303.6884190132098
 51
345.5458989166313
  0
ARC
  5
112C4
330
18
100
AcDbEntity
  8
0
100
AcDbCircle
 10
20.71998312127615
 20
13.60000575881284
 30
0.0
 40
0.0857898102739237
100
AcDbArc
 50
114.1958313436349
 51
298.1336718546002
  0
ARC
  5
112C5
330
18
100
AcDbEntity
  8
0
100
AcDbCircle
 10
19.00504346213775
 20
14.84327924952831
 30
0.0
 40
2.195670881143083
100
AcDbArc
 50
321.4369123003354
 51
6.813101039440861
  0
ARC
  5
112C6
330
18
100
AcDbEntity
  8
0
100
AcDbCircle
 10
20.71998312127615
 20
15.18347925308352
 30
0.0
 40
0.0857898102739237
100
AcDbArc
 50
114.1958313436349
 51
298.1336718546002
  0
ARC
  5
112C7
330
18
100
AcDbEntity
  8
0
100
AcDbCircle
 10
20.13812112281156
 20
16.08183425560089
 30
0.0
 40
0.9856208307911973
100
AcDbArc
 50
303.6884190132098
 51
345.5458989166313
  0
ARC
  5
112C8
330
18
100
AcDbEntity
  8
0
100
AcDbCircle
 10
21.07844810636793
 20
14.95378889959993
 30
0.0
 40
0.0633634382255318
100
AcDbArc
 50
160.327187635489
 51
307.7674403491269
  0
ARC
  5
112C9
330
18
100
AcDbEntity
  8
0
100
AcDbCircle
 10
19.69408869016191
 20
15.42978499762718
 30
0.0
 40
1.517290160562577
100
AcDbArc
 50
339.7127608417272
 51
2.512744014912596
  0
ARC
  5
112CA
330
18
100
AcDbEntity
  8
0
100
AcDbCircle
 10
18.10640881564245
 20
16.13458024164629
 30
0.0
 40
3.134688528619125
100
AcDbArc
 50
336.5110588242017
 51
3.680969290131684
  0
ARC
  5
112CB
330
18
100
AcDbEntity
  8
0
100
AcDbCircle
 10
20.68999856964791
 20
15.01179633988378
 30
0.0
 40
0.3176724287256599
100
AcDbArc
 50
258.9704388229761
 51
336.5110588242017
  0
ARC
  5
112CC
330
18
100
AcDbEntity
  8
0
100
AcDbCircle
 10
21.07664367202178
 20
14.7752000118751
 30
0.0
 40
0.4536976956911851
100
AcDbArc
 50
141.4369123003353
 51
189.5418121901944
  0
ARC
  5
112CD
330
18
100
AcDbEntity
  8
0
100
AcDbCircle
 10
19.00504346213775
 20
16.426752743799
 30
0.0
 40
2.195670881143083
100
AcDbArc
 50
321.4369123003354
 51
6.813101039440861
  0
LINE
  5
112CE
330
18
100
AcDbEntity
  8
0
100
AcDbLine
 10
21.25526186792241
 20
16.68722740464842
 30
0.0
 11
21.3801462249531
 21
10.3158813091882
 31
0.0
  0
LINE
  5
112CF
330
18
100
AcDbEntity
  8
0
100
AcDbLine
 10
20.19276186792241
 20
8.402593585579168
 30
0.0
 11
20.05277183313174
 21
8.426021711793413
 31
0.0
  0
LINE
  5
112D0
330
18
100
AcDbEntity
  8
0
100
AcDbLine
 10
20.19276186792241
 20
9.652593585579166
 30
0.0
 11
19.94276186792241
 21
9.603914095342263
 31
0.0
  0
ARC
  5
112D1
330
18
100
AcDbEntity
  8
0
100
AcDbCircle
 10
20.37741450086947
 20
15.62134358557917
 30
0.0
 40
0.6221526329470674
100
AcDbArc
 50
139.233732555354
 51
220.7662674446462
  0
LINE
  5
112D2
330
18
100
AcDbEntity
  8
0
100
AcDbLine
 10
19.90620877490366
 20
15.21509358557917
 30
0.0
 11
19.94276186792241
 21
15.21509358557917
 31
0.0
  0
LINE
  5
112D3
330
18
100
AcDbEntity
  8
0
100
AcDbLine
 10
19.90620877490366
 20
16.02759358557917
 30
0.0
 11
19.94276186792241
 21
16.02759358557917
 31
0.0
  0
LINE
  5
112D4
330
18
100
AcDbEntity
  8
0
100
AcDbLine
 10
20.16875520564928
 20
16.68722740464843
 30
0.0
 11
20.19276186792241
 21
16.68722740464843
 31
0.0
  0
ARC
  5
112D5
330
18
100
AcDbEntity
  8
0
100
AcDbCircle
 10
19.56391665313589
 20
16.86043662120276
 30
0.0
 40
0.6291511005361583
100
AcDbArc
 50
344.0197358009533
 51
3.642965991805177
  0
LINE
  5
112D6
330
18
100
AcDbEntity
  8
0
100
AcDbLine
 10
20.19276186792241
 20
16.68722740464843
 30
0.0
 11
20.19276186792241
 21
8.40259358557917
 31
0.0
  0
LINE
  5
112D7
330
18
100
AcDbEntity
  8
0
100
AcDbLine
 10
19.94276186792241
 20
17.12550089065336
 30
0.0
 11
20.15089601116458
 21
17.12550089065336
 31
0.0
  0
LINE
  5
112D8
330
18
100
AcDbEntity
  8
0
100
AcDbLine
 10
19.94276186792241
 20
17.12550089065336
 30
0.0
 11
19.94276186792241
 21
8.444432503344421
 31
0.0
  0
LINE
  5
112D9
330
18
100
AcDbEntity
  8
0
100
AcDbLine
 10
19.69276186792241
 20
18.18384358557917
 30
0.0
 11
19.69276186792241
 21
17.77759358557917
 31
0.0
  0
ARC
  5
112DA
330
18
100
AcDbEntity
  8
0
100
AcDbCircle
 10
20.00357972254484
 20
17.74299172128766
 30
0.0
 40
0.2498800970471593
100
AcDbArc
 50
186.4102141287715
 51
250.3917379131926
  0
ARC
  5
112DB
330
18
100
AcDbEntity
  8
0
100
AcDbCircle
 10
19.87269767036104
 20
17.3755998701355
 30
0.0
 40
0.1401287283361335
100
AcDbArc
 50
6.970016541048329
 51
70.39173791319275
  0
ARC
  5
112DC
330
18
100
AcDbEntity
  8
0
100
AcDbCircle
 10
20.18788974868837
 20
17.41413317193191
 30
0.0
 40
0.1774100277041923
100
AcDbArc
 50
186.9700165410483
 51
251.0447987118489
  0
ARC
  5
112DD
330
18
100
AcDbEntity
  8
0
100
AcDbCircle
 10
19.7552618679224
 20
17.77759358557917
 30
0.0
 40
0.0625
100
AcDbArc
 50
180.0
 51
270.0
  0
LINE
  5
112DE
330
18
100
AcDbEntity
  8
0
100
AcDbLine
 10
20.13026186792241
 20
17.24634358557917
 30
0.0
 11
20.15089601116459
 21
17.12550089065336
 31
0.0
  0
LINE
  5
112DF
330
18
100
AcDbEntity
  8
0
100
AcDbLine
 10
23.31776186792241
 20
18.18384358557917
 30
0.0
 11
23.31776186792241
 21
17.77759358557917
 31
0.0
  0
ARC
  5
112E0
330
18
100
AcDbEntity
  8
0
100
AcDbCircle
 10
23.25526186792241
 20
17.77759358557917
 30
0.0
 40
0.0625
100
AcDbArc
 50
270.0
 51
0.0
  0
ARC
  5
112E1
330
18
100
AcDbEntity
  8
0
100
AcDbCircle
 10
23.13782606548378
 20
17.37559987013549
 30
0.0
 40
0.1401287283361475
100
AcDbArc
 50
109.6082620868087
 51
173.0299834589471
  0
ARC
  5
112E2
330
18
100
AcDbEntity
  8
0
100
AcDbCircle
 10
23.00694401329996
 20
17.74299172128768
 30
0.0
 40
0.2498800970471745
100
AcDbArc
 50
289.6082620868099
 51
353.5897858712264
  0
LINE
  5
112E3
330
18
100
AcDbEntity
  8
0
100
AcDbLine
 10
19.7552618679224
 20
17.71509358557917
 30
0.0
 11
23.25526186792241
 21
17.71509358557917
 31
0.0
  0
LINE
  5
112E4
330
18
100
AcDbEntity
  8
0
100
AcDbLine
 10
20.13026186792241
 20
17.24634358557917
 30
0.0
 11
22.88026186792241
 21
17.24634358557917
 31
0.0
  0
LINE
  5
112E5
330
18
100
AcDbEntity
  8
0
100
AcDbLine
 10
23.05052099253158
 20
17.4903527219414
 30
0.0
 11
19.95312057448365
 21
17.4903527219414
 31
0.0
  0
LINE
  5
112E6
330
18
100
AcDbEntity
  8
0
100
AcDbLine
 10
19.69276186792241
 20
18.18384358557917
 30
0.0
 11
23.31776186792241
 21
18.18384358557917
 31
0.0
  0
ARC
  5
112E7
330
18
100
AcDbEntity
  8
0
100
AcDbCircle
 10
29.27930630815021
 20
10.50435010679281
 30
0.0
 40
0.7128644920812091
100
AcDbArc
 50
160.7967240113526
 51
241.8548690821026
  0
LINE
  5
112E8
330
18
100
AcDbEntity
  8
0
100
AcDbLine
 10
27.7412292604214
 20
5.519387624687691
 30
0.0
 11
27.14135061448168
 21
5.55884358557917
 31
0.0
  0
ARC
  5
112E9
330
18
100
AcDbEntity
  8
0
100
AcDbCircle
 10
27.05265382592493
 20
8.572345007698169
 30
0.0
 40
0.5120016316395737
100
AcDbArc
 50
282.5111300846621
 51
335.6343260032545
  0
ARC
  5
112EA
330
18
100
AcDbEntity
  8
0
100
AcDbCircle
 10
28.30751127188725
 20
8.150252815270722
 30
0.0
 40
0.3127580253436373
100
AcDbArc
 50
122.0916717118256
 51
242.5558231213875
  0
ARC
  5
112EB
330
18
100
AcDbEntity
  8
0
100
AcDbCircle
 10
28.32279150861794
 20
8.153103525340869
 30
0.0
 40
0.6482673444339126
100
AcDbArc
 50
151.6351255954216
 51
201.3498263418649
  0
ARC
  5
112EC
330
18
100
AcDbEntity
  8
0
100
AcDbCircle
 10
27.87456908686098
 20
7.494974283411734
 30
0.0
 40
0.3142772241005776
100
AcDbArc
 50
45.02159278989124
 51
171.8224101794721
  0
ARC
  5
112ED
330
18
100
AcDbEntity
  8
0
100
AcDbCircle
 10
27.36631778358976
 20
8.323366666675479
 30
0.0
 40
0.8392001516538631
100
AcDbArc
 50
260.6669076676074
 51
298.2437403951855
  0
ARC
  5
112EE
330
18
100
AcDbEntity
  8
0
100
AcDbCircle
 10
27.90400227487741
 20
7.012605567221935
 30
0.0
 40
0.2439960614489595
100
AcDbArc
 50
37.83221265600223
 51
160.0997411153015
  0
ARC
  5
112EF
330
18
100
AcDbEntity
  8
0
100
AcDbCircle
 10
27.34501033469866
 20
7.269897664235642
 30
0.0
 40
0.3154084853914419
100
AcDbArc
 50
229.7817133650236
 51
326.4664060485336
  0
ARC
  5
112F0
330
18
100
AcDbEntity
  8
0
100
AcDbCircle
 10
27.31337880527536
 20
6.720118571812918
 30
0.0
 40
0.4424911994498753
100
AcDbArc
 50
253.2407512989669
 51
345.2200936693199
  0
ARC
  5
112F1
330
18
100
AcDbEntity
  8
0
100
AcDbCircle
 10
27.10787114654078
 20
7.815497861173763
 30
0.0
 40
1.194884025199128
100
AcDbArc
 50
306.5387268324242
 51
30.12639244073274
  0
ARC
  5
112F2
330
18
100
AcDbEntity
  8
0
100
AcDbCircle
 10
29.61866506449127
 20
7.140173619217957
 30
0.0
 40
1.821785617341749
100
AcDbArc
 50
186.3003256975006
 51
215.8036367450072
  0
ARC
  5
112F3
330
18
100
AcDbEntity
  8
0
100
AcDbCircle
 10
27.84875433943908
 20
5.863502959660708
 30
0.0
 40
0.3605232397243616
100
AcDbArc
 50
252.647638362775
 51
35.80363674500745
  0
ARC
  5
112F4
330
18
100
AcDbEntity
  8
0
100
AcDbCircle
 10
28.8149315265586
 20
10.00815993170655
 30
0.0
 40
0.2058608383253129
100
AcDbArc
 50
171.8489464323139
 51
245.7227815763673
  0
ARC
  5
112F5
330
18
100
AcDbEntity
  8
0
100
AcDbCircle
 10
29.68427482301934
 20
11.93558489232272
 30
0.0
 40
2.320269679090851
100
AcDbArc
 50
245.7227815763654
 51
251.4806262429075
  0
ARC
  5
112F6
330
18
100
AcDbEntity
  8
0
100
AcDbCircle
 10
28.89113642142472
 20
9.567805101254547
 30
0.0
 40
0.1768185578513181
100
AcDbArc
 50
316.6121901602107
 51
71.48062624290751
  0
ARC
  5
112F7
330
18
100
AcDbEntity
  8
0
100
AcDbCircle
 10
28.75105282857152
 20
9.92308010020902
 30
0.0
 40
0.2344314458893265
100
AcDbArc
 50
174.927605215554
 51
271.1656064568306
  0
ARC
  5
112F8
330
18
100
AcDbEntity
  8
0
100
AcDbCircle
 10
28.75776967080108
 20
9.592956998907538
 30
0.0
 40
0.0957599803810192
100
AcDbArc
 50
16.82070876026759
 51
91.16560645683087
  0
ARC
  5
112F9
330
18
100
AcDbEntity
  8
0
100
AcDbCircle
 10
28.6237657418403
 20
9.552445972857551
 30
0.0
 40
0.2357535381204705
100
AcDbArc
 50
256.0077026341144
 51
16.82070876026759
  0
ARC
  5
112FA
330
18
100
AcDbEntity
  8
0
100
AcDbCircle
 10
28.96321980991328
 20
9.657400922105745
 30
0.0
 40
0.2193070286665521
100
AcDbArc
 50
316.2937621386404
 51
95.27870774625277
  0
ARC
  5
112FB
330
18
100
AcDbEntity
  8
0
100
AcDbCircle
 10
28.67381174341629
 20
9.93402556574569
 30
0.0
 40
0.6196546556389793
100
AcDbArc
 50
260.0518900808278
 51
316.2937621386404
  0
LINE
  5
112FC
330
18
100
AcDbEntity
  8
0
100
AcDbLine
 10
29.58320918815412
 20
14.10622181333339
 30
0.0
 11
29.57693538022379
 21
14.07316587164264
 31
0.0
  0
LINE
  5
112FD
330
18
100
AcDbEntity
  8
0
100
AcDbLine
 10
29.62606023931601
 20
14.11611773799454
 30
0.0
 11
29.58320918815412
 21
14.10622181333339
 31
0.0
  0
ARC
  5
112FE
330
18
100
AcDbEntity
  8
0
100
AcDbCircle
 10
29.64366012650216
 20
13.76191165859548
 30
0.0
 40
0.1210645394684201
100
AcDbArc
 50
250.6790874497916
 51
31.9591679734615
  0
ARC
  5
112FF
330
18
100
AcDbEntity
  8
0
100
AcDbCircle
 10
29.36971067782651
 20
13.15917287434092
 30
0.0
 40
0.2605300834727662
100
AcDbArc
 50
347.4344446334594
 51
95.76068382260208
  0
ARC
  5
11300
330
18
100
AcDbEntity
  8
0
100
AcDbCircle
 10
28.8614475647841
 20
14.2208609058365
 30
0.0
 40
0.2950354426213981
100
AcDbArc
 50
327.0446997609103
 51
70.25062887009437
  0
ARC
  5
11301
330
18
100
AcDbEntity
  8
0
100
AcDbCircle
 10
29.00274764204722
 20
15.70021035741272
 30
0.0
 40
0.6751928528250261
100
AcDbArc
 50
48.04754966757733
 51
141.5274543519914
  0
ARC
  5
11302
330
18
100
AcDbEntity
  8
0
100
AcDbCircle
 10
28.49788586715296
 20
15.13856790457397
 30
0.0
 40
1.430393261047976
100
AcDbArc
 50
15.2630944401067
 51
48.04754966757733
  0
ARC
  5
11303
330
18
100
AcDbEntity
  8
0
100
AcDbCircle
 10
27.9667628414974
 20
14.99363673422556
 30
0.0
 40
1.980935459721317
100
AcDbArc
 50
333.7056922927786
 51
15.2630944401067
  0
ARC
  5
11304
330
18
100
AcDbEntity
  8
0
100
AcDbCircle
 10
29.08773470947492
 20
15.58994692192037
 30
0.0
 40
0.811019207810299
100
AcDbArc
 50
28.86431326743737
 51
139.1635034181601
  0
ARC
  5
11305
330
18
100
AcDbEntity
  8
0
100
AcDbCircle
 10
27.98463502959853
 20
14.98189931631017
 30
0.0
 40
2.070602787582483
100
AcDbArc
 50
335.2834040063794
 51
28.86431326743737
  0
ARC
  5
11306
330
18
100
AcDbEntity
  8
0
100
AcDbCircle
 10
29.38703409334086
 20
13.63832372498687
 30
0.0
 40
0.043766737915462
100
AcDbArc
 50
74.32667249146397
 51
269.4010544443953
  0
LINE
  5
11307
330
18
100
AcDbEntity
  8
0
100
AcDbLine
 10
29.62606023931601
 20
14.11611773799454
 30
0.0
 11
29.57079478339951
 21
14.03021402984382
 31
0.0
  0
LINE
  5
11308
330
18
100
AcDbEntity
  8
0
100
AcDbLine
 10
29.86554389570386
 20
14.11611773799454
 30
0.0
 11
29.62606023931601
 21
14.11611773799454
 31
0.0
  0
ARC
  5
11309
330
18
100
AcDbEntity
  8
0
100
AcDbCircle
 10
29.61092464148307
 20
14.11309168868296
 30
0.0
 40
0.2546372352865676
100
AcDbArc
 50
301.1732090894603
 51
0.6809056621755721
  0
ARC
  5
1130A
330
18
100
AcDbEntity
  8
0
100
AcDbCircle
 10
29.77822323284466
 20
13.27057044746541
 30
0.0
 40
0.6363510343980147
100
AcDbArc
 50
101.0035282078602
 51
133.840617271303
  0
ARC
  5
1130B
330
18
100
AcDbEntity
  8
0
100
AcDbCircle
 10
29.67035880451596
 20
13.82530244653161
 30
0.0
 40
0.0712295203086509
100
AcDbArc
 50
312.1611162172666
 51
101.0035282078601
  0
ARC
  5
1130C
330
18
100
AcDbEntity
  8
0
100
AcDbCircle
 10
29.46449971924992
 20
14.05264324494153
 30
0.0
 40
0.3779244853932335
100
AcDbArc
 50
259.9975300186028
 51
312.1611162172671
  0
ARC
  5
1130D
330
18
100
AcDbEntity
  8
0
100
AcDbCircle
 10
29.53716709104869
 20
13.44514850794068
 30
0.0
 40
0.2121346490983137
100
AcDbArc
 50
42.48491442316489
 51
135.2252920009918
  0
ARC
  5
1130E
330
18
100
AcDbEntity
  8
0
100
AcDbCircle
 10
29.46552013930631
 20
13.37953086782257
 30
0.0
 40
0.3092889613476595
100
AcDbArc
 50
338.7876551892726
 51
42.48491442316467
  0
ARC
  5
1130F
330
18
100
AcDbEntity
  8
0
100
AcDbCircle
 10
29.45926912962684
 20
13.23068699644623
 30
0.0
 40
0.2039610421384787
100
AcDbArc
 50
319.2483346110037
 51
103.6492212365823
  0
ARC
  5
11310
330
18
100
AcDbEntity
  8
0
100
AcDbCircle
 10
29.29139718428035
 20
13.92198744139427
 30
0.0
 40
0.5074300564983883
100
AcDbArc
 50
235.7562752957789
 51
283.6492212365824
  0
LINE
  5
11311
330
18
100
AcDbEntity
  8
0
100
AcDbLine
 10
29.57693538022379
 20
14.07316587164264
 30
0.0
 11
29.57079478339951
 21
14.03021402984382
 31
0.0
  0
ARC
  5
11312
330
18
100
AcDbEntity
  8
0
100
AcDbCircle
 10
29.58185719155146
 20
13.70832076190253
 30
0.0
 40
0.364878306189912
100
AcDbArc
 50
90.77288116121549
 51
162.9254631280982
  0
ARC
  5
11313
330
18
100
AcDbEntity
  8
0
100
AcDbCircle
 10
29.37475709075
 20
13.88501612187644
 30
0.0
 40
0.1578494787940607
100
AcDbArc
 50
167.2822737103258
 51
206.1474034257393
  0
ARC
  5
11314
330
18
100
AcDbEntity
  8
0
100
AcDbCircle
 10
29.19608913073001
 20
13.79730422045237
 30
0.0
 40
0.0411872454282056
100
AcDbArc
 50
206.9481505963838
 51
26.14740342573948
  0
ARC
  5
11315
330
18
100
AcDbEntity
  8
0
100
AcDbCircle
 10
29.24832302308933
 20
13.82385920495934
 30
0.0
 40
0.0997837189839651
100
AcDbArc
 50
106.0231108869802
 51
206.9481505963806
  0
ARC
  5
11316
330
18
100
AcDbEntity
  8
0
100
AcDbCircle
 10
29.12488301471209
 20
14.25369124295596
 30
0.0
 40
0.3474220687206366
100
AcDbArc
 50
286.0231108869802
 51
32.68864911340546
  0
ARC
  5
11317
330
18
100
AcDbEntity
  8
0
100
AcDbCircle
 10
29.16944210777797
 20
14.28228520796179
 30
0.0
 40
0.2944774976145352
100
AcDbArc
 50
32.68864911340546
 51
129.7108243488777
  0
ARC
  5
11318
330
18
100
AcDbEntity
  8
0
100
AcDbCircle
 10
28.9835506885903
 20
14.25015137906743
 30
0.0
 40
0.2533781568192157
100
AcDbArc
 50
296.8443073183181
 51
94.68060889981494
  0
ARC
  5
11319
330
18
100
AcDbEntity
  8
0
100
AcDbCircle
 10
29.23448139186539
 20
13.75434609102328
 30
0.0
 40
0.3023097965311117
100
AcDbArc
 50
116.844307318318
 51
219.0529123835583
  0
ARC
  5
1131A
330
18
100
AcDbEntity
  8
0
100
AcDbCircle
 10
29.13181128775794
 20
12.18994517396183
 30
0.0
 40
0.8596811317190443
100
AcDbArc
 50
158.1942379201675
 51
225.0071175977501
  0
LINE
  5
1131B
330
18
100
AcDbEntity
  8
0
100
AcDbLine
 10
28.53998897437839
 20
11.47092997678835
 30
0.0
 11
28.52400044954775
 21
11.58198330575958
 31
0.0
  0
LINE
  5
1131C
330
18
100
AcDbEntity
  8
0
100
AcDbLine
 10
27.96878729076885
 20
12.37454747531701
 30
0.0
 11
28.03224022320073
 21
12.36662183754993
 31
0.0
  0
LINE
  5
1131D
330
18
100
AcDbEntity
  8
0
100
AcDbLine
 10
27.93706078230392
 20
12.43795260200674
 30
0.0
 11
27.96878729076885
 21
12.37454747531701
 31
0.0
  0
ARC
  5
1131E
330
18
100
AcDbEntity
  8
0
100
AcDbCircle
 10
28.34766336755541
 20
14.29460450749352
 30
0.0
 40
0.557229594092037
100
AcDbArc
 50
186.7460184154887
 51
234.5290577521332
  0
ARC
  5
1131F
330
18
100
AcDbEntity
  8
0
100
AcDbCircle
 10
28.29026621816492
 20
14.28781515165661
 30
0.0
 40
0.4994322921581706
100
AcDbArc
 50
126.5871575620395
 51
186.7460184154886
  0
LINE
  5
11320
330
18
100
AcDbEntity
  8
0
100
AcDbLine
 10
27.98558441431425
 20
14.80883065812052
 30
0.0
 11
27.99258214043081
 21
14.68883485729956
 31
0.0
  0
ARC
  5
11321
330
18
100
AcDbEntity
  8
0
100
AcDbCircle
 10
28.39302677486121
 20
13.03166906393848
 30
0.0
 40
0.1006303601387414
100
AcDbArc
 50
61.15541928086593
 51
105.6241338062966
  0
ARC
  5
11322
330
18
100
AcDbEntity
  8
0
100
AcDbCircle
 10
28.3920307086913
 20
13.03523077924388
 30
0.0
 40
0.096931987019168
100
AcDbArc
 50
105.6241338062965
 51
203.3145537194705
  0
LINE
  5
11323
330
18
100
AcDbEntity
  8
0
100
AcDbLine
 10
28.02440844104053
 20
13.01782164225051
 30
0.0
 11
28.07189830597065
 21
13.11955779371887
 31
0.0
  0
LINE
  5
11324
330
18
100
AcDbEntity
  8
0
100
AcDbLine
 10
28.01542119090081
 20
12.925023206731
 30
0.0
 11
28.02440844104053
 21
13.01782164225051
 31
0.0
  0
LINE
  5
11325
330
18
100
AcDbEntity
  8
0
100
AcDbLine
 10
28.04238298356897
 20
12.78732230954004
 30
0.0
 11
28.01542119090081
 21
12.925023206731
 31
0.0
  0
LINE
  5
11326
330
18
100
AcDbEntity
  8
0
100
AcDbLine
 10
28.04238298356897
 20
12.78732230954004
 30
0.0
 11
28.00844537353878
 21
12.81045777348421
 31
0.0
  0
LINE
  5
11327
330
18
100
AcDbEntity
  8
0
100
AcDbLine
 10
27.96449335561107
 20
12.73343936044492
 30
0.0
 11
28.04238298356897
 21
12.78732230954004
 31
0.0
  0
LINE
  5
11328
330
18
100
AcDbEntity
  8
0
100
AcDbLine
 10
27.92119754919595
 20
12.75497826000848
 30
0.0
 11
27.96449335561107
 21
12.73343936044492
 31
0.0
  0
LINE
  5
11329
330
18
100
AcDbEntity
  8
0
100
AcDbLine
 10
27.58575863347156
 20
13.11741958827349
 30
0.0
 11
27.60819826186843
 21
13.05200452145671
 31
0.0
  0
LINE
  5
1132A
330
18
100
AcDbEntity
  8
0
100
AcDbLine
 10
27.87561928264973
 20
13.35739830255066
 30
0.0
 11
27.88443538207881
 21
13.34271592575495
 31
0.0
  0
LINE
  5
1132B
330
18
100
AcDbEntity
  8
0
100
AcDbLine
 10
27.83447758389499
 20
13.37795365461773
 30
0.0
 11
27.87561928264973
 21
13.35739830255066
 31
0.0
  0
LINE
  5
1132C
330
18
100
AcDbEntity
  8
0
100
AcDbLine
 10
27.7551329002782
 20
13.3838266298891
 30
0.0
 11
27.83447758389499
 21
13.37795365461773
 31
0.0
  0
LINE
  5
1132D
330
18
100
AcDbEntity
  8
0
100
AcDbLine
 10
27.67578821666142
 20
13.38676310524824
 30
0.0
 11
27.7551329002782
 21
13.3838266298891
 31
0.0
  0
LINE
  5
1132E
330
18
100
AcDbEntity
  8
0
100
AcDbLine
 10
27.61995303294121
 20
13.40438198195618
 30
0.0
 11
27.67578821666142
 21
13.38676310524824
 31
0.0
  0
LINE
  5
1132F
330
18
100
AcDbEntity
  8
0
100
AcDbLine
 10
27.57881133418647
 20
13.44255621073119
 30
0.0
 11
27.61995303294121
 21
13.40438198195618
 31
0.0
  0
LINE
  5
11330
330
18
100
AcDbEntity
  8
0
100
AcDbLine
 10
27.57587266254277
 20
13.55707887250315
 30
0.0
 11
27.57881133418647
 21
13.44255621073119
 31
0.0
  0
ARC
  5
11331
330
18
100
AcDbEntity
  8
0
100
AcDbCircle
 10
28.56326126924629
 20
12.36650188781902
 30
0.0
 40
1.068718495390971
100
AcDbArc
 50
84.79309603195885
 51
131.2941595483498
  0
ARC
  5
11332
330
18
100
AcDbEntity
  8
0
100
AcDbCircle
 10
28.10822781146662
 20
13.62518609361474
 30
0.0
 40
0.0957199250317191
100
AcDbArc
 50
167.4147011298196
 51
271.428961853407
  0
ARC
  5
11333
330
18
100
AcDbEntity
  8
0
100
AcDbCircle
 10
27.51377342383649
 20
13.3164169425473
 30
0.0
 40
0.5997404569840997
100
AcDbArc
 50
33.34054549991864
 51
66.55621237622773
  0
ARC
  5
11334
330
18
100
AcDbEntity
  8
0
100
AcDbCircle
 10
28.08495097062963
 20
13.6921893326158
 30
0.0
 40
0.0839617289846325
100
AcDbArc
 50
213.3405454999187
 51
307.1090949153516
  0
ARC
  5
11335
330
18
100
AcDbEntity
  8
0
100
AcDbCircle
 10
28.1748228551959
 20
13.57339659924375
 30
0.0
 40
0.0649968865348944
100
AcDbArc
 50
339.192565255518
 51
127.1090949153514
  0
ARC
  5
11336
330
18
100
AcDbEntity
  8
0
100
AcDbCircle
 10
28.16702603850352
 20
13.57635948983569
 30
0.0
 40
0.0733376941213487
100
AcDbArc
 50
219.7180713646457
 51
339.192565255518
  0
ARC
  5
11337
330
18
100
AcDbEntity
  8
0
100
AcDbCircle
 10
27.91387349295471
 20
13.51577135245556
 30
0.0
 40
0.1802930060346194
100
AcDbArc
 50
64.28654608260912
 51
139.2096118281103
  0
ARC
  5
11338
330
18
100
AcDbEntity
  8
0
100
AcDbCircle
 10
27.79821962041074
 20
13.41376299137319
 30
0.0
 40
0.2207790496205649
100
AcDbArc
 50
0.8690209610961355
 51
95.41815845757545
  0
ARC
  5
11339
330
18
100
AcDbEntity
  8
0
100
AcDbCircle
 10
27.25921929948532
 20
12.84166918572552
 30
0.0
 40
0.925630565719434
100
AcDbArc
 50
37.45842177168814
 51
59.31737548626874
  0
ARC
  5
1133A
330
18
100
AcDbEntity
  8
0
100
AcDbCircle
 10
27.67901473656749
 20
13.54917394374283
 30
0.0
 40
0.102957367169637
100
AcDbArc
 50
59.31737548626874
 51
271.4197707806555
  0
ARC
  5
1133B
330
18
100
AcDbEntity
  8
0
100
AcDbCircle
 10
27.68962560277395
 20
13.12105313822452
 30
0.0
 40
0.3252949119828532
100
AcDbArc
 50
49.16309531220604
 51
91.41977078065528
  0
ARC
  5
1133C
330
18
100
AcDbEntity
  8
0
100
AcDbCircle
 10
27.82426344018236
 20
13.09650218344148
 30
0.0
 40
0.2394203012466965
100
AcDbArc
 50
73.06396031674198
 51
174.9878563793972
  0
LINE
  5
1133D
330
18
100
AcDbEntity
  8
0
100
AcDbLine
 10
27.66906914648984
 20
13.10077004282556
 30
0.0
 11
27.58575863347156
 21
13.11741958827349
 31
0.0
  0
ARC
  5
1133E
330
18
100
AcDbEntity
  8
0
100
AcDbCircle
 10
27.93548046684139
 20
12.77333487635333
 30
0.0
 40
0.426037070982641
100
AcDbArc
 50
127.9916666288769
 51
235.482356467211
  0
ARC
  5
1133F
330
18
100
AcDbEntity
  8
0
100
AcDbCircle
 10
27.79353040864261
 20
12.56693245089659
 30
0.0
 40
0.1755340165959391
100
AcDbArc
 50
235.482356467211
 51
1.70226681436812
  0
ARC
  5
11340
330
18
100
AcDbEntity
  8
0
100
AcDbCircle
 10
28.03999470054672
 20
12.8901008173843
 30
0.0
 40
0.3186240229268536
100
AcDbArc
 50
116.5849578572468
 51
256.3534999775228
  0
LINE
  5
11341
330
18
100
AcDbEntity
  8
0
100
AcDbLine
 10
28.07189830597065
 20
13.11955779371887
 30
0.0
 11
28.04810345630869
 21
13.13540906925303
 31
0.0
  0
ARC
  5
11342
330
18
100
AcDbEntity
  8
0
100
AcDbCircle
 10
28.26469456013374
 20
12.98207263749977
 30
0.0
 40
0.0368624852850729
100
AcDbArc
 50
261.4345178002571
 51
64.33574559420934
  0
ARC
  5
11343
330
18
100
AcDbEntity
  8
0
100
AcDbCircle
 10
28.06334532816457
 20
13.00227961431024
 30
0.0
 40
0.1633541211430251
100
AcDbArc
 50
281.4213568700724
 51
332.5043438712794
  0
ARC
  5
11344
330
18
100
AcDbEntity
  8
0
100
AcDbCircle
 10
28.38328080702063
 20
13.13469310997694
 30
0.0
 40
0.0601624637549022
100
AcDbArc
 50
345.6816529206808
 51
90.67476990512163
  0
ARC
  5
11345
330
18
100
AcDbEntity
  8
0
100
AcDbCircle
 10
28.16818871024971
 20
13.18959275512652
 30
0.0
 40
0.2821502587591842
100
AcDbArc
 50
305.9019628721311
 51
345.681652920681
  0
ARC
  5
11346
330
18
100
AcDbEntity
  8
0
100
AcDbCircle
 10
28.38016866982006
 20
13.07751684682599
 30
0.0
 40
0.1173591715621228
100
AcDbArc
 50
88.82644813098576
 51
212.0157856950661
  0
ARC
  5
11347
330
18
100
AcDbEntity
  8
0
100
AcDbCircle
 10
28.64758800023409
 20
13.14796504731682
 30
0.0
 40
0.4366765487179042
100
AcDbArc
 50
179.4741015603471
 51
206.420846654489
  0
ARC
  5
11348
330
18
100
AcDbEntity
  8
0
100
AcDbCircle
 10
28.42538490109665
 20
13.04746288398763
 30
0.0
 40
0.2455391845816825
100
AcDbArc
 50
152.9343335860638
 51
210.8868475522633
  0
ARC
  5
11349
330
18
100
AcDbEntity
  8
0
100
AcDbCircle
 10
28.5540724754162
 20
13.02119888080476
 30
0.0
 40
0.4921040595546326
100
AcDbArc
 50
168.4703963958793
 51
201.3351386777399
  0
LINE
  5
1134A
330
18
100
AcDbEntity
  8
0
100
AcDbLine
 10
27.92119754919595
 20
12.75497826000848
 30
0.0
 11
28.00844537353878
 21
12.81045777348421
 31
0.0
  0
ARC
  5
1134B
330
18
100
AcDbEntity
  8
0
100
AcDbCircle
 10
28.33100350853742
 20
12.93598740635739
 30
0.0
 40
0.3461234450063694
100
AcDbArc
 50
144.8192580733238
 51
201.26444596525
  0
ARC
  5
1134C
330
18
100
AcDbEntity
  8
0
100
AcDbCircle
 10
28.0527244301748
 20
12.97313224815024
 30
0.0
 40
0.2547361045517116
100
AcDbArc
 50
127.5704043467622
 51
238.9138702213404
  0
ARC
  5
1134D
330
18
100
AcDbEntity
  8
0
100
AcDbCircle
 10
28.66640721866832
 20
12.17539683748815
 30
0.0
 40
1.261209328396937
100
AcDbArc
 50
90.34386904148044
 51
127.5704043467624
  0
LINE
  5
1134E
330
18
100
AcDbEntity
  8
0
100
AcDbLine
 10
27.93706078230392
 20
12.43795260200674
 30
0.0
 11
28.08327225777665
 21
12.44410340352591
 31
0.0
  0
ARC
  5
1134F
330
18
100
AcDbEntity
  8
0
100
AcDbCircle
 10
28.56863759576183
 20
12.37100404483248
 30
0.0
 40
0.6351152498605015
100
AcDbArc
 50
111.7159378316603
 51
173.9491150365533
  0
ARC
  5
11350
330
18
100
AcDbEntity
  8
0
100
AcDbCircle
 10
28.99078038072771
 20
11.97620060093036
 30
0.0
 40
1.021030864322388
100
AcDbArc
 50
135.5218252949051
 51
215.4615968915574
  0
ARC
  5
11351
330
18
100
AcDbEntity
  8
0
100
AcDbCircle
 10
28.32831284742428
 20
11.50433672224864
 30
0.0
 40
0.2076928333133426
100
AcDbArc
 50
215.4615968915575
 51
334.6900087357736
  0
ARC
  5
11352
330
18
100
AcDbEntity
  8
0
100
AcDbCircle
 10
28.89080958120788
 20
12.06261170500096
 30
0.0
 40
0.6878679856461322
100
AcDbArc
 50
159.5259166590603
 51
239.3354019535106
  0
ARC
  5
11353
330
18
100
AcDbEntity
  8
0
100
AcDbCircle
 10
29.80040314745997
 20
11.72299747888621
 30
0.0
 40
1.658794490767259
100
AcDbArc
 50
128.757786234554
 51
159.5259166590604
  0
ARC
  5
11354
330
18
100
AcDbEntity
  8
0
100
AcDbCircle
 10
28.55637509226635
 20
13.27259287244436
 30
0.0
 40
0.328377289891244
100
AcDbArc
 50
308.7577862345539
 51
20.89882458180579
  0
ARC
  5
11355
330
18
100
AcDbEntity
  8
0
100
AcDbCircle
 10
28.09834395737768
 20
14.39897387750417
 30
0.0
 40
0.6331140509472017
100
AcDbArc
 50
133.8858487718152
 51
236.2605948907594
  0
ARC
  5
11356
330
18
100
AcDbEntity
  8
0
100
AcDbCircle
 10
27.79721908248433
 20
14.71204364585258
 30
0.0
 40
0.1987307292907849
100
AcDbArc
 50
41.16888503968857
 51
133.8858487718152
  0
ARC
  5
11357
330
18
100
AcDbEntity
  8
0
100
AcDbCircle
 10
28.2447700152249
 20
14.32781911865848
 30
0.0
 40
0.546396629578788
100
AcDbArc
 50
118.3173181006969
 51
276.8402640846645
  0
ARC
  5
11358
330
18
100
AcDbEntity
  8
0
100
AcDbCircle
 10
28.3699872738289
 20
13.2839555038769
 30
0.0
 40
0.5049504149869783
100
AcDbArc
 50
32.25615492870878
 51
96.84026408466447
  0
CIRCLE
  5
11359
330
18
100
AcDbEntity
  8
0
100
AcDbCircle
 10
28.89135061448168
 20
13.49634358557917
 30
0.0
 40
0.1102792927863803
  0
LINE
  5
1135A
330
18
100
AcDbEntity
  8
0
100
AcDbLine
 10
30.20385061448168
 20
17.24634358557917
 30
0.0
 11
30.10838035561806
 21
16.68722740464843
 31
0.0
  0
ARC
  5
1135B
330
18
100
AcDbEntity
  8
0
100
AcDbCircle
 10
28.01635061448168
 20
9.027593585579168
 30
0.0
 40
0.5
100
AcDbArc
 50
245.0142558506535
 51
107.6236611888678
  0
ARC
  5
1135C
330
18
100
AcDbEntity
  8
0
100
AcDbCircle
 10
28.11645743299008
 20
9.30244643253239
 30
0.0
 40
0.7917653281367969
100
AcDbArc
 50
147.3674489032658
 51
253.3755006990929
  0
ARC
  5
1135D
330
18
100
AcDbEntity
  8
0
100
AcDbCircle
 10
79.77572530194784
 20
-23.77640108252268
 30
0.0
 40
62.13416591436261
100
AcDbArc
 50
146.5327245255788
 51
147.3674489032658
  0
ARC
  5
1135E
330
18
100
AcDbEntity
  8
0
100
AcDbCircle
 10
30.01524083719294
 20
9.179093017096722
 30
0.0
 40
2.450762691615441
100
AcDbArc
 50
140.7510662484715
 51
147.6573748144199
  0
ARC
  5
1135F
330
18
100
AcDbEntity
  8
0
100
AcDbCircle
 10
11.6017018236852
 20
24.22301401603806
 30
0.0
 40
21.32691545458629
100
AcDbArc
 50
320.7510662484715
 51
329.4769262272487
  0
ARC
  5
11360
330
18
100
AcDbEntity
  8
0
100
AcDbCircle
 10
27.52379957082879
 20
14.83554278517458
 30
0.0
 40
2.843468460589631
100
AcDbArc
 50
329.4769262272487
 51
27.24745422487004
  0
ARC
  5
11361
330
18
100
AcDbEntity
  8
0
100
AcDbCircle
 10
29.04636118618205
 20
15.61962795179895
 30
0.0
 40
1.130872938854414
100
AcDbArc
 50
27.24745422487004
 51
160.1297713953951
  0
ARC
  5
11362
330
18
100
AcDbEntity
  8
0
100
AcDbCircle
 10
28.75539439206504
 20
15.72478549222938
 30
0.0
 40
0.8214867989125718
100
AcDbArc
 50
160.1297713953951
 51
302.0592295389548
  0
ARC
  5
11363
330
18
100
AcDbEntity
  8
0
100
AcDbCircle
 10
28.82105321968036
 20
15.54378983491192
 30
0.0
 40
0.6348468029192295
100
AcDbArc
 50
306.6069979108879
 51
40.4776477676661
  0
ARC
  5
11364
330
18
100
AcDbEntity
  8
0
100
AcDbCircle
 10
29.05819448070575
 20
8.957352496681359
 30
0.0
 40
1.521091649127149
100
AcDbArc
 50
148.7145846303428
 51
173.1663589547281
  0
ARC
  5
11365
330
18
100
AcDbEntity
  8
0
100
AcDbCircle
 10
28.01635061448168
 20
9.121343585579168
 30
0.0
 40
0.46875
100
AcDbArc
 50
164.1878016375958
 51
322.6246581268421
  0
ARC
  5
11366
330
18
100
AcDbEntity
  8
0
100
AcDbCircle
 10
30.01524083719294
 20
9.179093017096722
 30
0.0
 40
2.200762691615441
100
AcDbArc
 50
140.7510662484715
 51
147.6573748144199
  0
ARC
  5
11367
330
18
100
AcDbEntity
  8
0
100
AcDbCircle
 10
79.77572530194784
 20
-23.77640108252268
 30
0.0
 40
61.88416591436261
100
AcDbArc
 50
146.5327245255788
 51
147.1994513219785
  0
ARC
  5
11368
330
18
100
AcDbEntity
  8
0
100
AcDbCircle
 10
11.6017018236852
 20
24.22301401603806
 30
0.0
 40
21.57691545458629
100
AcDbArc
 50
320.7510662484715
 51
329.4769262272487
  0
ARC
  5
11369
330
18
100
AcDbEntity
  8
0
100
AcDbCircle
 10
27.52379957082879
 20
14.83554278517458
 30
0.0
 40
3.093468460589631
100
AcDbArc
 50
329.4769262272487
 51
27.24745422487004
  0
ARC
  5
1136A
330
18
100
AcDbEntity
  8
0
100
AcDbCircle
 10
28.86110486160918
 20
15.76411444733317
 30
0.0
 40
0.4009237515720887
100
AcDbArc
 50
83.70526250813062
 51
200.3138055487095
  0
ARC
  5
1136B
330
18
100
AcDbEntity
  8
0
100
AcDbCircle
 10
28.82246300546773
 20
15.41380590481548
 30
0.0
 40
0.7533571041466172
100
AcDbArc
 50
282.1705048342274
 51
83.70526250813053
  0
ARC
  5
1136C
330
18
100
AcDbEntity
  8
0
100
AcDbCircle
 10
28.75539439206504
 20
15.72478549222938
 30
0.0
 40
1.071486798912571
100
AcDbArc
 50
160.1297713953951
 51
282.1705048342275
  0
ARC
  5
1136D
330
18
100
AcDbEntity
  8
0
100
AcDbCircle
 10
29.04636118618205
 20
15.61962795179895
 30
0.0
 40
1.380872938854414
100
AcDbArc
 50
27.24745422487004
 51
160.1297713953951
  0
ARC
  5
1136E
330
18
100
AcDbEntity
  8
0
100
AcDbCircle
 10
79.77572530194784
 20
-23.77640108252268
 30
0.0
 40
61.75916591436261
100
AcDbArc
 50
146.5327245255788
 51
147.2615499812917
  0
ARC
  5
1136F
330
18
100
AcDbEntity
  8
0
100
AcDbCircle
 10
30.01524083719294
 20
9.179093017096722
 30
0.0
 40
2.075762691615441
100
AcDbArc
 50
140.7510662484715
 51
147.6573748144199
  0
ARC
  5
11370
330
18
100
AcDbEntity
  8
0
100
AcDbCircle
 10
79.77572530194784
 20
-23.77640108252268
 30
0.0
 40
62.25916591436261
100
AcDbArc
 50
146.5327245255788
 51
147.3674489032658
  0
ARC
  5
11371
330
18
100
AcDbEntity
  8
0
100
AcDbCircle
 10
28.11645743299008
 20
9.30244643253239
 30
0.0
 40
0.9167653281367968
100
AcDbArc
 50
147.3674489032658
 51
253.3755006990929
  0
ARC
  5
11372
330
18
100
AcDbEntity
  8
0
100
AcDbCircle
 10
28.82105321968036
 20
15.54378983491192
 30
0.0
 40
0.5098468029192295
100
AcDbArc
 50
306.6069979108879
 51
40.4776477676661
  0
ARC
  5
11373
330
18
100
AcDbEntity
  8
0
100
AcDbCircle
 10
28.75539439206504
 20
15.72478549222938
 30
0.0
 40
0.6964867989125719
100
AcDbArc
 50
160.1297713953951
 51
302.0592295389548
  0
ARC
  5
11374
330
18
100
AcDbEntity
  8
0
100
AcDbCircle
 10
29.04636118618205
 20
15.61962795179895
 30
0.0
 40
1.005872938854414
100
AcDbArc
 50
27.24745422487004
 51
160.1297713953951
  0
ARC
  5
11375
330
18
100
AcDbEntity
  8
0
100
AcDbCircle
 10
27.52379957082879
 20
14.83554278517458
 30
0.0
 40
2.718468460589631
100
AcDbArc
 50
329.4769262272487
 51
27.24745422487004
  0
ARC
  5
11376
330
18
100
AcDbEntity
  8
0
100
AcDbCircle
 10
11.6017018236852
 20
24.22301401603806
 30
0.0
 40
21.20191545458629
100
AcDbArc
 50
320.7510662484715
 51
329.4769262272487
  0
ARC
  5
11377
330
18
100
AcDbEntity
  8
0
100
AcDbCircle
 10
30.01524083719294
 20
9.179093017096722
 30
0.0
 40
2.575762691615441
100
AcDbArc
 50
140.7510662484715
 51
147.6573748144199
  0
ARC
  5
11378
330
18
100
AcDbEntity
  8
0
100
AcDbCircle
 10
11.6017018236852
 20
24.22301401603806
 30
0.0
 40
21.70191545458629
100
AcDbArc
 50
320.7510662484715
 51
321.5862153098927
  0
ARC
  5
11379
330
18
100
AcDbEntity
  8
0
100
AcDbCircle
 10
27.52379957082879
 20
14.83554278517458
 30
0.0
 40
3.218468460589631
100
AcDbArc
 50
329.4769262272487
 51
27.24745422487004
  0
ARC
  5
1137A
330
18
100
AcDbEntity
  8
0
100
AcDbCircle
 10
29.04636118618205
 20
15.61962795179895
 30
0.0
 40
1.505872938854414
100
AcDbArc
 50
27.24745422487004
 51
45.15013296417506
  0
ARC
  5
1137B
330
18
100
AcDbEntity
  8
0
100
AcDbCircle
 10
28.75539439206504
 20
15.72478549222938
 30
0.0
 40
1.196486798912571
100
AcDbArc
 50
160.1297713953951
 51
282.1705048342275
  0
ARC
  5
1137C
330
18
100
AcDbEntity
  8
0
100
AcDbCircle
 10
28.82246300546773
 20
15.41380590481548
 30
0.0
 40
0.8783571041466171
100
AcDbArc
 50
282.1705048342274
 51
83.70526250813053
  0
ARC
  5
1137D
330
18
100
AcDbEntity
  8
0
100
AcDbCircle
 10
28.86110486160918
 20
15.76411444733317
 30
0.0
 40
0.5259237515720887
100
AcDbArc
 50
83.70526250813062
 51
251.8977085997009
  0
ARC
  5
1137E
330
18
100
AcDbEntity
  8
0
100
AcDbCircle
 10
28.01635061448168
 20
9.027593585579168
 30
0.0
 40
0.625
100
AcDbArc
 50
245.0142558506535
 51
281.5369590328154
  0
CIRCLE
  5
1137F
330
18
100
AcDbEntity
  8
0
100
AcDbCircle
 10
28.01635061448168
 20
9.121343585579168
 30
0.0
 40
0.34375
  0
CIRCLE
  5
11380
330
18
100
AcDbEntity
  8
0
100
AcDbCircle
 10
28.89135061448168
 20
15.62134358557917
 30
0.0
 40
0.40625
  0
LINE
  5
11381
330
18
100
AcDbEntity
  8
0
100
AcDbLine
 10
30.37410973909086
 20
17.4903527219414
 30
0.0
 11
27.14135061448168
 21
17.4903527219414
 31
0.0
  0
ARC
  5
11382
330
18
100
AcDbEntity
  8
0
100
AcDbCircle
 10
30.57885061448168
 20
17.77759358557917
 30
0.0
 40
0.0625
100
AcDbArc
 50
270.0
 51
0.0
  0
ARC
  5
11383
330
18
100
AcDbEntity
  8
0
100
AcDbCircle
 10
30.33053275985925
 20
17.74299172128766
 30
0.0
 40
0.2498800970471593
100
AcDbArc
 50
289.6082620868073
 51
353.5897858712283
  0
ARC
  5
11384
330
18
100
AcDbEntity
  8
0
100
AcDbCircle
 10
30.46141481204305
 20
17.3755998701355
 30
0.0
 40
0.1401287283361335
100
AcDbArc
 50
109.6082620868072
 51
173.0299834589516
  0
ARC
  5
11385
330
18
100
AcDbEntity
  8
0
100
AcDbCircle
 10
30.14622273371572
 20
17.41413317193191
 30
0.0
 40
0.1774100277041923
100
AcDbArc
 50
288.9552012881511
 51
353.0299834589516
  0
LINE
  5
11386
330
18
100
AcDbEntity
  8
0
100
AcDbLine
 10
27.14135061448168
 20
17.24634358557917
 30
0.0
 11
30.20385061448168
 21
17.24634358557917
 31
0.0
  0
LINE
  5
11387
330
18
100
AcDbEntity
  8
0
100
AcDbLine
 10
27.14135061448168
 20
17.71509358557917
 30
0.0
 11
30.57885061448168
 21
17.71509358557917
 31
0.0
  0
LINE
  5
11388
330
18
100
AcDbEntity
  8
0
100
AcDbLine
 10
30.64135061448168
 20
18.18384358557917
 30
0.0
 11
30.64135061448168
 21
17.77759358557917
 31
0.0
  0
LINE
  5
11389
330
18
100
AcDbEntity
  8
0
100
AcDbLine
 10
27.14135061448168
 20
18.18384358557917
 30
0.0
 11
27.14135061448168
 21
5.55884358557917
 31
0.0
  0
LINE
  5
1138A
330
18
100
AcDbEntity
  8
0
100
AcDbLine
 10
27.14135061448168
 20
18.18384358557917
 30
0.0
 11
30.64135061448168
 21
18.18384358557917
 31
0.0
  0
DIMENSION
  5
1138D
330
18
100
AcDbEntity
  8
DIM
100
AcDbDimension
  2
*D1
 10
25.22817695163233
 20
5.558843585579171
 30
0.0
 11
25.22817695163233
 21
11.87134358557917
 31
0.0
 70
    32
 71
     5
 42
12.625
  3
STANDARD
100
AcDbAlignedDimension
 13
27.14135060917622
 23
18.18384358557917
 33
0.0
 14
27.14135061448168
 24
5.55884358557917
 34
0.0
 50
90.0
100
AcDbRotatedDimension
  0
DIMENSION
  5
113C4
330
18
100
AcDbEntity
  8
DIM
100
AcDbDimension
  2
*D2
 10
23.31776186792241
 20
19.4396561378927
 30
0.0
 11
21.50526186792241
 21
19.4396561378927
 31
0.0
 70
    32
 71
     5
 42
3.625
  3
STANDARD
100
AcDbAlignedDimension
 13
19.69276186792241
 23
18.18384358557917
 33
0.0
 14
23.31776186792241
 24
18.18384358557917
 34
0.0
100
AcDbRotatedDimension
  0
DIMENSION
  5
113D2
330
18
100
AcDbEntity
  8
DIM
100
AcDbDimension
  2
*D3
 10
27.14135061448168
 20
19.59373437160985
 30
0.0
 11
28.89135061448169
 21
19.59373437160985
 31
0.0
 70
    32
 71
     5
 42
3.5
  3
STANDARD
100
AcDbAlignedDimension
 13
30.64135061448169
 23
18.18384358557917
 33
0.0
 14
27.14135061448168
 24
18.18384358557917
 34
0.0
100
AcDbRotatedDimension
  0
ENDSEC
  0
SECTION
  2
OBJECTS
  0
DICTIONARY
  5
C
330
0
100
AcDbDictionary
281
     1
  3
ACAD_COLOR
350
10FF2
  3
ACAD_GROUP
350
D
  3
ACAD_IMAGE_DICT
350
21
  3
ACAD_IMAGE_VARS
350
20
  3
ACAD_LAYOUT
350
10FF3
  3
ACAD_MATERIAL
350
10FF1
  3
ACAD_MLINESTYLE
350
1B
  3
ACAD_PLOTSETTINGS
350
10FF4
  3
ACAD_PLOTSTYLENAME
350
10FEF
  0
DICTIONARY
  5
10FF2
102
{ACAD_REACTORS
330
C
102
}
330
C
100
AcDbDictionary
281
     1
  0
DICTIONARY
  5
D
102
{ACAD_REACTORS
330
C
102
}
330
C
100
AcDbDictionary
281
     1
  0
DICTIONARY
  5
21
102
{ACAD_REACTORS
330
C
102
}
330
C
100
AcDbDictionary
281
     1
  3
2206-1
350
1019E
  3
2206-2
350
101A1
  0
RASTERVARIABLES
  5
20
102
{ACAD_REACTORS
330
C
102
}
330
C
100
AcDbRasterVariables
 90
        0
 70
     1
 71
     1
 72
     0
  0
DICTIONARY
  5
10FF3
102
{ACAD_REACTORS
330
C
102
}
330
C
100
AcDbDictionary
281
     1
  3
Layout1
350
10FF6
  3
Model
350
10FF5
  0
DICTIONARY
  5
10FF1
102
{ACAD_REACTORS
330
C
102
}
330
C
100
AcDbDictionary
281
     1
  0
DICTIONARY
  5
1B
102
{ACAD_REACTORS
330
C
102
}
330
C
100
AcDbDictionary
281
     1
  3
STANDARD
350
1C
  0
DICTIONARY
  5
10FF4
102
{ACAD_REACTORS
330
C
102
}
330
C
100
AcDbDictionary
281
     1
  0
ACDBDICTIONARYWDFLT
  5
10FEF
102
{ACAD_REACTORS
330
C
102
}
330
C
100
AcDbDictionary
281
     1
  3
Normal
350
10FF0
100
AcDbDictionaryWithDefault
340
10FF0
  0
IMAGEDEF
  5
1019E
102
{ACAD_REACTORS
330
21
102
}
330
21
100
AcDbRasterImageDef
 90
        0
  1
U:\TPDWG\MichelQ\2206-1.tif
 10
2478.0
 20
2313.0
 11
0.0705555555555556
 21
0.0705555555555556
280
     1
281
     5
  0
IMAGEDEF
  5
101A1
102
{ACAD_REACTORS
330
21
102
}
330
21
100
AcDbRasterImageDef
 90
        0
  1
U:\TPDWG\MichelQ\2206-2.tif
 10
2478.0
 20
2313.0
 11
0.0705555555555556
 21
0.0705555555555556
280
     1
281
     5
  0
LAYOUT
  5
10FF6
102
{ACAD_REACTORS
330
10FF3
102
}
330
10FF3
100
AcDbPlotSettings
  1

  2
None
  4

  6

 40
0.0
 41
0.0
 42
0.0
 43
0.0
 44
0.0
 45
0.0
 46
0.0
 47
0.0
 48
0.0
 49
0.0
140
0.0
141
0.0
142
1.0
143
1.0
 70
   688
 72
     0
 73
     0
 74
     5
  7

 75
    16
147
1.0
 76
     0
 77
     2
 78
   300
148
0.0
149
0.0
100
AcDbLayout
  1
Layout1
 70
     1
 71
     1
 10
0.0
 20
0.0
 11
12.0
 21
9.0
 12
0.0
 22
0.0
 32
0.0
 14
1.000000000000000E+20
 24
1.000000000000000E+20
 34
1.000000000000000E+20
 15
-1.000000000000000E+20
 25
-1.000000000000000E+20
 35
-1.000000000000000E+20
146
0.0
 13
0.0
 23
0.0
 33
0.0
 16
1.0
 26
0.0
 36
0.0
 17
0.0
 27
1.0
 37
0.0
 76
     0
330
15
  0
LAYOUT
  5
10FF5
102
{ACAD_REACTORS
330
10FF3
102
}
330
10FF3
100
AcDbPlotSettings
  1

  2
None
  4

  6

 40
0.0
 41
0.0
 42
0.0
 43
0.0
 44
0.0
 45
0.0
 46
0.0
 47
0.0
 48
0.0
 49
0.0
140
0.0
141
0.0
142
1.0
143
1.0
 70
  1712
 72
     0
 73
     0
 74
     0
  7

 75
     0
147
1.0
 76
     0
 77
     2
 78
   300
148
0.0
149
0.0
100
AcDbLayout
  1
Model
 70
     1
 71
     0
 10
0.0
 20
0.0
 11
12.0
 21
9.0
 12
0.0
 22
0.0
 32
0.0
 14
0.0
 24
0.0
 34
0.0
 15
0.0
 25
0.0
 35
0.0
146
0.0
 13
0.0
 23
0.0
 33
0.0
 16
1.0
 26
0.0
 36
0.0
 17
0.0
 27
1.0
 37
0.0
 76
     0
330
18
  0
MLINESTYLE
  5
1C
102
{ACAD_REACTORS
330
1B
102
}
330
1B
100
AcDbMlineStyle
  2
STANDARD
 70
     0
  3

 62
   256
 51
90.0
 52
90.0
 71
     2
 49
0.5
 62
   256
  6
BYLAYER
 49
-0.5
 62
   256
  6
BYLAYER
  0
ACDBPLACEHOLDER
  5
10FF0
102
{ACAD_REACTORS
330
10FEF
102
}
330
10FEF
  0
ENDSEC
  0
EOF
