  0
SECTION
  2
HEADER
  9
$ACADVER
  1
AC1018
  9
$ACADMAINTVER
 70
     0
  9
$DWGCODEPAGE
  3
ANSI_1252
  9
$INSBASE
 10
0.0
 20
0.0
 30
0.0
  9
$EXTMIN
 10
37.44196615622052
 20
2.385904648014602
 30
0.0
  9
$EXTMAX
 10
66.02966871846478
 20
27.24953628428792
 30
0.0
  9
$LIMMIN
 10
0.0
 20
0.0
  9
$LIMMAX
 10
12.0
 20
9.0
  9
$ORTHOMODE
 70
     0
  9
$REGENMODE
 70
     1
  9
$FILLMODE
 70
     1
  9
$QTEXTMODE
 70
     0
  9
$MIRRTEXT
 70
     1
  9
$LTSCALE
 40
1.0
  9
$ATTMODE
 70
     1
  9
$TEXTSIZE
 40
0.2
  9
$TRACEWID
 40
0.05
  9
$TEXTSTYLE
  7
STANDARD
  9
$CLAYER
  8
0
  9
$CELTYPE
  6
BYLAYER
  9
$CECOLOR
 62
   256
  9
$CELTSCALE
 40
1.0
  9
$DISPSILH
 70
     0
  9
$DIMSCALE
 40
1.0
  9
$DIMASZ
 40
0.18
  9
$DIMEXO
 40
0.0625
  9
$DIMDLI
 40
0.38
  9
$DIMRND
 40
0.0
  9
$DIMDLE
 40
0.0
  9
$DIMEXE
 40
0.18
  9
$DIMTP
 40
0.0
  9
$DIMTM
 40
0.0
  9
$DIMTXT
 40
1.0
  9
$DIMCEN
 40
0.09
  9
$DIMTSZ
 40
0.0
  9
$DIMTOL
 70
     0
  9
$DIMLIM
 70
     0
  9
$DIMTIH
 70
     1
  9
$DIMTOH
 70
     1
  9
$DIMSE1
 70
     0
  9
$DIMSE2
 70
     0
  9
$DIMTAD
 70
     0
  9
$DIMZIN
 70
     0
  9
$DIMBLK
  1

  9
$DIMASO
 70
     1
  9
$DIMSHO
 70
     1
  9
$DIMPOST
  1

  9
$DIMAPOST
  1

  9
$DIMALT
 70
     0
  9
$DIMALTD
 70
     2
  9
$DIMALTF
 40
25.4
  9
$DIMLFAC
 40
1.0
  9
$DIMTOFL
 70
     0
  9
$DIMTVP
 40
0.0
  9
$DIMTIX
 70
     0
  9
$DIMSOXD
 70
     0
  9
$DIMSAH
 70
     0
  9
$DIMBLK1
  1

  9
$DIMBLK2
  1

  9
$DIMSTYLE
  2
STANDARD
  9
$DIMCLRD
 70
     0
  9
$DIMCLRE
 70
     0
  9
$DIMCLRT
 70
     0
  9
$DIMTFAC
 40
1.0
  9
$DIMGAP
 40
0.09
  9
$DIMJUST
 70
     0
  9
$DIMSD1
 70
     0
  9
$DIMSD2
 70
     0
  9
$DIMTOLJ
 70
     1
  9
$DIMTZIN
 70
     0
  9
$DIMALTZ
 70
     0
  9
$DIMALTTZ
 70
     0
  9
$DIMUPT
 70
     0
  9
$DIMDEC
 70
     4
  9
$DIMTDEC
 70
     4
  9
$DIMALTU
 70
     2
  9
$DIMALTTD
 70
     2
  9
$DIMTXSTY
  7
STANDARD
  9
$DIMAUNIT
 70
     0
  9
$DIMADEC
 70
     0
  9
$DIMALTRND
 40
0.0
  9
$DIMAZIN
 70
     0
  9
$DIMDSEP
 70
    46
  9
$DIMATFIT
 70
     3
  9
$DIMFRAC
 70
     0
  9
$DIMLDRBLK
  1

  9
$DIMLUNIT
 70
     5
  9
$DIMLWD
 70
    -2
  9
$DIMLWE
 70
    -2
  9
$DIMTMOVE
 70
     0
  9
$LUNITS
 70
     4
  9
$LUPREC
 70
     4
  9
$SKETCHINC
 40
0.1
  9
$FILLETRAD
 40
0.1
  9
$AUNITS
 70
     0
  9
$AUPREC
 70
     0
  9
$MENU
  1
.
  9
$ELEVATION
 40
0.0
  9
$PELEVATION
 40
0.0
  9
$THICKNESS
 40
0.0
  9
$LIMCHECK
 70
     0
  9
$CHAMFERA
 40
0.5
  9
$CHAMFERB
 40
0.5
  9
$CHAMFERC
 40
1.0
  9
$CHAMFERD
 40
0.0
  9
$SKPOLY
 70
     0
  9
$TDCREATE
 40
2451160.318790972
  9
$TDUCREATE
 40
2451160.485457639
  9
$TDUPDATE
 40
2453529.491838426
  9
$TDUUPDATE
 40
2453529.658505092
  9
$TDINDWG
 40
0.4313073148
  9
$TDUSRTIMER
 40
0.4313073148
  9
$USRTIMER
 70
     1
  9
$ANGBASE
 50
0.0
  9
$ANGDIR
 70
     0
  9
$PDMODE
 70
     3
  9
$PDSIZE
 40
1.0
  9
$PLINEWID
 40
0.0
  9
$SPLFRAME
 70
     0
  9
$SPLINETYPE
 70
     6
  9
$SPLINESEGS
 70
     8
  9
$HANDSEED
  5
F522
  9
$SURFTAB1
 70
     6
  9
$SURFTAB2
 70
     6
  9
$SURFTYPE
 70
     6
  9
$SURFU
 70
     6
  9
$SURFV
 70
     6
  9
$UCSBASE
  2

  9
$UCSNAME
  2

  9
$UCSORG
 10
0.0
 20
0.0
 30
0.0
  9
$UCSXDIR
 10
1.0
 20
0.0
 30
0.0
  9
$UCSYDIR
 10
0.0
 20
1.0
 30
0.0
  9
$UCSORTHOREF
  2

  9
$UCSORTHOVIEW
 70
     0
  9
$UCSORGTOP
 10
0.0
 20
0.0
 30
0.0
  9
$UCSORGBOTTOM
 10
0.0
 20
0.0
 30
0.0
  9
$UCSORGLEFT
 10
0.0
 20
0.0
 30
0.0
  9
$UCSORGRIGHT
 10
0.0
 20
0.0
 30
0.0
  9
$UCSORGFRONT
 10
0.0
 20
0.0
 30
0.0
  9
$UCSORGBACK
 10
0.0
 20
0.0
 30
0.0
  9
$PUCSBASE
  2

  9
$PUCSNAME
  2

  9
$PUCSORG
 10
0.0
 20
0.0
 30
0.0
  9
$PUCSXDIR
 10
1.0
 20
0.0
 30
0.0
  9
$PUCSYDIR
 10
0.0
 20
1.0
 30
0.0
  9
$PUCSORTHOREF
  2

  9
$PUCSORTHOVIEW
 70
     0
  9
$PUCSORGTOP
 10
0.0
 20
0.0
 30
0.0
  9
$PUCSORGBOTTOM
 10
0.0
 20
0.0
 30
0.0
  9
$PUCSORGLEFT
 10
0.0
 20
0.0
 30
0.0
  9
$PUCSORGRIGHT
 10
0.0
 20
0.0
 30
0.0
  9
$PUCSORGFRONT
 10
0.0
 20
0.0
 30
0.0
  9
$PUCSORGBACK
 10
0.0
 20
0.0
 30
0.0
  9
$USERI1
 70
     0
  9
$USERI2
 70
     0
  9
$USERI3
 70
     0
  9
$USERI4
 70
     0
  9
$USERI5
 70
     0
  9
$USERR1
 40
0.0
  9
$USERR2
 40
0.0
  9
$USERR3
 40
0.0
  9
$USERR4
 40
0.0
  9
$USERR5
 40
0.0
  9
$WORLDVIEW
 70
     1
  9
$SHADEDGE
 70
     3
  9
$SHADEDIF
 70
    70
  9
$TILEMODE
 70
     1
  9
$MAXACTVP
 70
    48
  9
$PINSBASE
 10
0.0
 20
0.0
 30
0.0
  9
$PLIMCHECK
 70
     0
  9
$PEXTMIN
 10
1.049743681505489
 20
0.7996673802841308
 30
-0.0015258207003583
  9
$PEXTMAX
 10
9.450622583565561
 20
7.200576801086516
 30
0.0000000349246037
  9
$PLIMMIN
 10
-0.2500002402958907
 20
-0.2499999962453767
  9
$PLIMMAX
 10
10.74999951940821
 20
8.249999763458731
  9
$UNITMODE
 70
     0
  9
$VISRETAIN
 70
     1
  9
$PLINEGEN
 70
     0
  9
$PSLTSCALE
 70
     1
  9
$TREEDEPTH
 70
  3020
  9
$CMLSTYLE
  2
STANDARD
  9
$CMLJUST
 70
     0
  9
$CMLSCALE
 40
1.0
  9
$PROXYGRAPHICS
 70
     1
  9
$MEASUREMENT
 70
     0
  9
$CELWEIGHT
370
    -1
  9
$ENDCAPS
280
     0
  9
$JOINSTYLE
280
     0
  9
$LWDISPLAY
290
     0
  9
$INSUNITS
 70
     0
  9
$HYPERLINKBASE
  1

  9
$STYLESHEET
  1

  9
$XEDIT
290
     1
  9
$CEPSNTYPE
380
     0
  9
$PSTYLEMODE
290
     1
  9
$FINGERPRINTGUID
  2
{0BB3DC25-ECA0-40C8-B233-7D5F00621E1F}
  9
$VERSIONGUID
  2
{D733226B-0F48-4540-81EE-58DE4E5208FC}
  9
$EXTNAMES
290
     1
  9
$PSVPSCALE
 40
0.0
  9
$OLESTARTUP
290
     0
  9
$SORTENTS
280
   127
  9
$INDEXCTL
280
     0
  9
$HIDETEXT
280
     0
  9
$XCLIPFRAME
290
     0
  9
$HALOGAP
280
     0
  9
$OBSCOLOR
 70
   257
  9
$OBSLTYPE
280
     0
  9
$INTERSECTIONDISPLAY
280
     0
  9
$INTERSECTIONCOLOR
 70
   257
  9
$DIMASSOC
280
     1
  9
$PROJECTNAME
  1

  0
ENDSEC
  0
SECTION
  2
CLASSES
  0
CLASS
  1
RASTERVARIABLES
  2
AcDbRasterVariables
  3
ISM
 90
        0
 91
        1
280
     0
281
     0
  0
CLASS
  1
IMAGEDEF
  2
AcDbRasterImageDef
  3
ISM
 90
        0
 91
        6
280
     0
281
     0
  0
CLASS
  1
IMAGEDEF_REACTOR
  2
AcDbRasterImageDefReactor
  3
ISM
 90
        1
 91
        1
280
     0
281
     0
  0
CLASS
  1
IMAGE
  2
AcDbRasterImage
  3
ISM
 90
      127
 91
        0
280
     0
281
     1
  0
CLASS
  1
ACDBDICTIONARYWDFLT
  2
AcDbDictionaryWithDefault
  3
ObjectDBX Classes
 90
        0
 91
        1
280
     0
281
     0
  0
CLASS
  1
SORTENTSTABLE
  2
AcDbSortentsTable
  3
ObjectDBX Classes
 90
        0
 91
        1
280
     0
281
     0
  0
ENDSEC
  0
SECTION
  2
TABLES
  0
TABLE
  2
VPORT
  5
8
330
0
100
AcDbSymbolTable
 70
     2
  0
VPORT
  5
F521
330
8
100
AcDbSymbolTableRecord
100
AcDbViewportTableRecord
  2
*Active
 70
     0
 10
0.0
 20
0.0
 11
1.0
 21
1.0
 12
53.47701495625027
 22
12.98926601732137
 13
0.0
 23
0.0
 14
0.5
 24
0.5
 15
0.5
 25
0.5
 16
0.0
 26
0.0
 36
1.0
 17
0.0
 27
0.0
 37
0.0
 40
26.32632397321162
 41
1.955307262569832
 42
50.0
 43
0.0
 44
0.0
 50
0.0
 51
0.0
 71
     0
 72
   100
 73
     1
 74
     1
 75
     0
 76
     0
 77
     0
 78
     0
281
     0
 65
     1
110
0.0
120
0.0
130
0.0
111
1.0
121
0.0
131
0.0
112
0.0
122
1.0
132
0.0
 79
     0
146
0.0
  0
ENDTAB
  0
TABLE
  2
LTYPE
  5
5
330
0
100
AcDbSymbolTable
 70
     1
  0
LTYPE
  5
12
330
5
100
AcDbSymbolTableRecord
100
AcDbLinetypeTableRecord
  2
BYBLOCK
 70
     0
  3

 72
    65
 73
     0
 40
0.0
  0
LTYPE
  5
13
330
5
100
AcDbSymbolTableRecord
100
AcDbLinetypeTableRecord
  2
BYLAYER
 70
     0
  3

 72
    65
 73
     0
 40
0.0
  0
LTYPE
  5
14
330
5
100
AcDbSymbolTableRecord
100
AcDbLinetypeTableRecord
  2
CONTINUOUS
 70
     0
  3
Solid line
 72
    65
 73
     0
 40
0.0
  0
ENDTAB
  0
TABLE
  2
LAYER
  5
2
330
0
100
AcDbSymbolTable
 70
     3
  0
LAYER
  5
E
330
2
100
AcDbSymbolTableRecord
100
AcDbLayerTableRecord
  2
0
 70
     0
 62
     7
  6
CONTINUOUS
370
    -3
390
F265
  0
LAYER
  5
F283
330
2
100
AcDbSymbolTableRecord
100
AcDbLayerTableRecord
  2
DIM
 70
     0
 62
    -3
  6
CONTINUOUS
370
    -3
390
F265
  0
LAYER
  5
F285
330
2
100
AcDbSymbolTableRecord
100
AcDbLayerTableRecord
  2
Defpoints
 70
     0
 62
     7
  6
CONTINUOUS
290
     0
370
    -3
390
F265
  0
ENDTAB
  0
TABLE
  2
STYLE
  5
3
330
0
100
AcDbSymbolTable
 70
     2
  0
STYLE
  5
F
330
3
100
AcDbSymbolTableRecord
100
AcDbTextStyleTableRecord
  2
STANDARD
 70
     0
 40
0.0
 41
1.0
 50
0.0
 71
     0
 42
0.2
  3
txt
  4

  0
STYLE
  5
F311
330
3
100
AcDbSymbolTableRecord
100
AcDbTextStyleTableRecord
  2
ITALICT
 70
     0
 40
4.0
 41
1.0
 50
0.0
 71
     0
 42
4.0
  3
italict.shx
  4

  0
ENDTAB
  0
TABLE
  2
VIEW
  5
6
330
0
100
AcDbSymbolTable
 70
     0
  0
ENDTAB
  0
TABLE
  2
UCS
  5
7
330
0
100
AcDbSymbolTable
 70
     0
  0
ENDTAB
  0
TABLE
  2
APPID
  5
9
330
0
100
AcDbSymbolTable
 70
     1
  0
APPID
  5
10
330
9
100
AcDbSymbolTableRecord
100
AcDbRegAppTableRecord
  2
ACAD
 70
     0
  0
ENDTAB
  0
TABLE
  2
DIMSTYLE
  5
A
330
0
100
AcDbSymbolTable
 70
     1
100
AcDbDimStyleTable
 71
     1
340
1D
  0
DIMSTYLE
105
1D
102
{ACAD_REACTORS
330
F29D
330
F2D3
330
F39B
330
F39C
330
F4E4
330
F4F2
102
}
330
A
100
AcDbSymbolTableRecord
100
AcDbDimStyleTableRecord
  2
STANDARD
 70
     0
140
1.0
277
     5
340
F
  0
ENDTAB
  0
TABLE
  2
BLOCK_RECORD
  5
1
330
0
100
AcDbSymbolTable
 70
    10
  0
BLOCK_RECORD
  5
18
102
{ACAD_XDICTIONARY
360
F272
102
}
330
1
100
AcDbSymbolTableRecord
100
AcDbBlockTableRecord
  2
*MODEL_SPACE
340
F26A
  0
BLOCK_RECORD
  5
15
330
1
100
AcDbSymbolTableRecord
100
AcDbBlockTableRecord
  2
*PAPER_SPACE
340
F26B
  0
BLOCK_RECORD
  5
ED1D
330
1
100
AcDbSymbolTableRecord
100
AcDbBlockTableRecord
  2
2208_E
340
0
  0
BLOCK_RECORD
  5
F29E
330
1
100
AcDbSymbolTableRecord
100
AcDbBlockTableRecord
  2
*D2
340
0
  0
BLOCK_RECORD
  5
F2D4
330
1
100
AcDbSymbolTableRecord
100
AcDbBlockTableRecord
  2
*D3
340
0
  0
BLOCK_RECORD
  5
F3CD
330
1
100
AcDbSymbolTableRecord
100
AcDbBlockTableRecord
  2
*D6
340
0
  0
BLOCK_RECORD
  5
F3DA
330
1
100
AcDbSymbolTableRecord
100
AcDbBlockTableRecord
  2
*D7
340
0
  0
BLOCK_RECORD
  5
F4E5
330
1
100
AcDbSymbolTableRecord
100
AcDbBlockTableRecord
  2
*D8
340
0
  0
BLOCK_RECORD
  5
F4F3
330
1
100
AcDbSymbolTableRecord
100
AcDbBlockTableRecord
  2
*D9
340
0
  0
ENDTAB
  0
ENDSEC
  0
SECTION
  2
BLOCKS
  0
BLOCK
  5
19
330
18
100
AcDbEntity
  8
0
100
AcDbBlockBegin
  2
*MODEL_SPACE
 70
     0
 10
0.0
 20
0.0
 30
0.0
  3
*MODEL_SPACE
  1

  0
ENDBLK
  5
1A
330
18
100
AcDbEntity
  8
0
100
AcDbBlockEnd
  0
BLOCK
  5
16
330
15
100
AcDbEntity
 67
     1
  8
0
100
AcDbBlockBegin
  2
*PAPER_SPACE
 70
     0
 10
0.0
 20
0.0
 30
0.0
  3
*PAPER_SPACE
  1

  0
ENDBLK
  5
17
330
15
100
AcDbEntity
 67
     1
  8
0
100
AcDbBlockEnd
  0
BLOCK
  5
EFCA
330
ED1D
100
AcDbEntity
  8
0
100
AcDbBlockBegin
  2
2208_E
 70
     0
 10
0.0
 20
0.0
 30
0.0
  3
2208_E
  1

  0
LINE
  5
EFCB
330
ED1D
100
AcDbEntity
  8
0
100
AcDbLine
 10
3.610964494648104
 20
14.96204195919078
 30
0.0
 11
3.610964494648104
 21
0.0
 31
0.0
  0
POLYLINE
  5
EFCC
330
ED1D
100
AcDbEntity
  8
0
100
AcDb2dPolyline
 66
     1
 10
0.0
 20
0.0
 30
0.0
 70
     4
 75
     6
  0
VERTEX
  5
EFCD
330
EFCC
100
AcDbEntity
  8
0
100
AcDbVertex
100
AcDb2dVertex
 10
4.28951781152546
 20
2.712939910500816
 30
0.0
 70
    16
  0
VERTEX
  5
EFCE
330
EFCC
100
AcDbEntity
  8
0
100
AcDbVertex
100
AcDb2dVertex
 10
4.28951781152546
 20
2.712939910500816
 30
0.0
 70
     8
  0
VERTEX
  5
EFCF
330
EFCC
100
AcDbEntity
  8
0
100
AcDbVertex
100
AcDb2dVertex
 10
4.426801909663151
 20
3.692842896687404
 30
0.0
 70
     8
  0
VERTEX
  5
EFD0
330
EFCC
100
AcDbEntity
  8
0
100
AcDbVertex
100
AcDb2dVertex
 10
4.551063413887735
 20
4.517543754410246
 30
0.0
 70
     8
  0
VERTEX
  5
EFD1
330
EFCC
100
AcDbEntity
  8
0
100
AcDbVertex
100
AcDb2dVertex
 10
4.664045506202381
 20
5.205852789769982
 30
0.0
 70
     8
  0
VERTEX
  5
EFD2
330
EFCC
100
AcDbEntity
  8
0
100
AcDbVertex
100
AcDb2dVertex
 10
4.767491368610219
 20
5.776580308867243
 30
0.0
 70
     8
  0
VERTEX
  5
EFD3
330
EFCC
100
AcDbEntity
  8
0
100
AcDbVertex
100
AcDb2dVertex
 10
4.86314418311441
 20
6.248536617802665
 30
0.0
 70
     8
  0
VERTEX
  5
EFD4
330
EFCC
100
AcDbEntity
  8
0
100
AcDbVertex
100
AcDb2dVertex
 10
4.952747131718101
 20
6.640532022676884
 30
0.0
 70
     8
  0
VERTEX
  5
EFD5
330
EFCC
100
AcDbEntity
  8
0
100
AcDbVertex
100
AcDb2dVertex
 10
5.038043396424431
 20
6.97137682959053
 30
0.0
 70
     8
  0
VERTEX
  5
EFD6
330
EFCC
100
AcDbEntity
  8
0
100
AcDbVertex
100
AcDb2dVertex
 10
5.120776159236559
 20
7.259881344644258
 30
0.0
 70
     8
  0
VERTEX
  5
EFD7
330
EFCC
100
AcDbEntity
  8
0
100
AcDbVertex
100
AcDb2dVertex
 10
5.202529095269017
 20
7.522131229668337
 30
0.0
 70
     8
  0
VERTEX
  5
EFD8
330
EFCC
100
AcDbEntity
  8
0
100
AcDbVertex
100
AcDb2dVertex
 10
5.284247852081936
 20
7.76331356941173
 30
0.0
 70
     8
  0
VERTEX
  5
EFD9
330
EFCC
100
AcDbEntity
  8
0
100
AcDbVertex
100
AcDb2dVertex
 10
5.366718570346836
 20
7.985890804353045
 30
0.0
 70
     8
  0
VERTEX
  5
EFDA
330
EFCC
100
AcDbEntity
  8
0
100
AcDbVertex
100
AcDb2dVertex
 10
5.450727390735234
 20
8.192325374970904
 30
0.0
 70
     8
  0
VERTEX
  5
EFDB
330
EFCC
100
AcDbEntity
  8
0
100
AcDbVertex
100
AcDb2dVertex
 10
5.537060453918645
 20
8.385079721743915
 30
0.0
 70
     8
  0
VERTEX
  5
EFDC
330
EFCC
100
AcDbEntity
  8
0
100
AcDbVertex
100
AcDb2dVertex
 10
5.626503900568575
 20
8.566616285150685
 30
0.0
 70
     8
  0
VERTEX
  5
EFDD
330
EFCC
100
AcDbEntity
  8
0
100
AcDbVertex
100
AcDb2dVertex
 10
5.719843871356562
 20
8.739397505669833
 30
0.0
 70
     8
  0
VERTEX
  5
EFDE
330
EFCC
100
AcDbEntity
  8
0
100
AcDbVertex
100
AcDb2dVertex
 10
5.817866506954107
 20
8.905885823779966
 30
0.0
 70
     8
  0
VERTEX
  5
EFDF
330
EFCC
100
AcDbEntity
  8
0
100
AcDbVertex
100
AcDb2dVertex
 10
5.92119274452995
 20
9.068178873940288
 30
0.0
 70
     8
  0
VERTEX
  5
EFE0
330
EFCC
100
AcDbEntity
  8
0
100
AcDbVertex
100
AcDb2dVertex
 10
6.029782707241668
 20
9.226915066532312
 30
0.0
 70
     8
  0
VERTEX
  5
EFE1
330
EFCC
100
AcDbEntity
  8
0
100
AcDbVertex
100
AcDb2dVertex
 10
6.143431314744052
 20
9.382368005918147
 30
0.0
 70
     8
  0
VERTEX
  5
EFE2
330
EFCC
100
AcDbEntity
  8
0
100
AcDbVertex
100
AcDb2dVertex
 10
6.261933486691898
 20
9.53481129645989
 30
0.0
 70
     8
  0
VERTEX
  5
EFE3
330
EFCC
100
AcDbEntity
  8
0
100
AcDbVertex
100
AcDb2dVertex
 10
6.385084142740002
 20
9.684518542519649
 30
0.0
 70
     8
  0
VERTEX
  5
EFE4
330
EFCC
100
AcDbEntity
  8
0
100
AcDbVertex
100
AcDb2dVertex
 10
6.51267820254316
 20
9.831763348459526
 30
0.0
 70
     8
  0
VERTEX
  5
EFE5
330
EFCC
100
AcDbEntity
  8
0
100
AcDbVertex
100
AcDb2dVertex
 10
6.644510585756162
 20
9.976819318641625
 30
0.0
 70
     8
  0
VERTEX
  5
EFE6
330
EFCC
100
AcDbEntity
  8
0
100
AcDbVertex
100
AcDb2dVertex
 10
6.780376212033804
 20
10.11996005742805
 30
0.0
 70
     8
  0
VERTEX
  5
EFE7
330
EFCC
100
AcDbEntity
  8
0
100
AcDbVertex
100
AcDb2dVertex
 10
6.920035821058686
 20
10.26184677552795
 30
0.0
 70
     8
  0
VERTEX
  5
EFE8
330
EFCC
100
AcDbEntity
  8
0
100
AcDbVertex
100
AcDb2dVertex
 10
7.063113432624707
 20
10.4046911090387
 30
0.0
 70
     8
  0
VERTEX
  5
EFE9
330
EFCC
100
AcDbEntity
  8
0
100
AcDbVertex
100
AcDb2dVertex
 10
7.20919888655354
 20
10.55109230040474
 30
0.0
 70
     8
  0
VERTEX
  5
EFEA
330
EFCC
100
AcDbEntity
  8
0
100
AcDbVertex
100
AcDb2dVertex
 10
7.357882022666888
 20
10.70364959207048
 30
0.0
 70
     8
  0
VERTEX
  5
EFEB
330
EFCC
100
AcDbEntity
  8
0
100
AcDbVertex
100
AcDb2dVertex
 10
7.508752680786454
 20
10.86496222648035
 30
0.0
 70
     8
  0
VERTEX
  5
EFEC
330
EFCC
100
AcDbEntity
  8
0
100
AcDbVertex
100
AcDb2dVertex
 10
7.661400700733924
 20
11.03762944607879
 30
0.0
 70
     8
  0
VERTEX
  5
EFED
330
EFCC
100
AcDbEntity
  8
0
100
AcDbVertex
100
AcDb2dVertex
 10
7.815415922331002
 20
11.2242504933102
 30
0.0
 70
     8
  0
VERTEX
  5
EFEE
330
EFCC
100
AcDbEntity
  8
0
100
AcDbVertex
100
AcDb2dVertex
 10
7.970388185399368
 20
11.42742461061902
 30
0.0
 70
     8
  0
VERTEX
  5
EFEF
330
EFCC
100
AcDbEntity
  8
0
100
AcDbVertex
100
AcDb2dVertex
 10
8.125856497844484
 20
11.65037629687054
 30
0.0
 70
     8
  0
VERTEX
  5
EFF0
330
EFCC
100
AcDbEntity
  8
0
100
AcDbVertex
100
AcDb2dVertex
 10
8.281156539906799
 20
11.89883107661342
 30
0.0
 70
     8
  0
VERTEX
  5
EFF1
330
EFCC
100
AcDbEntity
  8
0
100
AcDbVertex
100
AcDb2dVertex
 10
8.435573159910521
 20
12.17913973081723
 30
0.0
 70
     8
  0
VERTEX
  5
EFF2
330
EFCC
100
AcDbEntity
  8
0
100
AcDbVertex
100
AcDb2dVertex
 10
8.588391206179881
 20
12.49765304045151
 30
0.0
 70
     8
  0
VERTEX
  5
EFF3
330
EFCC
100
AcDbEntity
  8
0
100
AcDbVertex
100
AcDb2dVertex
 10
8.738895527039066
 20
12.86072178648578
 30
0.0
 70
     8
  0
VERTEX
  5
EFF4
330
EFCC
100
AcDbEntity
  8
0
100
AcDbVertex
100
AcDb2dVertex
 10
8.886370970812283
 20
13.2746967498896
 30
0.0
 70
     8
  0
VERTEX
  5
EFF5
330
EFCC
100
AcDbEntity
  8
0
100
AcDbVertex
100
AcDb2dVertex
 10
9.03010238582377
 20
13.74592871163251
 30
0.0
 70
     8
  0
VERTEX
  5
EFF6
330
EFCC
100
AcDbEntity
  8
0
100
AcDbVertex
100
AcDb2dVertex
 10
9.169374620397714
 20
14.28076845268405
 30
0.0
 70
     8
  0
VERTEX
  5
EFF7
330
EFCC
100
AcDbEntity
  8
0
100
AcDbVertex
100
AcDb2dVertex
 10
4.674521693557334
 20
5.549670983706159
 30
0.0
 70
    16
  0
VERTEX
  5
EFF8
330
EFCC
100
AcDbEntity
  8
0
100
AcDbVertex
100
AcDb2dVertex
 10
5.129526238074507
 20
7.510867859410121
 30
0.0
 70
    16
  0
VERTEX
  5
EFF9
330
EFCC
100
AcDbEntity
  8
0
100
AcDbVertex
100
AcDb2dVertex
 10
5.759532581822565
 20
8.946744084370886
 30
0.0
 70
    16
  0
VERTEX
  5
EFFA
330
EFCC
100
AcDbEntity
  8
0
100
AcDbVertex
100
AcDb2dVertex
 10
6.739542476359861
 20
10.13747074578615
 30
0.0
 70
    16
  0
VERTEX
  5
EFFB
330
EFCC
100
AcDbEntity
  8
0
100
AcDbVertex
100
AcDb2dVertex
 10
7.964554784940791
 20
11.22313327705277
 30
0.0
 70
    16
  0
VERTEX
  5
EFFC
330
EFCC
100
AcDbEntity
  8
0
100
AcDbVertex
100
AcDb2dVertex
 10
8.804563259162389
 20
12.76407363216219
 30
0.0
 70
    16
  0
VERTEX
  5
EFFD
330
EFCC
100
AcDbEntity
  8
0
100
AcDbVertex
100
AcDb2dVertex
 10
9.169374620397714
 20
14.28076845268405
 30
0.0
 70
    16
  0
SEQEND
  5
EFFE
330
EFCC
100
AcDbEntity
  8
0
  0
LINE
  5
EFFF
330
ED1D
100
AcDbEntity
  8
0
100
AcDbLine
 10
6.999451574295907
 20
7.607852093996147
 30
0.0
 11
7.059338899176172
 21
7.725636132045945
 31
0.0
  0
LINE
  5
F000
330
ED1D
100
AcDbEntity
  8
0
100
AcDbLine
 10
-3.388487079647802
 20
7.607852093996147
 30
0.0
 11
-3.448374404528067
 21
7.725636132045945
 31
0.0
  0
POLYLINE
  5
F001
330
ED1D
100
AcDbEntity
  8
0
100
AcDb2dPolyline
 66
     1
 10
0.0
 20
0.0
 30
0.0
 70
     4
 75
     6
  0
VERTEX
  5
F002
330
F001
100
AcDbEntity
  8
0
100
AcDbVertex
100
AcDb2dVertex
 10
-0.6785533168773519
 20
2.712939910500816
 30
0.0
 70
    16
  0
VERTEX
  5
F003
330
F001
100
AcDbEntity
  8
0
100
AcDbVertex
100
AcDb2dVertex
 10
-0.6785533168773519
 20
2.712939910500816
 30
0.0
 70
     8
  0
VERTEX
  5
F004
330
F001
100
AcDbEntity
  8
0
100
AcDbVertex
100
AcDb2dVertex
 10
-0.8158374150150429
 20
3.692842896687404
 30
0.0
 70
     8
  0
VERTEX
  5
F005
330
F001
100
AcDbEntity
  8
0
100
AcDbVertex
100
AcDb2dVertex
 10
-0.9400989192396274
 20
4.517543754410246
 30
0.0
 70
     8
  0
VERTEX
  5
F006
330
F001
100
AcDbEntity
  8
0
100
AcDbVertex
100
AcDb2dVertex
 10
-1.053081011554272
 20
5.205852789769982
 30
0.0
 70
     8
  0
VERTEX
  5
F007
330
F001
100
AcDbEntity
  8
0
100
AcDbVertex
100
AcDb2dVertex
 10
-1.156526873962111
 20
5.776580308867243
 30
0.0
 70
     8
  0
VERTEX
  5
F008
330
F001
100
AcDbEntity
  8
0
100
AcDbVertex
100
AcDb2dVertex
 10
-1.252179688466302
 20
6.248536617802665
 30
0.0
 70
     8
  0
VERTEX
  5
F009
330
F001
100
AcDbEntity
  8
0
100
AcDbVertex
100
AcDb2dVertex
 10
-1.341782637069993
 20
6.640532022676884
 30
0.0
 70
     8
  0
VERTEX
  5
F00A
330
F001
100
AcDbEntity
  8
0
100
AcDbVertex
100
AcDb2dVertex
 10
-1.427078901776322
 20
6.97137682959053
 30
0.0
 70
     8
  0
VERTEX
  5
F00B
330
F001
100
AcDbEntity
  8
0
100
AcDbVertex
100
AcDb2dVertex
 10
-1.50981166458845
 20
7.259881344644258
 30
0.0
 70
     8
  0
VERTEX
  5
F00C
330
F001
100
AcDbEntity
  8
0
100
AcDbVertex
100
AcDb2dVertex
 10
-1.591564600620912
 20
7.522131229668337
 30
0.0
 70
     8
  0
VERTEX
  5
F00D
330
F001
100
AcDbEntity
  8
0
100
AcDbVertex
100
AcDb2dVertex
 10
-1.673283357433831
 20
7.76331356941173
 30
0.0
 70
     8
  0
VERTEX
  5
F00E
330
F001
100
AcDbEntity
  8
0
100
AcDbVertex
100
AcDb2dVertex
 10
-1.755754075698732
 20
7.985890804353045
 30
0.0
 70
     8
  0
VERTEX
  5
F00F
330
F001
100
AcDbEntity
  8
0
100
AcDbVertex
100
AcDb2dVertex
 10
-1.839762896087126
 20
8.192325374970904
 30
0.0
 70
     8
  0
VERTEX
  5
F010
330
F001
100
AcDbEntity
  8
0
100
AcDbVertex
100
AcDb2dVertex
 10
-1.926095959270533
 20
8.385079721743915
 30
0.0
 70
     8
  0
VERTEX
  5
F011
330
F001
100
AcDbEntity
  8
0
100
AcDbVertex
100
AcDb2dVertex
 10
-2.015539405920467
 20
8.566616285150685
 30
0.0
 70
     8
  0
VERTEX
  5
F012
330
F001
100
AcDbEntity
  8
0
100
AcDbVertex
100
AcDb2dVertex
 10
-2.108879376708451
 20
8.739397505669833
 30
0.0
 70
     8
  0
VERTEX
  5
F013
330
F001
100
AcDbEntity
  8
0
100
AcDbVertex
100
AcDb2dVertex
 10
-2.206902012305995
 20
8.905885823779966
 30
0.0
 70
     8
  0
VERTEX
  5
F014
330
F001
100
AcDbEntity
  8
0
100
AcDbVertex
100
AcDb2dVertex
 10
-2.310228249881838
 20
9.068178873940288
 30
0.0
 70
     8
  0
VERTEX
  5
F015
330
F001
100
AcDbEntity
  8
0
100
AcDbVertex
100
AcDb2dVertex
 10
-2.418818212593556
 20
9.226915066532312
 30
0.0
 70
     8
  0
VERTEX
  5
F016
330
F001
100
AcDbEntity
  8
0
100
AcDbVertex
100
AcDb2dVertex
 10
-2.53246682009594
 20
9.382368005918147
 30
0.0
 70
     8
  0
VERTEX
  5
F017
330
F001
100
AcDbEntity
  8
0
100
AcDbVertex
100
AcDb2dVertex
 10
-2.650968992043789
 20
9.53481129645989
 30
0.0
 70
     8
  0
VERTEX
  5
F018
330
F001
100
AcDbEntity
  8
0
100
AcDbVertex
100
AcDb2dVertex
 10
-2.774119648091897
 20
9.684518542519649
 30
0.0
 70
     8
  0
VERTEX
  5
F019
330
F001
100
AcDbEntity
  8
0
100
AcDbVertex
100
AcDb2dVertex
 10
-2.901713707895051
 20
9.831763348459526
 30
0.0
 70
     8
  0
VERTEX
  5
F01A
330
F001
100
AcDbEntity
  8
0
100
AcDbVertex
100
AcDb2dVertex
 10
-3.033546091108053
 20
9.976819318641625
 30
0.0
 70
     8
  0
VERTEX
  5
F01B
330
F001
100
AcDbEntity
  8
0
100
AcDbVertex
100
AcDb2dVertex
 10
-3.169411717385692
 20
10.11996005742805
 30
0.0
 70
     8
  0
VERTEX
  5
F01C
330
F001
100
AcDbEntity
  8
0
100
AcDbVertex
100
AcDb2dVertex
 10
-3.309071326410577
 20
10.26184677552795
 30
0.0
 70
     8
  0
VERTEX
  5
F01D
330
F001
100
AcDbEntity
  8
0
100
AcDbVertex
100
AcDb2dVertex
 10
-3.452148937976595
 20
10.4046911090387
 30
0.0
 70
     8
  0
VERTEX
  5
F01E
330
F001
100
AcDbEntity
  8
0
100
AcDbVertex
100
AcDb2dVertex
 10
-3.598234391905428
 20
10.55109230040474
 30
0.0
 70
     8
  0
VERTEX
  5
F01F
330
F001
100
AcDbEntity
  8
0
100
AcDbVertex
100
AcDb2dVertex
 10
-3.746917528018784
 20
10.70364959207048
 30
0.0
 70
     8
  0
VERTEX
  5
F020
330
F001
100
AcDbEntity
  8
0
100
AcDbVertex
100
AcDb2dVertex
 10
-3.897788186138345
 20
10.86496222648035
 30
0.0
 70
     8
  0
VERTEX
  5
F021
330
F001
100
AcDbEntity
  8
0
100
AcDbVertex
100
AcDb2dVertex
 10
-4.050436206085819
 20
11.03762944607879
 30
0.0
 70
     8
  0
VERTEX
  5
F022
330
F001
100
AcDbEntity
  8
0
100
AcDbVertex
100
AcDb2dVertex
 10
-4.20445142768289
 20
11.2242504933102
 30
0.0
 70
     8
  0
VERTEX
  5
F023
330
F001
100
AcDbEntity
  8
0
100
AcDbVertex
100
AcDb2dVertex
 10
-4.35942369075126
 20
11.42742461061902
 30
0.0
 70
     8
  0
VERTEX
  5
F024
330
F001
100
AcDbEntity
  8
0
100
AcDbVertex
100
AcDb2dVertex
 10
-4.514892003196372
 20
11.65037629687054
 30
0.0
 70
     8
  0
VERTEX
  5
F025
330
F001
100
AcDbEntity
  8
0
100
AcDbVertex
100
AcDb2dVertex
 10
-4.670192045258691
 20
11.89883107661342
 30
0.0
 70
     8
  0
VERTEX
  5
F026
330
F001
100
AcDbEntity
  8
0
100
AcDbVertex
100
AcDb2dVertex
 10
-4.824608665262417
 20
12.17913973081723
 30
0.0
 70
     8
  0
VERTEX
  5
F027
330
F001
100
AcDbEntity
  8
0
100
AcDbVertex
100
AcDb2dVertex
 10
-4.977426711531769
 20
12.49765304045151
 30
0.0
 70
     8
  0
VERTEX
  5
F028
330
F001
100
AcDbEntity
  8
0
100
AcDbVertex
100
AcDb2dVertex
 10
-5.127931032390954
 20
12.86072178648578
 30
0.0
 70
     8
  0
VERTEX
  5
F029
330
F001
100
AcDbEntity
  8
0
100
AcDbVertex
100
AcDb2dVertex
 10
-5.275406476164178
 20
13.2746967498896
 30
0.0
 70
     8
  0
VERTEX
  5
F02A
330
F001
100
AcDbEntity
  8
0
100
AcDbVertex
100
AcDb2dVertex
 10
-5.419137891175662
 20
13.74592871163251
 30
0.0
 70
     8
  0
VERTEX
  5
F02B
330
F001
100
AcDbEntity
  8
0
100
AcDbVertex
100
AcDb2dVertex
 10
-5.558410125749606
 20
14.28076845268405
 30
0.0
 70
     8
  0
VERTEX
  5
F02C
330
F001
100
AcDbEntity
  8
0
100
AcDbVertex
100
AcDb2dVertex
 10
-1.063557198909226
 20
5.549670983706159
 30
0.0
 70
    16
  0
VERTEX
  5
F02D
330
F001
100
AcDbEntity
  8
0
100
AcDbVertex
100
AcDb2dVertex
 10
-1.518561743426399
 20
7.510867859410121
 30
0.0
 70
    16
  0
VERTEX
  5
F02E
330
F001
100
AcDbEntity
  8
0
100
AcDbVertex
100
AcDb2dVertex
 10
-2.148568087174457
 20
8.946744084370886
 30
0.0
 70
    16
  0
VERTEX
  5
F02F
330
F001
100
AcDbEntity
  8
0
100
AcDbVertex
100
AcDb2dVertex
 10
-3.128577981711753
 20
10.13747074578615
 30
0.0
 70
    16
  0
VERTEX
  5
F030
330
F001
100
AcDbEntity
  8
0
100
AcDbVertex
100
AcDb2dVertex
 10
-4.353590290292682
 20
11.22313327705277
 30
0.0
 70
    16
  0
VERTEX
  5
F031
330
F001
100
AcDbEntity
  8
0
100
AcDbVertex
100
AcDb2dVertex
 10
-5.19359876451428
 20
12.76407363216219
 30
0.0
 70
    16
  0
VERTEX
  5
F032
330
F001
100
AcDbEntity
  8
0
100
AcDbVertex
100
AcDb2dVertex
 10
-5.558410125749606
 20
14.28076845268405
 30
0.0
 70
    16
  0
SEQEND
  5
F033
330
F001
100
AcDbEntity
  8
0
  0
LINE
  5
F034
330
ED1D
100
AcDbEntity
  8
0
100
AcDbLine
 10
0.0000000000000036
 20
14.96204195919078
 30
0.0
 11
0.0
 21
0.0
 31
0.0
  0
LINE
  5
F035
330
ED1D
100
AcDbEntity
  8
0
100
AcDbLine
 10
4.150553748973674
 20
-1.335579238369653
 30
0.0
 11
4.190381716276245
 21
-1.371897634360585
 31
0.0
  0
LINE
  5
F036
330
ED1D
100
AcDbEntity
  8
0
100
AcDbLine
 10
-1.613788422885168
 20
1.316701940599109
 30
0.0
 11
-1.613936442000554
 21
1.443939786366231
 31
0.0
  0
LINE
  5
F037
330
ED1D
100
AcDbEntity
  8
0
100
AcDbLine
 10
-0.7034199056613133
 20
-1.4690079354801
 30
0.0
 11
-0.7454454375277422
 21
-1.497118136357634
 31
0.0
  0
LINE
  5
F038
330
ED1D
100
AcDbEntity
  8
0
100
AcDbLine
 10
-2.610181247107991
 20
-0.2579091914321072
 30
0.0
 11
-2.594639082274202
 21
-0.195266354714116
 31
0.0
  0
CIRCLE
  5
F039
330
ED1D
100
AcDbEntity
  8
0
100
AcDbCircle
 10
-1.472914360431577
 20
-0.5225503547075779
 30
0.0
 40
0.7059045088959176
  0
LINE
  5
F03A
330
ED1D
100
AcDbEntity
  8
0
100
AcDbLine
 10
-1.922937948855331
 20
-1.60904594049186
 30
0.0
 11
-1.977127183583423
 21
-1.585590438073083
 31
0.0
  0
LINE
  5
F03B
330
ED1D
100
AcDbEntity
  8
0
100
AcDbLine
 10
-2.51687758367451
 20
-1.076903249453225
 30
0.0
 11
-2.543787216906594
 21
-1.018769131831634
 31
0.0
  0
LINE
  5
F03C
330
ED1D
100
AcDbEntity
  8
0
100
AcDbLine
 10
-2.191781184363744
 20
-1.462073970433401
 30
0.0
 11
-2.24223188089816
 21
-1.423654327218571
 31
0.0
  0
LINE
  5
F03D
330
ED1D
100
AcDbEntity
  8
0
100
AcDbLine
 10
-2.031643538323837
 20
-1.559188872220602
 30
0.0
 11
-2.085949599251051
 21
-1.529817860571661
 31
0.0
  0
LINE
  5
F03E
330
ED1D
100
AcDbEntity
  8
0
100
AcDbLine
 10
-2.085949599251051
 20
-1.529817860571661
 30
0.0
 11
-2.139507952539531
 21
-1.497454020763516
 31
0.0
  0
LINE
  5
F03F
330
ED1D
100
AcDbEntity
  8
0
100
AcDbLine
 10
-2.139507952539531
 20
-1.497454020763516
 30
0.0
 11
-2.191781184363744
 21
-1.462073970433401
 31
0.0
  0
LINE
  5
F040
330
ED1D
100
AcDbEntity
  8
0
100
AcDbLine
 10
-1.977127183583423
 20
-1.585590438073083
 30
0.0
 11
-2.031643538323837
 21
-1.559188872220602
 31
0.0
  0
LINE
  5
F041
330
ED1D
100
AcDbEntity
  8
0
100
AcDbLine
 10
-2.24223188089816
 20
-1.423654327218571
 30
0.0
 11
-2.290322628317241
 21
-1.38217170875626
 31
0.0
  0
LINE
  5
F042
330
ED1D
100
AcDbEntity
  8
0
100
AcDbLine
 10
-2.417269109688998
 20
-1.2402695712547
 30
0.0
 11
-2.453571798920588
 21
-1.187887285245951
 31
0.0
  0
LINE
  5
F043
330
ED1D
100
AcDbEntity
  8
0
100
AcDbLine
 10
-2.453571798920588
 20
-1.187887285245951
 30
0.0
 11
-2.486790200630803
 21
-1.133353905951727
 31
0.0
  0
LINE
  5
F044
330
ED1D
100
AcDbEntity
  8
0
100
AcDbLine
 10
-2.486790200630803
 20
-1.133353905951727
 30
0.0
 11
-2.51687758367451
 21
-1.076903249453225
 31
0.0
  0
LINE
  5
F045
330
ED1D
100
AcDbEntity
  8
0
100
AcDbLine
 10
-2.290322628317241
 20
-1.38217170875626
 30
0.0
 11
-2.335597793242197
 21
-1.337645599091047
 31
0.0
  0
LINE
  5
F046
330
ED1D
100
AcDbEntity
  8
0
100
AcDbLine
 10
-2.335597793242197
 20
-1.337645599091047
 30
0.0
 11
-2.377928864081159
 21
-1.290266947896803
 31
0.0
  0
LINE
  5
F047
330
ED1D
100
AcDbEntity
  8
0
100
AcDbLine
 10
-2.377928864081159
 20
-1.290266947896803
 30
0.0
 11
-2.417269109688998
 21
-1.2402695712547
 31
0.0
  0
LINE
  5
F048
330
ED1D
100
AcDbEntity
  8
0
100
AcDbLine
 10
-2.567472369181906
 20
-0.9591853691681464
 30
0.0
 11
-2.587892150637561
 21
-0.8983721378772511
 31
0.0
  0
LINE
  5
F049
330
ED1D
100
AcDbEntity
  8
0
100
AcDbLine
 10
-2.636625486406089
 20
-0.64600048472788
 30
0.0
 11
-2.640513955575904
 21
-0.5813877798493952
 31
0.0
  0
LINE
  5
F04A
330
ED1D
100
AcDbEntity
  8
0
100
AcDbLine
 10
-2.587892150637561
 20
-0.8983721378772511
 30
0.0
 11
-2.605029036539562
 21
-0.8364950557067221
 31
0.0
  0
LINE
  5
F04B
330
ED1D
100
AcDbEntity
  8
0
100
AcDbLine
 10
-2.605029036539562
 20
-0.8364950557067221
 30
0.0
 11
-2.618871343436161
 21
-0.7737061007376074
 31
0.0
  0
LINE
  5
F04C
330
ED1D
100
AcDbEntity
  8
0
100
AcDbLine
 10
-2.618871343436161
 20
-0.7737061007376074
 30
0.0
 11
-2.629407387875584
 21
-0.7101572510509673
 31
0.0
  0
LINE
  5
F04D
330
ED1D
100
AcDbEntity
  8
0
100
AcDbLine
 10
-2.629407387875584
 20
-0.7101572510509673
 30
0.0
 11
-2.636625486406089
 21
-0.64600048472788
 31
0.0
  0
LINE
  5
F04E
330
ED1D
100
AcDbEntity
  8
0
100
AcDbLine
 10
-2.622709219807145
 20
-0.3217444790602446
 30
0.0
 11
-2.610181247107991
 21
-0.2579091914321072
 31
0.0
  0
LINE
  5
F04F
330
ED1D
100
AcDbEntity
  8
0
100
AcDbLine
 10
-2.640513955575904
 20
-0.5813877798493952
 30
0.0
 11
-2.641061111933268
 21
-0.5164711144965875
 31
0.0
  0
LINE
  5
F050
330
ED1D
100
AcDbEntity
  8
0
100
AcDbLine
 10
-2.641061111933268
 20
-0.5164711144965875
 30
0.0
 11
-2.63825527202643
 21
-0.4514024667505172
 31
0.0
  0
LINE
  5
F051
330
ED1D
100
AcDbEntity
  8
0
100
AcDbLine
 10
-2.63825527202643
 20
-0.4514024667505172
 30
0.0
 11
-2.632106171177884
 21
-0.3863747325244215
 31
0.0
  0
LINE
  5
F052
330
ED1D
100
AcDbEntity
  8
0
100
AcDbLine
 10
-2.632106171177884
 20
-0.3863747325244215
 30
0.0
 11
-2.622709219807145
 21
-0.3217444790602446
 31
0.0
  0
LINE
  5
F053
330
ED1D
100
AcDbEntity
  8
0
100
AcDbLine
 10
-2.543787216906594
 20
-1.018769131831634
 30
0.0
 11
-2.567472369181906
 21
-0.9591853691681464
 31
0.0
  0
LINE
  5
F054
330
ED1D
100
AcDbEntity
  8
0
100
AcDbLine
 10
-1.321432309366144
 20
-1.70613826719601
 30
0.0
 11
-1.354577564254491
 21
-1.708575876312085
 31
0.0
  0
LINE
  5
F055
330
ED1D
100
AcDbEntity
  8
0
100
AcDbLine
 10
-1.625031489623768
 20
-1.693117915994946
 30
0.0
 11
-1.670723357673367
 21
-1.684946086737973
 31
0.0
  0
LINE
  5
F056
330
ED1D
100
AcDbEntity
  8
0
100
AcDbLine
 10
-1.670723357673367
 20
-1.684946086737973
 30
0.0
 11
-1.718097565580944
 21
-1.674716689334346
 31
0.0
  0
LINE
  5
F057
330
ED1D
100
AcDbEntity
  8
0
100
AcDbLine
 10
-1.718097565580944
 20
-1.674716689334346
 30
0.0
 11
-1.767084015297857
 21
-1.662219291143671
 31
0.0
  0
LINE
  5
F058
330
ED1D
100
AcDbEntity
  8
0
100
AcDbLine
 10
-1.767084015297857
 20
-1.662219291143671
 30
0.0
 11
-1.817612608775466
 21
-1.647243459525583
 31
0.0
  0
LINE
  5
F059
330
ED1D
100
AcDbEntity
  8
0
100
AcDbLine
 10
-1.817612608775466
 20
-1.647243459525583
 30
0.0
 11
-1.869613247965109
 21
-1.629578761839688
 31
0.0
  0
LINE
  5
F05A
330
ED1D
100
AcDbEntity
  8
0
100
AcDbLine
 10
-1.869613247965109
 20
-1.629578761839688
 30
0.0
 11
-1.922937948855331
 21
-1.60904594049186
 31
0.0
  0
LINE
  5
F05B
330
ED1D
100
AcDbEntity
  8
0
100
AcDbLine
 10
-1.354577564254491
 20
-1.708575876312085
 30
0.0
 11
-1.38861421796551
 21
-1.709960899091655
 31
0.0
  0
LINE
  5
F05C
330
ED1D
100
AcDbEntity
  8
0
100
AcDbLine
 10
-1.38861421796551
 20
-1.709960899091655
 30
0.0
 11
-1.423810103806676
 21
-1.710252522722569
 31
0.0
  0
LINE
  5
F05D
330
ED1D
100
AcDbEntity
  8
0
100
AcDbLine
 10
-1.423810103806676
 20
-1.710252522722569
 30
0.0
 11
-1.460433055085463
 21
-1.709409934392674
 31
0.0
  0
LINE
  5
F05E
330
ED1D
100
AcDbEntity
  8
0
100
AcDbLine
 10
-1.460433055085463
 20
-1.709409934392674
 30
0.0
 11
-1.498750905109346
 21
-1.707392321289823
 31
0.0
  0
LINE
  5
F05F
330
ED1D
100
AcDbEntity
  8
0
100
AcDbLine
 10
-1.498750905109346
 20
-1.707392321289823
 30
0.0
 11
-1.538975165293113
 21
-1.704130600630485
 31
0.0
  0
LINE
  5
F060
330
ED1D
100
AcDbEntity
  8
0
100
AcDbLine
 10
-1.538975165293113
 20
-1.704130600630485
 30
0.0
 11
-1.581092059480806
 21
-1.699442609745663
 31
0.0
  0
LINE
  5
F061
330
ED1D
100
AcDbEntity
  8
0
100
AcDbLine
 10
-1.581092059480806
 20
-1.699442609745663
 30
0.0
 11
-1.625031489623768
 21
-1.693117915994946
 31
0.0
  0
LINE
  5
F062
330
ED1D
100
AcDbEntity
  8
0
100
AcDbLine
 10
-1.023286438862367
 20
-1.637455262298182
 30
0.0
 11
-1.058674897300591
 21
-1.650104640905681
 31
0.0
  0
LINE
  5
F063
330
ED1D
100
AcDbEntity
  8
0
100
AcDbLine
 10
-1.192428246020536
 20
-1.686649926148007
 30
0.0
 11
-1.224666604562376
 21
-1.692918049950243
 31
0.0
  0
LINE
  5
F064
330
ED1D
100
AcDbEntity
  8
0
100
AcDbLine
 10
-1.224666604562376
 20
-1.692918049950243
 30
0.0
 11
-1.256744662827561
 21
-1.698268541202935
 31
0.0
  0
LINE
  5
F065
330
ED1D
100
AcDbEntity
  8
0
100
AcDbLine
 10
-1.256744662827561
 20
-1.698268541202935
 30
0.0
 11
-1.288910619992989
 21
-1.702688884555577
 31
0.0
  0
LINE
  5
F066
330
ED1D
100
AcDbEntity
  8
0
100
AcDbLine
 10
-1.288910619992989
 20
-1.702688884555577
 30
0.0
 11
-1.321432309366144
 21
-1.70613826719601
 31
0.0
  0
LINE
  5
F067
330
ED1D
100
AcDbEntity
  8
0
100
AcDbLine
 10
-1.058674897300591
 20
-1.650104640905681
 30
0.0
 11
-1.093133278711498
 21
-1.661219824636695
 31
0.0
  0
LINE
  5
F068
330
ED1D
100
AcDbEntity
  8
0
100
AcDbLine
 10
-1.093133278711498
 20
-1.661219824636695
 30
0.0
 11
-1.126811611619118
 21
-1.67092978544894
 31
0.0
  0
LINE
  5
F069
330
ED1D
100
AcDbEntity
  8
0
100
AcDbLine
 10
-1.126811611619118
 20
-1.67092978544894
 30
0.0
 11
-1.159859924547458
 21
-1.679363495300144
 31
0.0
  0
LINE
  5
F06A
330
ED1D
100
AcDbEntity
  8
0
100
AcDbLine
 10
-1.159859924547458
 20
-1.679363495300144
 30
0.0
 11
-1.192428246020536
 21
-1.686649926148007
 31
0.0
  0
LINE
  5
F06B
330
ED1D
100
AcDbEntity
  8
0
100
AcDbLine
 10
-0.8289829091923124
 20
-1.547113346658516
 30
0.0
 11
-0.8699767210290438
 21
-1.56906433596832
 31
0.0
  0
LINE
  5
F06C
330
ED1D
100
AcDbEntity
  8
0
100
AcDbLine
 10
-0.8699767210290438
 20
-1.56906433596832
 30
0.0
 11
-0.9101084982278209
 21
-1.589028234642029
 31
0.0
  0
LINE
  5
F06D
330
ED1D
100
AcDbEntity
  8
0
100
AcDbLine
 10
-0.7454454375277422
 20
-1.497118136357634
 30
0.0
 11
-0.7873861266983085
 21
-1.523142276769362
 31
0.0
  0
LINE
  5
F06E
330
ED1D
100
AcDbEntity
  8
0
100
AcDbLine
 10
-0.7873861266983085
 20
-1.523142276769362
 30
0.0
 11
-0.8289829091923124
 21
-1.547113346658516
 31
0.0
  0
LINE
  5
F06F
330
ED1D
100
AcDbEntity
  8
0
100
AcDbLine
 10
-0.9491191768079438
 20
-1.60703803262286
 30
0.0
 11
-0.9868178748728304
 21
-1.623142716856477
 31
0.0
  0
LINE
  5
F070
330
ED1D
100
AcDbEntity
  8
0
100
AcDbLine
 10
-0.9868178748728304
 20
-1.623142716856477
 30
0.0
 11
-1.023286438862367
 21
-1.637455262298182
 31
0.0
  0
LINE
  5
F071
330
ED1D
100
AcDbEntity
  8
0
100
AcDbLine
 10
-0.9101084982278209
 20
-1.589028234642029
 30
0.0
 11
-0.9491191768079438
 21
-1.60703803262286
 31
0.0
  0
LINE
  5
F072
330
ED1D
100
AcDbEntity
  8
0
100
AcDbLine
 10
-1.997050349129672
 20
0.5358565534649955
 30
0.0
 11
-1.959441115611237
 21
0.557835119110921
 31
0.0
  0
LINE
  5
F073
330
ED1D
100
AcDbEntity
  8
0
100
AcDbLine
 10
-2.594639082274202
 20
-0.195266354714116
 30
0.0
 11
-2.576199554499549
 21
-0.1342134539804043
 31
0.0
  0
LINE
  5
F074
330
ED1D
100
AcDbEntity
  8
0
100
AcDbLine
 10
-2.44483299714259
 20
0.1340694135176275
 30
0.0
 11
-2.411943651429009
 21
0.1790865421100118
 31
0.0
  0
LINE
  5
F075
330
ED1D
100
AcDbEntity
  8
0
100
AcDbLine
 10
-2.531095726902744
 20
-0.0184674007622672
 30
0.0
 11
-2.504665085468147
 21
0.0354307815739095
 31
0.0
  0
LINE
  5
F076
330
ED1D
100
AcDbEntity
  8
0
100
AcDbLine
 10
-2.504665085468147
 20
0.0354307815739095
 30
0.0
 11
-2.475829710848682
 21
0.0862465102778067
 31
0.0
  0
LINE
  5
F077
330
ED1D
100
AcDbEntity
  8
0
100
AcDbLine
 10
-2.475829710848682
 20
0.0862465102778067
 30
0.0
 11
-2.44483299714259
 21
0.1340694135176275
 31
0.0
  0
LINE
  5
F078
330
ED1D
100
AcDbEntity
  8
0
100
AcDbLine
 10
-2.576199554499549
 20
-0.1342134539804043
 30
0.0
 11
-2.554979492977796
 21
-0.0751479743050876
 31
0.0
  0
LINE
  5
F079
330
ED1D
100
AcDbEntity
  8
0
100
AcDbLine
 10
-2.554979492977796
 20
-0.0751479743050876
 30
0.0
 11
-2.531095726902744
 21
-0.0184674007622672
 31
0.0
  0
LINE
  5
F07A
330
ED1D
100
AcDbEntity
  8
0
100
AcDbLine
 10
-2.304606893034662
 20
0.2991737881691367
 30
0.0
 11
-2.266834090082468
 21
0.3348383263383763
 31
0.0
  0
LINE
  5
F07B
330
ED1D
100
AcDbEntity
  8
0
100
AcDbLine
 10
-2.341561892295906
 20
0.2614516786191121
 30
0.0
 11
-2.304606893034662
 21
0.2991737881691367
 31
0.0
  0
LINE
  5
F07C
330
ED1D
100
AcDbEntity
  8
0
100
AcDbLine
 10
-2.411943651429009
 20
0.1790865421100118
 30
0.0
 11
-2.377430380787068
 21
0.2214849468716178
 31
0.0
  0
LINE
  5
F07D
330
ED1D
100
AcDbEntity
  8
0
100
AcDbLine
 10
-2.377430380787068
 20
0.2214849468716178
 30
0.0
 11
-2.341561892295906
 21
0.2614516786191121
 31
0.0
  0
LINE
  5
F07E
330
ED1D
100
AcDbEntity
  8
0
100
AcDbLine
 10
-2.266834090082468
 20
0.3348383263383763
 30
0.0
 11
-2.228512190518458
 21
0.3686323439434567
 31
0.0
  0
LINE
  5
F07F
330
ED1D
100
AcDbEntity
  8
0
100
AcDbLine
 10
-2.228512190518458
 20
0.3686323439434567
 30
0.0
 11
-2.189886535627376
 21
0.40071171675479
 31
0.0
  0
LINE
  5
F080
330
ED1D
100
AcDbEntity
  8
0
100
AcDbLine
 10
-2.189886535627376
 20
0.40071171675479
 30
0.0
 11
-2.15110900351642
 21
0.4311076203576576
 31
0.0
  0
LINE
  5
F081
330
ED1D
100
AcDbEntity
  8
0
100
AcDbLine
 10
-2.15110900351642
 20
0.4311076203576576
 30
0.0
 11
-2.112308106498375
 21
0.4598200552910879
 31
0.0
  0
LINE
  5
F082
330
ED1D
100
AcDbEntity
  8
0
100
AcDbLine
 10
-2.112308106498375
 20
0.4598200552910879
 30
0.0
 11
-2.073612356886034
 21
0.4868490220941038
 31
0.0
  0
LINE
  5
F083
330
ED1D
100
AcDbEntity
  8
0
100
AcDbLine
 10
-2.073612356886034
 20
0.4868490220941038
 30
0.0
 11
-2.035150266992204
 21
0.512194521305732
 31
0.0
  0
LINE
  5
F084
330
ED1D
100
AcDbEntity
  8
0
100
AcDbLine
 10
-2.035150266992204
 20
0.512194521305732
 30
0.0
 11
-1.997050349129672
 21
0.5358565534649955
 31
0.0
  0
LINE
  5
F085
330
ED1D
100
AcDbEntity
  8
0
100
AcDbLine
 10
-1.618167667957653
 20
0.9162882577528801
 30
0.0
 11
-1.616859019875324
 21
0.995938676108997
 31
0.0
  0
LINE
  5
F086
330
ED1D
100
AcDbEntity
  8
0
100
AcDbLine
 10
-1.669701117644738
 20
0.6893187858807952
 30
0.0
 11
-1.65662599224834
 21
0.6945542961968876
 31
0.0
  0
LINE
  5
F087
330
ED1D
100
AcDbEntity
  8
0
100
AcDbLine
 10
-1.959441115611237
 20
0.557835119110921
 30
0.0
 11
-1.922451078749698
 21
0.5781302187825315
 31
0.0
  0
LINE
  5
F088
330
ED1D
100
AcDbEntity
  8
0
100
AcDbLine
 10
-1.922451078749698
 20
0.5781302187825315
 30
0.0
 11
-1.886251588018165
 21
0.596747698384954
 31
0.0
  0
LINE
  5
F089
330
ED1D
100
AcDbEntity
  8
0
100
AcDbLine
 10
-1.886251588018165
 20
0.596747698384954
 30
0.0
 11
-1.851185341531014
 21
0.6137167852876875
 31
0.0
  0
LINE
  5
F08A
330
ED1D
100
AcDbEntity
  8
0
100
AcDbLine
 10
-1.851185341531014
 20
0.6137167852876875
 30
0.0
 11
-1.817637874562937
 21
0.6290725522263081
 31
0.0
  0
LINE
  5
F08B
330
ED1D
100
AcDbEntity
  8
0
100
AcDbLine
 10
-1.817637874562937
 20
0.6290725522263081
 30
0.0
 11
-1.78599472238864
 21
0.6428500719364152
 31
0.0
  0
LINE
  5
F08C
330
ED1D
100
AcDbEntity
  8
0
100
AcDbLine
 10
-1.78599472238864
 20
0.6428500719364152
 30
0.0
 11
-1.756641420282814
 21
0.6550844171536241
 31
0.0
  0
LINE
  5
F08D
330
ED1D
100
AcDbEntity
  8
0
100
AcDbLine
 10
-1.756641420282814
 20
0.6550844171536241
 30
0.0
 11
-1.729963503520142
 21
0.6658106606135075
 31
0.0
  0
LINE
  5
F08E
330
ED1D
100
AcDbEntity
  8
0
100
AcDbLine
 10
-1.729963503520142
 20
0.6658106606135075
 30
0.0
 11
-1.706346507375332
 21
0.675063875051654
 31
0.0
  0
LINE
  5
F08F
330
ED1D
100
AcDbEntity
  8
0
100
AcDbLine
 10
-1.706346507375332
 20
0.675063875051654
 30
0.0
 11
-1.68617596712308
 21
0.682879133203679
 31
0.0
  0
LINE
  5
F090
330
ED1D
100
AcDbEntity
  8
0
100
AcDbLine
 10
-1.68617596712308
 20
0.682879133203679
 30
0.0
 11
-1.669701117644738
 21
0.6893187858807952
 31
0.0
  0
LINE
  5
F091
330
ED1D
100
AcDbEntity
  8
0
100
AcDbLine
 10
-1.619234030238686
 20
0.8530498255203067
 30
0.0
 11
-1.618167667957653
 21
0.9162882577528801
 31
0.0
  0
LINE
  5
F092
330
ED1D
100
AcDbEntity
  8
0
100
AcDbLine
 10
-1.65662599224834
 20
0.6945542961968876
 30
0.0
 11
-1.646518323848592
 21
0.6987844053414261
 31
0.0
  0
LINE
  5
F093
330
ED1D
100
AcDbEntity
  8
0
100
AcDbLine
 10
-1.646518323848592
 20
0.6987844053414261
 30
0.0
 11
-1.638945845360193
 21
0.7022078545039055
 31
0.0
  0
LINE
  5
F094
330
ED1D
100
AcDbEntity
  8
0
100
AcDbLine
 10
-1.638945845360193
 20
0.7022078545039055
 30
0.0
 11
-1.633476289697835
 21
0.7050233848738419
 31
0.0
  0
LINE
  5
F095
330
ED1D
100
AcDbEntity
  8
0
100
AcDbLine
 10
-1.633476289697835
 20
0.7050233848738419
 30
0.0
 11
-1.62967738977623
 21
0.7074297376407142
 31
0.0
  0
LINE
  5
F096
330
ED1D
100
AcDbEntity
  8
0
100
AcDbLine
 10
-1.62967738977623
 20
0.7074297376407142
 30
0.0
 11
-1.627116878510069
 21
0.7096256539940225
 31
0.0
  0
LINE
  5
F097
330
ED1D
100
AcDbEntity
  8
0
100
AcDbLine
 10
-1.627116878510069
 20
0.7096256539940225
 30
0.0
 11
-1.625362488814044
 21
0.7118098751232776
 31
0.0
  0
LINE
  5
F098
330
ED1D
100
AcDbEntity
  8
0
100
AcDbLine
 10
-1.625362488814044
 20
0.7118098751232776
 30
0.0
 11
-1.624039945732604
 21
0.7145006279580369
 31
0.0
  0
LINE
  5
F099
330
ED1D
100
AcDbEntity
  8
0
100
AcDbLine
 10
-1.624039945732604
 20
0.7145006279580369
 30
0.0
 11
-1.623006942829096
 21
0.7194940823882341
 31
0.0
  0
LINE
  5
F09A
330
ED1D
100
AcDbEntity
  8
0
100
AcDbLine
 10
-1.623006942829096
 20
0.7194940823882341
 30
0.0
 11
-1.622179165796612
 21
0.7289058940438445
 31
0.0
  0
LINE
  5
F09B
330
ED1D
100
AcDbEntity
  8
0
100
AcDbLine
 10
-1.622179165796612
 20
0.7289058940438445
 30
0.0
 11
-1.621472300328239
 21
0.7448517185548607
 31
0.0
  0
LINE
  5
F09C
330
ED1D
100
AcDbEntity
  8
0
100
AcDbLine
 10
-1.621472300328239
 20
0.7448517185548607
 30
0.0
 11
-1.620802032117065
 21
0.7694472115512756
 31
0.0
  0
LINE
  5
F09D
330
ED1D
100
AcDbEntity
  8
0
100
AcDbLine
 10
-1.620802032117065
 20
0.7694472115512756
 30
0.0
 11
-1.620084046856188
 21
0.8048080286630927
 31
0.0
  0
LINE
  5
F09E
330
ED1D
100
AcDbEntity
  8
0
100
AcDbLine
 10
-1.620084046856188
 20
0.8048080286630927
 30
0.0
 11
-1.619234030238686
 21
0.8530498255203067
 31
0.0
  0
LINE
  5
F09F
330
ED1D
100
AcDbEntity
  8
0
100
AcDbLine
 10
-1.614403466631134
 20
1.198231691193162
 30
0.0
 11
-1.613788422885168
 21
1.316701940599109
 31
0.0
  0
LINE
  5
F0A0
330
ED1D
100
AcDbEntity
  8
0
100
AcDbLine
 10
-1.616859019875324
 20
0.995938676108997
 30
0.0
 11
-1.6155156425305
 21
1.090615211809447
 31
0.0
  0
LINE
  5
F0A1
330
ED1D
100
AcDbEntity
  8
0
100
AcDbLine
 10
-1.6155156425305
 20
1.090615211809447
 30
0.0
 11
-1.614403466631134
 21
1.198231691193162
 31
0.0
  0
LINE
  5
F0A2
330
ED1D
100
AcDbEntity
  8
0
100
AcDbLine
 10
-0.0251720685206998
 20
-0.2411934060027132
 30
0.0
 11
-0.0338996906409683
 21
-0.3088167186881261
 31
0.0
  0
LINE
  5
F0A3
330
ED1D
100
AcDbEntity
  8
0
100
AcDbLine
 10
-0.2785194275207807
 20
-1.022639984898164
 30
0.0
 11
-0.3039633512163036
 21
-1.061094549921618
 31
0.0
  0
LINE
  5
F0A4
330
ED1D
100
AcDbEntity
  8
0
100
AcDbLine
 10
-0.6201505697636449
 20
-1.406397392554655
 30
0.0
 11
-0.6615685950797144
 21
-1.438778684193522
 31
0.0
  0
LINE
  5
F0A5
330
ED1D
100
AcDbEntity
  8
0
100
AcDbLine
 10
-0.6615685950797144
 20
-1.438778684193522
 30
0.0
 11
-0.7034199056613133
 21
-1.4690079354801
 31
0.0
  0
LINE
  5
F0A6
330
ED1D
100
AcDbEntity
  8
0
100
AcDbLine
 10
-0.4276679532825334
 20
-1.219376148602336
 30
0.0
 11
-0.4635015885660608
 21
-1.258952102991869
 31
0.0
  0
LINE
  5
F0A7
330
ED1D
100
AcDbEntity
  8
0
100
AcDbLine
 10
-0.5008796994426384
 20
-1.297808597080528
 30
0.0
 11
-0.5395892543255663
 21
-1.335579238369653
 31
0.0
  0
LINE
  5
F0A8
330
ED1D
100
AcDbEntity
  8
0
100
AcDbLine
 10
-0.5395892543255663
 20
-1.335579238369653
 30
0.0
 11
-0.5794172216281375
 21
-1.371897634360585
 31
0.0
  0
LINE
  5
F0A9
330
ED1D
100
AcDbEntity
  8
0
100
AcDbLine
 10
-0.5794172216281375
 20
-1.371897634360585
 30
0.0
 11
-0.6201505697636449
 21
-1.406397392554655
 31
0.0
  0
LINE
  5
F0AA
330
ED1D
100
AcDbEntity
  8
0
100
AcDbLine
 10
-0.4635015885660608
 20
-1.258952102991869
 30
0.0
 11
-0.5008796994426384
 21
-1.297808597080528
 31
0.0
  0
LINE
  5
F0AB
330
ED1D
100
AcDbEntity
  8
0
100
AcDbLine
 10
-0.3039633512163036
 20
-1.061094549921618
 30
0.0
 11
-0.3315642168573731
 21
-1.099995448615102
 31
0.0
  0
LINE
  5
F0AC
330
ED1D
100
AcDbEntity
  8
0
100
AcDbLine
 10
-0.3315642168573731
 20
-1.099995448615102
 30
0.0
 11
-0.3614862358414861
 21
-1.139531428915292
 31
0.0
  0
LINE
  5
F0AD
330
ED1D
100
AcDbEntity
  8
0
100
AcDbLine
 10
-0.3614862358414861
 20
-1.139531428915292
 30
0.0
 11
-0.393591825178774
 21
-1.179447126410588
 31
0.0
  0
LINE
  5
F0AE
330
ED1D
100
AcDbEntity
  8
0
100
AcDbLine
 10
-0.393591825178774
 20
-1.179447126410588
 30
0.0
 11
-0.4276679532825334
 21
-1.219376148602336
 31
0.0
  0
LINE
  5
F0AF
330
ED1D
100
AcDbEntity
  8
0
100
AcDbLine
 10
-0.1243114393682845
 20
-0.6952449112700574
 30
0.0
 11
-0.140731482938893
 21
-0.7407925061617587
 31
0.0
  0
LINE
  5
F0B0
330
ED1D
100
AcDbEntity
  8
0
100
AcDbLine
 10
-0.140731482938893
 20
-0.7407925061617587
 30
0.0
 11
-0.1577307065205957
 21
-0.7844981444987873
 31
0.0
  0
LINE
  5
F0B1
330
ED1D
100
AcDbEntity
  8
0
100
AcDbLine
 10
-0.1577307065205957
 20
-0.7844981444987873
 30
0.0
 11
-0.1752658384241386
 21
-0.8265700040005512
 31
0.0
  0
LINE
  5
F0B2
330
ED1D
100
AcDbEntity
  8
0
100
AcDbLine
 10
-0.1752658384241386
 20
-0.8265700040005512
 30
0.0
 11
-0.1935199523071489
 21
-0.867289541029919
 31
0.0
  0
LINE
  5
F0B3
330
ED1D
100
AcDbEntity
  8
0
100
AcDbLine
 10
-0.1935199523071489
 20
-0.867289541029919
 30
0.0
 11
-0.2127327081639727
 21
-0.9069565316106231
 31
0.0
  0
LINE
  5
F0B4
330
ED1D
100
AcDbEntity
  8
0
100
AcDbLine
 10
-0.2127327081639727
 20
-0.9069565316106231
 30
0.0
 11
-0.2331437659889524
 21
-0.9458707517664102
 31
0.0
  0
LINE
  5
F0B5
330
ED1D
100
AcDbEntity
  8
0
100
AcDbLine
 10
-0.2331437659889524
 20
-0.9458707517664102
 30
0.0
 11
-0.2549927857764409
 21
-0.9843319775210073
 31
0.0
  0
LINE
  5
F0B6
330
ED1D
100
AcDbEntity
  8
0
100
AcDbLine
 10
-0.2549927857764409
 20
-0.9843319775210073
 30
0.0
 11
-0.2785194275207807
 21
-1.022639984898164
 31
0.0
  0
LINE
  5
F0B7
330
ED1D
100
AcDbEntity
  8
0
100
AcDbLine
 10
-0.0936083243641974
 20
-0.5978644195885306
 30
0.0
 11
-0.108570433834732
 21
-0.6476655017651556
 31
0.0
  0
LINE
  5
F0B8
330
ED1D
100
AcDbEntity
  8
0
100
AcDbLine
 10
-0.108570433834732
 20
-0.6476655017651556
 30
0.0
 11
-0.1243114393682845
 21
-0.6952449112700574
 31
0.0
  0
LINE
  5
F0B9
330
ED1D
100
AcDbEntity
  8
0
100
AcDbLine
 10
-0.0338996906409683
 20
-0.3088167186881261
 30
0.0
 11
-0.0435460076316368
 21
-0.3726462029941118
 31
0.0
  0
LINE
  5
F0BA
330
ED1D
100
AcDbEntity
  8
0
100
AcDbLine
 10
-0.0543939525904094
 20
-0.4332325564429614
 30
0.0
 11
-0.0664202257160724
 21
-0.4908378049859632
 31
0.0
  0
LINE
  5
F0BB
330
ED1D
100
AcDbEntity
  8
0
100
AcDbLine
 10
-0.0664202257160724
 20
-0.4908378049859632
 30
0.0
 11
-0.0795249689826569
 21
-0.5456518066816454
 31
0.0
  0
LINE
  5
F0BC
330
ED1D
100
AcDbEntity
  8
0
100
AcDbLine
 10
-0.0795249689826569
 20
-0.5456518066816454
 30
0.0
 11
-0.0936083243641974
 21
-0.5978644195885306
 31
0.0
  0
LINE
  5
F0BD
330
ED1D
100
AcDbEntity
  8
0
100
AcDbLine
 10
-0.0435460076316368
 20
-0.3726462029941118
 30
0.0
 11
-0.0543939525904094
 21
-0.4332325564429614
 31
0.0
  0
LINE
  5
F0BE
330
ED1D
100
AcDbEntity
  8
0
100
AcDbLine
 10
0.0
 20
0.0
 30
0.0
 11
-0.0009064581574663
 21
-0.0093318435195595
 31
0.0
  0
LINE
  5
F0BF
330
ED1D
100
AcDbEntity
  8
0
100
AcDbLine
 10
-0.0090349436014172
 20
-0.0920738338334726
 30
0.0
 11
-0.0170036499483395
 21
-0.1691533995228429
 31
0.0
  0
LINE
  5
F0C0
330
ED1D
100
AcDbEntity
  8
0
100
AcDbLine
 10
-0.0170036499483395
 20
-0.1691533995228429
 30
0.0
 11
-0.0251720685206998
 21
-0.2411934060027132
 31
0.0
  0
LINE
  5
F0C1
330
ED1D
100
AcDbEntity
  8
0
100
AcDbLine
 10
-0.0009064581574663
 20
-0.0093318435195595
 30
0.0
 11
-0.0090349436014172
 21
-0.0920738338334726
 31
0.0
  0
LINE
  5
F0C2
330
ED1D
100
AcDbEntity
  8
0
100
AcDbLine
 10
3.636136563168808
 20
-0.2411934060027132
 30
0.0
 11
3.644864185289076
 21
-0.3088167186881261
 31
0.0
  0
LINE
  5
F0C3
330
ED1D
100
AcDbEntity
  8
0
100
AcDbLine
 10
3.889483922168889
 20
-1.022639984898164
 30
0.0
 11
3.914927845864415
 21
-1.061094549921618
 31
0.0
  0
LINE
  5
F0C4
330
ED1D
100
AcDbEntity
  8
0
100
AcDbLine
 10
4.004556319826878
 20
-1.179447126410588
 30
0.0
 11
4.038632447930641
 21
-1.219376148602336
 31
0.0
  0
LINE
  5
F0C5
330
ED1D
100
AcDbEntity
  8
0
100
AcDbLine
 10
3.972450730489594
 20
-1.139531428915292
 30
0.0
 11
4.004556319826878
 21
-1.179447126410588
 31
0.0
  0
LINE
  5
F0C6
330
ED1D
100
AcDbEntity
  8
0
100
AcDbLine
 10
3.942528711505477
 20
-1.099995448615102
 30
0.0
 11
3.972450730489594
 21
-1.139531428915292
 31
0.0
  0
LINE
  5
F0C7
330
ED1D
100
AcDbEntity
  8
0
100
AcDbLine
 10
3.914927845864415
 20
-1.061094549921618
 30
0.0
 11
3.942528711505477
 21
-1.099995448615102
 31
0.0
  0
LINE
  5
F0C8
330
ED1D
100
AcDbEntity
  8
0
100
AcDbLine
 10
4.074466083214165
 20
-1.258952102991869
 30
0.0
 11
4.111844194090746
 21
-1.297808597080528
 31
0.0
  0
LINE
  5
F0C9
330
ED1D
100
AcDbEntity
  8
0
100
AcDbLine
 10
4.111844194090746
 20
-1.297808597080528
 30
0.0
 11
4.150553748973674
 21
-1.335579238369653
 31
0.0
  0
LINE
  5
F0CA
330
ED1D
100
AcDbEntity
  8
0
100
AcDbLine
 10
4.038632447930641
 20
-1.219376148602336
 30
0.0
 11
4.074466083214165
 21
-1.258952102991869
 31
0.0
  0
LINE
  5
F0CB
330
ED1D
100
AcDbEntity
  8
0
100
AcDbLine
 10
3.704572819012302
 20
-0.5978644195885306
 30
0.0
 11
3.71953492848284
 21
-0.6476655017651556
 31
0.0
  0
LINE
  5
F0CC
330
ED1D
100
AcDbEntity
  8
0
100
AcDbLine
 10
3.84410826063706
 20
-0.9458707517664102
 30
0.0
 11
3.865957280424549
 21
-0.9843319775210073
 31
0.0
  0
LINE
  5
F0CD
330
ED1D
100
AcDbEntity
  8
0
100
AcDbLine
 10
3.71953492848284
 20
-0.6476655017651556
 30
0.0
 11
3.735275934016389
 21
-0.6952449112700574
 31
0.0
  0
LINE
  5
F0CE
330
ED1D
100
AcDbEntity
  8
0
100
AcDbLine
 10
3.823697202812081
 20
-0.9069565316106231
 30
0.0
 11
3.84410826063706
 21
-0.9458707517664102
 31
0.0
  0
LINE
  5
F0CF
330
ED1D
100
AcDbEntity
  8
0
100
AcDbLine
 10
3.80448444695526
 20
-0.867289541029919
 30
0.0
 11
3.823697202812081
 21
-0.9069565316106231
 31
0.0
  0
LINE
  5
F0D0
330
ED1D
100
AcDbEntity
  8
0
100
AcDbLine
 10
3.786230333072243
 20
-0.8265700040005512
 30
0.0
 11
3.80448444695526
 21
-0.867289541029919
 31
0.0
  0
LINE
  5
F0D1
330
ED1D
100
AcDbEntity
  8
0
100
AcDbLine
 10
3.7686952011687
 20
-0.7844981444987873
 30
0.0
 11
3.786230333072243
 21
-0.8265700040005512
 31
0.0
  0
LINE
  5
F0D2
330
ED1D
100
AcDbEntity
  8
0
100
AcDbLine
 10
3.751695977587001
 20
-0.7407925061617587
 30
0.0
 11
3.7686952011687
 21
-0.7844981444987873
 31
0.0
  0
LINE
  5
F0D3
330
ED1D
100
AcDbEntity
  8
0
100
AcDbLine
 10
3.735275934016389
 20
-0.6952449112700574
 30
0.0
 11
3.751695977587001
 21
-0.7407925061617587
 31
0.0
  0
LINE
  5
F0D4
330
ED1D
100
AcDbEntity
  8
0
100
AcDbLine
 10
3.865957280424549
 20
-0.9843319775210073
 30
0.0
 11
3.889483922168889
 21
-1.022639984898164
 31
0.0
  0
LINE
  5
F0D5
330
ED1D
100
AcDbEntity
  8
0
100
AcDbLine
 10
3.654510502279745
 20
-0.3726462029941118
 30
0.0
 11
3.665358447238521
 21
-0.4332325564429614
 31
0.0
  0
LINE
  5
F0D6
330
ED1D
100
AcDbEntity
  8
0
100
AcDbLine
 10
3.690489463630765
 20
-0.5456518066816454
 30
0.0
 11
3.704572819012302
 21
-0.5978644195885306
 31
0.0
  0
LINE
  5
F0D7
330
ED1D
100
AcDbEntity
  8
0
100
AcDbLine
 10
3.677384720364177
 20
-0.4908378049859632
 30
0.0
 11
3.690489463630765
 21
-0.5456518066816454
 31
0.0
  0
LINE
  5
F0D8
330
ED1D
100
AcDbEntity
  8
0
100
AcDbLine
 10
3.665358447238521
 20
-0.4332325564429614
 30
0.0
 11
3.677384720364177
 21
-0.4908378049859632
 31
0.0
  0
LINE
  5
F0D9
330
ED1D
100
AcDbEntity
  8
0
100
AcDbLine
 10
3.644864185289076
 20
-0.3088167186881261
 30
0.0
 11
3.654510502279745
 21
-0.3726462029941118
 31
0.0
  0
LINE
  5
F0DA
330
ED1D
100
AcDbEntity
  8
0
100
AcDbLine
 10
3.611870952805578
 20
-0.0093318435195595
 30
0.0
 11
3.619999438249525
 21
-0.0920738338334726
 31
0.0
  0
LINE
  5
F0DB
330
ED1D
100
AcDbEntity
  8
0
100
AcDbLine
 10
3.627968144596447
 20
-0.1691533995228429
 30
0.0
 11
3.636136563168808
 21
-0.2411934060027132
 31
0.0
  0
LINE
  5
F0DC
330
ED1D
100
AcDbEntity
  8
0
100
AcDbLine
 10
3.619999438249525
 20
-0.0920738338334726
 30
0.0
 11
3.627968144596447
 21
-0.1691533995228429
 31
0.0
  0
LINE
  5
F0DD
330
ED1D
100
AcDbEntity
  8
0
100
AcDbLine
 10
3.610964494648104
 20
0.0
 30
0.0
 11
3.611870952805578
 21
-0.0093318435195595
 31
0.0
  0
LINE
  5
F0DE
330
ED1D
100
AcDbEntity
  8
0
100
AcDbLine
 10
-2.091788021257887
 20
4.516581012733052
 30
0.0
 11
-2.134693007461766
 21
4.656827060977509
 31
0.0
  0
LINE
  5
F0DF
330
ED1D
100
AcDbEntity
  8
0
100
AcDbLine
 10
-1.710435889846145
 20
2.868712324244466
 30
0.0
 11
-1.733841800814357
 21
3.018332297788614
 31
0.0
  0
LINE
  5
F0E0
330
ED1D
100
AcDbEntity
  8
0
100
AcDbLine
 10
-1.627461860486999
 20
1.999220145206807
 30
0.0
 11
-1.635302849295083
 21
2.141638765532922
 31
0.0
  0
LINE
  5
F0E1
330
ED1D
100
AcDbEntity
  8
0
100
AcDbLine
 10
-1.617585391647185
 20
1.716373572339819
 30
0.0
 11
-1.621618183594325
 21
1.857397165224183
 31
0.0
  0
LINE
  5
F0E2
330
ED1D
100
AcDbEntity
  8
0
100
AcDbLine
 10
-1.615113454685246
 20
1.577859054833481
 30
0.0
 11
-1.617585391647185
 21
1.716373572339819
 31
0.0
  0
LINE
  5
F0E3
330
ED1D
100
AcDbEntity
  8
0
100
AcDbLine
 10
-1.613936442000554
 20
1.443939786366231
 30
0.0
 11
-1.615113454685246
 21
1.577859054833481
 31
0.0
  0
LINE
  5
F0E4
330
ED1D
100
AcDbEntity
  8
0
100
AcDbLine
 10
-1.621618183594325
 20
1.857397165224183
 30
0.0
 11
-1.627461860486999
 21
1.999220145206807
 31
0.0
  0
LINE
  5
F0E5
330
ED1D
100
AcDbEntity
  8
0
100
AcDbLine
 10
-1.657658867546576
 20
2.428953881721792
 30
0.0
 11
-1.672514949434521
 21
2.574195854837576
 31
0.0
  0
LINE
  5
F0E6
330
ED1D
100
AcDbEntity
  8
0
100
AcDbLine
 10
-1.635302849295083
 20
2.141638765532922
 30
0.0
 11
-1.645311676240854
 21
2.284825764829088
 31
0.0
  0
LINE
  5
F0E7
330
ED1D
100
AcDbEntity
  8
0
100
AcDbLine
 10
-1.645311676240854
 20
2.284825764829088
 30
0.0
 11
-1.657658867546576
 21
2.428953881721792
 31
0.0
  0
LINE
  5
F0E8
330
ED1D
100
AcDbEntity
  8
0
100
AcDbLine
 10
-1.690050448126953
 20
2.720724422802955
 30
0.0
 11
-1.710435889846145
 21
2.868712324244466
 31
0.0
  0
LINE
  5
F0E9
330
ED1D
100
AcDbEntity
  8
0
100
AcDbLine
 10
-1.672514949434521
 20
2.574195854837576
 30
0.0
 11
-1.690050448126953
 21
2.720724422802955
 31
0.0
  0
LINE
  5
F0EA
330
ED1D
100
AcDbEntity
  8
0
100
AcDbLine
 10
-1.92987978647416
 20
3.93253916490481
 30
0.0
 11
-1.968986799932647
 21
4.082274949124617
 31
0.0
  0
LINE
  5
F0EB
330
ED1D
100
AcDbEntity
  8
0
100
AcDbLine
 10
-1.968986799932647
 20
4.082274949124617
 30
0.0
 11
-2.00909966964657
 21
4.229685298911281
 31
0.0
  0
LINE
  5
F0EC
330
ED1D
100
AcDbEntity
  8
0
100
AcDbLine
 10
-2.00909966964657
 20
4.229685298911281
 30
0.0
 11
-2.049992944670517
 21
4.374356611446717
 31
0.0
  0
LINE
  5
F0ED
330
ED1D
100
AcDbEntity
  8
0
100
AcDbLine
 10
-2.049992944670517
 20
4.374356611446717
 30
0.0
 11
-2.091788021257887
 21
4.516581012733052
 31
0.0
  0
LINE
  5
F0EE
330
ED1D
100
AcDbEntity
  8
0
100
AcDbLine
 10
-1.855931979304006
 20
3.628451433258543
 30
0.0
 11
-1.89209079201624
 21
3.781067981275054
 31
0.0
  0
LINE
  5
F0EF
330
ED1D
100
AcDbEntity
  8
0
100
AcDbLine
 10
-1.789753550097078
 20
3.322142384157988
 30
0.0
 11
-1.821715511082583
 21
3.475279555878469
 31
0.0
  0
LINE
  5
F0F0
330
ED1D
100
AcDbEntity
  8
0
100
AcDbLine
 10
-1.733841800814357
 20
3.018332297788614
 30
0.0
 11
-1.760358259092637
 21
3.169629953120317
 31
0.0
  0
LINE
  5
F0F1
330
ED1D
100
AcDbEntity
  8
0
100
AcDbLine
 10
-1.760358259092637
 20
3.169629953120317
 30
0.0
 11
-1.789753550097078
 21
3.322142384157988
 31
0.0
  0
LINE
  5
F0F2
330
ED1D
100
AcDbEntity
  8
0
100
AcDbLine
 10
-1.821715511082583
 20
3.475279555878469
 30
0.0
 11
-1.855931979304006
 21
3.628451433258543
 31
0.0
  0
LINE
  5
F0F3
330
ED1D
100
AcDbEntity
  8
0
100
AcDbLine
 10
-1.89209079201624
 20
3.781067981275054
 30
0.0
 11
-1.92987978647416
 21
3.93253916490481
 31
0.0
  0
LINE
  5
F0F4
330
ED1D
100
AcDbEntity
  8
0
100
AcDbLine
 10
-3.149295784107508
 20
7.116580857697126
 30
0.0
 11
-3.209606711836251
 21
7.24339783270339
 31
0.0
  0
LINE
  5
F0F5
330
ED1D
100
AcDbEntity
  8
0
100
AcDbLine
 10
-3.209606711836251
 20
7.24339783270339
 30
0.0
 11
-3.269570791478876
 21
7.367646420722639
 31
0.0
  0
LINE
  5
F0F6
330
ED1D
100
AcDbEntity
  8
0
100
AcDbLine
 10
-3.269570791478876
 20
7.367646420722639
 30
0.0
 11
-3.329153337694396
 21
7.489083667044916
 31
0.0
  0
LINE
  5
F0F7
330
ED1D
100
AcDbEntity
  8
0
100
AcDbLine
 10
-3.329153337694396
 20
7.489083667044916
 30
0.0
 11
-3.388487079647802
 21
7.607852093996147
 31
0.0
  0
LINE
  5
F0F8
330
ED1D
100
AcDbEntity
  8
0
100
AcDbLine
 10
-2.659732715923247
 20
6.03873770101439
 30
0.0
 11
-2.720691080779758
 21
6.1773553955299
 31
0.0
  0
LINE
  5
F0F9
330
ED1D
100
AcDbEntity
  8
0
100
AcDbLine
 10
-2.321574209504341
 20
5.207398887681097
 30
0.0
 11
-2.373150364587228
 21
5.344781543824538
 31
0.0
  0
LINE
  5
F0FA
330
ED1D
100
AcDbEntity
  8
0
100
AcDbLine
 10
-2.17891601133525
 20
4.795563314387333
 30
0.0
 11
-2.224665140931449
 21
4.933258331169714
 31
0.0
  0
LINE
  5
F0FB
330
ED1D
100
AcDbEntity
  8
0
100
AcDbLine
 10
-2.134693007461766
 20
4.656827060977509
 30
0.0
 11
-2.17891601133525
 21
4.795563314387333
 31
0.0
  0
LINE
  5
F0FC
330
ED1D
100
AcDbEntity
  8
0
100
AcDbLine
 10
-2.272148504303448
 20
5.070380669531907
 30
0.0
 11
-2.321574209504341
 21
5.207398887681097
 31
0.0
  0
LINE
  5
F0FD
330
ED1D
100
AcDbEntity
  8
0
100
AcDbLine
 10
-2.224665140931449
 20
4.933258331169714
 30
0.0
 11
-2.272148504303448
 21
5.070380669531907
 31
0.0
  0
LINE
  5
F0FE
330
ED1D
100
AcDbEntity
  8
0
100
AcDbLine
 10
-2.540521395558812
 20
5.760599904462676
 30
0.0
 11
-2.599572100267298
 21
5.899738218369957
 31
0.0
  0
LINE
  5
F0FF
330
ED1D
100
AcDbEntity
  8
0
100
AcDbLine
 10
-2.599572100267298
 20
5.899738218369957
 30
0.0
 11
-2.659732715923247
 21
6.03873770101439
 31
0.0
  0
LINE
  5
F100
330
ED1D
100
AcDbEntity
  8
0
100
AcDbLine
 10
-2.4828927635447
 20
5.621565716158634
 30
0.0
 11
-2.540521395558812
 21
5.760599904462676
 31
0.0
  0
LINE
  5
F101
330
ED1D
100
AcDbEntity
  8
0
100
AcDbLine
 10
-2.426998365971876
 20
5.482878610323894
 30
0.0
 11
-2.4828927635447
 21
5.621565716158634
 31
0.0
  0
LINE
  5
F102
330
ED1D
100
AcDbEntity
  8
0
100
AcDbLine
 10
-2.373150364587228
 20
5.344781543824538
 30
0.0
 11
-2.426998365971876
 21
5.482878610323894
 31
0.0
  0
LINE
  5
F103
330
ED1D
100
AcDbEntity
  8
0
100
AcDbLine
 10
-3.027772125755657
 20
6.856213565563482
 30
0.0
 11
-3.088672693633643
 21
6.987438450413822
 31
0.0
  0
LINE
  5
F104
330
ED1D
100
AcDbEntity
  8
0
100
AcDbLine
 10
-2.843752411106844
 20
6.452473592709875
 30
0.0
 11
-2.905277299151258
 21
6.588488182001533
 31
0.0
  0
LINE
  5
F105
330
ED1D
100
AcDbEntity
  8
0
100
AcDbLine
 10
-2.782135033089925
 20
6.315348345050431
 30
0.0
 11
-2.843752411106844
 21
6.452473592709875
 31
0.0
  0
LINE
  5
F106
330
ED1D
100
AcDbEntity
  8
0
100
AcDbLine
 10
-2.720691080779758
 20
6.1773553955299
 30
0.0
 11
-2.782135033089925
 21
6.315348345050431
 31
0.0
  0
LINE
  5
F107
330
ED1D
100
AcDbEntity
  8
0
100
AcDbLine
 10
-2.966628765814526
 20
6.72314915785606
 30
0.0
 11
-3.027772125755657
 21
6.856213565563482
 31
0.0
  0
LINE
  5
F108
330
ED1D
100
AcDbEntity
  8
0
100
AcDbLine
 10
-2.905277299151258
 20
6.588488182001533
 30
0.0
 11
-2.966628765814526
 21
6.72314915785606
 31
0.0
  0
LINE
  5
F109
330
ED1D
100
AcDbEntity
  8
0
100
AcDbLine
 10
-3.088672693633643
 20
6.987438450413822
 30
0.0
 11
-3.149295784107508
 21
7.116580857697126
 31
0.0
  0
LINE
  5
F10A
330
ED1D
100
AcDbEntity
  8
0
100
AcDbLine
 10
5.224752917533276
 20
1.316701940599109
 30
0.0
 11
5.224900936648662
 21
1.443939786366231
 31
0.0
  0
CIRCLE
  5
F10B
330
ED1D
100
AcDbEntity
  8
0
100
AcDbCircle
 10
5.083878855079685
 20
-0.5225503547075779
 30
0.0
 40
0.7059045088959176
  0
LINE
  5
F10C
330
ED1D
100
AcDbEntity
  8
0
100
AcDbLine
 10
6.2211457417561
 20
-0.2579091914321072
 30
0.0
 11
6.20560357692231
 21
-0.195266354714116
 31
0.0
  0
LINE
  5
F10D
330
ED1D
100
AcDbEntity
  8
0
100
AcDbLine
 10
5.378048509945966
 20
-1.662219291143671
 30
0.0
 11
5.428577103423574
 21
-1.647243459525583
 31
0.0
  0
LINE
  5
F10E
330
ED1D
100
AcDbEntity
  8
0
100
AcDbLine
 10
4.770824419195566
 20
-1.679363495300144
 30
0.0
 11
4.803392740668645
 21
-1.686649926148007
 31
0.0
  0
LINE
  5
F10F
330
ED1D
100
AcDbEntity
  8
0
100
AcDbLine
 10
4.231115064411756
 20
-1.406397392554655
 30
0.0
 11
4.272533089727819
 21
-1.438778684193522
 31
0.0
  0
LINE
  5
F110
330
ED1D
100
AcDbEntity
  8
0
100
AcDbLine
 10
4.439947403840424
 20
-1.547113346658516
 30
0.0
 11
4.480941215677152
 21
-1.56906433596832
 31
0.0
  0
LINE
  5
F111
330
ED1D
100
AcDbEntity
  8
0
100
AcDbLine
 10
4.272533089727819
 20
-1.438778684193522
 30
0.0
 11
4.314384400309425
 21
-1.4690079354801
 31
0.0
  0
LINE
  5
F112
330
ED1D
100
AcDbEntity
  8
0
100
AcDbLine
 10
4.398350621346413
 20
-1.523142276769362
 30
0.0
 11
4.439947403840424
 21
-1.547113346658516
 31
0.0
  0
LINE
  5
F113
330
ED1D
100
AcDbEntity
  8
0
100
AcDbLine
 10
4.356409932175854
 20
-1.497118136357634
 30
0.0
 11
4.398350621346413
 21
-1.523142276769362
 31
0.0
  0
LINE
  5
F114
330
ED1D
100
AcDbEntity
  8
0
100
AcDbLine
 10
4.314384400309425
 20
-1.4690079354801
 30
0.0
 11
4.356409932175854
 21
-1.497118136357634
 31
0.0
  0
LINE
  5
F115
330
ED1D
100
AcDbEntity
  8
0
100
AcDbLine
 10
4.521072992875932
 20
-1.589028234642029
 30
0.0
 11
4.560083671456052
 21
-1.60703803262286
 31
0.0
  0
LINE
  5
F116
330
ED1D
100
AcDbEntity
  8
0
100
AcDbLine
 10
4.597782369520938
 20
-1.623142716856477
 30
0.0
 11
4.634250933510475
 21
-1.637455262298182
 31
0.0
  0
LINE
  5
F117
330
ED1D
100
AcDbEntity
  8
0
100
AcDbLine
 10
4.560083671456052
 20
-1.60703803262286
 30
0.0
 11
4.597782369520938
 21
-1.623142716856477
 31
0.0
  0
LINE
  5
F118
330
ED1D
100
AcDbEntity
  8
0
100
AcDbLine
 10
4.480941215677152
 20
-1.56906433596832
 30
0.0
 11
4.521072992875932
 21
-1.589028234642029
 31
0.0
  0
LINE
  5
F119
330
ED1D
100
AcDbEntity
  8
0
100
AcDbLine
 10
4.737776106267222
 20
-1.67092978544894
 30
0.0
 11
4.770824419195566
 21
-1.679363495300144
 31
0.0
  0
LINE
  5
F11A
330
ED1D
100
AcDbEntity
  8
0
100
AcDbLine
 10
4.70409777335961
 20
-1.661219824636695
 30
0.0
 11
4.737776106267222
 21
-1.67092978544894
 31
0.0
  0
LINE
  5
F11B
330
ED1D
100
AcDbEntity
  8
0
100
AcDbLine
 10
4.669639391948695
 20
-1.650104640905681
 30
0.0
 11
4.70409777335961
 21
-1.661219824636695
 31
0.0
  0
LINE
  5
F11C
330
ED1D
100
AcDbEntity
  8
0
100
AcDbLine
 10
4.634250933510475
 20
-1.637455262298182
 30
0.0
 11
4.669639391948695
 21
-1.650104640905681
 31
0.0
  0
LINE
  5
F11D
330
ED1D
100
AcDbEntity
  8
0
100
AcDbLine
 10
4.190381716276245
 20
-1.371897634360585
 30
0.0
 11
4.231115064411756
 21
-1.406397392554655
 31
0.0
  0
LINE
  5
F11E
330
ED1D
100
AcDbEntity
  8
0
100
AcDbLine
 10
5.071397549733571
 20
-1.709409934392674
 30
0.0
 11
5.109715399757451
 21
-1.707392321289823
 31
0.0
  0
LINE
  5
F11F
330
ED1D
100
AcDbEntity
  8
0
100
AcDbLine
 10
4.899875114641094
 20
-1.702688884555577
 30
0.0
 11
4.932396804014249
 21
-1.70613826719601
 31
0.0
  0
LINE
  5
F120
330
ED1D
100
AcDbEntity
  8
0
100
AcDbLine
 10
4.867709157475669
 20
-1.698268541202935
 30
0.0
 11
4.899875114641094
 21
-1.702688884555577
 31
0.0
  0
LINE
  5
F121
330
ED1D
100
AcDbEntity
  8
0
100
AcDbLine
 10
4.835631099210484
 20
-1.692918049950243
 30
0.0
 11
4.867709157475669
 21
-1.698268541202935
 31
0.0
  0
LINE
  5
F122
330
ED1D
100
AcDbEntity
  8
0
100
AcDbLine
 10
4.803392740668645
 20
-1.686649926148007
 30
0.0
 11
4.835631099210484
 21
-1.692918049950243
 31
0.0
  0
LINE
  5
F123
330
ED1D
100
AcDbEntity
  8
0
100
AcDbLine
 10
5.034774598454784
 20
-1.710252522722569
 30
0.0
 11
5.071397549733571
 21
-1.709409934392674
 31
0.0
  0
LINE
  5
F124
330
ED1D
100
AcDbEntity
  8
0
100
AcDbLine
 10
4.999578712613615
 20
-1.709960899091655
 30
0.0
 11
5.034774598454784
 21
-1.710252522722569
 31
0.0
  0
LINE
  5
F125
330
ED1D
100
AcDbEntity
  8
0
100
AcDbLine
 10
4.965542058902602
 20
-1.708575876312085
 30
0.0
 11
4.999578712613615
 21
-1.709960899091655
 31
0.0
  0
LINE
  5
F126
330
ED1D
100
AcDbEntity
  8
0
100
AcDbLine
 10
4.932396804014249
 20
-1.70613826719601
 30
0.0
 11
4.965542058902602
 21
-1.708575876312085
 31
0.0
  0
LINE
  5
F127
330
ED1D
100
AcDbEntity
  8
0
100
AcDbLine
 10
5.192056554128914
 20
-1.699442609745663
 30
0.0
 11
5.235995984271877
 21
-1.693117915994946
 31
0.0
  0
LINE
  5
F128
330
ED1D
100
AcDbEntity
  8
0
100
AcDbLine
 10
5.149939659941221
 20
-1.704130600630485
 30
0.0
 11
5.192056554128914
 21
-1.699442609745663
 31
0.0
  0
LINE
  5
F129
330
ED1D
100
AcDbEntity
  8
0
100
AcDbLine
 10
5.109715399757451
 20
-1.707392321289823
 30
0.0
 11
5.149939659941221
 21
-1.704130600630485
 31
0.0
  0
LINE
  5
F12A
330
ED1D
100
AcDbEntity
  8
0
100
AcDbLine
 10
5.329062060229052
 20
-1.674716689334346
 30
0.0
 11
5.378048509945966
 21
-1.662219291143671
 31
0.0
  0
LINE
  5
F12B
330
ED1D
100
AcDbEntity
  8
0
100
AcDbLine
 10
5.281687852321471
 20
-1.684946086737973
 30
0.0
 11
5.329062060229052
 21
-1.674716689334346
 31
0.0
  0
LINE
  5
F12C
330
ED1D
100
AcDbEntity
  8
0
100
AcDbLine
 10
5.235995984271877
 20
-1.693117915994946
 30
0.0
 11
5.281687852321471
 21
-1.684946086737973
 31
0.0
  0
LINE
  5
F12D
330
ED1D
100
AcDbEntity
  8
0
100
AcDbLine
 10
6.127842078322618
 20
-1.076903249453225
 30
0.0
 11
6.154751711554698
 21
-1.018769131831634
 31
0.0
  0
LINE
  5
F12E
330
ED1D
100
AcDbEntity
  8
0
100
AcDbLine
 10
5.988893358729267
 20
-1.290266947896803
 30
0.0
 11
6.028233604337106
 21
-1.2402695712547
 31
0.0
  0
LINE
  5
F12F
330
ED1D
100
AcDbEntity
  8
0
100
AcDbLine
 10
5.802745679011852
 20
-1.462073970433401
 30
0.0
 11
5.853196375546264
 21
-1.423654327218571
 31
0.0
  0
LINE
  5
F130
330
ED1D
100
AcDbEntity
  8
0
100
AcDbLine
 10
5.696914093899156
 20
-1.529817860571661
 30
0.0
 11
5.750472447187636
 21
-1.497454020763516
 31
0.0
  0
LINE
  5
F131
330
ED1D
100
AcDbEntity
  8
0
100
AcDbLine
 10
5.480577742613217
 20
-1.629578761839688
 30
0.0
 11
5.533902443503439
 21
-1.60904594049186
 31
0.0
  0
LINE
  5
F132
330
ED1D
100
AcDbEntity
  8
0
100
AcDbLine
 10
5.428577103423574
 20
-1.647243459525583
 30
0.0
 11
5.480577742613217
 21
-1.629578761839688
 31
0.0
  0
LINE
  5
F133
330
ED1D
100
AcDbEntity
  8
0
100
AcDbLine
 10
5.588091678231531
 20
-1.585590438073083
 30
0.0
 11
5.642608032971946
 21
-1.559188872220602
 31
0.0
  0
LINE
  5
F134
330
ED1D
100
AcDbEntity
  8
0
100
AcDbLine
 10
5.642608032971946
 20
-1.559188872220602
 30
0.0
 11
5.696914093899156
 21
-1.529817860571661
 31
0.0
  0
LINE
  5
F135
330
ED1D
100
AcDbEntity
  8
0
100
AcDbLine
 10
5.533902443503439
 20
-1.60904594049186
 30
0.0
 11
5.588091678231531
 21
-1.585590438073083
 31
0.0
  0
LINE
  5
F136
330
ED1D
100
AcDbEntity
  8
0
100
AcDbLine
 10
5.750472447187636
 20
-1.497454020763516
 30
0.0
 11
5.802745679011852
 21
-1.462073970433401
 31
0.0
  0
LINE
  5
F137
330
ED1D
100
AcDbEntity
  8
0
100
AcDbLine
 10
5.946562287890305
 20
-1.337645599091047
 30
0.0
 11
5.988893358729267
 21
-1.290266947896803
 31
0.0
  0
LINE
  5
F138
330
ED1D
100
AcDbEntity
  8
0
100
AcDbLine
 10
5.901287122965346
 20
-1.38217170875626
 30
0.0
 11
5.946562287890305
 21
-1.337645599091047
 31
0.0
  0
LINE
  5
F139
330
ED1D
100
AcDbEntity
  8
0
100
AcDbLine
 10
5.853196375546264
 20
-1.423654327218571
 30
0.0
 11
5.901287122965346
 21
-1.38217170875626
 31
0.0
  0
LINE
  5
F13A
330
ED1D
100
AcDbEntity
  8
0
100
AcDbLine
 10
6.097754695278911
 20
-1.133353905951727
 30
0.0
 11
6.127842078322618
 21
-1.076903249453225
 31
0.0
  0
LINE
  5
F13B
330
ED1D
100
AcDbEntity
  8
0
100
AcDbLine
 10
6.064536293568696
 20
-1.187887285245951
 30
0.0
 11
6.097754695278911
 21
-1.133353905951727
 31
0.0
  0
LINE
  5
F13C
330
ED1D
100
AcDbEntity
  8
0
100
AcDbLine
 10
6.028233604337106
 20
-1.2402695712547
 30
0.0
 11
6.064536293568696
 21
-1.187887285245951
 31
0.0
  0
LINE
  5
F13D
330
ED1D
100
AcDbEntity
  8
0
100
AcDbLine
 10
6.247589981054193
 20
-0.64600048472788
 30
0.0
 11
6.251478450224016
 21
-0.5813877798493952
 31
0.0
  0
LINE
  5
F13E
330
ED1D
100
AcDbEntity
  8
0
100
AcDbLine
 10
6.154751711554698
 20
-1.018769131831634
 30
0.0
 11
6.178436863830018
 21
-0.9591853691681464
 31
0.0
  0
LINE
  5
F13F
330
ED1D
100
AcDbEntity
  8
0
100
AcDbLine
 10
6.240371882523692
 20
-0.7101572510509673
 30
0.0
 11
6.247589981054193
 21
-0.64600048472788
 31
0.0
  0
LINE
  5
F140
330
ED1D
100
AcDbEntity
  8
0
100
AcDbLine
 10
6.229835838084273
 20
-0.7737061007376074
 30
0.0
 11
6.240371882523692
 21
-0.7101572510509673
 31
0.0
  0
LINE
  5
F141
330
ED1D
100
AcDbEntity
  8
0
100
AcDbLine
 10
6.215993531187667
 20
-0.8364950557067221
 30
0.0
 11
6.229835838084273
 21
-0.7737061007376074
 31
0.0
  0
LINE
  5
F142
330
ED1D
100
AcDbEntity
  8
0
100
AcDbLine
 10
6.198856645285669
 20
-0.8983721378772511
 30
0.0
 11
6.215993531187667
 21
-0.8364950557067221
 31
0.0
  0
LINE
  5
F143
330
ED1D
100
AcDbEntity
  8
0
100
AcDbLine
 10
6.178436863830018
 20
-0.9591853691681464
 30
0.0
 11
6.198856645285669
 21
-0.8983721378772511
 31
0.0
  0
LINE
  5
F144
330
ED1D
100
AcDbEntity
  8
0
100
AcDbLine
 10
6.243070665825992
 20
-0.3863747325244215
 30
0.0
 11
6.233673714455253
 21
-0.3217444790602446
 31
0.0
  0
LINE
  5
F145
330
ED1D
100
AcDbEntity
  8
0
100
AcDbLine
 10
6.249219766674539
 20
-0.4514024667505172
 30
0.0
 11
6.243070665825992
 21
-0.3863747325244215
 31
0.0
  0
LINE
  5
F146
330
ED1D
100
AcDbEntity
  8
0
100
AcDbLine
 10
6.252025606581373
 20
-0.5164711144965875
 30
0.0
 11
6.249219766674539
 21
-0.4514024667505172
 31
0.0
  0
LINE
  5
F147
330
ED1D
100
AcDbEntity
  8
0
100
AcDbLine
 10
6.251478450224016
 20
-0.5813877798493952
 30
0.0
 11
6.252025606581373
 21
-0.5164711144965875
 31
0.0
  0
LINE
  5
F148
330
ED1D
100
AcDbEntity
  8
0
100
AcDbLine
 10
6.233673714455253
 20
-0.3217444790602446
 30
0.0
 11
6.2211457417561
 21
-0.2579091914321072
 31
0.0
  0
LINE
  5
F149
330
ED1D
100
AcDbEntity
  8
0
100
AcDbLine
 10
5.428602369211045
 20
0.6290725522263081
 30
0.0
 11
5.396959217036748
 21
0.6428500719364152
 31
0.0
  0
LINE
  5
F14A
330
ED1D
100
AcDbEntity
  8
0
100
AcDbLine
 10
5.229132162605761
 20
0.9162882577528801
 30
0.0
 11
5.227823514523432
 21
0.995938676108997
 31
0.0
  0
LINE
  5
F14B
330
ED1D
100
AcDbEntity
  8
0
100
AcDbLine
 10
5.231048541504296
 20
0.8048080286630927
 30
0.0
 11
5.230198524886791
 21
0.8530498255203067
 31
0.0
  0
LINE
  5
F14C
330
ED1D
100
AcDbEntity
  8
0
100
AcDbLine
 10
5.231766526765174
 20
0.7694472115512756
 30
0.0
 11
5.231048541504296
 21
0.8048080286630927
 31
0.0
  0
LINE
  5
F14D
330
ED1D
100
AcDbEntity
  8
0
100
AcDbLine
 10
5.232436794976347
 20
0.7448517185548607
 30
0.0
 11
5.231766526765174
 21
0.7694472115512756
 31
0.0
  0
LINE
  5
F14E
330
ED1D
100
AcDbEntity
  8
0
100
AcDbLine
 10
5.233143660444721
 20
0.7289058940438445
 30
0.0
 11
5.232436794976347
 21
0.7448517185548607
 31
0.0
  0
LINE
  5
F14F
330
ED1D
100
AcDbEntity
  8
0
100
AcDbLine
 10
5.233971437477205
 20
0.7194940823882341
 30
0.0
 11
5.233143660444721
 21
0.7289058940438445
 31
0.0
  0
LINE
  5
F150
330
ED1D
100
AcDbEntity
  8
0
100
AcDbLine
 10
5.235004440380709
 20
0.7145006279580369
 30
0.0
 11
5.233971437477205
 21
0.7194940823882341
 31
0.0
  0
LINE
  5
F151
330
ED1D
100
AcDbEntity
  8
0
100
AcDbLine
 10
5.236326983462152
 20
0.7118098751232776
 30
0.0
 11
5.235004440380709
 21
0.7145006279580369
 31
0.0
  0
LINE
  5
F152
330
ED1D
100
AcDbEntity
  8
0
100
AcDbLine
 10
5.238081373158177
 20
0.7096256539940225
 30
0.0
 11
5.236326983462152
 21
0.7118098751232776
 31
0.0
  0
LINE
  5
F153
330
ED1D
100
AcDbEntity
  8
0
100
AcDbLine
 10
5.240641884424338
 20
0.7074297376407142
 30
0.0
 11
5.238081373158177
 21
0.7096256539940225
 31
0.0
  0
LINE
  5
F154
330
ED1D
100
AcDbEntity
  8
0
100
AcDbLine
 10
5.244440784345943
 20
0.7050233848738419
 30
0.0
 11
5.240641884424338
 21
0.7074297376407142
 31
0.0
  0
LINE
  5
F155
330
ED1D
100
AcDbEntity
  8
0
100
AcDbLine
 10
5.249910340008302
 20
0.7022078545039055
 30
0.0
 11
5.244440784345943
 21
0.7050233848738419
 31
0.0
  0
LINE
  5
F156
330
ED1D
100
AcDbEntity
  8
0
100
AcDbLine
 10
5.257482818496701
 20
0.6987844053414261
 30
0.0
 11
5.249910340008302
 21
0.7022078545039055
 31
0.0
  0
LINE
  5
F157
330
ED1D
100
AcDbEntity
  8
0
100
AcDbLine
 10
5.267590486896448
 20
0.6945542961968876
 30
0.0
 11
5.257482818496701
 21
0.6987844053414261
 31
0.0
  0
LINE
  5
F158
330
ED1D
100
AcDbEntity
  8
0
100
AcDbLine
 10
5.230198524886791
 20
0.8530498255203067
 30
0.0
 11
5.229132162605761
 21
0.9162882577528801
 31
0.0
  0
LINE
  5
F159
330
ED1D
100
AcDbEntity
  8
0
100
AcDbLine
 10
5.297140461771189
 20
0.682879133203679
 30
0.0
 11
5.280665612292846
 21
0.6893187858807952
 31
0.0
  0
LINE
  5
F15A
330
ED1D
100
AcDbEntity
  8
0
100
AcDbLine
 10
5.317311002023441
 20
0.675063875051654
 30
0.0
 11
5.297140461771189
 21
0.682879133203679
 31
0.0
  0
LINE
  5
F15B
330
ED1D
100
AcDbEntity
  8
0
100
AcDbLine
 10
5.34092799816825
 20
0.6658106606135075
 30
0.0
 11
5.317311002023441
 21
0.675063875051654
 31
0.0
  0
LINE
  5
F15C
330
ED1D
100
AcDbEntity
  8
0
100
AcDbLine
 10
5.367605914930923
 20
0.6550844171536241
 30
0.0
 11
5.34092799816825
 21
0.6658106606135075
 31
0.0
  0
LINE
  5
F15D
330
ED1D
100
AcDbEntity
  8
0
100
AcDbLine
 10
5.396959217036748
 20
0.6428500719364152
 30
0.0
 11
5.367605914930923
 21
0.6550844171536241
 31
0.0
  0
LINE
  5
F15E
330
ED1D
100
AcDbEntity
  8
0
100
AcDbLine
 10
5.280665612292846
 20
0.6893187858807952
 30
0.0
 11
5.267590486896448
 21
0.6945542961968876
 31
0.0
  0
LINE
  5
F15F
330
ED1D
100
AcDbEntity
  8
0
100
AcDbLine
 10
5.226480137178608
 20
1.090615211809447
 30
0.0
 11
5.225367961279243
 21
1.198231691193162
 31
0.0
  0
LINE
  5
F160
330
ED1D
100
AcDbEntity
  8
0
100
AcDbLine
 10
5.227823514523432
 20
0.995938676108997
 30
0.0
 11
5.226480137178608
 21
1.090615211809447
 31
0.0
  0
LINE
  5
F161
330
ED1D
100
AcDbEntity
  8
0
100
AcDbLine
 10
5.225367961279243
 20
1.198231691193162
 30
0.0
 11
5.224752917533276
 21
1.316701940599109
 31
0.0
  0
LINE
  5
F162
330
ED1D
100
AcDbEntity
  8
0
100
AcDbLine
 10
5.608014843777784
 20
0.5358565534649955
 30
0.0
 11
5.570405610259346
 21
0.557835119110921
 31
0.0
  0
LINE
  5
F163
330
ED1D
100
AcDbEntity
  8
0
100
AcDbLine
 10
6.022908146077117
 20
0.1790865421100118
 30
0.0
 11
5.988394875435179
 21
0.2214849468716178
 31
0.0
  0
LINE
  5
F164
330
ED1D
100
AcDbEntity
  8
0
100
AcDbLine
 10
5.723272601146479
 20
0.4598200552910879
 30
0.0
 11
5.684576851534142
 21
0.4868490220941038
 31
0.0
  0
LINE
  5
F165
330
ED1D
100
AcDbEntity
  8
0
100
AcDbLine
 10
5.646114761640308
 20
0.512194521305732
 30
0.0
 11
5.608014843777784
 21
0.5358565534649955
 31
0.0
  0
LINE
  5
F166
330
ED1D
100
AcDbEntity
  8
0
100
AcDbLine
 10
5.684576851534142
 20
0.4868490220941038
 30
0.0
 11
5.646114761640308
 21
0.512194521305732
 31
0.0
  0
LINE
  5
F167
330
ED1D
100
AcDbEntity
  8
0
100
AcDbLine
 10
5.762073498164529
 20
0.4311076203576576
 30
0.0
 11
5.723272601146479
 21
0.4598200552910879
 31
0.0
  0
LINE
  5
F168
330
ED1D
100
AcDbEntity
  8
0
100
AcDbLine
 10
5.800851030275484
 20
0.40071171675479
 30
0.0
 11
5.762073498164529
 21
0.4311076203576576
 31
0.0
  0
LINE
  5
F169
330
ED1D
100
AcDbEntity
  8
0
100
AcDbLine
 10
5.839476685166562
 20
0.3686323439434567
 30
0.0
 11
5.800851030275484
 21
0.40071171675479
 31
0.0
  0
LINE
  5
F16A
330
ED1D
100
AcDbEntity
  8
0
100
AcDbLine
 10
5.877798584730573
 20
0.3348383263383763
 30
0.0
 11
5.839476685166562
 21
0.3686323439434567
 31
0.0
  0
LINE
  5
F16B
330
ED1D
100
AcDbEntity
  8
0
100
AcDbLine
 10
5.988394875435179
 20
0.2214849468716178
 30
0.0
 11
5.952526386944018
 21
0.2614516786191121
 31
0.0
  0
LINE
  5
F16C
330
ED1D
100
AcDbEntity
  8
0
100
AcDbLine
 10
5.952526386944018
 20
0.2614516786191121
 30
0.0
 11
5.915571387682771
 21
0.2991737881691367
 31
0.0
  0
LINE
  5
F16D
330
ED1D
100
AcDbEntity
  8
0
100
AcDbLine
 10
5.915571387682771
 20
0.2991737881691367
 30
0.0
 11
5.877798584730573
 21
0.3348383263383763
 31
0.0
  0
LINE
  5
F16E
330
ED1D
100
AcDbEntity
  8
0
100
AcDbLine
 10
6.055797491790702
 20
0.1340694135176275
 30
0.0
 11
6.022908146077117
 21
0.1790865421100118
 31
0.0
  0
LINE
  5
F16F
330
ED1D
100
AcDbEntity
  8
0
100
AcDbLine
 10
6.165943987625905
 20
-0.0751479743050876
 30
0.0
 11
6.142060221550853
 21
-0.0184674007622672
 31
0.0
  0
LINE
  5
F170
330
ED1D
100
AcDbEntity
  8
0
100
AcDbLine
 10
6.187164049147657
 20
-0.1342134539804043
 30
0.0
 11
6.165943987625905
 21
-0.0751479743050876
 31
0.0
  0
LINE
  5
F171
330
ED1D
100
AcDbEntity
  8
0
100
AcDbLine
 10
6.08679420549679
 20
0.0862465102778067
 30
0.0
 11
6.055797491790702
 21
0.1340694135176275
 31
0.0
  0
LINE
  5
F172
330
ED1D
100
AcDbEntity
  8
0
100
AcDbLine
 10
6.115629580116252
 20
0.0354307815739095
 30
0.0
 11
6.08679420549679
 21
0.0862465102778067
 31
0.0
  0
LINE
  5
F173
330
ED1D
100
AcDbEntity
  8
0
100
AcDbLine
 10
6.142060221550853
 20
-0.0184674007622672
 30
0.0
 11
6.115629580116252
 21
0.0354307815739095
 31
0.0
  0
LINE
  5
F174
330
ED1D
100
AcDbEntity
  8
0
100
AcDbLine
 10
6.20560357692231
 20
-0.195266354714116
 30
0.0
 11
6.187164049147657
 21
-0.1342134539804043
 31
0.0
  0
LINE
  5
F175
330
ED1D
100
AcDbEntity
  8
0
100
AcDbLine
 10
5.462149836179126
 20
0.6137167852876875
 30
0.0
 11
5.428602369211045
 21
0.6290725522263081
 31
0.0
  0
LINE
  5
F176
330
ED1D
100
AcDbEntity
  8
0
100
AcDbLine
 10
5.497216082666273
 20
0.596747698384954
 30
0.0
 11
5.462149836179126
 21
0.6137167852876875
 31
0.0
  0
LINE
  5
F177
330
ED1D
100
AcDbEntity
  8
0
100
AcDbLine
 10
5.533415573397807
 20
0.5781302187825315
 30
0.0
 11
5.497216082666273
 21
0.596747698384954
 31
0.0
  0
LINE
  5
F178
330
ED1D
100
AcDbEntity
  8
0
100
AcDbLine
 10
5.570405610259346
 20
0.557835119110921
 30
0.0
 11
5.533415573397807
 21
0.5781302187825315
 31
0.0
  0
LINE
  5
F179
330
ED1D
100
AcDbEntity
  8
0
100
AcDbLine
 10
5.702752515905995
 20
4.516581012733052
 30
0.0
 11
5.745657502109875
 21
4.656827060977509
 31
0.0
  0
LINE
  5
F17A
330
ED1D
100
AcDbEntity
  8
0
100
AcDbLine
 10
5.321400384494257
 20
2.868712324244466
 30
0.0
 11
5.344806295462465
 21
3.018332297788614
 31
0.0
  0
LINE
  5
F17B
330
ED1D
100
AcDbEntity
  8
0
100
AcDbLine
 10
5.238426355135107
 20
1.999220145206807
 30
0.0
 11
5.246267343943191
 21
2.141638765532922
 31
0.0
  0
LINE
  5
F17C
330
ED1D
100
AcDbEntity
  8
0
100
AcDbLine
 10
5.228549886295294
 20
1.716373572339819
 30
0.0
 11
5.232582678242433
 21
1.857397165224183
 31
0.0
  0
LINE
  5
F17D
330
ED1D
100
AcDbEntity
  8
0
100
AcDbLine
 10
5.224900936648662
 20
1.443939786366231
 30
0.0
 11
5.226077949333355
 21
1.577859054833481
 31
0.0
  0
LINE
  5
F17E
330
ED1D
100
AcDbEntity
  8
0
100
AcDbLine
 10
5.226077949333355
 20
1.577859054833481
 30
0.0
 11
5.228549886295294
 21
1.716373572339819
 31
0.0
  0
LINE
  5
F17F
330
ED1D
100
AcDbEntity
  8
0
100
AcDbLine
 10
5.232582678242433
 20
1.857397165224183
 30
0.0
 11
5.238426355135107
 21
1.999220145206807
 31
0.0
  0
LINE
  5
F180
330
ED1D
100
AcDbEntity
  8
0
100
AcDbLine
 10
5.268623362194684
 20
2.428953881721792
 30
0.0
 11
5.283479444082633
 21
2.574195854837576
 31
0.0
  0
LINE
  5
F181
330
ED1D
100
AcDbEntity
  8
0
100
AcDbLine
 10
5.256276170888963
 20
2.284825764829088
 30
0.0
 11
5.268623362194684
 21
2.428953881721792
 31
0.0
  0
LINE
  5
F182
330
ED1D
100
AcDbEntity
  8
0
100
AcDbLine
 10
5.246267343943191
 20
2.141638765532922
 30
0.0
 11
5.256276170888963
 21
2.284825764829088
 31
0.0
  0
LINE
  5
F183
330
ED1D
100
AcDbEntity
  8
0
100
AcDbLine
 10
5.283479444082633
 20
2.574195854837576
 30
0.0
 11
5.301014942775058
 21
2.720724422802955
 31
0.0
  0
LINE
  5
F184
330
ED1D
100
AcDbEntity
  8
0
100
AcDbLine
 10
5.301014942775058
 20
2.720724422802955
 30
0.0
 11
5.321400384494257
 21
2.868712324244466
 31
0.0
  0
LINE
  5
F185
330
ED1D
100
AcDbEntity
  8
0
100
AcDbLine
 10
5.371322753740745
 20
3.169629953120317
 30
0.0
 11
5.400718044745186
 21
3.322142384157988
 31
0.0
  0
LINE
  5
F186
330
ED1D
100
AcDbEntity
  8
0
100
AcDbLine
 10
5.344806295462465
 20
3.018332297788614
 30
0.0
 11
5.371322753740745
 21
3.169629953120317
 31
0.0
  0
LINE
  5
F187
330
ED1D
100
AcDbEntity
  8
0
100
AcDbLine
 10
5.466896473952115
 20
3.628451433258543
 30
0.0
 11
5.503055286664352
 21
3.781067981275054
 31
0.0
  0
LINE
  5
F188
330
ED1D
100
AcDbEntity
  8
0
100
AcDbLine
 10
5.400718044745186
 20
3.322142384157988
 30
0.0
 11
5.432680005730691
 21
3.475279555878469
 31
0.0
  0
LINE
  5
F189
330
ED1D
100
AcDbEntity
  8
0
100
AcDbLine
 10
5.432680005730691
 20
3.475279555878469
 30
0.0
 11
5.466896473952115
 21
3.628451433258543
 31
0.0
  0
LINE
  5
F18A
330
ED1D
100
AcDbEntity
  8
0
100
AcDbLine
 10
5.579951294580755
 20
4.082274949124617
 30
0.0
 11
5.620064164294678
 21
4.229685298911281
 31
0.0
  0
LINE
  5
F18B
330
ED1D
100
AcDbEntity
  8
0
100
AcDbLine
 10
5.503055286664352
 20
3.781067981275054
 30
0.0
 11
5.540844281122264
 21
3.93253916490481
 31
0.0
  0
LINE
  5
F18C
330
ED1D
100
AcDbEntity
  8
0
100
AcDbLine
 10
5.540844281122264
 20
3.93253916490481
 30
0.0
 11
5.579951294580755
 21
4.082274949124617
 31
0.0
  0
LINE
  5
F18D
330
ED1D
100
AcDbEntity
  8
0
100
AcDbLine
 10
5.660957439318625
 20
4.374356611446717
 30
0.0
 11
5.702752515905995
 21
4.516581012733052
 31
0.0
  0
LINE
  5
F18E
330
ED1D
100
AcDbEntity
  8
0
100
AcDbLine
 10
5.620064164294678
 20
4.229685298911281
 30
0.0
 11
5.660957439318625
 21
4.374356611446717
 31
0.0
  0
LINE
  5
F18F
330
ED1D
100
AcDbEntity
  8
0
100
AcDbLine
 10
6.577593260462638
 20
6.72314915785606
 30
0.0
 11
6.638736620403765
 21
6.856213565563482
 31
0.0
  0
LINE
  5
F190
330
ED1D
100
AcDbEntity
  8
0
100
AcDbLine
 10
6.270697210571359
 20
6.03873770101439
 30
0.0
 11
6.331655575427863
 21
6.1773553955299
 31
0.0
  0
LINE
  5
F191
330
ED1D
100
AcDbEntity
  8
0
100
AcDbLine
 10
5.932538704152452
 20
5.207398887681097
 30
0.0
 11
5.984114859235337
 21
5.344781543824538
 31
0.0
  0
LINE
  5
F192
330
ED1D
100
AcDbEntity
  8
0
100
AcDbLine
 10
5.789880505983358
 20
4.795563314387333
 30
0.0
 11
5.835629635579554
 21
4.933258331169714
 31
0.0
  0
LINE
  5
F193
330
ED1D
100
AcDbEntity
  8
0
100
AcDbLine
 10
5.745657502109875
 20
4.656827060977509
 30
0.0
 11
5.789880505983358
 21
4.795563314387333
 31
0.0
  0
LINE
  5
F194
330
ED1D
100
AcDbEntity
  8
0
100
AcDbLine
 10
5.835629635579554
 20
4.933258331169714
 30
0.0
 11
5.883112998951556
 21
5.070380669531907
 31
0.0
  0
LINE
  5
F195
330
ED1D
100
AcDbEntity
  8
0
100
AcDbLine
 10
5.883112998951556
 20
5.070380669531907
 30
0.0
 11
5.932538704152452
 21
5.207398887681097
 31
0.0
  0
LINE
  5
F196
330
ED1D
100
AcDbEntity
  8
0
100
AcDbLine
 10
5.984114859235337
 20
5.344781543824538
 30
0.0
 11
6.037962860619987
 21
5.482878610323894
 31
0.0
  0
LINE
  5
F197
330
ED1D
100
AcDbEntity
  8
0
100
AcDbLine
 10
6.093857258192809
 20
5.621565716158634
 30
0.0
 11
6.151485890206917
 21
5.760599904462676
 31
0.0
  0
LINE
  5
F198
330
ED1D
100
AcDbEntity
  8
0
100
AcDbLine
 10
6.037962860619987
 20
5.482878610323894
 30
0.0
 11
6.093857258192809
 21
5.621565716158634
 31
0.0
  0
LINE
  5
F199
330
ED1D
100
AcDbEntity
  8
0
100
AcDbLine
 10
6.210536594915406
 20
5.899738218369957
 30
0.0
 11
6.270697210571359
 21
6.03873770101439
 31
0.0
  0
LINE
  5
F19A
330
ED1D
100
AcDbEntity
  8
0
100
AcDbLine
 10
6.151485890206917
 20
5.760599904462676
 30
0.0
 11
6.210536594915406
 21
5.899738218369957
 31
0.0
  0
LINE
  5
F19B
330
ED1D
100
AcDbEntity
  8
0
100
AcDbLine
 10
6.454716905754953
 20
6.452473592709875
 30
0.0
 11
6.51624179379937
 21
6.588488182001533
 31
0.0
  0
LINE
  5
F19C
330
ED1D
100
AcDbEntity
  8
0
100
AcDbLine
 10
6.331655575427863
 20
6.1773553955299
 30
0.0
 11
6.393099527738034
 21
6.315348345050431
 31
0.0
  0
LINE
  5
F19D
330
ED1D
100
AcDbEntity
  8
0
100
AcDbLine
 10
6.393099527738034
 20
6.315348345050431
 30
0.0
 11
6.454716905754953
 21
6.452473592709875
 31
0.0
  0
LINE
  5
F19E
330
ED1D
100
AcDbEntity
  8
0
100
AcDbLine
 10
6.51624179379937
 20
6.588488182001533
 30
0.0
 11
6.577593260462638
 21
6.72314915785606
 31
0.0
  0
LINE
  5
F19F
330
ED1D
100
AcDbEntity
  8
0
100
AcDbLine
 10
6.638736620403765
 20
6.856213565563482
 30
0.0
 11
6.699637188281752
 21
6.987438450413822
 31
0.0
  0
LINE
  5
F1A0
330
ED1D
100
AcDbEntity
  8
0
100
AcDbLine
 10
6.820571206484363
 20
7.24339783270339
 30
0.0
 11
6.880535286126988
 21
7.367646420722639
 31
0.0
  0
LINE
  5
F1A1
330
ED1D
100
AcDbEntity
  8
0
100
AcDbLine
 10
6.699637188281752
 20
6.987438450413822
 30
0.0
 11
6.760260278755612
 21
7.116580857697126
 31
0.0
  0
LINE
  5
F1A2
330
ED1D
100
AcDbEntity
  8
0
100
AcDbLine
 10
6.760260278755612
 20
7.116580857697126
 30
0.0
 11
6.820571206484363
 21
7.24339783270339
 31
0.0
  0
LINE
  5
F1A3
330
ED1D
100
AcDbEntity
  8
0
100
AcDbLine
 10
6.880535286126988
 20
7.367646420722639
 30
0.0
 11
6.940117832342505
 21
7.489083667044916
 31
0.0
  0
LINE
  5
F1A4
330
ED1D
100
AcDbEntity
  8
0
100
AcDbLine
 10
6.940117832342505
 20
7.489083667044916
 30
0.0
 11
6.999451574295907
 21
7.607852093996147
 31
0.0
  0
CIRCLE
  5
F1A5
330
ED1D
100
AcDbEntity
  8
0
100
AcDbCircle
 10
6.431920128294745
 20
14.96204195919078
 30
0.0
 40
2.820955633646637
  0
LINE
  5
F1A6
330
ED1D
100
AcDbEntity
  8
0
100
AcDbLine
 10
-5.653341926077402
 20
15.47970966144776
 30
0.0
 11
-5.623578214154591
 21
15.59109849751187
 31
0.0
  0
LINE
  5
F1A7
330
ED1D
100
AcDbEntity
  8
0
100
AcDbLine
 10
-5.645943541545857
 20
12.79298202244188
 30
0.0
 11
-5.66970161410348
 21
12.92415221854079
 31
0.0
  0
LINE
  5
F1A8
330
ED1D
100
AcDbEntity
  8
0
100
AcDbLine
 10
-5.792526537899153
 20
14.01724913968828
 30
0.0
 11
-5.796498197828416
 21
14.13008719011337
 31
0.0
  0
LINE
  5
F1A9
330
ED1D
100
AcDbEntity
  8
0
100
AcDbLine
 10
-5.710537488717907
 20
13.18142514027883
 30
0.0
 11
-5.727830783629116
 21
13.30720440998971
 31
0.0
  0
LINE
  5
F1AA
330
ED1D
100
AcDbEntity
  8
0
100
AcDbLine
 10
-5.66970161410348
 20
12.92415221854079
 30
0.0
 11
-5.691197014351761
 21
13.05368716714114
 31
0.0
  0
LINE
  5
F1AB
330
ED1D
100
AcDbEntity
  8
0
100
AcDbLine
 10
-5.691197014351761
 20
13.05368716714114
 30
0.0
 11
-5.710537488717907
 21
13.18142514027883
 31
0.0
  0
LINE
  5
F1AC
330
ED1D
100
AcDbEntity
  8
0
100
AcDbLine
 10
-5.756706820795532
 20
13.55223992727452
 30
0.0
 11
-5.768472133302534
 21
13.67125957281687
 31
0.0
  0
LINE
  5
F1AD
330
ED1D
100
AcDbEntity
  8
0
100
AcDbLine
 10
-5.727830783629116
 20
13.30720440998971
 30
0.0
 11
-5.743184645512588
 21
13.43086324830964
 31
0.0
  0
LINE
  5
F1AE
330
ED1D
100
AcDbEntity
  8
0
100
AcDbLine
 10
-5.743184645512588
 20
13.43086324830964
 30
0.0
 11
-5.756706820795532
 21
13.55223992727452
 31
0.0
  0
LINE
  5
F1AF
330
ED1D
100
AcDbEntity
  8
0
100
AcDbLine
 10
-5.778423716447772
 20
13.78819472645599
 30
0.0
 11
-5.786471781042791
 21
13.9034047836078
 31
0.0
  0
LINE
  5
F1B0
330
ED1D
100
AcDbEntity
  8
0
100
AcDbLine
 10
-5.786471781042791
 20
13.9034047836078
 30
0.0
 11
-5.792526537899153
 21
14.01724913968828
 31
0.0
  0
LINE
  5
F1B1
330
ED1D
100
AcDbEntity
  8
0
100
AcDbLine
 10
-5.768472133302534
 20
13.67125957281687
 30
0.0
 11
-5.778423716447772
 21
13.78819472645599
 31
0.0
  0
LINE
  5
F1B2
330
ED1D
100
AcDbEntity
  8
0
100
AcDbLine
 10
-5.771716551514778
 20
14.80400675231264
 30
0.0
 11
-5.758813920600605
 21
14.9169825792186
 31
0.0
  0
LINE
  5
F1B3
330
ED1D
100
AcDbEntity
  8
0
100
AcDbLine
 10
-5.797833070151856
 20
14.35418195566116
 30
0.0
 11
-5.79501670416915
 21
14.46615746161578
 31
0.0
  0
LINE
  5
F1B4
330
ED1D
100
AcDbEntity
  8
0
100
AcDbLine
 10
-5.796498197828416
 20
14.13008719011337
 30
0.0
 11
-5.798296971642127
 21
14.24227833029901
 31
0.0
  0
LINE
  5
F1B5
330
ED1D
100
AcDbEntity
  8
0
100
AcDbLine
 10
-5.798296971642127
 20
14.24227833029901
 30
0.0
 11
-5.797833070151856
 21
14.35418195566116
 31
0.0
  0
LINE
  5
F1B6
330
ED1D
100
AcDbEntity
  8
0
100
AcDbLine
 10
-5.782015310604602
 20
14.69113874440878
 30
0.0
 11
-5.771716551514778
 21
14.80400675231264
 31
0.0
  0
LINE
  5
F1B7
330
ED1D
100
AcDbEntity
  8
0
100
AcDbLine
 10
-5.79501670416915
 20
14.46615746161578
 30
0.0
 11
-5.78976407058456
 21
14.57848637450912
 31
0.0
  0
LINE
  5
F1B8
330
ED1D
100
AcDbEntity
  8
0
100
AcDbLine
 10
-5.78976407058456
 20
14.57848637450912
 30
0.0
 11
-5.782015310604602
 21
14.69113874440878
 31
0.0
  0
LINE
  5
F1B9
330
ED1D
100
AcDbEntity
  8
0
100
AcDbLine
 10
-5.724981552441214
 20
15.14282641402843
 30
0.0
 11
-5.703944069767015
 21
15.25547878392808
 31
0.0
  0
LINE
  5
F1BA
330
ED1D
100
AcDbEntity
  8
0
100
AcDbLine
 10
-5.743253545147577
 20
15.02995840612457
 30
0.0
 11
-5.724981552441214
 21
15.14282641402843
 31
0.0
  0
LINE
  5
F1BB
330
ED1D
100
AcDbEntity
  8
0
100
AcDbLine
 10
-5.758813920600605
 20
14.9169825792186
 30
0.0
 11
-5.743253545147577
 21
15.02995840612457
 31
0.0
  0
LINE
  5
F1BC
330
ED1D
100
AcDbEntity
  8
0
100
AcDbLine
 10
-5.680087224410488
 20
15.36780769682143
 30
0.0
 11
-5.653341926077402
 21
15.47970966144776
 31
0.0
  0
LINE
  5
F1BD
330
ED1D
100
AcDbEntity
  8
0
100
AcDbLine
 10
-5.703944069767015
 20
15.25547878392808
 30
0.0
 11
-5.680087224410488
 21
15.36780769682143
 31
0.0
  0
CIRCLE
  5
F1BE
330
ED1D
100
AcDbEntity
  8
0
100
AcDbCircle
 10
-2.820955633646637
 20
14.96204195919078
 30
0.0
 40
2.820955633646637
  0
CIRCLE
  5
F1BF
330
ED1D
100
AcDbEntity
  8
0
100
AcDbCircle
 10
-2.820955633646637
 20
14.96204195919078
 30
0.0
 40
2.224652073704388
  0
LINE
  5
F1C0
330
ED1D
100
AcDbEntity
  8
0
100
AcDbLine
 10
-4.999259398648497
 20
10.75478234263253
 30
0.0
 11
-5.069941147117312
 21
10.92016657184449
 31
0.0
  0
LINE
  5
F1C1
330
ED1D
100
AcDbEntity
  8
0
100
AcDbLine
 10
-4.2633841694443
 20
9.256076814834262
 30
0.0
 11
-4.366997787402681
 21
9.453288415332703
 31
0.0
  0
LINE
  5
F1C2
330
ED1D
100
AcDbEntity
  8
0
100
AcDbLine
 10
-3.790057832155767
 20
8.372237251466312
 30
0.0
 11
-3.87363249019129
 21
8.52758301372328
 31
0.0
  0
LINE
  5
F1C3
330
ED1D
100
AcDbEntity
  8
0
100
AcDbLine
 10
-3.641055893679581
 20
8.093780987841814
 30
0.0
 11
-3.712855567216852
 21
8.228326545340994
 31
0.0
  0
LINE
  5
F1C4
330
ED1D
100
AcDbEntity
  8
0
100
AcDbLine
 10
-3.448374404528067
 20
7.725636132045945
 30
0.0
 11
-3.509785114030147
 21
7.844505688699804
 31
0.0
  0
LINE
  5
F1C5
330
ED1D
100
AcDbEntity
  8
0
100
AcDbLine
 10
-3.509785114030147
 20
7.844505688699804
 30
0.0
 11
-3.573689009849001
 21
7.966530671463257
 31
0.0
  0
LINE
  5
F1C6
330
ED1D
100
AcDbEntity
  8
0
100
AcDbLine
 10
-3.573689009849001
 20
7.966530671463257
 30
0.0
 11
-3.641055893679581
 21
8.093780987841814
 31
0.0
  0
LINE
  5
F1C7
330
ED1D
100
AcDbEntity
  8
0
100
AcDbLine
 10
-3.712855567216852
 20
8.228326545340994
 30
0.0
 11
-3.790057832155767
 21
8.372237251466312
 31
0.0
  0
LINE
  5
F1C8
330
ED1D
100
AcDbEntity
  8
0
100
AcDbLine
 10
-4.060319827612691
 20
8.874779591736292
 30
0.0
 11
-4.160616858899469
 21
9.062410573241137
 31
0.0
  0
LINE
  5
F1C9
330
ED1D
100
AcDbEntity
  8
0
100
AcDbLine
 10
-3.87363249019129
 20
8.52758301372328
 30
0.0
 11
-3.964117047428462
 21
8.695673771502679
 31
0.0
  0
LINE
  5
F1CA
330
ED1D
100
AcDbEntity
  8
0
100
AcDbLine
 10
-3.964117047428462
 20
8.695673771502679
 30
0.0
 11
-4.060319827612691
 21
8.874779591736292
 31
0.0
  0
LINE
  5
F1CB
330
ED1D
100
AcDbEntity
  8
0
100
AcDbLine
 10
-4.160616858899469
 20
9.062410573241137
 30
0.0
 11
-4.2633841694443
 21
9.256076814834262
 31
0.0
  0
LINE
  5
F1CC
330
ED1D
100
AcDbEntity
  8
0
100
AcDbLine
 10
-4.366997787402681
 20
9.453288415332703
 30
0.0
 11
-4.469833740930102
 21
9.651555473553489
 31
0.0
  0
LINE
  5
F1CD
330
ED1D
100
AcDbEntity
  8
0
100
AcDbLine
 10
-4.666676767314047
 20
10.04129635843023
 30
0.0
 11
-4.757743448245573
 21
10.22827310731138
 31
0.0
  0
LINE
  5
F1CE
330
ED1D
100
AcDbEntity
  8
0
100
AcDbLine
 10
-4.469833740930102
 20
9.651555473553489
 30
0.0
 11
-4.570268058182058
 21
9.848388088313644
 31
0.0
  0
LINE
  5
F1CF
330
ED1D
100
AcDbEntity
  8
0
100
AcDbLine
 10
-4.570268058182058
 20
9.848388088313644
 30
0.0
 11
-4.666676767314047
 21
10.04129635843023
 31
0.0
  0
LINE
  5
F1D0
330
ED1D
100
AcDbEntity
  8
0
100
AcDbLine
 10
-4.843381887952144
 20
10.40924205672967
 30
0.0
 11
-4.923813425173275
 21
10.58460965304882
 31
0.0
  0
LINE
  5
F1D1
330
ED1D
100
AcDbEntity
  8
0
100
AcDbLine
 10
-4.757743448245573
 20
10.22827310731138
 30
0.0
 11
-4.843381887952144
 21
10.40924205672967
 31
0.0
  0
LINE
  5
F1D2
330
ED1D
100
AcDbEntity
  8
0
100
AcDbLine
 10
-4.923813425173275
 20
10.58460965304882
 30
0.0
 11
-4.999259398648497
 21
10.75478234263253
 31
0.0
  0
LINE
  5
F1D3
330
ED1D
100
AcDbEntity
  8
0
100
AcDbLine
 10
-5.560006846848263
 20
12.39120834473214
 30
0.0
 11
-5.591208393793781
 21
12.52638279960492
 31
0.0
  0
LINE
  5
F1D4
330
ED1D
100
AcDbEntity
  8
0
100
AcDbLine
 10
-5.309442712563534
 20
11.54192200059054
 30
0.0
 11
-5.359553745005371
 21
11.68927994179111
 31
0.0
  0
LINE
  5
F1D5
330
ED1D
100
AcDbEntity
  8
0
100
AcDbLine
 10
-5.19789732399381
 20
11.23819543460796
 30
0.0
 11
-5.25561442988053
 21
11.39165296088688
 31
0.0
  0
LINE
  5
F1D6
330
ED1D
100
AcDbEntity
  8
0
100
AcDbLine
 10
-5.069941147117312
 20
10.92016657184449
 30
0.0
 11
-5.136080009319247
 21
11.0811687870484
 31
0.0
  0
LINE
  5
F1D7
330
ED1D
100
AcDbEntity
  8
0
100
AcDbLine
 10
-5.136080009319247
 20
11.0811687870484
 30
0.0
 11
-5.19789732399381
 21
11.23819543460796
 31
0.0
  0
LINE
  5
F1D8
330
ED1D
100
AcDbEntity
  8
0
100
AcDbLine
 10
-5.25561442988053
 20
11.39165296088688
 30
0.0
 11
-5.309442712563534
 21
11.54192200059054
 31
0.0
  0
LINE
  5
F1D9
330
ED1D
100
AcDbEntity
  8
0
100
AcDbLine
 10
-5.449270538394269
 20
11.97626883433833
 30
0.0
 11
-5.489199538955677
 21
12.11640293851269
 31
0.0
  0
LINE
  5
F1DA
330
ED1D
100
AcDbEntity
  8
0
100
AcDbLine
 10
-5.359553745005371
 20
11.68927994179111
 30
0.0
 11
-5.406109147013228
 21
11.83397836090243
 31
0.0
  0
LINE
  5
F1DB
330
ED1D
100
AcDbEntity
  8
0
100
AcDbLine
 10
-5.406109147013228
 20
11.83397836090243
 30
0.0
 11
-5.449270538394269
 21
11.97626883433833
 31
0.0
  0
LINE
  5
F1DC
330
ED1D
100
AcDbEntity
  8
0
100
AcDbLine
 10
-5.526057768504614
 20
12.25463224983935
 30
0.0
 11
-5.560006846848263
 21
12.39120834473214
 31
0.0
  0
LINE
  5
F1DD
330
ED1D
100
AcDbEntity
  8
0
100
AcDbLine
 10
-5.489199538955677
 20
12.11640293851269
 30
0.0
 11
-5.526057768504614
 21
12.25463224983935
 31
0.0
  0
LINE
  5
F1DE
330
ED1D
100
AcDbEntity
  8
0
100
AcDbLine
 10
-5.591208393793781
 20
12.52638279960492
 30
0.0
 11
-5.619815050251691
 21
12.66033830680854
 31
0.0
  0
LINE
  5
F1DF
330
ED1D
100
AcDbEntity
  8
0
100
AcDbLine
 10
-5.619815050251691
 20
12.66033830680854
 30
0.0
 11
-5.645943541545857
 21
12.79298202244188
 31
0.0
  0
LINE
  5
F1E0
330
ED1D
100
AcDbEntity
  8
0
100
AcDbLine
 10
-4.63751185001222
 20
17.18827878720463
 30
0.0
 11
-4.541888138538009
 21
17.26298025536515
 31
0.0
  0
CIRCLE
  5
F1E1
330
ED1D
100
AcDbEntity
  8
0
100
AcDbCircle
 10
-2.820955633646637
 20
14.96204195919078
 30
0.0
 40
0.8723936311698533
  0
LINE
  5
F1E2
330
ED1D
100
AcDbEntity
  8
0
100
AcDbLine
 10
-5.623578214154591
 20
15.59109849751187
 30
0.0
 11
-5.590650910449152
 21
15.70189235245996
 31
0.0
  0
LINE
  5
F1E3
330
ED1D
100
AcDbEntity
  8
0
100
AcDbLine
 10
-5.318540151191179
 20
16.34952837783955
 30
0.0
 11
-5.259532000094235
 21
16.45352418844884
 31
0.0
  0
LINE
  5
F1E4
330
ED1D
100
AcDbEntity
  8
0
100
AcDbLine
 10
-5.471435666707993
 20
16.02988550507022
 30
0.0
 11
-5.424402213942979
 21
16.13748091001628
 31
0.0
  0
LINE
  5
F1E5
330
ED1D
100
AcDbEntity
  8
0
100
AcDbLine
 10
-5.514724814918753
 20
15.92136770879294
 30
0.0
 11
-5.471435666707993
 21
16.02988550507022
 31
0.0
  0
LINE
  5
F1E6
330
ED1D
100
AcDbEntity
  8
0
100
AcDbLine
 10
-5.554414836768174
 20
15.81200937373826
 30
0.0
 11
-5.514724814918753
 21
15.92136770879294
 31
0.0
  0
LINE
  5
F1E7
330
ED1D
100
AcDbEntity
  8
0
100
AcDbLine
 10
-5.590650910449152
 20
15.70189235245996
 30
0.0
 11
-5.554414836768174
 21
15.81200937373826
 31
0.0
  0
LINE
  5
F1E8
330
ED1D
100
AcDbEntity
  8
0
100
AcDbLine
 10
-5.373479278430806
 20
16.24407207107734
 30
0.0
 11
-5.318540151191179
 21
16.34952837783955
 31
0.0
  0
LINE
  5
F1E9
330
ED1D
100
AcDbEntity
  8
0
100
AcDbLine
 10
-5.424402213942979
 20
16.13748091001628
 30
0.0
 11
-5.373479278430806
 21
16.24407207107734
 31
0.0
  0
LINE
  5
F1EA
330
ED1D
100
AcDbEntity
  8
0
100
AcDbLine
 10
-5.057749774486978
 20
16.75300464621821
 30
0.0
 11
-4.982121898788236
 21
16.84741447507481
 31
0.0
  0
LINE
  5
F1EB
330
ED1D
100
AcDbEntity
  8
0
100
AcDbLine
 10
-5.259532000094235
 20
16.45352418844884
 30
0.0
 11
-5.196420462222725
 21
16.55568510319112
 31
0.0
  0
LINE
  5
F1EC
330
ED1D
100
AcDbEntity
  8
0
100
AcDbLine
 10
-5.129171174659393
 20
16.65563672235228
 30
0.0
 11
-5.057749774486978
 21
16.75300464621821
 31
0.0
  0
LINE
  5
F1ED
330
ED1D
100
AcDbEntity
  8
0
100
AcDbLine
 10
-5.196420462222725
 20
16.55568510319112
 30
0.0
 11
-5.129171174659393
 21
16.65563672235228
 31
0.0
  0
LINE
  5
F1EE
330
ED1D
100
AcDbEntity
  8
0
100
AcDbLine
 10
-4.81810926914273
 20
17.02586224890361
 30
0.0
 11
-4.729737472814885
 21
17.10918813708245
 31
0.0
  0
LINE
  5
F1EF
330
ED1D
100
AcDbEntity
  8
0
100
AcDbLine
 10
-4.982121898788236
 20
16.84741447507481
 30
0.0
 11
-4.9022531846459
 21
16.93849180920798
 31
0.0
  0
LINE
  5
F1F0
330
ED1D
100
AcDbEntity
  8
0
100
AcDbLine
 10
-4.9022531846459
 20
16.93849180920798
 30
0.0
 11
-4.81810926914273
 21
17.02586224890361
 31
0.0
  0
LINE
  5
F1F1
330
ED1D
100
AcDbEntity
  8
0
100
AcDbLine
 10
-4.729737472814885
 20
17.10918813708245
 30
0.0
 11
-4.63751185001222
 21
17.18827878720463
 31
0.0
  0
LINE
  5
F1F2
330
ED1D
100
AcDbEntity
  8
0
100
AcDbLine
 10
-3.262074608296231
 20
17.77455210870522
 30
0.0
 11
-3.147406305242249
 21
17.78485958908158
 31
0.0
  0
LINE
  5
F1F3
330
ED1D
100
AcDbEntity
  8
0
100
AcDbLine
 10
-4.443322076195521
 20
17.333138597659
 30
0.0
 11
-4.34226940078804
 21
17.39859987018116
 31
0.0
  0
LINE
  5
F1F4
330
ED1D
100
AcDbEntity
  8
0
100
AcDbLine
 10
-4.541888138538009
 20
17.26298025536515
 30
0.0
 11
-4.443322076195521
 21
17.333138597659
 31
0.0
  0
LINE
  5
F1F5
330
ED1D
100
AcDbEntity
  8
0
100
AcDbLine
 10
-3.814884085022875
 20
17.65037809146204
 30
0.0
 11
-3.706645006159206
 21
17.6851744854104
 31
0.0
  0
LINE
  5
F1F6
330
ED1D
100
AcDbEntity
  8
0
100
AcDbLine
 10
-3.922210628840169
 20
17.61043487719288
 30
0.0
 11
-3.814884085022875
 21
17.65037809146204
 31
0.0
  0
LINE
  5
F1F7
330
ED1D
100
AcDbEntity
  8
0
100
AcDbLine
 10
-4.134527161991165
 20
17.51481543029041
 30
0.0
 11
-4.028749074208327
 21
17.56526183006747
 31
0.0
  0
LINE
  5
F1F8
330
ED1D
100
AcDbEntity
  8
0
100
AcDbLine
 10
-4.239185850118829
 20
17.45921012902664
 30
0.0
 11
-4.134527161991165
 21
17.51481543029041
 31
0.0
  0
LINE
  5
F1F9
330
ED1D
100
AcDbEntity
  8
0
100
AcDbLine
 10
-4.34226940078804
 20
17.39859987018116
 30
0.0
 11
-4.239185850118829
 21
17.45921012902664
 31
0.0
  0
LINE
  5
F1FA
330
ED1D
100
AcDbEntity
  8
0
100
AcDbLine
 10
-4.028749074208327
 20
17.56526183006747
 30
0.0
 11
-3.922210628840169
 21
17.61043487719288
 31
0.0
  0
LINE
  5
F1FB
330
ED1D
100
AcDbEntity
  8
0
100
AcDbLine
 10
-3.597368955651941
 20
17.71490707157344
 30
0.0
 11
-3.486931496903842
 21
17.7396588624866
 31
0.0
  0
LINE
  5
F1FC
330
ED1D
100
AcDbEntity
  8
0
100
AcDbLine
 10
-3.706645006159206
 20
17.6851744854104
 30
0.0
 11
-3.597368955651941
 21
17.71490707157344
 31
0.0
  0
LINE
  5
F1FD
330
ED1D
100
AcDbEntity
  8
0
100
AcDbLine
 10
-3.486931496903842
 20
17.7396588624866
 30
0.0
 11
-3.375208193317689
 21
17.75951287068538
 31
0.0
  0
LINE
  5
F1FE
330
ED1D
100
AcDbEntity
  8
0
100
AcDbLine
 10
-3.375208193317689
 20
17.75951287068538
 30
0.0
 11
-3.262074608296231
 21
17.77455210870522
 31
0.0
  0
LINE
  5
F1FF
330
ED1D
100
AcDbEntity
  8
0
100
AcDbLine
 10
-2.67687013919815
 20
17.77843988544787
 30
0.0
 11
-2.558354673037833
 21
17.76443485526011
 31
0.0
  0
LINE
  5
F200
330
ED1D
100
AcDbEntity
  8
0
100
AcDbLine
 10
-2.913714418452997
 20
17.79136228961904
 30
0.0
 11
-2.795468563755427
 21
17.78738110838932
 31
0.0
  0
LINE
  5
F201
330
ED1D
100
AcDbEntity
  8
0
100
AcDbLine
 10
-3.147406305242249
 20
17.78485958908158
 30
0.0
 11
-3.031172175034161
 21
17.7904871946716
 31
0.0
  0
LINE
  5
F202
330
ED1D
100
AcDbEntity
  8
0
100
AcDbLine
 10
-3.031172175034161
 20
17.7904871946716
 30
0.0
 11
-2.913714418452997
 21
17.79136228961904
 31
0.0
  0
LINE
  5
F203
330
ED1D
100
AcDbEntity
  8
0
100
AcDbLine
 10
-2.795468563755427
 20
17.78738110838932
 30
0.0
 11
-2.67687013919815
 21
17.77843988544787
 31
0.0
  0
CIRCLE
  5
F204
330
ED1D
100
AcDbEntity
  8
0
100
AcDbCircle
 10
6.431920128294745
 20
14.96204195919078
 30
0.0
 40
2.224652073704388
  0
LINE
  5
F205
330
ED1D
100
AcDbEntity
  8
0
100
AcDbLine
 10
9.403491032547261
 20
14.01724913968828
 30
0.0
 11
9.407462692476524
 21
14.13008719011337
 31
0.0
  0
LINE
  5
F206
330
ED1D
100
AcDbEntity
  8
0
100
AcDbLine
 10
9.060235033042378
 20
11.97626883433833
 30
0.0
 11
9.100164033603785
 21
12.11640293851269
 31
0.0
  0
LINE
  5
F207
330
ED1D
100
AcDbEntity
  8
0
100
AcDbLine
 10
8.610223893296609
 20
10.75478234263253
 30
0.0
 11
8.680905641765424
 21
10.92016657184449
 31
0.0
  0
LINE
  5
F208
330
ED1D
100
AcDbEntity
  8
0
100
AcDbLine
 10
7.874348664092412
 20
9.256076814834262
 30
0.0
 11
7.977962282050786
 21
9.453288415332703
 31
0.0
  0
LINE
  5
F209
330
ED1D
100
AcDbEntity
  8
0
100
AcDbLine
 10
7.771581353547578
 20
9.062410573241137
 30
0.0
 11
7.874348664092412
 21
9.256076814834262
 31
0.0
  0
LINE
  5
F20A
330
ED1D
100
AcDbEntity
  8
0
100
AcDbLine
 10
7.401022326803872
 20
8.372237251466312
 30
0.0
 11
7.484596984839402
 21
8.52758301372328
 31
0.0
  0
LINE
  5
F20B
330
ED1D
100
AcDbEntity
  8
0
100
AcDbLine
 10
7.184653504497109
 20
7.966530671463257
 30
0.0
 11
7.252020388327689
 21
8.093780987841814
 31
0.0
  0
LINE
  5
F20C
330
ED1D
100
AcDbEntity
  8
0
100
AcDbLine
 10
7.120749608678256
 20
7.844505688699804
 30
0.0
 11
7.184653504497109
 21
7.966530671463257
 31
0.0
  0
LINE
  5
F20D
330
ED1D
100
AcDbEntity
  8
0
100
AcDbLine
 10
7.059338899176172
 20
7.725636132045945
 30
0.0
 11
7.120749608678256
 21
7.844505688699804
 31
0.0
  0
LINE
  5
F20E
330
ED1D
100
AcDbEntity
  8
0
100
AcDbLine
 10
7.252020388327689
 20
8.093780987841814
 30
0.0
 11
7.32382006186496
 21
8.228326545340994
 31
0.0
  0
LINE
  5
F20F
330
ED1D
100
AcDbEntity
  8
0
100
AcDbLine
 10
7.32382006186496
 20
8.228326545340994
 30
0.0
 11
7.401022326803872
 21
8.372237251466312
 31
0.0
  0
LINE
  5
F210
330
ED1D
100
AcDbEntity
  8
0
100
AcDbLine
 10
7.671284322260799
 20
8.874779591736292
 30
0.0
 11
7.771581353547578
 21
9.062410573241137
 31
0.0
  0
LINE
  5
F211
330
ED1D
100
AcDbEntity
  8
0
100
AcDbLine
 10
7.484596984839402
 20
8.52758301372328
 30
0.0
 11
7.575081542076571
 21
8.695673771502679
 31
0.0
  0
LINE
  5
F212
330
ED1D
100
AcDbEntity
  8
0
100
AcDbLine
 10
7.575081542076571
 20
8.695673771502679
 30
0.0
 11
7.671284322260799
 21
8.874779591736292
 31
0.0
  0
LINE
  5
F213
330
ED1D
100
AcDbEntity
  8
0
100
AcDbLine
 10
8.277641261962155
 20
10.04129635843023
 30
0.0
 11
8.368707942893681
 21
10.22827310731138
 31
0.0
  0
LINE
  5
F214
330
ED1D
100
AcDbEntity
  8
0
100
AcDbLine
 10
8.08079823557821
 20
9.651555473553489
 30
0.0
 11
8.18123255283017
 21
9.848388088313644
 31
0.0
  0
LINE
  5
F215
330
ED1D
100
AcDbEntity
  8
0
100
AcDbLine
 10
7.977962282050786
 20
9.453288415332703
 30
0.0
 11
8.08079823557821
 21
9.651555473553489
 31
0.0
  0
LINE
  5
F216
330
ED1D
100
AcDbEntity
  8
0
100
AcDbLine
 10
8.18123255283017
 20
9.848388088313644
 30
0.0
 11
8.277641261962155
 21
10.04129635843023
 31
0.0
  0
LINE
  5
F217
330
ED1D
100
AcDbEntity
  8
0
100
AcDbLine
 10
8.454346382600252
 20
10.40924205672967
 30
0.0
 11
8.534777919821383
 21
10.58460965304882
 31
0.0
  0
LINE
  5
F218
330
ED1D
100
AcDbEntity
  8
0
100
AcDbLine
 10
8.368707942893681
 20
10.22827310731138
 30
0.0
 11
8.454346382600252
 21
10.40924205672967
 31
0.0
  0
LINE
  5
F219
330
ED1D
100
AcDbEntity
  8
0
100
AcDbLine
 10
8.534777919821383
 20
10.58460965304882
 30
0.0
 11
8.610223893296609
 21
10.75478234263253
 31
0.0
  0
LINE
  5
F21A
330
ED1D
100
AcDbEntity
  8
0
100
AcDbLine
 10
8.920407207211642
 20
11.54192200059054
 30
0.0
 11
8.970518239653475
 21
11.68927994179111
 31
0.0
  0
LINE
  5
F21B
330
ED1D
100
AcDbEntity
  8
0
100
AcDbLine
 10
8.808861818641918
 20
11.23819543460796
 30
0.0
 11
8.866578924528642
 21
11.39165296088688
 31
0.0
  0
LINE
  5
F21C
330
ED1D
100
AcDbEntity
  8
0
100
AcDbLine
 10
8.747044503967355
 20
11.0811687870484
 30
0.0
 11
8.808861818641918
 21
11.23819543460796
 31
0.0
  0
LINE
  5
F21D
330
ED1D
100
AcDbEntity
  8
0
100
AcDbLine
 10
8.680905641765424
 20
10.92016657184449
 30
0.0
 11
8.747044503967355
 21
11.0811687870484
 31
0.0
  0
LINE
  5
F21E
330
ED1D
100
AcDbEntity
  8
0
100
AcDbLine
 10
8.866578924528642
 20
11.39165296088688
 30
0.0
 11
8.920407207211642
 21
11.54192200059054
 31
0.0
  0
LINE
  5
F21F
330
ED1D
100
AcDbEntity
  8
0
100
AcDbLine
 10
9.017073641661337
 20
11.83397836090243
 30
0.0
 11
9.060235033042378
 21
11.97626883433833
 31
0.0
  0
LINE
  5
F220
330
ED1D
100
AcDbEntity
  8
0
100
AcDbLine
 10
8.970518239653475
 20
11.68927994179111
 30
0.0
 11
9.017073641661337
 21
11.83397836090243
 31
0.0
  0
LINE
  5
F221
330
ED1D
100
AcDbEntity
  8
0
100
AcDbLine
 10
9.170971341496372
 20
12.39120834473214
 30
0.0
 11
9.202172888441889
 21
12.52638279960492
 31
0.0
  0
LINE
  5
F222
330
ED1D
100
AcDbEntity
  8
0
100
AcDbLine
 10
9.100164033603785
 20
12.11640293851269
 30
0.0
 11
9.137022263152719
 21
12.25463224983935
 31
0.0
  0
LINE
  5
F223
330
ED1D
100
AcDbEntity
  8
0
100
AcDbLine
 10
9.137022263152719
 20
12.25463224983935
 30
0.0
 11
9.170971341496372
 21
12.39120834473214
 31
0.0
  0
LINE
  5
F224
330
ED1D
100
AcDbEntity
  8
0
100
AcDbLine
 10
9.321501983366015
 20
13.18142514027883
 30
0.0
 11
9.338795278277221
 21
13.30720440998971
 31
0.0
  0
LINE
  5
F225
330
ED1D
100
AcDbEntity
  8
0
100
AcDbLine
 10
9.256908036193966
 20
12.79298202244188
 30
0.0
 11
9.280666108751592
 21
12.92415221854079
 31
0.0
  0
LINE
  5
F226
330
ED1D
100
AcDbEntity
  8
0
100
AcDbLine
 10
9.2307795448998
 20
12.66033830680854
 30
0.0
 11
9.256908036193966
 21
12.79298202244188
 31
0.0
  0
LINE
  5
F227
330
ED1D
100
AcDbEntity
  8
0
100
AcDbLine
 10
9.202172888441889
 20
12.52638279960492
 30
0.0
 11
9.2307795448998
 21
12.66033830680854
 31
0.0
  0
LINE
  5
F228
330
ED1D
100
AcDbEntity
  8
0
100
AcDbLine
 10
9.302161508999869
 20
13.05368716714114
 30
0.0
 11
9.321501983366015
 21
13.18142514027883
 31
0.0
  0
LINE
  5
F229
330
ED1D
100
AcDbEntity
  8
0
100
AcDbLine
 10
9.280666108751592
 20
12.92415221854079
 30
0.0
 11
9.302161508999869
 21
13.05368716714114
 31
0.0
  0
LINE
  5
F22A
330
ED1D
100
AcDbEntity
  8
0
100
AcDbLine
 10
9.36767131544364
 20
13.55223992727452
 30
0.0
 11
9.379436627950642
 21
13.67125957281687
 31
0.0
  0
LINE
  5
F22B
330
ED1D
100
AcDbEntity
  8
0
100
AcDbLine
 10
9.354149140160696
 20
13.43086324830964
 30
0.0
 11
9.36767131544364
 21
13.55223992727452
 31
0.0
  0
LINE
  5
F22C
330
ED1D
100
AcDbEntity
  8
0
100
AcDbLine
 10
9.338795278277221
 20
13.30720440998971
 30
0.0
 11
9.354149140160696
 21
13.43086324830964
 31
0.0
  0
LINE
  5
F22D
330
ED1D
100
AcDbEntity
  8
0
100
AcDbLine
 10
9.379436627950642
 20
13.67125957281687
 30
0.0
 11
9.38938821109588
 21
13.78819472645599
 31
0.0
  0
LINE
  5
F22E
330
ED1D
100
AcDbEntity
  8
0
100
AcDbLine
 10
9.397436275690896
 20
13.9034047836078
 30
0.0
 11
9.403491032547261
 21
14.01724913968828
 31
0.0
  0
LINE
  5
F22F
330
ED1D
100
AcDbEntity
  8
0
100
AcDbLine
 10
9.38938821109588
 20
13.78819472645599
 30
0.0
 11
9.397436275690896
 21
13.9034047836078
 31
0.0
  0
LINE
  5
F230
330
ED1D
100
AcDbEntity
  8
0
100
AcDbLine
 10
9.082400161356101
 20
16.02988550507022
 30
0.0
 11
9.035366708591087
 21
16.13748091001628
 31
0.0
  0
LINE
  5
F231
330
ED1D
100
AcDbEntity
  8
0
100
AcDbLine
 10
8.248476344660328
 20
17.18827878720463
 30
0.0
 11
8.152852633186117
 21
17.26298025536515
 31
0.0
  0
CIRCLE
  5
F232
330
ED1D
100
AcDbEntity
  8
0
100
AcDbCircle
 10
6.431920128294745
 20
14.96204195919078
 30
0.0
 40
0.8723936311698533
  0
LINE
  5
F233
330
ED1D
100
AcDbEntity
  8
0
100
AcDbLine
 10
8.929504645839291
 20
16.34952837783955
 30
0.0
 11
8.870496494742344
 21
16.45352418844884
 31
0.0
  0
LINE
  5
F234
330
ED1D
100
AcDbEntity
  8
0
100
AcDbLine
 10
9.035366708591087
 20
16.13748091001628
 30
0.0
 11
8.984443773078911
 21
16.24407207107734
 31
0.0
  0
LINE
  5
F235
330
ED1D
100
AcDbEntity
  8
0
100
AcDbLine
 10
8.984443773078911
 20
16.24407207107734
 30
0.0
 11
8.929504645839291
 21
16.34952837783955
 31
0.0
  0
LINE
  5
F236
330
ED1D
100
AcDbEntity
  8
0
100
AcDbLine
 10
8.513217679294005
 20
16.93849180920798
 30
0.0
 11
8.429073763790842
 21
17.02586224890361
 31
0.0
  0
LINE
  5
F237
330
ED1D
100
AcDbEntity
  8
0
100
AcDbLine
 10
8.340701967462994
 20
17.10918813708245
 30
0.0
 11
8.248476344660328
 21
17.18827878720463
 31
0.0
  0
LINE
  5
F238
330
ED1D
100
AcDbEntity
  8
0
100
AcDbLine
 10
8.429073763790842
 20
17.02586224890361
 30
0.0
 11
8.340701967462994
 21
17.10918813708245
 31
0.0
  0
LINE
  5
F239
330
ED1D
100
AcDbEntity
  8
0
100
AcDbLine
 10
8.668714269135083
 20
16.75300464621821
 30
0.0
 11
8.59308639343634
 21
16.84741447507481
 31
0.0
  0
LINE
  5
F23A
330
ED1D
100
AcDbEntity
  8
0
100
AcDbLine
 10
8.807384956870837
 20
16.55568510319112
 30
0.0
 11
8.740135669307502
 21
16.65563672235228
 31
0.0
  0
LINE
  5
F23B
330
ED1D
100
AcDbEntity
  8
0
100
AcDbLine
 10
8.740135669307502
 20
16.65563672235228
 30
0.0
 11
8.668714269135083
 21
16.75300464621821
 31
0.0
  0
LINE
  5
F23C
330
ED1D
100
AcDbEntity
  8
0
100
AcDbLine
 10
8.870496494742344
 20
16.45352418844884
 30
0.0
 11
8.807384956870837
 21
16.55568510319112
 31
0.0
  0
LINE
  5
F23D
330
ED1D
100
AcDbEntity
  8
0
100
AcDbLine
 10
8.59308639343634
 20
16.84741447507481
 30
0.0
 11
8.513217679294005
 21
16.93849180920798
 31
0.0
  0
LINE
  5
F23E
330
ED1D
100
AcDbEntity
  8
0
100
AcDbLine
 10
6.642136669682269
 20
17.7904871946716
 30
0.0
 11
6.524678913101102
 21
17.79136228961904
 31
0.0
  0
LINE
  5
F23F
330
ED1D
100
AcDbEntity
  8
0
100
AcDbLine
 10
6.406433058403539
 20
17.78738110838932
 30
0.0
 11
6.287834633846262
 21
17.77843988544787
 31
0.0
  0
LINE
  5
F240
330
ED1D
100
AcDbEntity
  8
0
100
AcDbLine
 10
6.287834633846262
 20
17.77843988544787
 30
0.0
 11
6.169319167685944
 21
17.76443485526011
 31
0.0
  0
LINE
  5
F241
330
ED1D
100
AcDbEntity
  8
0
100
AcDbLine
 10
6.524678913101102
 20
17.79136228961904
 30
0.0
 11
6.406433058403539
 21
17.78738110838932
 31
0.0
  0
LINE
  5
F242
330
ED1D
100
AcDbEntity
  8
0
100
AcDbLine
 10
7.953233895436145
 20
17.39859987018116
 30
0.0
 11
7.850150344766934
 21
17.45921012902664
 31
0.0
  0
LINE
  5
F243
330
ED1D
100
AcDbEntity
  8
0
100
AcDbLine
 10
7.317609500807311
 20
17.6851744854104
 30
0.0
 11
7.208333450300049
 21
17.71490707157344
 31
0.0
  0
LINE
  5
F244
330
ED1D
100
AcDbEntity
  8
0
100
AcDbLine
 10
6.986172687965794
 20
17.75951287068538
 30
0.0
 11
6.873039102944336
 21
17.77455210870522
 31
0.0
  0
LINE
  5
F245
330
ED1D
100
AcDbEntity
  8
0
100
AcDbLine
 10
6.758370799890361
 20
17.78485958908158
 30
0.0
 11
6.642136669682269
 21
17.7904871946716
 31
0.0
  0
LINE
  5
F246
330
ED1D
100
AcDbEntity
  8
0
100
AcDbLine
 10
6.873039102944336
 20
17.77455210870522
 30
0.0
 11
6.758370799890361
 21
17.78485958908158
 31
0.0
  0
LINE
  5
F247
330
ED1D
100
AcDbEntity
  8
0
100
AcDbLine
 10
7.097895991551954
 20
17.7396588624866
 30
0.0
 11
6.986172687965794
 21
17.75951287068538
 31
0.0
  0
LINE
  5
F248
330
ED1D
100
AcDbEntity
  8
0
100
AcDbLine
 10
7.208333450300049
 20
17.71490707157344
 30
0.0
 11
7.097895991551954
 21
17.7396588624866
 31
0.0
  0
LINE
  5
F249
330
ED1D
100
AcDbEntity
  8
0
100
AcDbLine
 10
7.53317512348828
 20
17.61043487719288
 30
0.0
 11
7.425848579670986
 21
17.65037809146204
 31
0.0
  0
LINE
  5
F24A
330
ED1D
100
AcDbEntity
  8
0
100
AcDbLine
 10
7.639713568856439
 20
17.56526183006747
 30
0.0
 11
7.53317512348828
 21
17.61043487719288
 31
0.0
  0
LINE
  5
F24B
330
ED1D
100
AcDbEntity
  8
0
100
AcDbLine
 10
7.850150344766934
 20
17.45921012902664
 30
0.0
 11
7.745491656639277
 21
17.51481543029041
 31
0.0
  0
LINE
  5
F24C
330
ED1D
100
AcDbEntity
  8
0
100
AcDbLine
 10
7.745491656639277
 20
17.51481543029041
 30
0.0
 11
7.639713568856439
 21
17.56526183006747
 31
0.0
  0
LINE
  5
F24D
330
ED1D
100
AcDbEntity
  8
0
100
AcDbLine
 10
7.425848579670986
 20
17.65037809146204
 30
0.0
 11
7.317609500807311
 21
17.6851744854104
 31
0.0
  0
LINE
  5
F24E
330
ED1D
100
AcDbEntity
  8
0
100
AcDbLine
 10
8.152852633186117
 20
17.26298025536515
 30
0.0
 11
8.054286570843633
 21
17.333138597659
 31
0.0
  0
LINE
  5
F24F
330
ED1D
100
AcDbEntity
  8
0
100
AcDbLine
 10
8.054286570843633
 20
17.333138597659
 30
0.0
 11
7.953233895436145
 21
17.39859987018116
 31
0.0
  0
LINE
  5
F250
330
ED1D
100
AcDbEntity
  8
0
100
AcDbLine
 10
9.234542708802695
 20
15.59109849751187
 30
0.0
 11
9.20161540509726
 21
15.70189235245996
 31
0.0
  0
LINE
  5
F251
330
ED1D
100
AcDbEntity
  8
0
100
AcDbLine
 10
9.38268104616289
 20
14.80400675231264
 30
0.0
 11
9.369778415248713
 21
14.9169825792186
 31
0.0
  0
LINE
  5
F252
330
ED1D
100
AcDbEntity
  8
0
100
AcDbLine
 10
9.408797564799964
 20
14.35418195566116
 30
0.0
 11
9.405981198817261
 21
14.46615746161578
 31
0.0
  0
LINE
  5
F253
330
ED1D
100
AcDbEntity
  8
0
100
AcDbLine
 10
9.409261466290235
 20
14.24227833029901
 30
0.0
 11
9.408797564799964
 21
14.35418195566116
 31
0.0
  0
LINE
  5
F254
330
ED1D
100
AcDbEntity
  8
0
100
AcDbLine
 10
9.407462692476524
 20
14.13008719011337
 30
0.0
 11
9.409261466290235
 21
14.24227833029901
 31
0.0
  0
LINE
  5
F255
330
ED1D
100
AcDbEntity
  8
0
100
AcDbLine
 10
9.392979805252711
 20
14.69113874440878
 30
0.0
 11
9.38268104616289
 21
14.80400675231264
 31
0.0
  0
LINE
  5
F256
330
ED1D
100
AcDbEntity
  8
0
100
AcDbLine
 10
9.400728565232672
 20
14.57848637450912
 30
0.0
 11
9.392979805252711
 21
14.69113874440878
 31
0.0
  0
LINE
  5
F257
330
ED1D
100
AcDbEntity
  8
0
100
AcDbLine
 10
9.405981198817261
 20
14.46615746161578
 30
0.0
 11
9.400728565232672
 21
14.57848637450912
 31
0.0
  0
LINE
  5
F258
330
ED1D
100
AcDbEntity
  8
0
100
AcDbLine
 10
9.335946047089326
 20
15.14282641402843
 30
0.0
 11
9.314908564415123
 21
15.25547878392808
 31
0.0
  0
LINE
  5
F259
330
ED1D
100
AcDbEntity
  8
0
100
AcDbLine
 10
9.369778415248713
 20
14.9169825792186
 30
0.0
 11
9.354218039795686
 21
15.02995840612457
 31
0.0
  0
LINE
  5
F25A
330
ED1D
100
AcDbEntity
  8
0
100
AcDbLine
 10
9.354218039795686
 20
15.02995840612457
 30
0.0
 11
9.335946047089326
 21
15.14282641402843
 31
0.0
  0
LINE
  5
F25B
330
ED1D
100
AcDbEntity
  8
0
100
AcDbLine
 10
9.314908564415123
 20
15.25547878392808
 30
0.0
 11
9.291051719058597
 21
15.36780769682143
 31
0.0
  0
LINE
  5
F25C
330
ED1D
100
AcDbEntity
  8
0
100
AcDbLine
 10
9.291051719058597
 20
15.36780769682143
 30
0.0
 11
9.264306420725507
 21
15.47970966144776
 31
0.0
  0
LINE
  5
F25D
330
ED1D
100
AcDbEntity
  8
0
100
AcDbLine
 10
9.264306420725507
 20
15.47970966144776
 30
0.0
 11
9.234542708802695
 21
15.59109849751187
 31
0.0
  0
LINE
  5
F25E
330
ED1D
100
AcDbEntity
  8
0
100
AcDbLine
 10
9.20161540509726
 20
15.70189235245996
 30
0.0
 11
9.165379331416279
 21
15.81200937373826
 31
0.0
  0
LINE
  5
F25F
330
ED1D
100
AcDbEntity
  8
0
100
AcDbLine
 10
9.165379331416279
 20
15.81200937373826
 30
0.0
 11
9.125689309566862
 21
15.92136770879294
 31
0.0
  0
LINE
  5
F260
330
ED1D
100
AcDbEntity
  8
0
100
AcDbLine
 10
9.125689309566862
 20
15.92136770879294
 30
0.0
 11
9.082400161356101
 21
16.02988550507022
 31
0.0
  0
ENDBLK
  5
F261
330
ED1D
100
AcDbEntity
  8
0
100
AcDbBlockEnd
  0
BLOCK
  5
F2A9
330
F29E
100
AcDbEntity
  8
0
100
AcDbBlockBegin
  2
*D2
 70
     1
 10
0.0
 20
0.0
 30
0.0
  3
*D2
  1

  0
LINE
  5
F4D0
330
F29E
100
AcDbEntity
  8
DIM
 62
     0
370
    -2
100
AcDbLine
 10
57.18122382858941
 20
22.11674869158291
 30
0.0
 11
61.60176230175661
 21
22.11674869158291
 31
0.0
  0
LINE
  5
F4D1
330
F29E
100
AcDbEntity
  8
DIM
 62
     0
370
    -2
100
AcDbLine
 10
55.64525545458734
 20
2.385904648014603
 30
0.0
 11
61.6017623017566
 21
2.385904648014602
 31
0.0
  0
LINE
  5
F4D2
330
F29E
100
AcDbEntity
  8
DIM
 62
     0
370
    -2
100
AcDbLine
 10
61.4217623017566
 20
21.93674869158291
 30
0.0
 11
61.4217623017566
 21
13.50799333646542
 31
0.0
  0
LINE
  5
F4D3
330
F29E
100
AcDbEntity
  8
DIM
 62
     0
370
    -2
100
AcDbLine
 10
61.4217623017566
 20
2.565904648014602
 30
0.0
 11
61.4217623017566
 21
10.99466000313209
 31
0.0
  0
SOLID
  5
F4D4
330
F29E
100
AcDbEntity
  8
DIM
 62
     0
100
AcDbTrace
 10
61.3917623017566
 20
21.93674869158291
 30
0.0
 11
61.4517623017566
 21
21.93674869158291
 31
0.0
 12
61.4217623017566
 22
22.11674869158291
 32
0.0
 13
61.4217623017566
 23
22.11674869158291
 33
0.0
  0
SOLID
  5
F4D5
330
F29E
100
AcDbEntity
  8
DIM
 62
     0
100
AcDbTrace
 10
61.3917623017566
 20
2.565904648014602
 30
0.0
 11
61.4517623017566
 21
2.565904648014602
 31
0.0
 12
61.4217623017566
 22
2.385904648014602
 32
0.0
 13
61.4217623017566
 23
2.385904648014602
 33
0.0
  0
MTEXT
  5
F4D6
330
F29E
100
AcDbEntity
  8
DIM
 62
     0
100
AcDbMText
 10
61.4217623017566
 20
12.25132666979877
 30
0.0
 40
1.0
 41
0.0
 71
     5
 72
     1
  1
\A1;19{\H1.000000x;\S3/4;}
 73
     1
 44
1.0
  0
POINT
  5
F4D7
330
F29E
100
AcDbEntity
  8
Defpoints
 62
     0
100
AcDbPoint
 10
57.11872382858941
 20
22.11674869158291
 30
0.0
  0
POINT
  5
F4D8
330
F29E
100
AcDbEntity
  8
Defpoints
 62
     0
100
AcDbPoint
 10
55.58275545458734
 20
2.385904648014603
 30
0.0
  0
POINT
  5
F4D9
330
F29E
100
AcDbEntity
  8
Defpoints
 62
     0
100
AcDbPoint
 10
61.4217623017566
 20
2.385904648014602
 30
0.0
  0
ENDBLK
  5
F2AA
330
F29E
100
AcDbEntity
  8
0
100
AcDbBlockEnd
  0
BLOCK
  5
F2DF
330
F2D4
100
AcDbEntity
  8
0
100
AcDbBlockBegin
  2
*D3
 70
     1
 10
0.0
 20
0.0
 30
0.0
  3
*D3
  1

  0
LINE
  5
F2D5
330
F2D4
100
AcDbEntity
  8
DIM
 62
     0
370
    -2
100
AcDbLine
 10
59.85424198710576
 20
18.53326010350446
 30
0.0
 11
59.85424198710576
 21
26.26286961762124
 31
0.0
  0
LINE
  5
F2D6
330
F2D4
100
AcDbEntity
  8
DIM
 62
     0
370
    -2
100
AcDbLine
 10
54.10424198710576
 20
18.53326010350446
 30
0.0
 11
54.10424198710576
 21
26.26286961762124
 31
0.0
  0
LINE
  5
F2D7
330
F2D4
100
AcDbEntity
  8
DIM
 62
     0
370
    -2
100
AcDbLine
 10
59.67424198710577
 20
26.08286961762124
 30
0.0
 11
57.90257532043909
 21
26.08286961762124
 31
0.0
  0
LINE
  5
F2D8
330
F2D4
100
AcDbEntity
  8
DIM
 62
     0
370
    -2
100
AcDbLine
 10
54.28424198710576
 20
26.08286961762124
 30
0.0
 11
56.05590865377243
 21
26.08286961762124
 31
0.0
  0
SOLID
  5
F2D9
330
F2D4
100
AcDbEntity
  8
DIM
 62
     0
100
AcDbTrace
 10
59.67424198710577
 20
26.11286961762124
 30
0.0
 11
59.67424198710577
 21
26.05286961762124
 31
0.0
 12
59.85424198710576
 22
26.08286961762124
 32
0.0
 13
59.85424198710576
 23
26.08286961762124
 33
0.0
  0
SOLID
  5
F2DA
330
F2D4
100
AcDbEntity
  8
DIM
 62
     0
100
AcDbTrace
 10
54.28424198710576
 20
26.11286961762124
 30
0.0
 11
54.28424198710576
 21
26.05286961762124
 31
0.0
 12
54.10424198710576
 22
26.08286961762124
 32
0.0
 13
54.10424198710576
 23
26.08286961762124
 33
0.0
  0
MTEXT
  5
F2DB
330
F2D4
100
AcDbEntity
  8
DIM
 62
     0
100
AcDbMText
 10
56.97924198710577
 20
26.08286961762124
 30
0.0
 40
1.0
 41
0.0
 71
     5
 72
     1
  1
\A1;5{\H1.000000x;\S3/4;}
 73
     1
 44
1.0
  0
POINT
  5
F2DC
330
F2D4
100
AcDbEntity
  8
Defpoints
 62
     0
100
AcDbPoint
 10
59.85424198710576
 20
18.47076010350446
 30
0.0
  0
POINT
  5
F2DD
330
F2D4
100
AcDbEntity
  8
Defpoints
 62
     0
100
AcDbPoint
 10
54.10424198710576
 20
18.47076010350446
 30
0.0
  0
POINT
  5
F2DE
330
F2D4
100
AcDbEntity
  8
Defpoints
 62
     0
100
AcDbPoint
 10
54.10424198710576
 20
26.08286961762124
 30
0.0
  0
ENDBLK
  5
F2E0
330
F2D4
100
AcDbEntity
  8
0
100
AcDbBlockEnd
  0
BLOCK
  5
F3D8
330
F3CD
100
AcDbEntity
  8
0
 62
     6
100
AcDbBlockBegin
  2
*D6
 70
     1
 10
0.0
 20
0.0
 30
0.0
  3
*D6
  1

  0
LINE
  5
F4DA
330
F3CD
100
AcDbEntity
  8
DIM
 62
     0
370
    -2
100
AcDbLine
 10
46.2904110460959
 20
22.11674869158292
 30
0.0
 11
41.41503734025715
 21
22.11674869158292
 31
0.0
  0
LINE
  5
F4DB
330
F3CD
100
AcDbEntity
  8
DIM
 62
     0
370
    -2
100
AcDbLine
 10
47.82637942009795
 20
2.385904648014609
 30
0.0
 11
41.41503734025715
 21
2.38590464801461
 31
0.0
  0
LINE
  5
F4DC
330
F3CD
100
AcDbEntity
  8
DIM
 62
     0
370
    -2
100
AcDbLine
 10
41.59503734025715
 20
21.93674869158292
 30
0.0
 11
41.59503734025714
 21
13.50799333646543
 31
0.0
  0
LINE
  5
F4DD
330
F3CD
100
AcDbEntity
  8
DIM
 62
     0
370
    -2
100
AcDbLine
 10
41.59503734025714
 20
2.565904648014611
 30
0.0
 11
41.59503734025714
 21
10.9946600031321
 31
0.0
  0
SOLID
  5
F4DE
330
F3CD
100
AcDbEntity
  8
DIM
 62
     0
100
AcDbTrace
 10
41.56503734025715
 20
21.93674869158292
 30
0.0
 11
41.62503734025715
 21
21.93674869158292
 31
0.0
 12
41.59503734025715
 22
22.11674869158292
 32
0.0
 13
41.59503734025715
 23
22.11674869158292
 33
0.0
  0
SOLID
  5
F4DF
330
F3CD
100
AcDbEntity
  8
DIM
 62
     0
100
AcDbTrace
 10
41.56503734025714
 20
2.565904648014611
 30
0.0
 11
41.62503734025714
 21
2.565904648014611
 31
0.0
 12
41.59503734025714
 22
2.38590464801461
 32
0.0
 13
41.59503734025714
 23
2.38590464801461
 33
0.0
  0
MTEXT
  5
F4E0
330
F3CD
100
AcDbEntity
  8
DIM
 62
     0
100
AcDbMText
 10
41.59503734025714
 20
12.25132666979877
 30
0.0
 40
1.0
 41
0.0
 71
     5
 72
     1
  1
\A1;19{\H1.000000x;\S3/4;}
 73
     1
 44
1.0
  0
POINT
  5
F4E1
330
F3CD
100
AcDbEntity
  8
Defpoints
 62
     0
100
AcDbPoint
 10
46.35291104609589
 20
22.11674869158292
 30
0.0
  0
POINT
  5
F4E2
330
F3CD
100
AcDbEntity
  8
Defpoints
 62
     0
100
AcDbPoint
 10
47.88887942009796
 20
2.385904648014609
 30
0.0
  0
POINT
  5
F4E3
330
F3CD
100
AcDbEntity
  8
Defpoints
 62
     0
100
AcDbPoint
 10
41.59503734025714
 20
2.38590464801461
 30
0.0
  0
ENDBLK
  5
F3D9
330
F3CD
100
AcDbEntity
  8
0
 62
     6
100
AcDbBlockEnd
  0
BLOCK
  5
F3E5
330
F3DA
100
AcDbEntity
  8
0
 62
     6
100
AcDbBlockBegin
  2
*D7
 70
     1
 10
0.0
 20
0.0
 30
0.0
  3
*D7
  1

  0
LINE
  5
F45F
330
F3DA
100
AcDbEntity
  8
DIM
 62
     0
370
    -2
100
AcDbLine
 10
43.61739288757954
 20
18.53326010350446
 30
0.0
 11
43.61739288757955
 21
26.26286961762126
 31
0.0
  0
LINE
  5
F460
330
F3DA
100
AcDbEntity
  8
DIM
 62
     0
370
    -2
100
AcDbLine
 10
49.36739288757954
 20
18.53326010350446
 30
0.0
 11
49.36739288757955
 21
26.26286961762124
 31
0.0
  0
LINE
  5
F461
330
F3DA
100
AcDbEntity
  8
DIM
 62
     0
370
    -2
100
AcDbLine
 10
43.79739288757956
 20
26.08286961762126
 30
0.0
 11
45.56905955424622
 21
26.08286961762126
 31
0.0
  0
LINE
  5
F462
330
F3DA
100
AcDbEntity
  8
DIM
 62
     0
370
    -2
100
AcDbLine
 10
49.18739288757955
 20
26.08286961762125
 30
0.0
 11
47.41572622091289
 21
26.08286961762125
 31
0.0
  0
SOLID
  5
F463
330
F3DA
100
AcDbEntity
  8
DIM
 62
     0
100
AcDbTrace
 10
43.79739288757956
 20
26.11286961762126
 30
0.0
 11
43.79739288757956
 21
26.05286961762125
 31
0.0
 12
43.61739288757955
 22
26.08286961762126
 32
0.0
 13
43.61739288757955
 23
26.08286961762126
 33
0.0
  0
SOLID
  5
F464
330
F3DA
100
AcDbEntity
  8
DIM
 62
     0
100
AcDbTrace
 10
49.18739288757955
 20
26.11286961762125
 30
0.0
 11
49.18739288757955
 21
26.05286961762125
 31
0.0
 12
49.36739288757955
 22
26.08286961762125
 32
0.0
 13
49.36739288757955
 23
26.08286961762125
 33
0.0
  0
MTEXT
  5
F465
330
F3DA
100
AcDbEntity
  8
DIM
 62
     0
100
AcDbMText
 10
46.49239288757955
 20
26.08286961762126
 30
0.0
 40
1.0
 41
0.0
 71
     5
 72
     1
  1
\A1;5{\H1.000000x;\S3/4;}
 73
     1
 44
1.0
  0
POINT
  5
F466
330
F3DA
100
AcDbEntity
  8
Defpoints
 62
     0
100
AcDbPoint
 10
43.61739288757954
 20
18.47076010350447
 30
0.0
  0
POINT
  5
F467
330
F3DA
100
AcDbEntity
  8
Defpoints
 62
     0
100
AcDbPoint
 10
49.36739288757954
 20
18.47076010350446
 30
0.0
  0
POINT
  5
F468
330
F3DA
100
AcDbEntity
  8
Defpoints
 62
     0
100
AcDbPoint
 10
49.36739288757955
 20
26.08286961762125
 30
0.0
  0
ENDBLK
  5
F3E6
330
F3DA
100
AcDbEntity
  8
0
 62
     6
100
AcDbBlockEnd
  0
BLOCK
  5
F4F0
330
F4E5
100
AcDbEntity
  8
0
100
AcDbBlockBegin
  2
*D8
 70
     1
 10
0.0
 20
0.0
 30
0.0
  3
*D8
  1

  0
LINE
  5
F4E6
330
F4E5
100
AcDbEntity
  8
DIM
 62
     0
370
    -2
100
AcDbLine
 10
64.42633538513146
 20
19.43004207509316
 30
0.0
 11
64.42633538513146
 21
25.80435303933769
 31
0.0
  0
LINE
  5
F4E7
330
F4E5
100
AcDbEntity
  8
DIM
 62
     0
370
    -2
100
AcDbLine
 10
65.42633538513145
 20
19.43004207509316
 30
0.0
 11
65.42633538513145
 21
25.80435303933769
 31
0.0
  0
LINE
  5
F4E8
330
F4E5
100
AcDbEntity
  8
DIM
 62
     0
370
    -2
100
AcDbLine
 10
64.60633538513147
 20
25.62435303933769
 30
0.0
 11
65.24633538513144
 21
25.62435303933769
 31
0.0
  0
LINE
  5
F4E9
330
F4E5
100
AcDbEntity
  8
DIM
 62
     0
370
    -2
100
AcDbLine
 10
65.42633538513145
 20
25.62435303933769
 30
0.0
 11
65.60633538513146
 21
25.62435303933769
 31
0.0
  0
SOLID
  5
F4EA
330
F4E5
100
AcDbEntity
  8
DIM
 62
     0
100
AcDbTrace
 10
64.60633538513147
 20
25.6543530393377
 30
0.0
 11
64.60633538513147
 21
25.59435303933769
 31
0.0
 12
64.42633538513146
 22
25.62435303933769
 32
0.0
 13
64.42633538513146
 23
25.62435303933769
 33
0.0
  0
SOLID
  5
F4EB
330
F4E5
100
AcDbEntity
  8
DIM
 62
     0
100
AcDbTrace
 10
65.24633538513144
 20
25.6543530393377
 30
0.0
 11
65.24633538513144
 21
25.59435303933769
 31
0.0
 12
65.42633538513145
 22
25.62435303933769
 32
0.0
 13
65.42633538513145
 23
25.62435303933769
 33
0.0
  0
MTEXT
  5
F4EC
330
F4E5
100
AcDbEntity
  8
DIM
 62
     0
100
AcDbMText
 10
65.86300205179812
 20
25.62435303933769
 30
0.0
 40
1.0
 41
0.0
 71
     5
 72
     1
  1
\A1;1
 73
     1
 44
1.0
  0
POINT
  5
F4ED
330
F4E5
100
AcDbEntity
  8
Defpoints
 62
     0
100
AcDbPoint
 10
64.42633538513146
 20
19.36754207509316
 30
0.0
  0
POINT
  5
F4EE
330
F4E5
100
AcDbEntity
  8
Defpoints
 62
     0
100
AcDbPoint
 10
65.42633538513145
 20
19.36754207509316
 30
0.0
  0
POINT
  5
F4EF
330
F4E5
100
AcDbEntity
  8
Defpoints
 62
     0
100
AcDbPoint
 10
65.42633538513145
 20
25.62435303933769
 30
0.0
  0
ENDBLK
  5
F4F1
330
F4E5
100
AcDbEntity
  8
0
100
AcDbBlockEnd
  0
BLOCK
  5
F4FE
330
F4F3
100
AcDbEntity
  8
0
100
AcDbBlockBegin
  2
*D9
 70
     1
 10
0.0
 20
0.0
 30
0.0
  3
*D9
  1

  0
LINE
  5
F50A
330
F4F3
100
AcDbEntity
  8
DIM
 62
     0
370
    -2
100
AcDbLine
 10
39.04529948955384
 20
19.43004207509316
 30
0.0
 11
39.04529948955384
 21
25.8043530393377
 31
0.0
  0
LINE
  5
F50B
330
F4F3
100
AcDbEntity
  8
DIM
 62
     0
370
    -2
100
AcDbLine
 10
38.04529948955386
 20
20.43004207509315
 30
0.0
 11
38.04529948955386
 21
25.8043530393377
 31
0.0
  0
LINE
  5
F50C
330
F4F3
100
AcDbEntity
  8
DIM
 62
     0
370
    -2
100
AcDbLine
 10
38.86529948955384
 20
25.6243530393377
 30
0.0
 11
38.22529948955386
 21
25.6243530393377
 31
0.0
  0
LINE
  5
F50D
330
F4F3
100
AcDbEntity
  8
DIM
 62
     0
370
    -2
100
AcDbLine
 10
38.04529948955386
 20
25.6243530393377
 30
0.0
 11
37.86529948955386
 21
25.6243530393377
 31
0.0
  0
SOLID
  5
F50E
330
F4F3
100
AcDbEntity
  8
DIM
 62
     0
100
AcDbTrace
 10
38.86529948955384
 20
25.6543530393377
 30
0.0
 11
38.86529948955384
 21
25.5943530393377
 31
0.0
 12
39.04529948955384
 22
25.6243530393377
 32
0.0
 13
39.04529948955384
 23
25.6243530393377
 33
0.0
  0
SOLID
  5
F50F
330
F4F3
100
AcDbEntity
  8
DIM
 62
     0
100
AcDbTrace
 10
38.22529948955386
 20
25.6543530393377
 30
0.0
 11
38.22529948955386
 21
25.5943530393377
 31
0.0
 12
38.04529948955386
 22
25.6243530393377
 32
0.0
 13
38.04529948955386
 23
25.6243530393377
 33
0.0
  0
MTEXT
  5
F510
330
F4F3
100
AcDbEntity
  8
DIM
 62
     0
100
AcDbMText
 10
37.60863282288719
 20
25.6243530393377
 30
0.0
 40
1.0
 41
0.0
 71
     5
 72
     1
  1
\A1;1
 73
     1
 44
1.0
  0
POINT
  5
F511
330
F4F3
100
AcDbEntity
  8
Defpoints
 62
     0
100
AcDbPoint
 10
39.04529948955384
 20
19.36754207509316
 30
0.0
  0
POINT
  5
F512
330
F4F3
100
AcDbEntity
  8
Defpoints
 62
     0
100
AcDbPoint
 10
38.04529948955386
 20
20.36754207509315
 30
0.0
  0
POINT
  5
F513
330
F4F3
100
AcDbEntity
  8
Defpoints
 62
     0
100
AcDbPoint
 10
38.04529948955386
 20
25.6243530393377
 30
0.0
  0
ENDBLK
  5
F4FF
330
F4F3
100
AcDbEntity
  8
0
100
AcDbBlockEnd
  0
ENDSEC
  0
SECTION
  2
ENTITIES
  0
LINE
  5
F275
330
18
100
AcDbEntity
  8
0
100
AcDbLine
 10
54.10424198710576
 20
4.124964608964706
 30
0.0
 11
54.10424198710576
 21
19.57026709426252
 31
0.0
  0
ARC
  5
F277
330
18
100
AcDbEntity
  8
0
100
AcDbCircle
 10
56.98607611695237
 20
19.45635829455007
 30
0.0
 40
2.651811727444011
100
AcDbArc
 50
33.26533480824892
 51
153.8498581626012
  0
SPLINE
  5
F278
330
18
100
AcDbEntity
  8
0
100
AcDbSpline
210
0.0
220
0.0
230
1.0
 70
     8
 71
     3
 72
    41
 73
    37
 74
    35
 42
0.0000000001
 43
0.0000000001
 44
0.0000000001
 40
0.0
 40
0.0
 40
0.0
 40
0.0
 40
0.8136914242437438
 40
1.458886308000919
 40
2.567703665114653
 40
3.39062180263786
 40
4.501474732859566
 40
5.415340288261192
 40
6.494545633573935
 40
7.791837973298239
 40
9.339757838217746
 40
10.66534357947395
 40
12.07266161131822
 40
13.09976037270203
 40
14.37409411116176
 40
15.21639841092315
 40
16.18394940940185
 40
16.79983583389848
 40
16.96056898406607
 40
17.02702953503087
 40
17.09758878580166
 40
17.26753252238261
 40
17.56874253063745
 40
17.98690718242153
 40
18.44936758160492
 40
19.04592508682029
 40
19.60277497291113
 40
20.11219467197182
 40
20.3877758573554
 40
20.80451600841513
 40
21.27616613572406
 40
21.76038960179571
 40
22.19257842363361
 40
22.6824620364683
 40
23.05260398116211
 40
23.20974510378751
 40
23.20974510378751
 40
23.20974510378751
 40
23.20974510378751
 10
59.20336032825407
 20
20.9109222031226
 30
0.0
 10
59.34617828229173
 20
20.67872891429667
 30
0.0
 10
59.60223991877253
 20
20.26242415823674
 30
0.0
 10
59.83131187080462
 20
19.4281610159842
 30
0.0
 10
59.8609365738706
 20
18.56583491146779
 30
0.0
 10
59.84819911690774
 20
17.55053589289177
 30
0.0
 10
59.66268658852671
 20
16.61362851872924
 30
0.0
 10
59.34996182593248
 20
15.62664041854559
 30
0.0
 10
58.92408012478849
 20
14.61462147132074
 30
0.0
 10
58.35179881281814
 20
13.43739738703285
 30
0.0
 10
57.65743242082352
 20
12.23263232962888
 30
0.0
 10
56.98943070166496
 20
10.97043375264188
 30
0.0
 10
56.50039095593184
 20
9.815642157697704
 30
0.0
 10
56.06509398032624
 20
8.656728423700142
 30
0.0
 10
55.83295591274653
 20
7.632467012867549
 30
0.0
 10
55.67924761429301
 20
6.612944253749571
 30
0.0
 10
55.65127405461881
 20
5.810169774924844
 30
0.0
 10
55.66420792482261
 20
5.214586384763314
 30
0.0
 10
55.72728868371101
 20
4.95078249344943
 30
0.0
 10
55.74361527368308
 20
4.842503900535234
 30
0.0
 10
55.85301532926965
 20
4.811602219410639
 30
0.0
 10
56.0105872546605
 20
4.739905066672301
 30
0.0
 10
56.29324466641063
 20
4.631361078070564
 30
0.0
 10
56.58956933290083
 20
4.357716256030815
 30
0.0
 10
56.82478526475042
 20
3.913053489230478
 30
0.0
 10
56.84394857881357
 20
3.350344818944073
 30
0.0
 10
56.59541878415109
 20
2.831523394949171
 30
0.0
 10
56.23057467700005
 20
2.548581132422812
 30
0.0
 10
55.85265410446005
 20
2.408498822559892
 30
0.0
 10
55.45602922775348
 20
2.386062508674546
 30
0.0
 10
55.01207086623543
 20
2.530534726507174
 30
0.0
 10
54.62878259871337
 20
2.798079954737667
 30
0.0
 10
54.31150869356808
 20
3.149624425826485
 30
0.0
 10
54.13953091002434
 20
3.55726769167774
 30
0.0
 10
54.11457433254568
 20
3.897180019131567
 30
0.0
 10
54.10661425329045
 20
4.072666156208319
 30
0.0
 10
54.10424198710576
 20
4.124964608964706
 30
0.0
 11
59.20336032825407
 21
20.9109222031226
 31
0.0
 11
59.59264559356246
 21
20.19639388590795
 31
0.0
 11
59.77150648024609
 21
19.57648645633384
 31
0.0
 11
59.85424198710576
 21
18.47076010350446
 31
0.0
 11
59.82805680934514
 21
17.6482586764356
 31
0.0
 11
59.62815345732362
 21
16.55554055979586
 31
0.0
 11
59.35460168268512
 21
15.68357744134322
 31
0.0
 11
58.94427395203881
 21
14.68542147616831
 31
0.0
 11
58.37612793742393
 21
13.51915498827432
 31
0.0
 11
57.62912103612539
 21
12.16341290453391
 31
0.0
 11
57.01888995345758
 21
10.98663952653463
 31
0.0
 11
56.46126510282307
 21
9.694510055967199
 31
0.0
 11
56.11406476819046
 21
8.727874761108196
 31
0.0
 11
55.81947052821407
 21
7.48805997221855
 31
0.0
 11
55.70050565296803
 21
6.654199137394044
 31
0.0
 11
55.65842072229223
 21
5.687563842535041
 31
0.0
 11
55.70050565296803
 21
5.07311698031728
 31
0.0
 11
55.73206928228633
 21
4.91551341796206
 31
0.0
 11
55.75311174762423
 21
4.852472007071696
 31
0.0
 11
55.81623900626083
 21
4.820951266497232
 31
0.0
 11
55.97405742760653
 21
4.757909855606854
 31
0.0
 11
56.24760920224504
 21
4.631826963567547
 31
0.0
 11
56.56029423348089
 21
4.354176558844736
 31
0.0
 11
56.77367042356125
 21
3.943883709382735
 31
0.0
 11
56.79464411121827
 21
3.347695013201025
 31
0.0
 11
56.55272474357893
 21
2.84614061415704
 31
0.0
 11
56.15291817691302
 21
2.530445921389016
 31
0.0
 11
55.89416329168419
 21
2.435625569630374
 31
0.0
 11
55.47812407213324
 21
2.411465244700484
 31
0.0
 11
55.02714731166363
 21
2.549573188378147
 31
0.0
 11
54.6273407449977
 21
2.822752752667383
 31
0.0
 11
54.34326766900169
 21
3.148466837741679
 31
0.0
 11
54.1538857557148
 21
3.600263744596702
 31
0.0
 11
54.111800825039
 21
3.968005390092187
 31
0.0
 11
54.10424198710576
 21
4.124964608964706
 31
0.0
  0
SPLINE
  5
F27A
330
18
100
AcDbEntity
  8
0
100
AcDbSpline
210
0.0
220
0.0
230
1.0
 70
     8
 71
     3
 72
    12
 73
     8
 74
     6
 42
0.0000000001
 43
0.0000000001
 44
0.0000000001
 40
0.0
 40
0.0
 40
0.0
 40
0.0
 40
0.2730751193748741
 40
0.559028668748125
 40
0.791640608699084
 40
1.115047439444904
 40
1.236471236750838
 40
1.236471236750838
 40
1.236471236750838
 40
1.236471236750838
 10
54.60569794165294
 20
20.62507775634053
 30
0.0
 10
54.52820880138039
 20
20.57617134044457
 30
0.0
 10
54.36957607413608
 20
20.47605204494028
 30
0.0
 10
54.21134687729669
 20
20.25533664671019
 30
0.0
 10
54.12526624373961
 20
19.985566422299
 30
0.0
 10
54.11088903464734
 20
19.75878959165737
 30
0.0
 10
54.10566733535425
 20
19.61069259291857
 30
0.0
 10
54.10424198710576
 20
19.57026709426252
 30
0.0
 11
54.60569794165294
 21
20.62507775634053
 31
0.0
 11
54.38442077068422
 21
20.46505765001111
 31
0.0
 11
54.21608118535811
 21
20.23390571640165
 31
0.0
 11
54.14243262536401
 21
20.01326074315607
 31
0.0
 11
54.10883238026726
 21
19.69160409127009
 31
0.0
 11
54.10424198710576
 21
19.57026709426252
 31
0.0
  0
ARC
  5
F280
330
18
100
AcDbEntity
  8
0
100
AcDbCircle
 10
57.03073579737439
 20
19.54558620954666
 30
0.0
 40
2.066134736411274
100
AcDbArc
 50
31.87559257050185
 51
151.2264657886612
  0
SPLINE
  5
F281
330
18
100
AcDbEntity
  8
0
100
AcDbSpline
210
0.0
220
0.0
230
1.0
 70
     8
 71
     3
 72
    40
 73
    36
 74
     0
 42
0.0000000001
 43
0.0000000001
 40
0.0
 40
0.0
 40
0.0
 40
0.0
 40
0.4940648545662164
 40
0.4940648545662164
 40
1.094821417290774
 40
1.094821417290774
 40
1.695577980015332
 40
1.695577980015332
 40
2.296334542739889
 40
2.296334542739889
 40
2.884331210988418
 40
2.884331210988418
 40
3.472327879236946
 40
3.472327879236946
 40
4.060324547485474
 40
4.060324547485474
 40
5.236317883982531
 40
5.236317883982531
 40
6.412311220479587
 40
6.412311220479587
 40
7.588304556976643
 40
7.588304556976643
 40
8.764297893473699
 40
8.764297893473699
 40
9.940291229970755
 40
9.940291229970755
 40
11.30993324820252
 40
11.30993324820252
 40
12.34672432249668
 40
12.34672432249668
 40
13.19353514321204
 40
13.19353514321204
 40
14.0403459639274
 40
14.0403459639274
 40
14.63400986617889
 40
14.63400986617889
 40
14.63400986617889
 40
14.63400986617889
 10
58.77747368840542
 20
20.64896692068222
 30
0.0
 10
58.86419124445763
 20
20.50798160357425
 30
0.0
 10
58.94562413314192
 20
20.37503988672918
 30
0.0
 10
59.09790682648964
 20
20.09176002888949
 30
0.0
 10
59.15954911198679
 20
19.9482100117888
 30
0.0
 10
59.25569517140235
 20
19.62750019122079
 30
0.0
 10
59.28925917717746
 20
19.45695475950821
 30
0.0
 10
59.33359286251267
 20
19.10338645405229
 30
0.0
 10
59.34465375443888
 20
18.91926713912171
 30
0.0
 10
59.35515250346128
 20
18.54242460100419
 30
0.0
 10
59.35640157826265
 20
18.34792754678927
 30
0.0
 10
59.35026790443963
 20
17.97581273692429
 30
0.0
 10
59.34163791072121
 20
17.7967147921054
 30
0.0
 10
59.30405285912835
 20
17.44293331887994
 30
0.0
 10
59.27543794756192
 20
17.26470233035929
 30
0.0
 10
59.16600579240002
 20
16.72800550431873
 30
0.0
 10
59.06333604607821
 20
16.36811781931805
 30
0.0
 10
58.82002240357628
 20
15.66242930310517
 30
0.0
 10
58.67681752591849
 20
15.31343751782412
 30
0.0
 10
58.36549218657286
 20
14.61446103573754
 30
0.0
 10
58.20000107744247
 20
14.26830905404634
 30
0.0
 10
57.85054292886815
 20
13.58804305098557
 30
0.0
 10
57.66379137390361
 20
13.25209704482696
 30
0.0
 10
57.28159619145839
 20
12.56863623373294
 30
0.0
 10
57.08745239410346
 20
12.22138146214201
 30
0.0
 10
56.68480121314598
 20
11.45391113577259
 30
0.0
 10
56.47962421514501
 20
11.02786986822756
 30
0.0
 10
56.15295858391487
 20
10.27339873812057
 30
0.0
 10
56.02134427750526
 20
9.949314718760634
 30
0.0
 10
55.85011798953058
 20
9.409528103554336
 30
0.0
 10
55.72975516472896
 20
9.056443592941064
 30
0.0
 10
55.57886123703001
 20
8.475467779312936
 30
0.0
 10
55.48149602871361
 20
8.144689666326698
 30
0.0
 10
55.39350569754995
 20
7.646756004541305
 30
0.0
 10
55.35757025348775
 20
7.441635621234699
 30
0.0
 10
55.32962685741765
 20
7.241261960401498
 30
0.0
  0
LINE
  5
F282
330
18
100
AcDbEntity
  8
0
100
AcDbLine
 10
54.60424198710576
 20
4.448395011060682
 30
0.0
 11
54.60435417809949
 21
10.55259887053992
 31
0.0
  0
DIMENSION
  5
F29D
330
18
100
AcDbEntity
  8
DIM
100
AcDbDimension
  2
*D2
 10
61.4217623017566
 20
2.385904648014602
 30
0.0
 11
61.4217623017566
 21
12.25132666979877
 31
0.0
 70
   160
 71
     5
 42
19.73084404356831
  3
STANDARD
100
AcDbAlignedDimension
 13
57.11872382858941
 23
22.11674869158291
 33
0.0
 14
55.58275545458734
 24
2.385904648014603
 34
0.0
 50
90.0
100
AcDbRotatedDimension
  0
DIMENSION
  5
F2D3
330
18
100
AcDbEntity
  8
DIM
100
AcDbDimension
  2
*D3
 10
54.10424198710576
 20
26.08286961762124
 30
0.0
 11
56.97924198710577
 21
26.08286961762124
 31
0.0
 70
    32
 71
     5
 42
5.75
  3
STANDARD
100
AcDbAlignedDimension
 13
59.85424198710576
 23
18.47076010350446
 33
0.0
 14
54.10424198710576
 24
18.47076010350446
 34
0.0
100
AcDbRotatedDimension
  0
SPLINE
  5
F2E1
330
18
100
AcDbEntity
  8
0
100
AcDbSpline
210
0.0
220
0.0
230
1.0
 70
     8
 71
     3
 72
    37
 73
    33
 74
    31
 42
0.0000000001
 43
0.0000000001
 44
0.0000000001
 40
0.0
 40
0.0
 40
0.0
 40
0.0
 40
0.296131810291965
 40
0.7593648463754177
 40
1.247731253782651
 40
1.618699553516762
 40
1.916320304478912
 40
2.282773524059812
 40
2.689613891391276
 40
3.152880500842955
 40
3.639118705239546
 40
4.314137135185516
 40
4.987060505854422
 40
5.52866109021032
 40
6.139984325368837
 40
6.708588672878216
 40
7.167004272648491
 40
7.79218636577199
 40
8.445343137116768
 40
8.910675967587472
 40
9.442974646340097
 40
10.09009915585703
 40
10.74097522472706
 40
11.25789005603361
 40
11.74070331438594
 40
12.20671737872795
 40
12.54219490419479
 40
12.91353234495459
 40
13.25975213167306
 40
13.69583299301566
 40
14.08015075980047
 40
14.44486290515364
 40
14.44486290515364
 40
14.44486290515364
 40
14.44486290515364
 10
54.60569794165295
 20
20.62507775634053
 30
0.0
 10
54.58038872069675
 20
20.52966282916407
 30
0.0
 10
54.51548879432838
 20
20.28499225005321
 30
0.0
 10
54.45332673894532
 20
19.8716436533234
 30
0.0
 10
54.45549340567887
 20
19.4309012298874
 30
0.0
 10
54.46978743982871
 20
19.04301067206804
 30
0.0
 10
54.57845593087009
 20
18.71176266080536
 30
0.0
 10
54.75346324024149
 20
18.39989967247776
 30
0.0
 10
54.99243379902409
 20
18.06073336588722
 30
0.0
 10
55.33991175466404
 20
17.76678190094436
 30
0.0
 10
55.79574612391176
 20
17.46781681356422
 30
0.0
 10
56.40514546099735
 20
17.3209687454508
 30
0.0
 10
57.04368337436616
 20
17.38015496366652
 30
0.0
 10
57.60790681883571
 20
17.64202764673199
 30
0.0
 10
58.00385302202894
 20
18.07110803006345
 30
0.0
 10
58.28429913654936
 20
18.54626767639047
 30
0.0
 10
58.41085508090272
 20
19.08983102408484
 30
0.0
 10
58.3728649336725
 20
19.67566858540955
 30
0.0
 10
58.1543211235399
 20
20.23205116195999
 30
0.0
 10
57.7539243170453
 20
20.62752692810279
 30
0.0
 10
57.23508921017035
 20
20.84346738995038
 30
0.0
 10
56.61246516041789
 20
20.85474138736325
 30
0.0
 10
56.02139446165582
 20
20.63323815390868
 30
0.0
 10
55.66055479680099
 20
20.19772055013534
 30
0.0
 10
55.47715176571887
 20
19.73461825142802
 30
0.0
 10
55.47335280257835
 20
19.30135331426201
 30
0.0
 10
55.54369325597262
 20
18.90987119057387
 30
0.0
 10
55.76531033532278
 20
18.62163338474983
 30
0.0
 10
56.08652979791034
 20
18.40281424470747
 30
0.0
 10
56.47237910630415
 20
18.30127009230115
 30
0.0
 10
56.8709563978254
 20
18.33173240418475
 30
0.0
 10
57.11109034748808
 20
18.40112536935903
 30
0.0
 10
57.22801460716635
 20
18.43491368247043
 30
0.0
 11
54.60569794165295
 21
20.62507775634053
 31
0.0
 11
54.53388680061578
 21
20.33778485860421
 31
0.0
 11
54.46618268590667
 21
19.87952619958013
 31
0.0
 11
54.4586600522869
 21
19.39121773368252
 31
0.0
 11
54.48976085809373
 21
19.02155542929406
 31
0.0
 11
54.57902287708852
 21
18.73763571640282
 31
0.0
 11
54.75204441198265
 21
18.41460087214591
 31
0.0
 11
54.993500770478
 21
18.08715940954143
 31
0.0
 11
55.33954384026625
 21
17.77914943359197
 31
0.0
 11
55.75329102476358
 21
17.52372653184792
 31
0.0
 11
56.40776372148706
 21
17.35845291020725
 31
0.0
 11
57.07728182282714
 21
17.42606485272013
 31
0.0
 11
57.56625575565336
 21
17.65895041687368
 31
0.0
 11
57.99504820739021
 21
18.09467180856586
 31
0.0
 11
58.27338716246932
 21
18.5904926734879
 31
0.0
 11
58.3789840077129
 21
19.03658029760153
 31
0.0
 11
58.34184355427812
 21
19.66065820642457
 31
0.0
 11
58.08607263743541
 21
20.26165321975744
 31
0.0
 11
57.75434412599456
 21
20.58798255924612
 31
0.0
 11
57.26537019316833
 21
20.79833078580918
 31
0.0
 11
56.61842013006462
 21
20.81335565411665
 31
0.0
 11
56.01660614343363
 21
20.56544522165562
 31
0.0
 11
55.67808570726517
 21
20.17479850514441
 31
0.0
 11
55.50506417237103
 21
19.72405224514476
 31
0.0
 11
55.49001876775442
 21
19.25828111683765
 31
0.0
 11
55.56550337293431
 21
18.93140614919071
 31
0.0
 11
55.78366098430116
 21
18.63090864252426
 31
0.0
 11
56.06952271037714
 21
18.43558528426865
 31
0.0
 11
56.49079252849425
 21
18.32289873683339
 31
0.0
 11
56.87444890375836
 21
18.34543607442389
 31
0.0
 11
57.22801460716635
 21
18.43491368247043
 31
0.0
  0
SPLINE
  5
F2E2
330
18
100
AcDbEntity
  8
0
100
AcDbSpline
210
0.0
220
0.0
230
1.0
 70
     8
 71
     3
 72
    28
 73
    24
 74
    22
 42
0.0000000001
 43
0.0000000001
 44
0.0000000001
 40
0.0
 40
0.0
 40
0.0
 40
0.0
 40
0.3180799564406192
 40
0.8283010941423231
 40
1.309155939645696
 40
1.728719770522426
 40
2.163098141331344
 40
2.540829021053012
 40
3.02260189866848
 40
3.534138989075179
 40
4.053421003496719
 40
4.504164265680467
 40
5.02519853708433
 40
5.573775959805386
 40
6.100506762107286
 40
6.614485051028396
 40
7.0243093778524
 40
7.48184401802705
 40
7.942261915627016
 40
8.452047366830012
 40
8.945149748108628
 40
9.410819720488907
 40
9.932048809459573
 40
9.932048809459573
 40
9.932048809459573
 40
9.932048809459573
 10
55.2197085435988
 20
20.54011777520324
 30
0.0
 10
55.1738920523518
 20
20.44435513752348
 30
0.0
 10
55.05458290048218
 20
20.19498294049568
 30
0.0
 10
54.95387957650006
 20
19.76496324192148
 30
0.0
 10
54.944582231964
 20
19.29271594415012
 30
0.0
 10
55.03139344508722
 20
18.84933164384236
 30
0.0
 10
55.25094006074635
 20
18.4944539346303
 30
0.0
 10
55.54221128851486
 20
18.17499371632717
 30
0.0
 10
55.92441329640713
 20
17.91138298145849
 30
0.0
 10
56.41263584769162
 20
17.76424262899531
 30
0.0
 10
56.92140456115945
 20
17.76053365044794
 30
0.0
 10
57.37709436111348
 20
17.99128845516637
 30
0.0
 10
57.73301357915892
 20
18.3646861453874
 30
0.0
 10
57.9506414049511
 20
18.86431377034449
 30
0.0
 10
57.97586081562049
 20
19.40265520146054
 30
0.0
 10
57.85705820673033
 20
19.87905120415484
 30
0.0
 10
57.57998802129346
 20
20.26891385313306
 30
0.0
 10
57.15557461718447
 20
20.44346601464958
 30
0.0
 10
56.67579043893695
 20
20.49648450321829
 30
0.0
 10
56.19404809761881
 20
20.31298390966917
 30
0.0
 10
55.88845958323567
 20
19.90460280785884
 30
0.0
 10
55.79224649109443
 20
19.39794993158041
 30
0.0
 10
55.90967563447591
 20
19.08458921323618
 30
0.0
 10
55.97169564018911
 20
18.91908827384104
 30
0.0
 11
55.2197085435988
 21
20.54011777520324
 31
0.0
 11
55.09045741924463
 21
20.24948225510556
 31
0.0
 11
54.97009459444301
 21
19.75366131992493
 31
0.0
 11
54.96257182344614
 21
19.27286532331035
 31
0.0
 11
55.05376811226629
 21
18.86333260778522
 31
0.0
 11
55.27192572363315
 21
18.48771068932289
 31
0.0
 11
55.52769664047589
 21
18.20975052024695
 31
0.0
 11
55.92639842035662
 21
17.93930275019545
 31
0.0
 11
56.41537235318286
 21
17.78905399686222
 31
0.0
 11
56.9344369578652
 21
17.80407886516968
 31
0.0
 11
57.34066137136567
 21
17.99940222342529
 31
0.0
 11
57.70174984577052
 21
18.37502414188763
 31
0.0
 11
57.91990745713739
 21
18.87835747609269
 31
0.0
 11
57.94999812899352
 21
19.40422807762965
 31
0.0
 11
57.81459003695239
 21
19.9000489425517
 31
0.0
 11
57.56650275971203
 21
20.22625237865901
 31
0.0
 11
57.15275557521467
 21
20.42157573691462
 31
0.0
 11
56.69387245162169
 21
20.45913794281256
 31
0.0
 11
56.21994392341209
 21
20.27132698358141
 31
0.0
 11
55.9190367927195
 21
19.88068026707019
 31
0.0
 11
55.83628741077088
 21
19.42242153778751
 31
0.0
 11
55.97169564018911
 21
18.91908827384104
 31
0.0
  0
SPLINE
  5
F2E3
330
18
100
AcDbEntity
  8
0
100
AcDbSpline
210
0.0
220
0.0
230
1.0
 70
     8
 71
     3
 72
    34
 73
    30
 74
    28
 42
0.0000000001
 43
0.0000000001
 44
0.0000000001
 40
0.0
 40
0.0
 40
0.0
 40
0.0
 40
0.2962127843224243
 40
0.6318182510980018
 40
0.9452350042590284
 40
1.358579601120128
 40
1.857657715571538
 40
2.179368267778899
 40
2.647056256685778
 40
3.123260328449863
 40
3.550063530715115
 40
3.973524988961577
 40
4.518266479238453
 40
5.090857268708496
 40
5.633098030198837
 40
6.355622740424099
 40
7.087914922701672
 40
7.971757652848133
 40
8.657998944756696
 40
9.201958086934226
 40
9.857507798848013
 40
10.52115398213143
 40
11.14310824831563
 40
11.88625446646105
 40
12.55302421929172
 40
13.19948781238762
 40
13.88166861686652
 40
14.54367128695112
 40
15.17716149937592
 40
15.17716149937592
 40
15.17716149937592
 40
15.17716149937592
 10
55.8398391587868
 20
19.49337006042357
 30
0.0
 10
55.85444113346375
 20
19.59174803335548
 30
0.0
 10
55.88558696710516
 20
19.80158704805764
 30
0.0
 10
56.06924418247611
 20
20.07532506311479
 30
0.0
 10
56.38764774232992
 20
20.25325339058853
 30
0.0
 10
56.80009327659351
 20
20.29352446925946
 30
0.0
 10
57.22457970734838
 20
20.20356733628883
 30
0.0
 10
57.53407925341242
 20
19.89226196209729
 30
0.0
 10
57.72505229175092
 20
19.49276817016015
 30
0.0
 10
57.64562831072531
 20
19.02554376718193
 30
0.0
 10
57.46284831116355
 20
18.61367370671702
 30
0.0
 10
57.0899885198702
 20
18.31439698763834
 30
0.0
 10
56.58631976670122
 20
18.14414595664589
 30
0.0
 10
56.02430708059124
 20
18.25563813169509
 30
0.0
 10
55.48999497627613
 20
18.59396403913069
 30
0.0
 10
55.20403633090073
 20
19.23490026667287
 30
0.0
 10
55.18088169754186
 20
20.03027181605631
 30
0.0
 10
55.54194632041269
 20
20.75804710715799
 30
0.0
 10
56.14315999958328
 20
21.16737404531522
 30
0.0
 10
56.76310261672365
 20
21.3122808036563
 30
0.0
 10
57.39316207533384
 20
21.27994854770425
 30
0.0
 10
58.00662580256759
 20
21.02470663817271
 30
0.0
 10
58.48638758371321
 20
20.52549871187358
 30
0.0
 10
58.75992615564524
 20
19.89228412498743
 30
0.0
 10
58.86397049847598
 20
19.21015167025011
 30
0.0
 10
58.83804938541594
 20
18.5420043003501
 30
0.0
 10
58.70074187447007
 20
17.89016113022144
 30
0.0
 10
58.48518530559079
 20
17.26614220739672
 30
0.0
 10
58.31663175109781
 20
16.86852139683161
 30
0.0
 10
58.23420981850187
 20
16.67408660282372
 30
0.0
 11
55.8398391587868
 21
19.49337006042357
 31
0.0
 11
55.90378188799751
 21
19.78259893342405
 31
0.0
 11
56.09184882750823
 21
20.06055910249999
 31
0.0
 11
56.36266514896759
 21
20.21832025485766
 31
0.0
 11
56.77265094796651
 21
20.27090732906307
 31
0.0
 11
57.25410210979585
 21
20.13943967867882
 31
0.0
 11
57.48730512577934
 21
19.91782281844981
 31
0.0
 11
57.67537206529009
 21
19.48961389604064
 31
0.0
 11
57.62271321782048
 21
19.0163302984505
 31
0.0
 11
57.43464641568685
 21
18.63319605122231
 31
0.0
 11
57.11136467374039
 21
18.35968458538535
 31
0.0
 11
56.59230020643518
 21
18.19441096374467
 31
0.0
 11
56.02809952528009
 21
18.29207264287248
 31
0.0
 11
55.57673903530686
 21
18.59257014953891
 31
0.0
 11
55.25326400375501
 21
19.23863969753559
 31
0.0
 11
55.23770288543637
 21
19.97076652522429
 31
0.0
 11
55.6364046653171
 21
20.75957249778833
 31
0.0
 11
56.20060520909506
 21
21.15021921429954
 31
0.0
 11
56.72874000063457
 21
21.28046970498586
 31
0.0
 11
57.38321269735802
 21
21.2429075693465
 31
0.0
 11
57.99254945498588
 21
20.97997226857801
 31
0.0
 11
58.42886454034247
 21
20.5367384076028
 31
0.0
 11
58.73729430465484
 21
19.86061905273261
 31
0.0
 11
58.84347143084601
 21
19.20235746250905
 31
0.0
 11
58.82090339260965
 21
18.55628791451238
 31
0.0
 11
58.68549516319139
 21
17.88768095866665
 31
0.0
 11
58.4749354681051
 21
17.26005674784913
 31
0.0
 11
58.23420981850187
 21
16.67408660282372
 31
0.0
  0
SPLINE
  5
F2E4
330
18
100
AcDbEntity
  8
0
100
AcDbSpline
210
0.0
220
0.0
230
1.0
 70
     8
 71
     3
 72
    22
 73
    18
 74
    16
 42
0.0000000001
 43
0.0000000001
 44
0.0000000001
 40
0.0
 40
0.0
 40
0.0
 40
0.0
 40
0.5276181823422684
 40
1.186301825102553
 40
1.937736730803328
 40
2.567036934933921
 40
3.415749651491499
 40
4.011902211985976
 40
4.613201933851406
 40
5.044861063403986
 40
5.527775274481495
 40
6.101261880916442
 40
6.815620753186368
 40
7.343595689862264
 40
7.670477510575568
 40
7.993862459635462
 40
8.210701838362743
 40
8.210701838362743
 40
8.210701838362743
 40
8.210701838362743
 10
58.00852957351525
 20
16.7416985453366
 30
0.0
 10
58.08883809501629
 20
16.8982806180984
 30
0.0
 10
58.26940455162521
 20
17.25034126519556
 30
0.0
 10
58.50057621554192
 20
17.85461646004129
 30
0.0
 10
58.64726613103928
 20
18.52579530671146
 30
0.0
 10
58.64046706392143
 20
19.26622231020261
 30
0.0
 10
58.56664731263991
 20
19.97930089630299
 30
0.0
 10
58.15226867986615
 20
20.53595495011823
 30
0.0
 10
57.76818578115039
 20
20.93319975424003
 30
0.0
 10
57.28700430549301
 20
21.11786433412202
 30
0.0
 10
56.78423100280436
 20
21.16233162831166
 30
0.0
 10
56.20860325346575
 20
20.98123624042185
 30
0.0
 10
55.7186229952967
 20
20.57891490710298
 30
0.0
 10
55.51882534312131
 20
20.08525490132793
 30
0.0
 10
55.42478096842401
 20
19.70237156253072
 30
0.0
 10
55.43927254210508
 20
19.40856112340881
 30
0.0
 10
55.48836324567956
 20
19.23516910194756
 30
0.0
 10
55.50806764830794
 20
19.16557168421568
 30
0.0
 11
58.00852957351525
 21
16.7416985453366
 31
0.0
 11
58.24173245212161
 21
17.21498214292674
 31
0.0
 11
58.4749354681051
 21
17.83100202456707
 31
0.0
 11
58.62538896476285
 21
18.5672208526671
 31
0.0
 11
58.63241731551103
 21
19.19648180744228
 31
0.0
 11
58.47444118523354
 21
20.03036238492871
 31
0.0
 11
58.14344338268482
 21
20.52618324985075
 31
0.0
 11
57.69960566370845
 21
20.93185483466942
 31
0.0
 11
57.29910918915455
 21
21.09288954520099
 31
0.0
 11
56.8176580273252
 21
21.13045168084035
 31
0.0
 11
56.26850275078673
 21
20.96517805919967
 31
0.0
 11
55.726870107868
 21
20.49940700115115
 31
0.0
 11
55.50871249650113
 21
20.01861100453657
 31
0.0
 11
55.44036367097594
 21
19.69895468477709
 31
0.0
 11
55.45540893821545
 21
19.37591991077875
 31
0.0
 11
55.50806764830794
 21
19.16557168421568
 31
0.0
  0
SPLINE
  5
F2E9
330
18
100
AcDbEntity
  8
0
100
AcDbSpline
210
0.0
220
0.0
230
1.0
 70
     8
 71
     3
 72
    11
 73
     7
 74
     5
 42
0.0000000001
 43
0.0000000001
 44
0.0000000001
 40
0.0
 40
0.0
 40
0.0
 40
0.0
 40
0.4802417417777986
 40
1.157258292520829
 40
2.04517321012423
 40
2.347275293046129
 40
2.347275293046129
 40
2.347275293046129
 40
2.347275293046129
 10
55.32962685741765
 20
7.241261960401498
 30
0.0
 10
55.31409718492326
 20
7.081946149181688
 30
0.0
 10
55.27667469389253
 20
6.698036281244569
 30
0.0
 10
55.24103236133349
 20
6.016393272826244
 30
0.0
 10
55.27989308415616
 20
5.393955375915965
 30
0.0
 10
55.32078066713474
 20
4.999444961461357
 30
0.0
 10
55.33116053900046
 20
4.899293099858951
 30
0.0
 11
55.32962685741765
 21
7.241261960401498
 31
0.0
 11
55.28600921366761
 21
6.763005092495276
 31
0.0
 11
55.25590837590472
 21
6.08665802955646
 31
0.0
 11
55.3010597012376
 21
5.19989184914398
 31
0.0
 11
55.33116053900046
 21
4.899293099858951
 31
0.0
  0
SPLINE
  5
F2EA
330
18
100
AcDbEntity
  8
0
100
AcDbSpline
210
0.0
220
0.0
230
1.0
 70
     8
 71
     3
 72
     9
 73
     5
 74
     3
 42
0.0000000001
 43
0.0000000001
 44
0.0000000001
 40
0.0
 40
0.0
 40
0.0
 40
0.0
 40
0.4851154643254355
 40
0.8624963545461456
 40
0.8624963545461456
 40
0.8624963545461456
 40
0.8624963545461456
 10
54.60424198710576
 20
4.448395011060682
 30
0.0
 10
54.7251413080648
 20
4.558661790608018
 30
0.0
 10
54.94009059594057
 20
4.754707273345547
 30
0.0
 10
55.21213075288784
 20
4.855285575603446
 30
0.0
 10
55.33116053900046
 20
4.899293099858951
 30
0.0
 11
54.60424198710576
 21
4.448395011060682
 31
0.0
 11
54.98500097341595
 21
4.748993760345712
 31
0.0
 11
55.33116053900046
 21
4.899293099858951
 31
0.0
  0
CIRCLE
  5
F2EB
330
18
100
AcDbEntity
  8
0
100
AcDbCircle
 10
55.63102827441618
 20
3.574359041458388
 30
0.0
 40
0.9808452216930822
  0
CIRCLE
  5
F2EC
330
18
100
AcDbEntity
  8
0
100
AcDbCircle
 10
55.65577689965097
 20
3.582108434849601
 30
0.0
 40
0.7914211084424827
  0
CIRCLE
  5
F2ED
330
18
100
AcDbEntity
  8
0
100
AcDbCircle
 10
55.65562207563868
 20
3.572788633768553
 30
0.0
 40
0.1459219313374501
  0
LINE
  5
F2EE
330
18
100
AcDbEntity
  8
0
100
AcDbLine
 10
55.61540574852568
 20
3.962047743258651
 30
0.0
 11
55.62468639712803
 21
3.801401141141482
 31
0.0
  0
SPLINE
  5
F2EF
330
18
100
AcDbEntity
  8
0
100
AcDbSpline
210
0.0
220
0.0
230
1.0
 70
     8
 71
     3
 72
     9
 73
     5
 74
     3
 42
0.0000000001
 43
0.0000000001
 44
0.0000000001
 40
0.0
 40
0.0
 40
0.0
 40
0.0
 40
0.0927261880852557
 40
0.1905102796734923
 40
0.1905102796734923
 40
0.1905102796734923
 40
0.1905102796734923
 10
55.3462652905322
 20
3.878635066902404
 30
0.0
 10
55.36315654433488
 20
3.852183200728518
 30
0.0
 10
55.39786041335435
 20
3.797836607530492
 30
0.0
 10
55.45371401320902
 20
3.765486543895178
 30
0.0
 10
55.48238224850361
 20
3.748882077244758
 30
0.0
 11
55.3462652905322
 21
3.878635066902404
 31
0.0
 11
55.40194945690051
 21
3.804490481309869
 31
0.0
 11
55.48238224850361
 21
3.748882077244758
 31
0.0
  0
SPLINE
  5
F2F0
330
18
100
AcDbEntity
  8
0
100
AcDbSpline
210
0.0
220
0.0
230
1.0
 70
     8
 71
     3
 72
     9
 73
     5
 74
     3
 42
0.0000000001
 43
0.0000000001
 44
0.0000000001
 40
0.0
 40
0.0
 40
0.0
 40
0.0
 40
0.1021345549929957
 40
0.1763801559431453
 40
0.1763801559431453
 40
0.1763801559431453
 40
0.1763801559431453
 10
55.21324179051013
 20
3.572788633768553
 30
0.0
 10
55.24726655410505
 20
3.574116565641162
 30
0.0
 10
55.30602524854703
 20
3.576409823107148
 30
0.0
 10
55.36482429592722
 20
3.576035529416249
 30
0.0
 10
55.38957521297168
 20
3.575877973936925
 30
0.0
 11
55.21324179051013
 21
3.572788633768553
 31
0.0
 11
55.31532961202152
 21
3.575877973936925
 31
0.0
 11
55.38957521297168
 21
3.575877973936925
 31
0.0
  0
SPLINE
  5
F2F1
330
18
100
AcDbEntity
  8
0
100
AcDbSpline
210
0.0
220
0.0
230
1.0
 70
    24
 71
     3
 72
     8
 73
     4
 74
     2
 42
0.0000000001
 43
0.0000000001
 44
0.0000000001
 40
0.0
 40
0.0
 40
0.0
 40
0.0
 40
0.1946550965644642
 40
0.1946550965644642
 40
0.1946550965644642
 40
0.1946550965644642
 10
55.36173312978751
 20
3.270031470544495
 30
0.0
 10
55.40607425066916
 20
3.317401634160598
 30
0.0
 10
55.45041537155081
 20
3.364771797776702
 30
0.0
 10
55.49475649243247
 20
3.412141961392805
 30
0.0
 11
55.36173312978751
 21
3.270031470544495
 31
0.0
 11
55.49475649243247
 21
3.412141961392805
 31
0.0
  0
SPLINE
  5
F2F2
330
18
100
AcDbEntity
  8
0
100
AcDbSpline
210
0.0
220
0.0
230
1.0
 70
     8
 71
     3
 72
     9
 73
     5
 74
     3
 42
0.0000000001
 43
0.0000000001
 44
0.0000000001
 40
0.0
 40
0.0
 40
0.0
 40
0.0
 40
0.0989079095671593
 40
0.1893497865208344
 40
0.1893497865208344
 40
0.1893497865208344
 40
0.1893497865208344
 10
55.65562207563868
 20
3.137189070459882
 30
0.0
 10
55.65810073525405
 20
3.170219006959212
 30
0.0
 10
55.66284589336205
 20
3.233451679172328
 30
0.0
 10
55.65167644986754
 20
3.295840344411552
 30
0.0
 10
55.64634142703635
 20
3.325639944868186
 30
0.0
 11
55.65562207563868
 21
3.137189070459882
 31
0.0
 11
55.65871567096518
 21
3.236048588175179
 31
0.0
 11
55.64634142703635
 21
3.325639944868186
 31
0.0
  0
SPLINE
  5
F2F3
330
18
100
AcDbEntity
  8
0
100
AcDbSpline
210
0.0
220
0.0
230
1.0
 70
     8
 71
     3
 72
     9
 73
     5
 74
     3
 42
0.0000000001
 43
0.0000000001
 44
0.0000000001
 40
0.0
 40
0.0
 40
0.0
 40
0.0
 40
0.136378092073239
 40
0.191068766056374
 40
0.191068766056374
 40
0.191068766056374
 40
0.191068766056374
 10
56.01447611121476
 20
3.279299561308206
 30
0.0
 10
55.97371785914956
 20
3.300921005439682
 30
0.0
 10
55.91661463376839
 20
3.331213133652907
 30
0.0
 10
55.87484665665338
 20
3.37972113540093
 30
0.0
 10
55.86289117661088
 20
3.393605850123961
 30
0.0
 11
56.01447611121476
 21
3.279299561308206
 31
0.0
 11
55.90001404577451
 21
3.353444146900741
 31
0.0
 11
55.86289117661088
 21
3.393605850123961
 31
0.0
  0
SPLINE
  5
F2F4
330
18
100
AcDbEntity
  8
0
100
AcDbSpline
210
0.0
220
0.0
230
1.0
 70
     8
 71
     3
 72
     9
 73
     5
 74
     3
 42
0.0000000001
 43
0.0000000001
 44
0.0000000001
 40
0.0
 40
0.0
 40
0.0
 40
0.0
 40
0.090560654270538
 40
0.1961494687969507
 40
0.1961494687969507
 40
0.1961494687969507
 40
0.1961494687969507
 10
55.89073325979502
 20
3.606771586396433
 30
0.0
 10
55.92059950022981
 20
3.601089895186079
 30
0.0
 10
55.98528815827271
 20
3.588783659969958
 30
0.0
 10
56.05051564400966
 20
3.598468662373308
 30
0.0
 10
56.08562811683841
 20
3.603682175969481
 30
0.0
 11
55.89073325979502
 21
3.606771586396433
 31
0.0
 11
55.98044683737761
 21
3.594414155464349
 31
0.0
 11
56.08562811683841
 21
3.603682175969481
 31
0.0
  0
SPLINE
  5
F2F5
330
18
100
AcDbEntity
  8
0
100
AcDbSpline
210
0.0
220
0.0
230
1.0
 70
     8
 71
     3
 72
     9
 73
     5
 74
     3
 42
0.0000000001
 43
0.0000000001
 44
0.0000000001
 40
0.0
 40
0.0
 40
0.0
 40
0.0
 40
0.0970916304676195
 40
0.1862397307119668
 40
0.1862397307119668
 40
0.1862397307119668
 40
0.1862397307119668
 10
55.80720701024254
 20
3.764328848345215
 30
0.0
 10
55.83502266400549
 20
3.781978616406149
 30
0.0
 10
55.88837823998497
 20
3.815834140666742
 30
0.0
 10
55.91926069438784
 20
3.87084093233972
 30
0.0
 10
55.93404331961163
 20
3.897171248429827
 30
0.0
 11
55.80720701024254
 21
3.764328848345215
 31
0.0
 11
55.88454620651917
 21
3.823026662837293
 31
0.0
 11
55.93404331961163
 21
3.897171248429827
 31
0.0
  0
SPLINE
  5
F2F6
330
18
100
AcDbEntity
  8
0
100
AcDbSpline
210
0.0
220
0.0
230
1.0
 70
     8
 71
     3
 72
    13
 73
     9
 74
     7
 42
0.0000000001
 43
0.0000000001
 44
0.0000000001
 40
0.0
 40
0.0
 40
0.0
 40
0.0
 40
0.1055501227819051
 40
0.2337241921264976
 40
0.3556305067521311
 40
0.4757561128822745
 40
0.5995373866494179
 40
0.6990479919927902
 40
0.6990479919927902
 40
0.6990479919927902
 40
0.6990479919927902
 10
55.27514845345082
 20
3.718540697250347
 30
0.0
 10
55.2407123715707
 20
3.733876651203278
 30
0.0
 10
55.16445906929774
 20
3.767835715898488
 30
0.0
 10
55.14986047354792
 20
3.891135430206415
 30
0.0
 10
55.14482163552703
 20
4.044368600357969
 30
0.0
 10
55.28979607837132
 20
4.035537670024248
 30
0.0
 10
55.42110835546228
 20
4.069606524146688
 30
0.0
 10
55.44425843904236
 20
3.987039032123787
 30
0.0
 10
55.45457533386174
 20
3.950242615050257
 30
0.0
 11
55.27514845345082
 21
3.718540697250347
 31
0.0
 11
55.18543487586824
 21
3.774149171574038
 31
0.0
 11
55.15140573940822
 21
3.897723480894939
 31
0.0
 11
55.16996703661293
 21
4.018208450047453
 31
0.0
 11
55.28752269737966
 21
4.042923382170215
 31
0.0
 11
55.41126541142226
 21
4.039833971743249
 31
0.0
 11
55.45457533386174
 21
3.950242615050257
 31
0.0
  0
SPLINE
  5
F2F7
330
18
100
AcDbEntity
  8
0
100
AcDbSpline
210
0.0
220
0.0
230
1.0
 70
     8
 71
     3
 72
    15
 73
    11
 74
     9
 42
0.0000000001
 43
0.0000000001
 44
0.0000000001
 40
0.0
 40
0.0
 40
0.0
 40
0.0
 40
0.0787834375392609
 40
0.1946588384748342
 40
0.2913523599656125
 40
0.3600087394652669
 40
0.5086563919830003
 40
0.5311496024428629
 40
0.5629667000775641
 40
0.6118353403473991
 40
0.6118353403473991
 40
0.6118353403473991
 40
0.6118353403473991
 10
55.42054619740172
 20
4.036744631574876
 30
0.0
 10
55.43096538666664
 20
4.060849697631919
 30
0.0
 10
55.45670921485577
 20
4.120408715448132
 30
0.0
 10
55.52056580092646
 20
4.198039982027912
 30
0.0
 10
55.62778488958052
 20
4.219820795786157
 30
0.0
 10
55.70548672243131
 20
4.141839060275192
 30
0.0
 10
55.77478705764147
 20
4.101115189654216
 30
0.0
 10
55.80283354574696
 20
4.03313214144144
 30
0.0
 10
55.77740133459283
 20
4.003991072327456
 30
0.0
 10
55.76323293269187
 20
3.982061021324394
 30
0.0
 10
55.75465160774301
 20
3.968778726319101
 30
0.0
 11
55.42054619740172
 21
4.036744631574876
 31
0.0
 11
55.45457533386174
 21
4.107799876999038
 31
0.0
 11
55.53500812546484
 21
4.191212553355285
 31
0.0
 11
55.63090875632328
 21
4.203569984287369
 31
0.0
 11
55.68659306006871
 21
4.163408351322729
 31
0.0
 11
55.79177433952951
 21
4.058370153270672
 31
0.0
 11
55.79796153018249
 21
4.036744631574876
 31
0.0
 11
55.78249369092715
 21
4.00894042954232
 31
0.0
 11
55.75465160774301
 21
3.968778726319101
 31
0.0
  0
SPLINE
  5
F2F8
330
18
100
AcDbEntity
  8
0
100
AcDbSpline
210
0.0
220
0.0
230
1.0
 70
     8
 71
     3
 72
    14
 73
    10
 74
     8
 42
0.0000000001
 43
0.0000000001
 44
0.0000000001
 40
0.0
 40
0.0
 40
0.0
 40
0.0
 40
0.1028167588100942
 40
0.2851376490709079
 40
0.3391027485186057
 40
0.4472745325181839
 40
0.5122248137307068
 40
0.5836363489476538
 40
0.6474067945131937
 40
0.6474067945131937
 40
0.6474067945131937
 40
0.6474067945131937
 10
55.79486793485601
 20
4.033655291406503
 30
0.0
 10
55.82523467366533
 20
4.048528415317902
 30
0.0
 10
55.90944954888847
 20
4.089775461378454
 30
0.0
 10
56.05351022180903
 20
4.06979906281769
 30
0.0
 10
56.09961018592052
 20
3.956830097838339
 30
0.0
 10
56.08450462516303
 20
3.886774952016544
 30
0.0
 10
56.10521726246588
 20
3.787417878567053
 30
0.0
 10
56.01922464148815
 20
3.783150642723352
 30
0.0
 10
55.97818640117754
 20
3.770737044091933
 30
0.0
 10
55.95882711338872
 20
3.764881080810326
 30
0.0
 11
55.79486793485601
 21
4.033655291406503
 31
0.0
 11
55.89076856571442
 21
4.070727584202771
 31
0.0
 11
56.06710198817599
 21
4.024387200642792
 31
0.0
 11
56.08875688070718
 21
3.974957476914426
 31
0.0
 11
56.09185047603365
 21
3.86682993869401
 31
0.0
 11
56.08875688070718
 21
3.801953373606593
 31
0.0
 11
56.02069847041001
 21
3.780327922169377
 31
0.0
 11
55.95882711338872
 21
3.764881080810326
 31
0.0
  0
SPLINE
  5
F2F9
330
18
100
AcDbEntity
  8
0
100
AcDbSpline
210
0.0
220
0.0
230
1.0
 70
     8
 71
     3
 72
    14
 73
    10
 74
     8
 42
0.0000000001
 43
0.0000000001
 44
0.0000000001
 40
0.0
 40
0.0
 40
0.0
 40
0.0
 40
0.0678945236316006
 40
0.1990584431447503
 40
0.270382557092729
 40
0.3329624544278429
 40
0.425724039564435
 40
0.4825874355290056
 40
0.5804013462729475
 40
0.5804013462729475
 40
0.5804013462729475
 40
0.5804013462729475
 10
55.18543487586824
 20
3.761791740641953
 30
0.0
 10
55.16500727802271
 20
3.751571616527085
 30
0.0
 10
55.10511605842475
 20
3.721607462038122
 30
0.0
 10
55.0530138333973
 20
3.642112866162834
 30
0.0
 10
55.03603116925622
 20
3.549086424674246
 30
0.0
 10
55.08566704105019
 20
3.485099894472999
 30
0.0
 10
55.14220190164557
 20
3.44612864151078
 30
0.0
 10
55.21988466337525
 20
3.404827979356779
 30
0.0
 10
55.26890056095457
 20
3.432357563212423
 30
0.0
 10
55.29989694130849
 20
3.449766556912763
 30
0.0
 11
55.18543487586824
 21
3.761791740641953
 31
0.0
 11
55.12665711417342
 21
3.727808788014058
 31
0.0
 11
55.0524115132233
 21
3.619681249793643
 31
0.0
 11
55.04622432257033
 21
3.548626004369481
 31
0.0
 11
55.08025359640747
 21
3.496106940472742
 31
0.0
 11
55.15449919735759
 21
3.440498466149051
 31
0.0
 11
55.20708990577656
 21
3.418872944453255
 31
0.0
 11
55.29989694130849
 21
3.449766556912763
 31
0.0
  0
SPLINE
  5
F2FA
330
18
100
AcDbEntity
  8
0
100
AcDbSpline
210
0.0
220
0.0
230
1.0
 70
     8
 71
     3
 72
    15
 73
    11
 74
     9
 42
0.0000000001
 43
0.0000000001
 44
0.0000000001
 40
0.0
 40
0.0
 40
0.0
 40
0.0
 40
0.1027132944898602
 40
0.23121478191666
 40
0.3128615940644435
 40
0.4130537181357573
 40
0.5316197587518655
 40
0.573677051518369
 40
0.6029892783028385
 40
0.6645518901712876
 40
0.6645518901712876
 40
0.6645518901712876
 40
0.6645518901712876
 10
55.21639267209493
 20
3.417777051070203
 30
0.0
 10
55.20014395654349
 20
3.386169526802804
 30
0.0
 10
55.16356696579161
 20
3.315018787585364
 30
0.0
 10
55.19377108226357
 20
3.212246272433228
 30
0.0
 10
55.23411989212303
 20
3.104331541808306
 30
0.0
 10
55.35046976885935
 20
3.110559097846241
 30
0.0
 10
55.43319622523948
 20
3.108366908923084
 30
0.0
 10
55.49393409604736
 20
3.142717662058588
 30
0.0
 10
55.50270841496405
 20
3.188107685664443
 30
0.0
 10
55.51275575594341
 20
3.216363318828125
 30
0.0
 10
55.51956226654844
 20
3.235504927257238
 30
0.0
 11
55.21639267209493
 21
3.417777051070203
 31
0.0
 11
55.1792698029313
 21
3.322006943781858
 31
0.0
 11
55.20092469546248
 21
3.195343224034004
 31
0.0
 11
55.24114115995262
 21
3.124288048868436
 31
0.0
 11
55.34013538613753
 21
3.108841207509385
 31
0.0
 11
55.45769090952716
 21
3.124288048868436
 31
0.0
 11
55.49172018336427
 21
3.149002910732619
 31
0.0
 11
55.50100096934376
 21
3.176807112765175
 31
0.0
 11
55.51956226654844
 21
3.235504927257238
 31
0.0
  0
SPLINE
  5
F2FB
330
18
100
AcDbEntity
  8
0
100
AcDbSpline
210
0.0
220
0.0
230
1.0
 70
     8
 71
     3
 72
    13
 73
     9
 74
     7
 42
0.0000000001
 43
0.0000000001
 44
0.0000000001
 40
0.0
 40
0.0
 40
0.0
 40
0.0
 40
0.1174898321651549
 40
0.2225146884244719
 40
0.2871030174060324
 40
0.3562584638247806
 40
0.4633974896435883
 40
0.5202058853519836
 40
0.5202058853519836
 40
0.5202058853519836
 40
0.5202058853519836
 10
55.49790737401726
 20
3.155181591069364
 30
0.0
 10
55.51968787062181
 20
3.122476279022292
 30
0.0
 10
55.56093808203484
 20
3.060535494991301
 30
0.0
 10
55.62673578622987
 20
2.991471999659912
 30
0.0
 10
55.70826678628534
 20
2.958309632413768
 30
0.0
 10
55.77869771001508
 20
3.008847449314902
 30
0.0
 10
55.8421795419452
 20
3.056337531665159
 30
0.0
 10
55.85990127420478
 20
3.109096283790419
 30
0.0
 10
55.86604192081857
 20
3.127377389036809
 30
0.0
 11
55.49790737401726
 21
3.155181591069364
 31
0.0
 11
55.56596578431443
 21
3.059411483781033
 31
0.0
 11
55.64330511796815
 21
2.988356238356871
 31
0.0
 11
55.70517647498947
 21
2.969820127088027
 31
0.0
 11
55.76704783201076
 21
3.000713669288955
 31
0.0
 11
55.84438702828738
 21
3.07485825488149
 31
0.0
 11
55.86604192081857
 21
3.127377389036809
 31
0.0
  0
SPLINE
  5
F2FC
330
18
100
AcDbEntity
  8
0
100
AcDbSpline
210
0.0
220
0.0
230
1.0
 70
     8
 71
     3
 72
    16
 73
    12
 74
    10
 42
0.0000000001
 43
0.0000000001
 44
0.0000000001
 40
0.0
 40
0.0
 40
0.0
 40
0.0
 40
0.0822961161799065
 40
0.1237894269168261
 40
0.2290160659949875
 40
0.3189421583896048
 40
0.4038075480566867
 40
0.515196458163001
 40
0.6119688362816739
 40
0.6559008595146631
 40
0.749824120271186
 40
0.749824120271186
 40
0.749824120271186
 40
0.749824120271186
 10
55.8196384030526
 20
3.223147496325154
 30
0.0
 10
55.83212284914186
 20
3.197712115234692
 30
0.0
 10
55.85090189362782
 20
3.15945233585803
 30
0.0
 10
55.92310870605404
 20
3.123581566082843
 30
0.0
 10
56.0007594575314
 20
3.148656348280264
 30
0.0
 10
56.10530595024985
 20
3.126295615125707
 30
0.0
 10
56.15564219030597
 20
3.227292870781309
 30
0.0
 10
56.15517105373659
 20
3.323012221465293
 30
0.0
 10
56.13574476364703
 20
3.407047373571274
 30
0.0
 10
56.08641431755359
 20
3.471881222727491
 30
0.0
 10
56.03814164395377
 20
3.478288335849987
 30
0.0
 10
56.00525261149361
 20
3.482653616157605
 30
0.0
 11
55.8196384030526
 21
3.223147496325154
 31
0.0
 11
55.86604192081857
 21
3.155181591069364
 31
0.0
 11
55.9031647899822
 21
3.13664547980052
 31
0.0
 11
56.008346069443
 21
3.139734819968907
 31
0.0
 11
56.09805964702555
 21
3.145913500305653
 31
0.0
 11
56.14446316479153
 21
3.216968745729815
 31
0.0
 11
56.15065021806739
 21
3.328185694377197
 31
0.0
 11
56.12280813488324
 21
3.420866391238575
 31
0.0
 11
56.09496605169908
 21
3.45484934386647
 31
0.0
 11
56.00525261149361
 21
3.482653616157605
 31
0.0
  0
SPLINE
  5
F2FD
330
18
100
AcDbEntity
  8
0
100
AcDbSpline
210
0.0
220
0.0
230
1.0
 70
     8
 71
     3
 72
    13
 73
     9
 74
     7
 42
0.0000000001
 43
0.0000000001
 44
0.0000000001
 40
0.0
 40
0.0
 40
0.0
 40
0.0
 40
0.0804166957202089
 40
0.1764250625371498
 40
0.2401269296774222
 40
0.3135744890150093
 40
0.4391329206714682
 40
0.4986212074401707
 40
0.4986212074401707
 40
0.4986212074401707
 40
0.4986212074401707
 10
56.10734029562791
 20
3.445581253102758
 30
0.0
 10
56.13462039049252
 20
3.453004127994048
 30
0.0
 10
56.19446980856928
 20
3.469289069263677
 30
0.0
 10
56.22617708109264
 20
3.547956458832485
 30
0.0
 10
56.27204748683055
 20
3.617302857325634
 30
0.0
 10
56.22424313734928
 20
3.70513171490531
 30
0.0
 10
56.15200568508808
 20
3.751042515376957
 30
0.0
 10
56.09713718123727
 20
3.779387715793897
 30
0.0
 10
56.07949821244374
 20
3.788500049291457
 30
0.0
 11
56.10734029562791
 21
3.445581253102758
 31
0.0
 11
56.18158603395515
 21
3.476474865562266
 31
0.0
 11
56.23417660499699
 21
3.55679820175014
 31
0.0
 11
56.25892523023178
 21
3.615496016242204
 31
0.0
 11
56.23108300967051
 21
3.6834618512394
 31
0.0
 11
56.13208892086269
 21
3.760695847258901
 31
0.0
 11
56.07949821244374
 21
3.788500049291457
 31
0.0
  0
SPLINE
  5
F2FF
330
18
100
AcDbEntity
  8
0
100
AcDbSpline
210
0.0
220
0.0
230
1.0
 70
     8
 71
     3
 72
    49
 73
    45
 74
    43
 42
0.0000000001
 43
0.0000000001
 44
0.0000000001
 40
0.0
 40
0.0
 40
0.0
 40
0.0
 40
0.1209000797746007
 40
0.1974441439220173
 40
0.2669364468269033
 40
0.3196178198992841
 40
0.3548718237094829
 40
0.4008055455888555
 40
0.4450410479071247
 40
0.5311157511669337
 40
0.6207605731884284
 40
0.7189484225912302
 40
0.8060255852396734
 40
0.9232744720296521
 40
1.037956894838516
 40
1.149560331286262
 40
1.239662365681708
 40
1.331474154765819
 40
1.397096883602342
 40
1.521455097556513
 40
1.635900732699891
 40
1.820442783347137
 40
2.080582354332999
 40
2.356297122115504
 40
2.606137155237958
 40
2.745033839890673
 40
2.923727600630678
 40
3.094201717214177
 40
3.22102983253219
 40
3.319609062627783
 40
3.371046737055159
 40
3.433225847523026
 40
3.487922354355109
 40
3.55287256538878
 40
3.656459342768024
 40
3.78982596375315
 40
3.951871134682929
 40
4.142190360594226
 40
4.348250329429387
 40
4.560507953402844
 40
4.687376959495964
 40
4.855436154313296
 40
5.063145065015575
 40
5.651355994595176
 40
5.651355994595176
 40
5.651355994595176
 40
5.651355994595176
 10
58.01645582110849
 20
16.6642367709899
 30
0.0
 10
57.99693653080261
 20
16.69995433352658
 30
0.0
 10
57.96505921879758
 20
16.7582853418368
 30
0.0
 10
57.89780973361648
 20
16.81776120221681
 30
0.0
 10
57.84518167185796
 20
16.85807461074098
 30
0.0
 10
57.78758985329223
 20
16.86659145762271
 30
0.0
 10
57.75105481214563
 20
16.83633706674353
 30
0.0
 10
57.73595821058524
 20
16.79420930810787
 30
0.0
 10
57.75303059348811
 20
16.73635674422562
 30
0.0
 10
57.79103562237946
 20
16.6711272443011
 30
0.0
 10
57.77752171619637
 20
16.57727642075953
 30
0.0
 10
57.76406497878571
 20
16.48596187100915
 30
0.0
 10
57.70730621950147
 20
16.40065288398811
 30
0.0
 10
57.6742846541168
 20
16.29768089152017
 30
0.0
 10
57.66739365950439
 20
16.184348443615
 30
0.0
 10
57.67385607930177
 20
16.07339521650658
 30
0.0
 10
57.61382255724601
 20
15.99447959980866
 30
0.0
 10
57.56224154223307
 20
15.92090645540767
 30
0.0
 10
57.46274114766926
 20
15.91964734723661
 30
0.0
 10
57.36317533055341
 20
15.91317421833086
 30
0.0
 10
57.227295842631
 20
15.86631076478715
 30
0.0
 10
57.07666443148696
 20
15.75373432424794
 30
0.0
 10
56.90523554159108
 20
15.58415145997664
 30
0.0
 10
56.76789104241668
 20
15.35669034528157
 30
0.0
 10
56.58971359501437
 20
15.22148176039922
 30
0.0
 10
56.44177346838198
 20
15.10247878444183
 30
0.0
 10
56.28803504415124
 20
15.04310513150747
 30
0.0
 10
56.13522080317574
 20
15.00089080304461
 30
0.0
 10
55.99448565128781
 20
15.02295383505839
 30
0.0
 10
55.93352167900454
 20
15.09429770214863
 30
0.0
 10
55.90642211494707
 20
15.17073050414289
 30
0.0
 10
55.83792275172297
 20
15.15528809166042
 30
0.0
 10
55.78888771048447
 20
15.11418182504791
 30
0.0
 10
55.79608948221224
 20
15.0332334792447
 30
0.0
 10
55.82110218895097
 20
14.93540326186496
 30
0.0
 10
55.92826000088482
 20
14.84396630908068
 30
0.0
 10
56.07797356118597
 20
14.78211004057131
 30
0.0
 10
56.26641432834094
 20
14.75657064775525
 30
0.0
 10
56.46541853598662
 20
14.79392112570759
 30
0.0
 10
56.64866093802284
 20
14.83458063647157
 30
0.0
 10
56.77347551764416
 20
14.95600957326555
 30
0.0
 10
56.84992444587848
 20
15.10583807630257
 30
0.0
 10
57.0482087545947
 20
15.36036775138605
 30
0.0
 10
57.23722990441689
 20
15.54682156170048
 30
0.0
 10
57.37692274862057
 20
15.684617057601
 30
0.0
 11
58.01645582110849
 21
16.6642367709899
 31
0.0
 11
57.95119962926996
 21
16.76601328456861
 31
0.0
 11
57.89551532552453
 21
16.81853234846535
 31
0.0
 11
57.83673756382971
 21
16.85560464126162
 31
0.0
 11
57.78414685541078
 21
16.85869405168857
 31
0.0
 11
57.75630477222661
 21
16.83706852999278
 31
0.0
 11
57.74083693297128
 21
16.79381748660117
 31
0.0
 11
57.75011771895076
 21
16.75056651346816
 31
0.0
 11
57.7810533974614
 21
16.67024317728028
 31
0.0
 11
57.7779598021349
 21
16.5806517503287
 31
0.0
 11
57.75630477222661
 21
16.48488164304036
 31
0.0
 11
57.71608844511361
 21
16.40764771727944
 31
0.0
 11
57.67896557594998
 21
16.29643083889064
 31
0.0
 11
57.66968492734763
 21
16.18212455007489
 31
0.0
 11
57.66040414136817
 21
16.07090767168608
 31
0.0
 11
57.6140006236022
 21
15.99367367566658
 31
0.0
 11
57.5490356712544
 21
15.92879718083776
 31
0.0
 11
57.48407071890664
 21
15.91952909007405
 31
0.0
 11
57.36032800486403
 21
15.90717165914196
 31
0.0
 11
57.25205313007676
 21
15.8700993663457
 31
0.0
 11
57.09943855397138
 21
15.76634697062749
 31
0.0
 11
56.91691807823399
 21
15.58098550664616
 31
0.0
 11
56.74986530437478
 21
15.36164101977834
 31
0.0
 11
56.56115763798441
 21
15.19790507749282
 31
0.0
 11
56.448852255924
 21
15.11617509420773
 31
0.0
 11
56.28489307739129
 21
15.04511984878358
 31
0.0
 11
56.11784044090921
 21
15.01113689615569
 31
0.0
 11
55.9940975894895
 21
15.03894116844682
 31
0.0
 11
55.9291326371417
 21
15.11308575403936
 31
0.0
 11
55.90129055395753
 21
15.15633679743096
 31
0.0
 11
55.83941919693625
 21
15.15015804683563
 31
0.0
 11
55.79920286982325
 21
15.11308575403936
 31
0.0
 11
55.79610927449675
 21
15.04820925921054
 31
0.0
 11
55.82704495300742
 21
14.94934974149524
 31
0.0
 11
55.92294558386585
 21
14.85666897437528
 31
0.0
 11
56.07143692314322
 21
14.79179247954646
 31
0.0
 11
56.26014458953362
 21
14.76707761768229
 31
0.0
 11
56.46432009517933
 21
14.79488181971484
 31
0.0
 11
56.66540200549853
 21
14.86284772497062
 31
0.0
 11
56.7582090410305
 21
14.94934974149524
 31
0.0
 11
56.84792248123596
 21
15.09146023234356
 31
0.0
 11
56.97166533265566
 21
15.25828558505606
 31
0.0
 11
57.37692274862057
 21
15.684617057601
 31
0.0
  0
SPLINE
  5
F300
330
18
100
AcDbEntity
  8
0
100
AcDbSpline
210
0.0
220
0.0
230
1.0
 70
     8
 71
     3
 72
    19
 73
    15
 74
    13
 42
0.0000000001
 43
0.0000000001
 44
0.0000000001
 40
0.0
 40
0.0
 40
0.0
 40
0.0
 40
0.1645124378519377
 40
0.3915957144641877
 40
0.5554485796575881
 40
0.6079835089877675
 40
0.707170367535961
 40
0.8316502082257088
 40
1.089810082554874
 40
1.310603561973346
 40
1.506901568347158
 40
1.792973262626173
 40
1.961671550275536
 40
2.077187345317119
 40
2.077187345317119
 40
2.077187345317119
 40
2.077187345317119
 10
56.77715032334434
 20
14.9667381788051
 30
0.0
 10
56.74894729291596
 20
14.91928400688217
 30
0.0
 10
56.68181446092548
 20
14.80632689189983
 30
0.0
 10
56.64501851915503
 20
14.62330286519664
 30
0.0
 10
56.61632453459223
 20
14.47625468021764
 30
0.0
 10
56.66133477277435
 20
14.36936287236855
 30
0.0
 10
56.77533940442733
 20
14.38137482791194
 30
0.0
 10
56.90508926926526
 20
14.46437456058148
 30
0.0
 10
57.08049740745899
 20
14.57131001952424
 30
0.0
 10
57.23822404439541
 20
14.73375031526977
 30
0.0
 10
57.36725391192224
 20
14.9309486536387
 30
0.0
 10
57.45075214181492
 20
15.13202421215755
 30
0.0
 10
57.54733567079647
 20
15.29605581288591
 30
0.0
 10
57.58778769401549
 20
15.38176000245231
 30
0.0
 10
57.60422898917913
 20
15.41659355996791
 30
0.0
 11
56.77715032334434
 21
14.9667381788051
 31
0.0
 11
56.69981112706771
 21
14.82153834778842
 31
0.0
 11
56.64103322799578
 21
14.60219393117919
 31
0.0
 11
56.63484617471993
 21
14.43845791863506
 31
0.0
 11
56.65959466257759
 21
14.39211753507509
 31
0.0
 11
56.75858888876253
 21
14.38593885473833
 31
0.0
 11
56.86995735887627
 21
14.44154725880344
 31
0.0
 11
57.08341351312434
 21
14.58674708982013
 31
0.0
 11
57.23809204305469
 21
14.7443044220275
 31
0.0
 11
57.34636691784196
 21
14.90804036431304
 31
0.0
 11
57.47320322721105
 21
15.16445714397711
 31
0.0
 11
57.55363601881417
 21
15.31274631516218
 31
0.0
 11
57.60422898917913
 21
15.41659355996791
 31
0.0
  0
SPLINE
  5
F301
330
18
100
AcDbEntity
  8
0
100
AcDbSpline
210
0.0
220
0.0
230
1.0
 70
     8
 71
     3
 72
     9
 73
     5
 74
     3
 42
0.0000000001
 43
0.0000000001
 44
0.0000000001
 40
0.0
 40
0.0
 40
0.0
 40
0.0
 40
0.1015223348022447
 40
0.2746811773968563
 40
0.2746811773968563
 40
0.2746811773968563
 40
0.2746811773968563
 10
58.23420981850187
 20
16.67408660282372
 30
0.0
 10
58.24396242069835
 20
16.64083899915979
 30
0.0
 10
58.27034928679271
 20
16.55088351362236
 30
0.0
 10
58.23226524130424
 20
16.46313602413048
 30
0.0
 10
58.20825708282537
 20
16.4078200615844
 30
0.0
 11
58.23420981850187
 21
16.67408660282372
 31
0.0
 11
58.25466060059135
 21
16.57464541429689
 31
0.0
 11
58.20825708282537
 21
16.4078200615844
 31
0.0
  0
SPLINE
  5
F302
330
18
100
AcDbEntity
  8
0
100
AcDbSpline
210
0.0
220
0.0
230
1.0
 70
     8
 71
     3
 72
    41
 73
    37
 74
    35
 42
0.0000000001
 43
0.0000000001
 44
0.0000000001
 40
0.0
 40
0.0
 40
0.0
 40
0.0
 40
0.0735189741644832
 40
0.2240528953874175
 40
0.2988775747170523
 40
0.359579201362262
 40
0.4371487727374028
 40
0.5264273296000347
 40
0.6488431469762805
 40
0.7997524947655349
 40
0.9661299370982618
 40
1.075833435938059
 40
1.161391864713281
 40
1.214739816716731
 40
1.304568431400504
 40
1.381001126270011
 40
1.453082675201264
 40
1.610039765212964
 40
1.825904590041996
 40
2.086266678930569
 40
2.396039865756169
 40
2.639471508109596
 40
2.840056778949686
 40
2.983807716092636
 40
3.139386846161208
 40
3.272505558192766
 40
3.358430269058717
 40
3.416149905819853
 40
3.46758758024723
 40
3.520051397383084
 40
3.670585454118964
 40
3.839025923464363
 40
4.081832362105891
 40
4.348164818310475
 40
4.577110856568619
 40
4.759785360254075
 40
4.759785360254075
 40
4.759785360254075
 40
4.759785360254075
 10
58.24537981461189
 20
16.49123273794065
 30
0.0
 10
58.26754129525534
 20
16.50212140173015
 30
0.0
 10
58.3350795595016
 20
16.53530517063691
 30
0.0
 10
58.444674884222
 20
16.5193370640566
 30
0.0
 10
58.51967880360838
 20
16.44439655154983
 30
0.0
 10
58.49792615712924
 20
16.36240570858312
 30
0.0
 10
58.41678102956059
 20
16.34342715514595
 30
0.0
 10
58.31969823577995
 20
16.33236914351197
 30
0.0
 10
58.23915814212657
 20
16.22963242988152
 30
0.0
 10
58.1654434718154
 20
16.10665344845075
 30
0.0
 10
58.05707654341123
 20
16.00716664883875
 30
0.0
 10
57.94876731122249
 20
15.95591668258246
 30
0.0
 10
57.85207271264418
 20
15.96286618683379
 30
0.0
 10
57.81932466423224
 20
15.88527224959965
 30
0.0
 10
57.78637830895437
 20
15.82637462897113
 30
0.0
 10
57.74976923123612
 20
15.74258545738118
 30
0.0
 10
57.83123749771959
 20
15.66265632825657
 30
0.0
 10
57.83525701263677
 20
15.50584000344574
 30
0.0
 10
57.80143897113135
 20
15.2992689512135
 30
0.0
 10
57.70125080871074
 20
15.053969472448
 30
0.0
 10
57.56619434266915
 20
14.81940571584915
 30
0.0
 10
57.43799420258627
 20
14.60239931324046
 30
0.0
 10
57.36539122338438
 20
14.42051629481269
 30
0.0
 10
57.33473900043453
 20
14.25197836771706
 30
0.0
 10
57.36159683367413
 20
14.11631823930215
 30
0.0
 10
57.38287192090224
 20
13.97128886701994
 30
0.0
 10
57.48921704283219
 20
13.95488045358933
 30
0.0
 10
57.51192791158293
 20
13.87910248554476
 30
0.0
 10
57.47300912183438
 20
13.83760738640407
 30
0.0
 10
57.41831833827515
 20
13.76788606595597
 30
0.0
 10
57.26707082797982
 20
13.81948021887562
 30
0.0
 10
57.14853750352864
 20
13.96141163793065
 30
0.0
 10
57.09995443726075
 20
14.19176591556776
 30
0.0
 10
57.11285124147222
 20
14.44059344534766
 30
0.0
 10
57.20528387532577
 20
14.64986587786022
 30
0.0
 10
57.2693637962015
 20
14.77091516638678
 30
0.0
 10
57.29780204587415
 20
14.82463604872821
 30
0.0
 11
58.24537981461189
 21
16.49123273794065
 31
0.0
 11
58.31343836228616
 21
16.5190369399732
 31
0.0
 11
58.46192956418644
 21
16.49432207810902
 31
0.0
 11
58.50833321932952
 21
16.43562426361696
 31
0.0
 11
58.49286538007421
 21
16.37692644912488
 31
0.0
 11
58.42171323707344
 21
16.34603290692395
 31
0.0
 11
58.33509339219445
 21
16.32440738522815
 31
0.0
 11
58.24847340993837
 21
16.23790529844494
 31
0.0
 11
58.16185342768228
 21
16.11433098912405
 31
0.0
 11
58.03811071363968
 21
16.00311411073525
 31
0.0
 11
57.93602302950539
 21
15.96295240751202
 31
0.0
 11
57.85249664257579
 21
15.94441629624319
 31
0.0
 11
57.82441140189227
 21
15.89905967336723
 31
0.0
 11
57.78419507477927
 21
15.81873640743795
 31
0.0
 11
57.76563364019747
 21
15.74459175158684
 31
0.0
 11
57.80275637198399
 21
15.68280459692639
 31
0.0
 11
57.83059859254525
 21
15.52833667514598
 31
0.0
 11
57.7965693187081
 21
15.31517093887351
 31
0.0
 11
57.70296673228422
 21
15.07221626584749
 31
0.0
 11
57.55447553038395
 21
14.80035271508295
 31
0.0
 11
57.43691986961723
 21
14.58718697881048
 31
0.0
 11
57.36563969114222
 21
14.39969408018612
 31
0.0
 11
57.34398466123393
 21
14.25758358933781
 31
0.0
 11
57.36254609581575
 21
14.1031156675574
 31
0.0
 11
57.4120432089082
 21
13.97954128797792
 31
0.0
 11
57.48628880985832
 21
13.93629031484491
 31
0.0
 11
57.50175664911366
 21
13.88068184052122
 31
0.0
 11
57.47391456592949
 21
13.83743079712961
 31
0.0
 11
57.43679183414299
 21
13.80035850433334
 31
0.0
 11
57.2883004948656
 21
13.82507336619753
 31
0.0
 11
57.17383842942535
 21
13.94864774577699
 31
0.0
 11
57.11196707240405
 21
14.18343893348668
 31
0.0
 11
57.13052850698587
 21
14.44912380391447
 31
0.0
 11
57.21405489391547
 21
14.66228954018695
 31
0.0
 11
57.29780204587415
 21
14.82463604872821
 31
0.0
  0
LINE
  5
F303
330
18
100
AcDbEntity
  8
0
100
AcDbLine
 10
56.87370912797643
 20
14.67415480974269
 30
0.0
 11
57.66339085729665
 21
15.77794455498068
 31
0.0
  0
LINE
  5
F304
330
18
100
AcDbEntity
  8
0
100
AcDbLine
 10
58.05959306051033
 20
16.46569774763306
 30
0.0
 11
57.82138828102747
 21
16.02083016381927
 31
0.0
  0
SPLINE
  5
F305
330
18
100
AcDbEntity
  8
0
100
AcDbSpline
210
0.0
220
0.0
230
1.0
 70
    24
 71
     3
 72
     8
 73
     4
 74
     2
 42
0.0000000001
 43
0.0000000001
 44
0.0000000001
 40
0.0
 40
0.0
 40
0.0
 40
0.0
 40
0.1110078904350121
 40
0.1110078904350121
 40
0.1110078904350121
 40
0.1110078904350121
 10
58.01645582110849
 20
16.6642367709899
 30
0.0
 10
58.00196303884632
 20
16.6301904217003
 30
0.0
 10
57.98747025658417
 20
16.5961440724107
 30
0.0
 10
57.972977474322
 20
16.5620977231211
 30
0.0
 11
58.01645582110849
 21
16.6642367709899
 31
0.0
 11
57.972977474322
 21
16.5620977231211
 31
0.0
  0
SPLINE
  5
F306
330
18
100
AcDbEntity
  8
0
100
AcDbSpline
210
0.0
220
0.0
230
1.0
 70
     8
 71
     3
 72
     9
 73
     5
 74
     3
 42
0.0000000001
 43
0.0000000001
 44
0.0000000001
 40
0.0
 40
0.0
 40
0.0
 40
0.0
 40
0.1749283879083454
 40
0.2792814350153583
 40
0.2792814350153583
 40
0.2792814350153583
 40
0.2792814350153583
 10
57.54092973439044
 20
15.9190884282393
 30
0.0
 10
57.57587627311112
 20
15.8674288442858
 30
0.0
 10
57.63167007307367
 20
15.78495187807495
 30
0.0
 10
57.72776206170957
 20
15.77464888365186
 30
0.0
 10
57.76366667461797
 20
15.77079918679564
 30
0.0
 11
57.54092973439044
 21
15.9190884282393
 31
0.0
 11
57.66157899048367
 21
15.79242470849145
 31
0.0
 11
57.76366667461797
 21
15.77079918679564
 31
0.0
  0
SPLINE
  5
F307
330
18
100
AcDbEntity
  8
0
100
AcDbSpline
210
0.0
220
0.0
230
1.0
 70
     8
 71
     3
 72
    17
 73
    13
 74
    11
 42
0.0000000001
 43
0.0000000001
 44
0.0000000001
 40
0.0
 40
0.0
 40
0.0
 40
0.0
 40
0.6309501362374024
 40
1.404967271634435
 40
1.665740877316729
 40
1.88234970308138
 40
2.017308717379764
 40
2.09475199657513
 40
2.207652499481216
 40
2.343349587202779
 40
2.548743690076394
 40
2.792556340244572
 40
2.792556340244572
 40
2.792556340244572
 40
2.792556340244572
 10
56.99062777104571
 20
14.51865113592657
 30
0.0
 10
56.88746007419299
 20
14.33584459089013
 30
0.0
 10
56.65773155961911
 20
13.92878039030467
 30
0.0
 10
56.38622280567693
 20
13.43742503327322
 30
0.0
 10
56.27864959724818
 20
13.03483239319791
 30
0.0
 10
56.27089354820546
 20
12.82321386860866
 30
0.0
 10
56.35485444224794
 20
12.69414758010349
 30
0.0
 10
56.29970728098612
 20
12.5749266078058
 30
0.0
 10
56.16113894836804
 20
12.6140401596905
 30
0.0
 10
56.10518829133129
 20
12.76129385223795
 30
0.0
 10
56.08146506115512
 20
12.95635441010158
 30
0.0
 10
56.11332390043582
 20
13.10394283098225
 30
0.0
 10
56.1306156886463
 20
13.18404831422663
 30
0.0
 11
56.99062777104571
 21
14.51865113592657
 31
0.0
 11
56.68127084856211
 21
13.96874535406074
 31
0.0
 11
56.34716557559794
 21
13.27055040100983
 31
0.0
 11
56.28529408119952
 21
13.01722296151412
 31
0.0
 11
56.29766846250548
 21
12.80096788507328
 31
0.0
 11
56.33479119429201
 21
12.67121489541563
 31
0.0
 11
56.29766846250548
 21
12.60324899015985
 31
0.0
 11
56.18629999239174
 21
12.6217851014287
 31
0.0
 11
56.11824144471744
 21
12.73918073041282
 31
0.0
 11
56.09349295685977
 21
12.94307837592159
 31
0.0
 11
56.1306156886463
 21
13.18404831422663
 31
0.0
  0
SPLINE
  5
F308
330
18
100
AcDbEntity
  8
0
100
AcDbSpline
210
0.0
220
0.0
230
1.0
 70
     8
 71
     3
 72
    19
 73
    15
 74
    13
 42
0.0000000001
 43
0.0000000001
 44
0.0000000001
 40
0.0
 40
0.0
 40
0.0
 40
0.0
 40
0.3932982156721296
 40
0.8916094331459712
 40
1.294741111528299
 40
1.53151860809051
 40
1.729892192453199
 40
1.822699227985161
 40
1.899131854699304
 40
2.045650808318969
 40
2.192283461098161
 40
2.384482394746156
 40
2.544943886352116
 40
2.767952262640203
 40
2.767952262640203
 40
2.767952262640203
 40
2.767952262640203
 10
56.65652236070444
 20
14.37654064507826
 30
0.0
 10
56.59062839584236
 20
14.2627278777816
 30
0.0
 10
56.44124637904879
 20
14.00471364611076
 30
0.0
 10
56.22203503771569
 20
13.64204785869161
 30
0.0
 10
56.05051391645488
 20
13.27700212636748
 30
0.0
 10
55.76077563585733
 20
13.18335417293161
 30
0.0
 10
55.60164709138595
 20
13.19543848103058
 30
0.0
 10
55.45108756335036
 20
13.23352472521455
 30
0.0
 10
55.43359098721222
 20
13.10208416793461
 30
0.0
 10
55.50294542032929
 20
12.99562480163404
 30
0.0
 10
55.65352645517419
 20
12.91684609354605
 30
0.0
 10
55.8276511199207
 20
12.93539748225926
 30
0.0
 10
56.00045891897021
 20
13.02647518747875
 30
0.0
 10
56.08275568682956
 20
13.12610703194688
 30
0.0
 10
56.1306156886463
 20
13.18404831422663
 30
0.0
 11
56.65652236070444
 21
14.37654064507826
 31
0.0
 11
56.45853390833458
 21
14.03671118905794
 31
0.0
 11
56.2110484802494
 21
13.60420103617623
 31
0.0
 11
55.97593729609305
 21
13.27672908134658
 31
0.0
 11
55.75320035586553
 21
13.19640574515871
 31
0.0
 11
55.55521204087281
 21
13.2087631760908
 31
0.0
 11
55.46240500534084
 21
13.2087631760908
 31
0.0
 11
55.44384357075903
 21
13.13461859049826
 31
0.0
 11
55.51190198105619
 21
13.00486553058204
 31
0.0
 11
55.64183188575175
 21
12.93689969558484
 31
0.0
 11
55.83363314746863
 21
12.94925712651692
 31
0.0
 11
55.97593729609305
 21
13.02340171210946
 31
0.0
 11
56.1306156886463
 21
13.18404831422663
 31
0.0
  0
SPLINE
  5
F309
330
18
100
AcDbEntity
  8
0
100
AcDbSpline
210
0.0
220
0.0
230
1.0
 70
     8
 71
     3
 72
    43
 73
    39
 74
    37
 42
0.0000000001
 43
0.0000000001
 44
0.0000000001
 40
0.0
 40
0.0
 40
0.0
 40
0.0
 40
0.4030419214868977
 40
0.7518262119810877
 40
0.9876669610916257
 40
1.240010606536553
 40
1.465520949591817
 40
1.61037385906181
 40
1.736560560720855
 40
1.841840119745996
 40
1.925889597440904
 40
1.994988637724462
 40
2.081150399869082
 40
2.353906468715038
 40
2.712812244734116
 40
3.023386297536104
 40
3.243086443515269
 40
3.409618968066995
 40
3.526995673714447
 40
3.690289352631347
 40
3.974577600413162
 40
4.534452113566316
 40
4.920717021893236
 40
5.176782506667684
 40
5.281932130690249
 40
5.364473159191494
 40
5.464312138599519
 40
5.533411116059006
 40
5.67035063880049
 40
5.783105775678082
 40
5.933589515044298
 40
6.079877656512271
 40
6.35836731285295
 40
6.627998815808738
 40
6.936859778309874
 40
7.27495865027605
 40
7.779255933066215
 40
8.086547565116434
 40
8.086547565116434
 40
8.086547565116434
 40
8.086547565116434
 10
55.51672803922127
 20
12.47520454873205
 30
0.0
 10
55.43076379095042
 20
12.3755664873447
 30
0.0
 10
55.27040782870999
 20
12.18970367191938
 30
0.0
 10
55.02247584868001
 20
11.92797085830538
 30
0.0
 10
54.72443037857804
 20
11.96492827193954
 30
0.0
 10
54.51313980509873
 20
12.10110092187982
 30
0.0
 10
54.45859003328557
 20
12.32727820995551
 30
0.0
 10
54.5753854939056
 20
12.48975429141812
 30
0.0
 10
54.70707487450742
 20
12.45240068902675
 30
0.0
 10
54.80835551811357
 20
12.36515841704612
 30
0.0
 10
54.73808065017717
 20
12.28717138978572
 30
0.0
 10
54.78555944209944
 20
12.18811027642686
 30
0.0
 10
54.93271384394359
 20
12.29660522930017
 30
0.0
 10
55.12803501212534
 20
12.38434855804135
 30
0.0
 10
55.31569139626636
 20
12.66803055657279
 30
0.0
 10
55.54816233265507
 20
12.83399644287614
 30
0.0
 10
55.80332489435006
 20
12.9211158449844
 30
0.0
 10
55.92620245418665
 20
12.77879478815156
 30
0.0
 10
56.08856684893281
 20
12.76877068125997
 30
0.0
 10
56.1705356065007
 20
12.56559184131717
 30
0.0
 10
56.12473696894743
 20
12.23761372798014
 30
0.0
 10
56.04536787292932
 20
11.83170542583445
 30
0.0
 10
55.95363537648505
 20
11.44445731412621
 30
0.0
 10
56.01586759863232
 20
11.17604345141057
 30
0.0
 10
56.14803253810427
 20
11.09274199253479
 30
0.0
 10
56.26014338356455
 20
11.11213650281271
 30
0.0
 10
56.27219264268088
 20
11.2037960548372
 30
0.0
 10
56.30800081547185
 20
11.31396689991587
 30
0.0
 10
56.46393851437669
 20
11.24997212898038
 30
0.0
 10
56.46169457056894
 20
11.10657809879532
 30
0.0
 10
56.4192626976662
 20
10.97652492015052
 30
0.0
 10
56.2755823381561
 20
10.82974438380117
 30
0.0
 10
56.01247938937033
 20
10.8623544727615
 30
0.0
 10
55.77591728321046
 20
11.03648018008946
 30
0.0
 10
55.6715369240784
 20
11.34679860770063
 30
0.0
 10
55.75184838446293
 20
11.72892731610648
 30
0.0
 10
55.8815245449946
 20
12.08819652784227
 30
0.0
 10
55.94934064455736
 20
12.35037526779139
 30
0.0
 10
55.9750178310404
 20
12.44964391404154
 30
0.0
 11
55.51672803922127
 21
12.47520454873205
 31
0.0
 11
55.25068117655426
 21
12.17244745576659
 31
0.0
 11
54.97225993258131
 21
11.96237105966249
 31
0.0
 11
54.73714874842496
 21
11.98090724118991
 31
0.0
 11
54.53297324277925
 21
12.12919641237498
 31
0.0
 11
54.49585037361562
 21
12.35163023941116
 31
0.0
 11
54.58865754652468
 21
12.46284711779997
 31
0.0
 11
54.71240026056726
 21
12.43813225593578
 31
0.0
 11
54.78045867086443
 21
12.35780891974791
 31
0.0
 11
54.75571018300676
 21
12.27748565381863
 31
0.0
 11
54.78664586151741
 21
12.2156984288996
 31
0.0
 11
54.86707865312052
 21
12.24659204135911
 31
0.0
 11
55.09600264662392
 21
12.39488121254417
 31
0.0
 11
55.33730102143325
 21
12.66056608297197
 31
0.0
 11
55.59097364017141
 21
12.83974879635798
 31
0.0
 11
55.80752338974595
 21
12.87682115941283
 31
0.0
 11
55.94982753837037
 21
12.79031907262961
 31
0.0
 11
56.06119600848412
 21
12.75324677983334
 31
0.0
 11
56.14162880008722
 21
12.61113628898504
 31
0.0
 11
56.13544160943426
 21
12.32691537754698
 31
0.0
 11
56.03026032997347
 21
11.77700959568115
 31
0.0
 11
55.98076321688101
 21
11.3939291665278
 31
0.0
 11
56.06738319913709
 21
11.15295922822277
 31
0.0
 11
56.16019023466903
 21
11.10352950449442
 31
0.0
 11
56.24062302627216
 21
11.12206561576326
 31
0.0
 11
56.27774575805865
 21
11.21474638288322
 31
0.0
 11
56.3086814365693
 21
11.27653353754365
 31
0.0
 11
56.43861134126488
 21
11.23328249415206
 31
0.0
 11
56.4571727758467
 21
11.12206561576326
 31
0.0
 11
56.40767566275425
 21
10.97995512491493
 31
0.0
 11
56.30209653915891
 21
10.87869669812983
 31
0.0
 11
56.02367543256308
 21
10.88487537846657
 31
0.0
 11
55.80712568298854
 21
11.04552205084232
 31
0.0
 11
55.70194426615064
 21
11.3359217128757
 31
0.0
 11
55.74609383753703
 21
11.67112562480275
 31
0.0
 11
55.8945850394373
 21
12.1530655716714
 31
0.0
 11
55.9750178310404
 21
12.44964391404154
 31
0.0
  0
SPLINE
  5
F30A
330
18
100
AcDbEntity
  8
0
100
AcDbSpline
210
0.0
220
0.0
230
1.0
 70
     8
 71
     3
 72
    22
 73
    18
 74
    16
 42
0.0000000001
 43
0.0000000001
 44
0.0000000001
 40
0.0
 40
0.0
 40
0.0
 40
0.0
 40
0.6606475205677328
 40
1.387068068881113
 40
1.832322778562662
 40
2.143152559772922
 40
2.453154179313089
 40
2.744539844385442
 40
2.972574738817653
 40
3.132999450881809
 40
3.213669210121418
 40
3.310261454848824
 40
3.389429735653197
 40
3.479506623493607
 40
3.664959138341515
 40
3.885508469485704
 40
4.072514797668243
 40
4.072514797668243
 40
4.072514797668243
 40
4.072514797668243
 10
55.91933366467209
 20
12.61029058641728
 30
0.0
 10
55.8172302591933
 20
12.41525865357
 30
0.0
 10
55.60285819382638
 20
12.0057777154865
 30
0.0
 10
55.33795939370207
 20
11.45389083578749
 30
0.0
 10
55.27709067509768
 20
10.9435975630745
 30
0.0
 10
55.45204687645049
 20
10.60769294361663
 30
0.0
 10
55.72876491902238
 20
10.46365483093234
 30
0.0
 10
56.0409545861947
 20
10.45149101873048
 30
0.0
 10
56.18072799586299
 20
10.65603638721816
 30
0.0
 10
56.15800494186598
 20
10.85781996270016
 30
0.0
 10
56.02514341689489
 20
10.86395125416885
 30
0.0
 10
55.96247594624486
 20
10.80340121561804
 30
0.0
 10
55.91962921677494
 20
10.70684100869229
 30
0.0
 10
55.78344472158057
 20
10.76907721704638
 30
0.0
 10
55.70169976959336
 20
10.90876612389407
 30
0.0
 10
55.65764858482541
 20
11.10986475920667
 30
0.0
 10
55.68434042145611
 20
11.24388039779551
 30
0.0
 10
55.69658793230899
 20
11.30537328083618
 30
0.0
 11
55.91933366467209
 21
12.61029058641728
 31
0.0
 11
55.61616393284144
 21
12.02331251175518
 31
0.0
 11
55.34392987952147
 21
11.34983242056844
 31
0.0
 11
55.32536844493965
 21
10.90496476649606
 31
0.0
 11
55.47385099208146
 21
10.63189318964944
 31
0.0
 11
55.74608490802434
 21
10.48360394820579
 31
0.0
 11
56.03688039592613
 21
10.50214012973322
 31
0.0
 11
56.16062310996873
 21
10.69368034430989
 31
0.0
 11
56.11731318752926
 21
10.84814826609029
 31
0.0
 11
56.03688039592613
 21
10.85432694642705
 31
0.0
 11
55.96263479497601
 21
10.7925397917666
 31
0.0
 11
55.91313768188356
 21
10.73075263710616
 31
0.0
 11
55.82651769962744
 21
10.75546749897033
 31
0.0
 11
55.7151492295137
 21
10.90375674041399
 31
0.0
 11
55.67183930707422
 21
11.12001181685484
 31
0.0
 11
55.69658793230899
 21
11.30537328083618
 31
0.0
  0
SPLINE
  5
F30C
330
18
100
AcDbEntity
  8
0
100
AcDbSpline
210
0.0
220
0.0
230
1.0
 70
     8
 71
     3
 72
    22
 73
    18
 74
    16
 42
0.0000000001
 43
0.0000000001
 44
0.0000000001
 40
0.0
 40
0.0
 40
0.0
 40
0.0
 40
0.2982681862372978
 40
0.7124271321046783
 40
1.011589537498371
 40
1.293524014428886
 40
1.429313061692081
 40
1.556759616437639
 40
1.63224946723973
 40
1.745921241666886
 40
1.875821733913067
 40
2.040413908248382
 40
2.220763423448323
 40
2.469846859603078
 40
2.823999127301552
 40
3.282594922380175
 40
3.581487579663621
 40
3.581487579663621
 40
3.581487579663621
 40
3.581487579663621
 10
55.25730110512983
 20
11.06440334253115
 30
0.0
 10
55.23143190590906
 20
10.9681764605924
 30
0.0
 10
55.16964214668869
 20
10.73833417537979
 30
0.0
 10
55.15926222334542
 20
10.39805101357867
 30
0.0
 10
55.22680373136232
 20
10.06600094667878
 30
0.0
 10
55.29241008267945
 20
9.853198243436096
 30
0.0
 10
55.48433083706966
 20
9.699321465921558
 30
0.0
 10
55.53416472669744
 20
9.834182673151506
 30
0.0
 10
55.62638654049568
 20
9.915208602638852
 30
0.0
 10
55.71882898044736
 20
9.798807343012072
 30
0.0
 10
55.69493115693013
 20
9.662866080596039
 30
0.0
 10
55.60498855767021
 20
9.523279189522877
 30
0.0
 10
55.40687700332001
 20
9.445601127326249
 30
0.0
 10
55.14351716187742
 20
9.53114762295819
 30
0.0
 10
54.88446510412341
 20
9.800619128207625
 30
0.0
 10
54.83566372069252
 20
10.1818769298434
 30
0.0
 10
54.80459014463898
 20
10.43101657287279
 30
0.0
 10
54.79232901552343
 20
10.52932303511323
 30
0.0
 11
55.25730110512983
 21
11.06440334253115
 31
0.0
 11
55.18924269483266
 21
10.77400368049775
 31
0.0
 11
55.17686831352669
 21
10.36002963888491
 31
0.0
 11
55.2316157053255
 21
10.0659193400306
 31
0.0
 11
55.3553585567452
 21
9.812591970793477
 31
0.0
 11
55.47291408013482
 21
9.744626065537701
 31
0.0
 11
55.55334687173793
 21
9.843485512994405
 31
0.0
 11
55.61521822875924
 21
9.886736556386011
 31
0.0
 11
55.69565102036235
 21
9.806413220198137
 31
0.0
 11
55.68946382970937
 21
9.676660160281912
 31
0.0
 11
55.59665679417744
 21
9.540728420028941
 31
0.0
 11
55.42960415769535
 21
9.472762514773151
 31
0.0
 11
55.18830578288602
 21
9.534549669433602
 31
0.0
 11
54.9408203548008
 21
9.787877108929308
 31
0.0
 11
54.82945188468706
 21
10.23274469274309
 31
0.0
 11
54.79232901552343
 21
10.52932303511323
 31
0.0
  0
SPLINE
  5
F30D
330
18
100
AcDbEntity
  8
0
100
AcDbSpline
210
0.0
220
0.0
230
1.0
 70
     8
 71
     3
 72
    21
 73
    17
 74
    15
 42
0.0000000001
 43
0.0000000001
 44
0.0000000001
 40
0.0
 40
0.0
 40
0.0
 40
0.0
 40
0.4023301345034444
 40
0.8105156019640265
 40
1.179200970733295
 40
1.522616205374331
 40
1.662780944644187
 40
1.820514463314801
 40
1.926419173541735
 40
2.053822854450371
 40
2.159102448679627
 40
2.29144646964529
 40
2.42252043125231
 40
2.715558402303662
 40
3.297516170709317
 40
4.466928569585198
 40
4.466928569585198
 40
4.466928569585198
 40
4.466928569585198
 10
55.04578952399099
 20
11.98517018073453
 30
0.0
 10
54.94433498487023
 20
11.8970080371652
 30
0.0
 10
54.73994938261117
 20
11.71940067759289
 30
0.0
 10
54.52270655057192
 20
11.38096289924719
 30
0.0
 10
54.43653561465698
 20
11.01500117995158
 30
0.0
 10
54.44792027766762
 20
10.7187697598502
 30
0.0
 10
54.58977420791592
 20
10.53478305375496
 30
0.0
 10
54.7295475716048
 20
10.52953628797668
 30
0.0
 10
54.87037034460307
 20
10.51670749502475
 30
0.0
 10
54.93145106304123
 20
10.66011145035618
 30
0.0
 10
54.83008057260306
 20
10.74807132559395
 30
0.0
 10
54.71054042492314
 20
10.80150139999789
 30
0.0
 10
54.69848079069311
 20
11.01359285705947
 30
0.0
 10
54.91741414556233
 20
11.27995289347828
 30
0.0
 10
55.22188629851872
 20
11.88769865289671
 30
0.0
 10
55.57678446690285
 20
12.35456392859814
 30
0.0
 10
55.81375454107678
 20
12.66629588121972
 30
0.0
 11
55.04578952399099
 21
11.98517018073453
 31
0.0
 11
54.75499403608917
 21
11.70712787937464
 31
0.0
 11
54.53844428651463
 21
11.36111981327615
 31
0.0
 11
54.45182430425855
 21
11.00275424598698
 31
0.0
 11
54.501321417351
 21
10.66292478996665
 31
0.0
 11
54.59412845288297
 21
10.55788666217319
 31
0.0
 11
54.74880698281332
 21
10.52699304971368
 31
0.0
 11
54.85398826227411
 21
10.53935048064576
 31
0.0
 11
54.90348537536657
 21
10.6567461096299
 31
0.0
 11
54.8354268276923
 21
10.73706937555918
 31
0.0
 11
54.73024554823151
 21
10.81739271174706
 31
0.0
 11
54.7116841136497
 21
10.94714577166328
 31
0.0
 11
54.84780107162113
 21
11.20665189149574
 31
0.0
 11
55.14478361279877
 21
11.70712787937464
 31
0.0
 11
55.81375454107678
 21
12.66629588121972
 31
0.0
  0
SPLINE
  5
F30E
330
18
100
AcDbEntity
  8
0
100
AcDbSpline
210
0.0
220
0.0
230
1.0
 70
     8
 71
     3
 72
    10
 73
     6
 74
     4
 42
0.0000000001
 43
0.0000000001
 44
0.0000000001
 40
0.0
 40
0.0
 40
0.0
 40
0.0
 40
0.6467842138701006
 40
0.8506045406539424
 40
0.9927150315022668
 40
0.9927150315022668
 40
0.9927150315022668
 40
0.9927150315022668
 10
55.13312524103328
 20
11.68163637913014
 30
0.0
 10
55.0275800585668
 20
11.49341201283771
 30
0.0
 10
54.88877455044697
 20
11.24587272972497
 30
0.0
 10
54.79142651439709
 20
10.92442578044491
 30
0.0
 10
54.79680876804817
 20
10.80859258328313
 30
0.0
 10
54.79901983069201
 20
10.76100759904304
 30
0.0
 11
55.13312524103328
 21
11.68163637913014
 31
0.0
 11
54.84851694378447
 21
11.10083698480478
 31
0.0
 11
54.79901983069201
 21
10.90311808989136
 31
0.0
 11
54.79901983069201
 21
10.76100759904304
 31
0.0
  0
CIRCLE
  5
F328
330
18
100
AcDbEntity
  8
0
100
AcDbCircle
 10
56.73711233172173
 20
19.34199621548678
 30
0.0
 40
0.182898946860753
  0
SPLINE
  5
F329
330
18
100
AcDbEntity
  8
0
100
AcDbSpline
210
0.0
220
0.0
230
1.0
 70
     8
 71
     3
 72
    17
 73
    13
 74
    11
 42
0.0000000001
 43
0.0000000001
 44
0.0000000001
 40
0.0
 40
0.0
 40
0.0
 40
0.0
 40
0.1642180430238032
 40
0.3161341071036475
 40
0.4973047023983871
 40
0.6590424022297114
 40
0.8509347334946486
 40
1.059005380907193
 40
1.263634033424658
 40
1.403854651909193
 40
1.609324559187139
 40
1.775657351382495
 40
1.775657351382495
 40
1.775657351382495
 40
1.775657351382495
 10
56.55606176728347
 20
19.33393346994703
 30
0.0
 10
56.50155434372407
 20
19.33055876667818
 30
0.0
 10
56.3966227822453
 20
19.32406216749217
 30
0.0
 10
56.22997323465399
 20
19.30410267373415
 30
0.0
 10
56.06834466321626
 20
19.39133075220812
 30
0.0
 10
56.01442900641882
 20
19.57699026153582
 30
0.0
 10
56.08099581229772
 20
19.76007987181992
 30
0.0
 10
56.20900087633876
 20
19.91968168976919
 30
0.0
 10
56.4167174849412
 20
19.97656387319087
 30
0.0
 10
56.56574356926497
 20
19.84067057327452
 30
0.0
 10
56.60235509019493
 20
19.67084692476743
 30
0.0
 10
56.65096154632102
 20
19.55689343830995
 30
0.0
 10
56.67270654058177
 20
19.50591424528709
 30
0.0
 11
56.55606176728347
 21
19.33393346994703
 31
0.0
 11
56.39226784763256
 21
19.32213866007329
 31
0.0
 11
56.24036325725739
 21
19.32027159058772
 31
0.0
 11
56.08361272539355
 21
19.41111241488966
 31
0.0
 11
56.03369308232572
 21
19.56495360827657
 31
0.0
 11
56.08766012271972
 21
19.74910090081546
 31
0.0
 11
56.22692853158374
 21
19.9036897251436
 31
0.0
 11
56.42817974531014
 21
19.94071450609862
 31
0.0
 11
56.5367387696418
 21
19.85196339295437
 31
0.0
 11
56.61187885153847
 21
19.66072571128737
 31
0.0
 11
56.67270654058177
 21
19.50591424528709
 31
0.0
  0
SPLINE
  5
F32A
330
18
100
AcDbEntity
  8
0
100
AcDbSpline
210
0.0
220
0.0
230
1.0
 70
     8
 71
     3
 72
    16
 73
    12
 74
    10
 42
0.0000000001
 43
0.0000000001
 44
0.0000000001
 40
0.0
 40
0.0
 40
0.0
 40
0.0
 40
0.119485933327953
 40
0.2465349799473117
 40
0.4483371089430027
 40
0.6004538817210494
 40
0.7341024720487855
 40
0.8877241437396081
 40
1.033267653820317
 40
1.188829942276074
 40
1.331625824077846
 40
1.331625824077846
 40
1.331625824077846
 40
1.331625824077846
 10
56.55918872728872
 20
19.80822209306145
 30
0.0
 10
56.5648525820301
 20
19.84834857683608
 30
0.0
 10
56.57653879710331
 20
19.93114143451569
 30
0.0
 10
56.68341844125169
 20
20.04893263244577
 30
0.0
 10
56.84748338557469
 20
20.0863157996067
 30
0.0
 10
57.01508468330377
 20
20.06180665521647
 30
0.0
 10
57.12413727705839
 20
19.95151284528507
 30
0.0
 10
57.1577449483909
 20
19.80090090265365
 30
0.0
 10
57.09429142448901
 20
19.65591201966983
 30
0.0
 10
56.9927168840444
 20
19.54768993023793
 30
0.0
 10
56.91996952432429
 20
19.47990940680423
 30
0.0
 10
56.88515223284198
 20
19.44746927082825
 30
0.0
 11
56.55918872728872
 21
19.80822209306145
 31
0.0
 11
56.58724052434534
 21
19.92436848751752
 31
0.0
 11
56.67064004866074
 21
20.02021200368243
 31
0.0
 11
56.86473505819384
 21
20.07544991223751
 31
0.0
 11
57.01369547393499
 21
20.04462286076265
 31
0.0
 11
57.10857603287594
 21
19.95049727852465
 31
0.0
 11
57.14123910845639
 21
19.80038817984403
 31
0.0
 11
57.08940856001497
 21
19.66438631377273
 31
0.0
 11
56.98857872852666
 21
19.54592547352739
 31
0.0
 11
56.88515223284198
 21
19.44746927082825
 31
0.0
  0
SPLINE
  5
F32B
330
18
100
AcDbEntity
  8
0
100
AcDbSpline
210
0.0
220
0.0
230
1.0
 70
     8
 71
     3
 72
    16
 73
    12
 74
    10
 42
0.0000000001
 43
0.0000000001
 44
0.0000000001
 40
0.0
 40
0.0
 40
0.0
 40
0.0
 40
0.1470456303233071
 40
0.2969217532282208
 40
0.5026251241797893
 40
0.693028584565004
 40
0.838590951474721
 40
0.9614513872823554
 40
1.074027418706207
 40
1.205024791408755
 40
1.361174376889698
 40
1.361174376889698
 40
1.361174376889698
 40
1.361174376889698
 10
57.03988816591167
 20
19.60287926258342
 30
0.0
 10
57.08461807887527
 20
19.62556127947205
 30
0.0
 10
57.17493891431725
 20
19.67136192112673
 30
0.0
 10
57.35809030317589
 20
19.61875550797388
 30
0.0
 10
57.41991349603451
 20
19.42294244890726
 30
0.0
 10
57.40262455334299
 20
19.24614028132442
 30
0.0
 10
57.34568316391777
 20
19.09457240091058
 30
0.0
 10
57.22046174553283
 20
19.03400846057167
 30
0.0
 10
57.09561276361955
 20
19.05768195677944
 30
0.0
 10
56.98208937899089
 20
19.12930150210985
 30
0.0
 10
56.90594841896363
 20
19.18715164563809
 30
0.0
 10
56.86454321160365
 20
19.21861036624963
 30
0.0
 11
57.03988816591167
 21
19.60287926258342
 31
0.0
 11
57.17846170850048
 21
19.65207063064295
 31
0.0
 11
57.32188122364448
 21
19.60855402584814
 31
0.0
 11
57.40614030823495
 21
19.42089933370106
 31
0.0
 11
57.39124586551259
 21
19.23107933132341
 31
0.0
 11
57.32671821228072
 21
19.10060103953221
 31
0.0
 11
57.21630920585479
 21
19.0467072737807
 31
0.0
 11
57.10483975963858
 21
19.06245292116011
 31
0.0
 11
56.99035872612268
 21
19.1261271280268
 31
0.0
 11
56.86454321160365
 21
19.21861036624963
 31
0.0
  0
SPLINE
  5
F32C
330
18
100
AcDbEntity
  8
0
100
AcDbSpline
210
0.0
220
0.0
230
1.0
 70
     8
 71
     3
 72
    19
 73
    15
 74
    13
 42
0.0000000001
 43
0.0000000001
 44
0.0000000001
 40
0.0
 40
0.0
 40
0.0
 40
0.0
 40
0.0820660640444931
 40
0.1751457505055718
 40
0.280845810341863
 40
0.4459478316136212
 40
0.5953814744161256
 40
0.718381367326621
 40
0.8258954914392459
 40
0.915647639166189
 40
1.018645070134187
 40
1.175593757891806
 40
1.319744707722316
 40
1.395900450836444
 40
1.395900450836444
 40
1.395900450836444
 40
1.395900450836444
 10
57.07944564289092
 20
19.0735000605592
 30
0.0
 10
57.10170234060495
 20
19.05708687130362
 30
0.0
 10
57.14920268158369
 20
19.02205777147012
 30
0.0
 10
57.1834593384047
 20
18.9248169870574
 30
0.0
 10
57.12757609630417
 20
18.80839810622565
 30
0.0
 10
57.01947869618546
 20
18.71572486251288
 30
0.0
 10
56.88077325798968
 20
18.6604515408991
 30
0.0
 10
56.75895247897514
 20
18.64213767598392
 30
0.0
 10
56.63949513052088
 20
18.64268850747592
 30
0.0
 10
56.58576347887567
 20
18.73542153655061
 30
0.0
 10
56.52085375393347
 20
18.8368425844561
 30
0.0
 10
56.570390055284
 20
18.97662509017775
 30
0.0
 10
56.60519745299493
 20
19.09420576937587
 30
0.0
 10
56.63576357706909
 20
19.16132764877743
 30
0.0
 10
56.64632969225094
 20
19.18453037828473
 30
0.0
 11
57.07944564289092
 21
19.0735000605592
 31
0.0
 11
57.1404775101427
 21
19.01863704890731
 31
0.0
 11
57.1699099940641
 21
18.93033327253331
 31
0.0
 11
57.13242226146571
 21
18.83150426589039
 31
0.0
 11
57.01026716515989
 21
18.72043307307004
 31
0.0
 11
56.87209746391181
 21
18.66351605225691
 31
0.0
 11
56.75055030985518
 21
18.64466763065908
 31
0.0
 11
56.64424059388233
 21
18.66071540849515
 31
0.0
 11
56.58785502052023
 21
18.73054459392807
 31
0.0
 11
56.5434457777599
 21
18.82347623516755
 31
0.0
 11
56.56947836811294
 21
18.97825089339152
 31
0.0
 11
56.61585492444996
 21
19.11473793072239
 31
0.0
 11
56.64632969225094
 21
19.18453037828473
 31
0.0
  0
SPLINE
  5
F32D
330
18
100
AcDbEntity
  8
0
100
AcDbSpline
210
0.0
220
0.0
230
1.0
 70
     8
 71
     3
 72
    15
 73
    11
 74
     9
 42
0.0000000001
 43
0.0000000001
 44
0.0000000001
 40
0.0
 40
0.0
 40
0.0
 40
0.0
 40
0.1121236595469286
 40
0.2868722594946268
 40
0.4533685491258704
 40
0.6183629095832313
 40
0.8385016611528206
 40
0.968860326612244
 40
1.113016119148789
 40
1.200534659525411
 40
1.200534659525411
 40
1.200534659525411
 40
1.200534659525411
 10
56.54121596447211
 20
18.84121704057447
 30
0.0
 10
56.5215128714647
 20
18.80826446140657
 30
0.0
 10
56.47110182679391
 20
18.7239541483088
 30
0.0
 10
56.3052351368143
 20
18.68676173513598
 30
0.0
 10
56.13945925953445
 20
18.74648066235958
 30
0.0
 10
56.02586184685526
 20
18.90450011598779
 30
0.0
 10
56.01257000107334
 20
19.08063043116877
 30
0.0
 10
56.05099936948056
 20
19.24953365555437
 30
0.0
 10
56.16959976966299
 20
19.31613734970862
 30
0.0
 10
56.24684694642831
 20
19.31546088433761
 30
0.0
 10
56.27602825483528
 20
19.31520533914561
 30
0.0
 11
56.54121596447211
 21
18.84121704057447
 31
0.0
 11
56.47377465242914
 21
18.7516436937568
 31
0.0
 11
56.30565127890324
 21
18.70398234193008
 31
0.0
 11
56.14913081762807
 21
18.76074817375857
 31
0.0
 11
56.04995138240179
 21
18.89260634988326
 31
0.0
 11
56.02456178073036
 21
19.1112760507327
 31
0.0
 11
56.06539751377023
 21
19.2350735651159
 31
0.0
 11
56.18867722560544
 21
19.309793075096
 31
0.0
 11
56.27602825483528
 21
19.31520533914561
 31
0.0
  0
LINE
  5
F338
330
18
100
AcDbEntity
  8
0
100
AcDbLine
 10
54.60438935643622
 20
12.46661827327044
 30
0.0
 11
54.60450276072392
 21
18.63683628894271
 31
0.0
  0
LINE
  5
F339
330
18
100
AcDbEntity
  8
0
100
AcDbLine
 10
54.60437150055742
 20
11.49509711461129
 30
0.0
 11
54.60438173973425
 21
12.05220085879898
 31
0.0
  0
LINE
  5
F394
330
18
100
AcDbEntity
  8
0
100
AcDbLine
 10
49.36739288757953
 20
4.12496460896471
 30
0.0
 11
49.36739288757954
 21
19.57026709426252
 31
0.0
  0
ARC
  5
F395
330
18
100
AcDbEntity
  8
0
100
AcDbCircle
 10
46.48555875773292
 20
19.45635829455007
 30
0.0
 40
2.651811727444011
100
AcDbArc
 50
26.15014183739873
 51
146.734665191751
  0
SPLINE
  5
F396
330
18
100
AcDbEntity
  8
0
100
AcDbSpline
210
0.0
220
0.0
230
1.0
 70
     8
 71
     3
 72
    41
 73
    37
 74
    35
 42
0.0000000001
 43
0.0000000001
 44
0.0000000001
 40
0.0
 40
0.0
 40
0.0
 40
0.0
 40
0.8136914242437438
 40
1.458886308000919
 40
2.567703665114653
 40
3.39062180263786
 40
4.50147473285957
 40
5.415340288261195
 40
6.494545633573936
 40
7.791837973298241
 40
9.339757838217748
 40
10.66534357947396
 40
12.07266161131823
 40
13.09976037270203
 40
14.37409411116176
 40
15.21639841092315
 40
16.18394940940186
 40
16.79983583389848
 40
16.96056898406608
 40
17.02702953503087
 40
17.09758878580166
 40
17.26753252238261
 40
17.56874253063745
 40
17.98690718242153
 40
18.44936758160493
 40
19.04592508682029
 40
19.60277497291114
 40
20.11219467197183
 40
20.38777585735541
 40
20.80451600841513
 40
21.27616613572407
 40
21.76038960179572
 40
22.19257842363361
 40
22.68246203646831
 40
23.05260398116212
 40
23.20974510378752
 40
23.20974510378752
 40
23.20974510378752
 40
23.20974510378752
 10
44.26827454643123
 20
20.9109222031226
 30
0.0
 10
44.12545659239357
 20
20.67872891429668
 30
0.0
 10
43.86939495591277
 20
20.26242415823675
 30
0.0
 10
43.6403230038807
 20
19.4281610159842
 30
0.0
 10
43.61069830081469
 20
18.5658349114678
 30
0.0
 10
43.62343575777754
 20
17.55053589289178
 30
0.0
 10
43.8089482861586
 20
16.61362851872924
 30
0.0
 10
44.12167304875281
 20
15.6266404185456
 30
0.0
 10
44.5475547498968
 20
14.61462147132074
 30
0.0
 10
45.11983606186716
 20
13.43739738703285
 30
0.0
 10
45.81420245386179
 20
12.23263232962889
 30
0.0
 10
46.48220417302032
 20
10.97043375264188
 30
0.0
 10
46.97124391875346
 20
9.815642157697709
 30
0.0
 10
47.40654089435907
 20
8.656728423700144
 30
0.0
 10
47.63867896193874
 20
7.632467012867554
 30
0.0
 10
47.7923872603923
 20
6.612944253749574
 30
0.0
 10
47.82036082006647
 20
5.810169774924847
 30
0.0
 10
47.80742694986273
 20
5.214586384763316
 30
0.0
 10
47.74434619097429
 20
4.950782493449437
 30
0.0
 10
47.72801960100221
 20
4.842503900535236
 30
0.0
 10
47.61861954541564
 20
4.811602219410644
 30
0.0
 10
47.46104762002483
 20
4.739905066672307
 30
0.0
 10
47.17839020827466
 20
4.631361078070566
 30
0.0
 10
46.88206554178445
 20
4.357716256030822
 30
0.0
 10
46.64684960993487
 20
3.913053489230484
 30
0.0
 10
46.62768629587175
 20
3.350344818944076
 30
0.0
 10
46.87621609053421
 20
2.831523394949178
 30
0.0
 10
47.24106019768524
 20
2.548581132422815
 30
0.0
 10
47.61898077022524
 20
2.408498822559897
 30
0.0
 10
48.01560564693183
 20
2.386062508674549
 30
0.0
 10
48.45956400844984
 20
2.530534726507178
 30
0.0
 10
48.84285227597195
 20
2.798079954737671
 30
0.0
 10
49.16012618111722
 20
3.149624425826488
 30
0.0
 10
49.33210396466098
 20
3.557267691677743
 30
0.0
 10
49.35706054213962
 20
3.897180019131569
 30
0.0
 10
49.36502062139486
 20
4.072666156208323
 30
0.0
 10
49.36739288757953
 20
4.12496460896471
 30
0.0
 11
44.26827454643123
 21
20.9109222031226
 31
0.0
 11
43.87898928112284
 21
20.19639388590796
 31
0.0
 11
43.70012839443922
 21
19.57648645633384
 31
0.0
 11
43.61739288757954
 21
18.47076010350447
 31
0.0
 11
43.64357806534016
 21
17.64825867643561
 31
0.0
 11
43.84348141736168
 21
16.55554055979586
 31
0.0
 11
44.11703319200017
 21
15.68357744134322
 31
0.0
 11
44.52736092264649
 21
14.68542147616832
 31
0.0
 11
45.09550693726137
 21
13.51915498827433
 31
0.0
 11
45.84251383855991
 21
12.16341290453392
 31
0.0
 11
46.45274492122772
 21
10.98663952653463
 31
0.0
 11
47.01036977186222
 21
9.694510055967203
 31
0.0
 11
47.35757010649485
 21
8.7278747611082
 31
0.0
 11
47.65216434647124
 21
7.488059972218554
 31
0.0
 11
47.77112922171727
 21
6.654199137394048
 31
0.0
 11
47.81321415239307
 21
5.687563842535045
 31
0.0
 11
47.77112922171727
 21
5.073116980317283
 31
0.0
 11
47.73956559239898
 21
4.915513417962063
 31
0.0
 11
47.71852312706108
 21
4.852472007071701
 31
0.0
 11
47.65539586842447
 21
4.820951266497236
 31
0.0
 11
47.49757744707878
 21
4.757909855606858
 31
0.0
 11
47.22402567244026
 21
4.631826963567552
 31
0.0
 11
46.91134064120441
 21
4.35417655884474
 31
0.0
 11
46.69796445112404
 21
3.94388370938274
 31
0.0
 11
46.67699076346703
 21
3.347695013201031
 31
0.0
 11
46.91891013110637
 21
2.846140614157045
 31
0.0
 11
47.31871669777228
 21
2.53044592138902
 31
0.0
 11
47.5774715830011
 21
2.435625569630378
 31
0.0
 11
47.99351080255205
 21
2.411465244700487
 31
0.0
 11
48.44448756302167
 21
2.54957318837815
 31
0.0
 11
48.84429412968759
 21
2.822752752667387
 31
0.0
 11
49.1283672056836
 21
3.148466837741683
 31
0.0
 11
49.31774911897051
 21
3.600263744596706
 31
0.0
 11
49.3598340496463
 21
3.968005390092191
 31
0.0
 11
49.36739288757953
 21
4.12496460896471
 31
0.0
  0
SPLINE
  5
F397
330
18
100
AcDbEntity
  8
0
100
AcDbSpline
210
0.0
220
0.0
230
1.0
 70
     8
 71
     3
 72
    12
 73
     8
 74
     6
 42
0.0000000001
 43
0.0000000001
 44
0.0000000001
 40
0.0
 40
0.0
 40
0.0
 40
0.0
 40
0.2730751193748741
 40
0.559028668748125
 40
0.791640608699084
 40
1.115047439444904
 40
1.236471236750838
 40
1.236471236750838
 40
1.236471236750838
 40
1.236471236750838
 10
48.86593693303236
 20
20.62507775634054
 30
0.0
 10
48.94342607330492
 20
20.57617134044457
 30
0.0
 10
49.10205880054923
 20
20.47605204494029
 30
0.0
 10
49.26028799738862
 20
20.25533664671019
 30
0.0
 10
49.34636863094567
 20
19.98556642229901
 30
0.0
 10
49.36074584003796
 20
19.75878959165737
 30
0.0
 10
49.36596753933107
 20
19.61069259291858
 30
0.0
 10
49.36739288757954
 20
19.57026709426252
 30
0.0
 11
48.86593693303236
 21
20.62507775634054
 31
0.0
 11
49.08721410400108
 21
20.46505765001111
 31
0.0
 11
49.2555536893272
 21
20.23390571640165
 31
0.0
 11
49.3292022493213
 21
20.01326074315607
 31
0.0
 11
49.36280249441804
 21
19.6916040912701
 31
0.0
 11
49.36739288757954
 21
19.57026709426252
 31
0.0
  0
ARC
  5
F398
330
18
100
AcDbEntity
  8
0
100
AcDbCircle
 10
46.44089907731092
 20
19.54558620954666
 30
0.0
 40
2.066134736411274
100
AcDbArc
 50
28.7735342113388
 51
148.124407429498
  0
SPLINE
  5
F399
330
18
100
AcDbEntity
  8
0
100
AcDbSpline
210
0.0
220
0.0
230
1.0
 70
     8
 71
     3
 72
    40
 73
    36
 74
     0
 42
0.0000000001
 43
0.0000000001
 40
0.0
 40
0.0
 40
0.0
 40
0.0
 40
0.4940648545662164
 40
0.4940648545662164
 40
1.094821417290774
 40
1.094821417290774
 40
1.695577980015332
 40
1.695577980015332
 40
2.296334542739889
 40
2.296334542739889
 40
2.884331210988418
 40
2.884331210988418
 40
3.472327879236946
 40
3.472327879236946
 40
4.060324547485474
 40
4.060324547485474
 40
5.236317883982531
 40
5.236317883982531
 40
6.412311220479587
 40
6.412311220479587
 40
7.588304556976643
 40
7.588304556976643
 40
8.764297893473699
 40
8.764297893473699
 40
9.940291229970755
 40
9.940291229970755
 40
11.30993324820252
 40
11.30993324820252
 40
12.34672432249668
 40
12.34672432249668
 40
13.19353514321204
 40
13.19353514321204
 40
14.0403459639274
 40
14.0403459639274
 40
14.63400986617889
 40
14.63400986617889
 40
14.63400986617889
 40
14.63400986617889
 10
44.69416118627989
 20
20.64896692068222
 30
0.0
 10
44.60744363022768
 20
20.50798160357425
 30
0.0
 10
44.52601074154339
 20
20.37503988672918
 30
0.0
 10
44.37372804819567
 20
20.0917600288895
 30
0.0
 10
44.31208576269852
 20
19.9482100117888
 30
0.0
 10
44.21593970328295
 20
19.6275001912208
 30
0.0
 10
44.18237569750784
 20
19.45695475950822
 30
0.0
 10
44.13804201217263
 20
19.10338645405229
 30
0.0
 10
44.12698112024642
 20
18.91926713912172
 30
0.0
 10
44.11648237122402
 20
18.54242460100419
 30
0.0
 10
44.11523329642266
 20
18.34792754678927
 30
0.0
 10
44.12136697024568
 20
17.97581273692429
 30
0.0
 10
44.12999696396409
 20
17.79671479210541
 30
0.0
 10
44.16758201555695
 20
17.44293331887995
 30
0.0
 10
44.19619692712339
 20
17.2647023303593
 30
0.0
 10
44.30562908228528
 20
16.72800550431874
 30
0.0
 10
44.40829882860709
 20
16.36811781931806
 30
0.0
 10
44.65161247110902
 20
15.66242930310517
 30
0.0
 10
44.79481734876681
 20
15.31343751782412
 30
0.0
 10
45.10614268811244
 20
14.61446103573754
 30
0.0
 10
45.27163379724283
 20
14.26830905404635
 30
0.0
 10
45.62109194581715
 20
13.58804305098558
 30
0.0
 10
45.80784350078169
 20
13.25209704482696
 30
0.0
 10
46.19003868322692
 20
12.56863623373294
 30
0.0
 10
46.38418248058185
 20
12.22138146214202
 30
0.0
 10
46.78683366153932
 20
11.45391113577259
 30
0.0
 10
46.9920106595403
 20
11.02786986822757
 30
0.0
 10
47.31867629077044
 20
10.27339873812057
 30
0.0
 10
47.45029059718004
 20
9.949314718760637
 30
0.0
 10
47.62151688515473
 20
9.40952810355434
 30
0.0
 10
47.74187970995635
 20
9.056443592941068
 30
0.0
 10
47.89277363765529
 20
8.475467779312939
 30
0.0
 10
47.9901388459717
 20
8.144689666326701
 30
0.0
 10
48.07812917713535
 20
7.646756004541309
 30
0.0
 10
48.11406462119755
 20
7.441635621234702
 30
0.0
 10
48.14200801726766
 20
7.241261960401502
 30
0.0
  0
LINE
  5
F39A
330
18
100
AcDbEntity
  8
0
100
AcDbLine
 10
48.86739288757953
 20
4.448395011060686
 30
0.0
 11
48.8672806965858
 21
10.55259887053993
 31
0.0
  0
DIMENSION
  5
F39B
330
18
100
AcDbEntity
  8
DIM
100
AcDbDimension
  2
*D6
 10
41.59503734025714
 20
2.38590464801461
 30
0.0
 11
41.59503734025714
 21
12.25132666979877
 31
0.0
 70
   160
 71
     5
 42
19.7308440435683
  3
STANDARD
100
AcDbAlignedDimension
 13
46.35291104609589
 23
22.11674869158292
 33
0.0
 14
47.88887942009796
 24
2.385904648014609
 34
0.0
 50
90.0
100
AcDbRotatedDimension
  0
DIMENSION
  5
F39C
330
18
100
AcDbEntity
  8
DIM
100
AcDbDimension
  2
*D7
 10
49.36739288757955
 20
26.08286961762125
 30
0.0
 11
46.49239288757955
 21
26.08286961762126
 31
0.0
 70
    32
 71
     5
 42
5.75
  3
STANDARD
100
AcDbAlignedDimension
 13
43.61739288757954
 23
18.47076010350447
 33
0.0
 14
49.36739288757954
 24
18.47076010350446
 34
0.0
 50
179.9999999999999
100
AcDbRotatedDimension
  0
SPLINE
  5
F39D
330
18
100
AcDbEntity
  8
0
100
AcDbSpline
210
0.0
220
0.0
230
1.0
 70
     8
 71
     3
 72
    37
 73
    33
 74
    31
 42
0.0000000001
 43
0.0000000001
 44
0.0000000001
 40
0.0
 40
0.0
 40
0.0
 40
0.0
 40
0.2961318102919634
 40
0.7593648463754159
 40
1.247731253782649
 40
1.61869955351676
 40
1.91632030447891
 40
2.28277352405981
 40
2.689613891391275
 40
3.152880500842953
 40
3.639118705239544
 40
4.314137135185514
 40
4.987060505854421
 40
5.528661090210318
 40
6.139984325368835
 40
6.708588672878215
 40
7.167004272648489
 40
7.792186365771988
 40
8.445343137116767
 40
8.91067596758747
 40
9.442974646340095
 40
10.09009915585703
 40
10.74097522472706
 40
11.25789005603361
 40
11.74070331438594
 40
12.20671737872794
 40
12.54219490419478
 40
12.91353234495459
 40
13.25975213167306
 40
13.69583299301566
 40
14.08015075980047
 40
14.44486290515364
 40
14.44486290515364
 40
14.44486290515364
 40
14.44486290515364
 10
48.86593693303236
 20
20.62507775634054
 30
0.0
 10
48.89124615398856
 20
20.52966282916407
 30
0.0
 10
48.95614608035693
 20
20.28499225005321
 30
0.0
 10
49.01830813573998
 20
19.8716436533234
 30
0.0
 10
49.01614146900641
 20
19.4309012298874
 30
0.0
 10
49.00184743485661
 20
19.04301067206805
 30
0.0
 10
48.89317894381519
 20
18.71176266080536
 30
0.0
 10
48.71817163444382
 20
18.39989967247776
 30
0.0
 10
48.47920107566119
 20
18.06073336588723
 30
0.0
 10
48.13172312002127
 20
17.76678190094436
 30
0.0
 10
47.67588875077357
 20
17.46781681356422
 30
0.0
 10
47.06648941368794
 20
17.32096874545081
 30
0.0
 10
46.42795150031917
 20
17.38015496366652
 30
0.0
 10
45.86372805584956
 20
17.64202764673199
 30
0.0
 10
45.46778185265636
 20
18.07110803006345
 30
0.0
 10
45.18733573813594
 20
18.54626767639047
 30
0.0
 10
45.06077979378258
 20
19.08983102408484
 30
0.0
 10
45.09876994101282
 20
19.67566858540956
 30
0.0
 10
45.31731375114541
 20
20.23205116196
 30
0.0
 10
45.71771055763999
 20
20.62752692810279
 30
0.0
 10
46.23654566451494
 20
20.84346738995038
 30
0.0
 10
46.85916971426741
 20
20.85474138736325
 30
0.0
 10
47.4502404130295
 20
20.63323815390868
 30
0.0
 10
47.81108007788428
 20
20.19772055013533
 30
0.0
 10
47.99448310896646
 20
19.73461825142803
 30
0.0
 10
47.99828207210694
 20
19.30135331426201
 30
0.0
 10
47.92794161871269
 20
18.90987119057388
 30
0.0
 10
47.70632453936253
 20
18.62163338474983
 30
0.0
 10
47.38510507677494
 20
18.40281424470747
 30
0.0
 10
46.99925576838116
 20
18.30127009230115
 30
0.0
 10
46.60067847685992
 20
18.33173240418475
 30
0.0
 10
46.36054452719724
 20
18.40112536935903
 30
0.0
 10
46.24362026751896
 20
18.43491368247044
 30
0.0
 11
48.86593693303236
 21
20.62507775634054
 31
0.0
 11
48.93774807406953
 21
20.33778485860421
 31
0.0
 11
49.00545218877863
 21
19.87952619958013
 31
0.0
 11
49.0129748223984
 21
19.39121773368253
 31
0.0
 11
48.98187401659157
 21
19.02155542929407
 31
0.0
 11
48.89261199759679
 21
18.73763571640282
 31
0.0
 11
48.71959046270266
 21
18.41460087214591
 31
0.0
 11
48.4781341042073
 21
18.08715940954143
 31
0.0
 11
48.13209103441906
 21
17.77914943359197
 31
0.0
 11
47.71834384992172
 21
17.52372653184793
 31
0.0
 11
47.06387115319825
 21
17.35845291020725
 31
0.0
 11
46.39435305185815
 21
17.42606485272013
 31
0.0
 11
45.90537911903195
 21
17.65895041687368
 31
0.0
 11
45.4765866672951
 21
18.09467180856587
 31
0.0
 11
45.19824771221599
 21
18.5904926734879
 31
0.0
 11
45.0926508669724
 21
19.03658029760153
 31
0.0
 11
45.12979132040718
 21
19.66065820642457
 31
0.0
 11
45.3855622372499
 21
20.26165321975744
 31
0.0
 11
45.71729074869074
 21
20.58798255924612
 31
0.0
 11
46.20626468151698
 21
20.79833078580919
 31
0.0
 11
46.85321474462068
 21
20.81335565411665
 31
0.0
 11
47.45502873125167
 21
20.56544522165562
 31
0.0
 11
47.79354916742014
 21
20.17479850514441
 31
0.0
 11
47.96657070231427
 21
19.72405224514476
 31
0.0
 11
47.98161610693088
 21
19.25828111683765
 31
0.0
 11
47.90613150175099
 21
18.93140614919071
 31
0.0
 11
47.68797389038414
 21
18.63090864252426
 31
0.0
 11
47.40211216430816
 21
18.43558528426866
 31
0.0
 11
46.98084234619105
 21
18.3228987368334
 31
0.0
 11
46.59718597092694
 21
18.34543607442389
 31
0.0
 11
46.24362026751896
 21
18.43491368247044
 31
0.0
  0
SPLINE
  5
F39E
330
18
100
AcDbEntity
  8
0
100
AcDbSpline
210
0.0
220
0.0
230
1.0
 70
     8
 71
     3
 72
    28
 73
    24
 74
    22
 42
0.0000000001
 43
0.0000000001
 44
0.0000000001
 40
0.0
 40
0.0
 40
0.0
 40
0.0
 40
0.3180799564406192
 40
0.8283010941423231
 40
1.309155939645696
 40
1.728719770522426
 40
2.163098141331344
 40
2.540829021053012
 40
3.02260189866848
 40
3.534138989075179
 40
4.053421003496719
 40
4.504164265680467
 40
5.02519853708433
 40
5.573775959805386
 40
6.100506762107286
 40
6.614485051028396
 40
7.0243093778524
 40
7.48184401802705
 40
7.942261915627016
 40
8.452047366830012
 40
8.945149748108628
 40
9.410819720488907
 40
9.932048809459573
 40
9.932048809459573
 40
9.932048809459573
 40
9.932048809459573
 10
48.25192633108651
 20
20.54011777520325
 30
0.0
 10
48.2977428223335
 20
20.44435513752349
 30
0.0
 10
48.41705197420309
 20
20.19498294049569
 30
0.0
 10
48.51775529818528
 20
19.76496324192148
 30
0.0
 10
48.5270526427213
 20
19.29271594415012
 30
0.0
 10
48.44024142959809
 20
18.84933164384236
 30
0.0
 10
48.22069481393896
 20
18.4944539346303
 30
0.0
 10
47.92942358617046
 20
18.17499371632717
 30
0.0
 10
47.54722157827816
 20
17.91138298145849
 30
0.0
 10
47.05899902699368
 20
17.76424262899531
 30
0.0
 10
46.55023031352588
 20
17.76053365044795
 30
0.0
 10
46.09454051357182
 20
17.99128845516637
 30
0.0
 10
45.73862129552639
 20
18.36468614538741
 30
0.0
 10
45.52099346973419
 20
18.86431377034449
 30
0.0
 10
45.49577405906481
 20
19.40265520146054
 30
0.0
 10
45.61457666795496
 20
19.87905120415484
 30
0.0
 10
45.89164685339184
 20
20.26891385313307
 30
0.0
 10
46.31606025750083
 20
20.44346601464959
 30
0.0
 10
46.79584443574835
 20
20.49648450321829
 30
0.0
 10
47.27758677706648
 20
20.31298390966917
 30
0.0
 10
47.58317529144965
 20
19.90460280785885
 30
0.0
 10
47.67938838359087
 20
19.39794993158041
 30
0.0
 10
47.56195924020938
 20
19.08458921323618
 30
0.0
 10
47.49993923449619
 20
18.91908827384104
 30
0.0
 11
48.25192633108651
 21
20.54011777520325
 31
0.0
 11
48.38117745544067
 21
20.24948225510557
 31
0.0
 11
48.50154028024229
 21
19.75366131992493
 31
0.0
 11
48.50906305123917
 21
19.27286532331036
 31
0.0
 11
48.41786676241901
 21
18.86333260778522
 31
0.0
 11
48.19970915105216
 21
18.4877106893229
 31
0.0
 11
47.94393823420941
 21
18.20975052024696
 31
0.0
 11
47.54523645432868
 21
17.93930275019545
 31
0.0
 11
47.05626252150245
 21
17.78905399686222
 31
0.0
 11
46.5371979168201
 21
17.80407886516969
 31
0.0
 11
46.13097350331964
 21
17.99940222342529
 31
0.0
 11
45.76988502891478
 21
18.37502414188764
 31
0.0
 11
45.5517274175479
 21
18.87835747609269
 31
0.0
 11
45.52163674569178
 21
19.40422807762965
 31
0.0
 11
45.6570448377329
 21
19.90004894255171
 31
0.0
 11
45.90513211497326
 21
20.22625237865902
 31
0.0
 11
46.31887929947064
 21
20.42157573691462
 31
0.0
 11
46.77776242306362
 21
20.45913794281256
 31
0.0
 11
47.25169095127322
 21
20.27132698358141
 31
0.0
 11
47.55259808196581
 21
19.88068026707019
 31
0.0
 11
47.63534746391442
 21
19.42242153778751
 31
0.0
 11
47.49993923449619
 21
18.91908827384104
 31
0.0
  0
SPLINE
  5
F39F
330
18
100
AcDbEntity
  8
0
100
AcDbSpline
210
0.0
220
0.0
230
1.0
 70
     8
 71
     3
 72
    34
 73
    30
 74
    28
 42
0.0000000001
 43
0.0000000001
 44
0.0000000001
 40
0.0
 40
0.0
 40
0.0
 40
0.0
 40
0.2962127843224243
 40
0.6318182510980018
 40
0.9452350042590284
 40
1.358579601120128
 40
1.857657715571538
 40
2.179368267778899
 40
2.647056256685778
 40
3.123260328449863
 40
3.550063530715115
 40
3.973524988961577
 40
4.518266479238453
 40
5.090857268708496
 40
5.633098030198837
 40
6.355622740424099
 40
7.087914922701672
 40
7.971757652848133
 40
8.657998944756696
 40
9.201958086934226
 40
9.857507798848013
 40
10.52115398213143
 40
11.14310824831563
 40
11.88625446646105
 40
12.55302421929172
 40
13.19948781238762
 40
13.88166861686652
 40
14.54367128695112
 40
15.17716149937592
 40
15.17716149937592
 40
15.17716149937592
 40
15.17716149937592
 10
47.63179571589851
 20
19.49337006042357
 30
0.0
 10
47.61719374122156
 20
19.59174803335548
 30
0.0
 10
47.58604790758014
 20
19.80158704805764
 30
0.0
 10
47.40239069220918
 20
20.07532506311479
 30
0.0
 10
47.08398713235541
 20
20.25325339058853
 30
0.0
 10
46.67154159809179
 20
20.29352446925946
 30
0.0
 10
46.24705516733691
 20
20.20356733628883
 30
0.0
 10
45.93755562127289
 20
19.89226196209729
 30
0.0
 10
45.74658258293438
 20
19.49276817016016
 30
0.0
 10
45.82600656396
 20
19.02554376718193
 30
0.0
 10
46.00878656352175
 20
18.61367370671702
 30
0.0
 10
46.38164635481511
 20
18.31439698763835
 30
0.0
 10
46.88531510798408
 20
18.14414595664589
 30
0.0
 10
47.44732779409408
 20
18.2556381316951
 30
0.0
 10
47.98163989840915
 20
18.5939640391307
 30
0.0
 10
48.26759854378459
 20
19.23490026667287
 30
0.0
 10
48.29075317714345
 20
20.03027181605631
 30
0.0
 10
47.9296885542726
 20
20.75804710715799
 30
0.0
 10
47.32847487510205
 20
21.16737404531523
 30
0.0
 10
46.70853225796165
 20
21.31228080365631
 30
0.0
 10
46.07847279935147
 20
21.27994854770426
 30
0.0
 10
45.46500907211768
 20
21.02470663817272
 30
0.0
 10
44.98524729097211
 20
20.52549871187358
 30
0.0
 10
44.71170871904006
 20
19.89228412498743
 30
0.0
 10
44.60766437620933
 20
19.21015167025012
 30
0.0
 10
44.63358548926938
 20
18.5420043003501
 30
0.0
 10
44.77089300021521
 20
17.89016113022145
 30
0.0
 10
44.98644956909453
 20
17.26614220739672
 30
0.0
 10
45.1550031235875
 20
16.86852139683161
 30
0.0
 10
45.23742505618344
 20
16.67408660282372
 30
0.0
 11
47.63179571589851
 21
19.49337006042357
 31
0.0
 11
47.5678529866878
 21
19.78259893342405
 31
0.0
 11
47.37978604717707
 21
20.0605591025
 31
0.0
 11
47.10896972571771
 21
20.21832025485766
 31
0.0
 11
46.69898392671879
 21
20.27090732906307
 31
0.0
 11
46.21753276488945
 21
20.13943967867883
 31
0.0
 11
45.98432974890596
 21
19.91782281844981
 31
0.0
 11
45.79626280939521
 21
19.48961389604064
 31
0.0
 11
45.84892165686483
 21
19.0163302984505
 31
0.0
 11
46.03698845899844
 21
18.63319605122232
 31
0.0
 11
46.3602702009449
 21
18.35968458538535
 31
0.0
 11
46.87933466825012
 21
18.19441096374468
 31
0.0
 11
47.44353534940521
 21
18.29207264287249
 31
0.0
 11
47.89489583937845
 21
18.59257014953892
 31
0.0
 11
48.2183708709303
 21
19.23863969753559
 31
0.0
 11
48.23393198924893
 21
19.97076652522429
 31
0.0
 11
47.8352302093682
 21
20.75957249778833
 31
0.0
 11
47.27102966559025
 21
21.15021921429955
 31
0.0
 11
46.74289487405073
 21
21.28046970498587
 31
0.0
 11
46.08842217732728
 21
21.2429075693465
 31
0.0
 11
45.47908541969943
 21
20.97997226857801
 31
0.0
 11
45.04277033434283
 21
20.5367384076028
 31
0.0
 11
44.73434057003046
 21
19.86061905273262
 31
0.0
 11
44.6281634438393
 21
19.20235746250906
 31
0.0
 11
44.65073148207565
 21
18.55628791451238
 31
0.0
 11
44.78613971149392
 21
17.88768095866665
 31
0.0
 11
44.9966994065802
 21
17.26005674784914
 31
0.0
 11
45.23742505618344
 21
16.67408660282372
 31
0.0
  0
SPLINE
  5
F3A0
330
18
100
AcDbEntity
  8
0
100
AcDbSpline
210
0.0
220
0.0
230
1.0
 70
     8
 71
     3
 72
    22
 73
    18
 74
    16
 42
0.0000000001
 43
0.0000000001
 44
0.0000000001
 40
0.0
 40
0.0
 40
0.0
 40
0.0
 40
0.5276181823422684
 40
1.186301825102553
 40
1.937736730803328
 40
2.567036934933921
 40
3.415749651491499
 40
4.011902211985976
 40
4.613201933851406
 40
5.044861063403986
 40
5.527775274481495
 40
6.101261880916442
 40
6.815620753186368
 40
7.343595689862264
 40
7.670477510575568
 40
7.993862459635462
 40
8.210701838362743
 40
8.210701838362743
 40
8.210701838362743
 40
8.210701838362743
 10
45.46310530117006
 20
16.7416985453366
 30
0.0
 10
45.382796779669
 20
16.8982806180984
 30
0.0
 10
45.20223032306005
 20
17.25034126519557
 30
0.0
 10
44.97105865914337
 20
17.85461646004129
 30
0.0
 10
44.82436874364604
 20
18.52579530671147
 30
0.0
 10
44.83116781076385
 20
19.26622231020261
 30
0.0
 10
44.90498756204539
 20
19.979300896303
 30
0.0
 10
45.31936619481916
 20
20.53595495011823
 30
0.0
 10
45.70344909353491
 20
20.93319975424004
 30
0.0
 10
46.1846305691923
 20
21.11786433412202
 30
0.0
 10
46.68740387188093
 20
21.16233162831167
 30
0.0
 10
47.26303162121954
 20
20.98123624042186
 30
0.0
 10
47.7530118793886
 20
20.57891490710298
 30
0.0
 10
47.95280953156399
 20
20.08525490132793
 30
0.0
 10
48.04685390626129
 20
19.70237156253072
 30
0.0
 10
48.03236233258022
 20
19.40856112340882
 30
0.0
 10
47.98327162900576
 20
19.23516910194756
 30
0.0
 10
47.96356722637736
 20
19.16557168421568
 30
0.0
 11
45.46310530117006
 21
16.7416985453366
 31
0.0
 11
45.22990242256369
 21
17.21498214292674
 31
0.0
 11
44.9966994065802
 21
17.83100202456707
 31
0.0
 11
44.84624590992246
 21
18.56722085266711
 31
0.0
 11
44.83921755917427
 21
19.19648180744228
 31
0.0
 11
44.99719368945176
 21
20.03036238492871
 31
0.0
 11
45.32819149200048
 21
20.52618324985075
 31
0.0
 11
45.77202921097685
 21
20.93185483466942
 31
0.0
 11
46.17252568553076
 21
21.09288954520099
 31
0.0
 11
46.65397684736009
 21
21.13045168084036
 31
0.0
 11
47.20313212389856
 21
20.96517805919968
 31
0.0
 11
47.74476476681729
 21
20.49940700115116
 31
0.0
 11
47.96292237818417
 21
20.01861100453657
 31
0.0
 11
48.03127120370937
 21
19.69895468477709
 31
0.0
 11
48.01622593646985
 21
19.37591991077875
 31
0.0
 11
47.96356722637736
 21
19.16557168421568
 31
0.0
  0
SPLINE
  5
F3A1
330
18
100
AcDbEntity
  8
0
100
AcDbSpline
210
0.0
220
0.0
230
1.0
 70
     8
 71
     3
 72
    11
 73
     7
 74
     5
 42
0.0000000001
 43
0.0000000001
 44
0.0000000001
 40
0.0
 40
0.0
 40
0.0
 40
0.0
 40
0.4802417417777993
 40
1.15725829252083
 40
2.045173210124231
 40
2.34727529304613
 40
2.34727529304613
 40
2.34727529304613
 40
2.34727529304613
 10
48.14200801726766
 20
7.241261960401502
 30
0.0
 10
48.15753768976204
 20
7.081946149181693
 30
0.0
 10
48.19496018079277
 20
6.698036281244573
 30
0.0
 10
48.23060251335181
 20
6.016393272826245
 30
0.0
 10
48.19174179052916
 20
5.393955375915969
 30
0.0
 10
48.15085420755057
 20
4.99944496146136
 30
0.0
 10
48.14047433568484
 20
4.899293099858955
 30
0.0
 11
48.14200801726766
 21
7.241261960401502
 31
0.0
 11
48.18562566101769
 21
6.76300509249528
 31
0.0
 11
48.21572649878058
 21
6.086658029556463
 31
0.0
 11
48.1705751734477
 21
5.199891849143984
 31
0.0
 11
48.14047433568484
 21
4.899293099858955
 31
0.0
  0
SPLINE
  5
F3A2
330
18
100
AcDbEntity
  8
0
100
AcDbSpline
210
0.0
220
0.0
230
1.0
 70
     8
 71
     3
 72
     9
 73
     5
 74
     3
 42
0.0000000001
 43
0.0000000001
 44
0.0000000001
 40
0.0
 40
0.0
 40
0.0
 40
0.0
 40
0.4851154643254299
 40
0.8624963545461401
 40
0.8624963545461401
 40
0.8624963545461401
 40
0.8624963545461401
 10
48.86739288757953
 20
4.448395011060686
 30
0.0
 10
48.74649356662049
 20
4.558661790608022
 30
0.0
 10
48.53154427874471
 20
4.754707273345553
 30
0.0
 10
48.25950412179746
 20
4.85528557560345
 30
0.0
 10
48.14047433568484
 20
4.899293099858955
 30
0.0
 11
48.86739288757953
 21
4.448395011060686
 31
0.0
 11
48.48663390126936
 21
4.748993760345715
 31
0.0
 11
48.14047433568484
 21
4.899293099858955
 31
0.0
  0
CIRCLE
  5
F3A3
330
18
100
AcDbEntity
  8
0
100
AcDbCircle
 10
47.84060660026912
 20
3.574359041458393
 30
0.0
 40
0.9808452216930822
  0
CIRCLE
  5
F3A4
330
18
100
AcDbEntity
  8
0
100
AcDbCircle
 10
47.81585797503432
 20
3.582108434849605
 30
0.0
 40
0.7914211084424827
  0
CIRCLE
  5
F3A5
330
18
100
AcDbEntity
  8
0
100
AcDbCircle
 10
47.81601279904662
 20
3.572788633768556
 30
0.0
 40
0.1459219313374501
  0
LINE
  5
F3A6
330
18
100
AcDbEntity
  8
0
100
AcDbLine
 10
47.85622912615962
 20
3.962047743258654
 30
0.0
 11
47.84694847755726
 21
3.801401141141486
 31
0.0
  0
SPLINE
  5
F3A7
330
18
100
AcDbEntity
  8
0
100
AcDbSpline
210
0.0
220
0.0
230
1.0
 70
     8
 71
     3
 72
     9
 73
     5
 74
     3
 42
0.0000000001
 43
0.0000000001
 44
0.0000000001
 40
0.0
 40
0.0
 40
0.0
 40
0.0
 40
0.0927261880852557
 40
0.1905102796734923
 40
0.1905102796734923
 40
0.1905102796734923
 40
0.1905102796734923
 10
48.1253695841531
 20
3.878635066902408
 30
0.0
 10
48.10847833035042
 20
3.852183200728521
 30
0.0
 10
48.07377446133097
 20
3.797836607530496
 30
0.0
 10
48.0179208614763
 20
3.765486543895182
 30
0.0
 10
47.98925262618168
 20
3.748882077244761
 30
0.0
 11
48.1253695841531
 21
3.878635066902408
 31
0.0
 11
48.06968541778479
 21
3.804490481309873
 31
0.0
 11
47.98925262618168
 21
3.748882077244761
 31
0.0
  0
SPLINE
  5
F3A8
330
18
100
AcDbEntity
  8
0
100
AcDbSpline
210
0.0
220
0.0
230
1.0
 70
     8
 71
     3
 72
     9
 73
     5
 74
     3
 42
0.0000000001
 43
0.0000000001
 44
0.0000000001
 40
0.0
 40
0.0
 40
0.0
 40
0.0
 40
0.1021345549929957
 40
0.1763801559431453
 40
0.1763801559431453
 40
0.1763801559431453
 40
0.1763801559431453
 10
48.25839308417516
 20
3.572788633768556
 30
0.0
 10
48.22436832058023
 20
3.574116565641166
 30
0.0
 10
48.16560962613827
 20
3.576409823107152
 30
0.0
 10
48.10681057875808
 20
3.576035529416252
 30
0.0
 10
48.08205966171362
 20
3.575877973936929
 30
0.0
 11
48.25839308417516
 21
3.572788633768556
 31
0.0
 11
48.15630526266377
 21
3.575877973936929
 31
0.0
 11
48.08205966171362
 21
3.575877973936929
 31
0.0
  0
SPLINE
  5
F3A9
330
18
100
AcDbEntity
  8
0
100
AcDbSpline
210
0.0
220
0.0
230
1.0
 70
    24
 71
     3
 72
     8
 73
     4
 74
     2
 42
0.0000000001
 43
0.0000000001
 44
0.0000000001
 40
0.0
 40
0.0
 40
0.0
 40
0.0
 40
0.1946550965644642
 40
0.1946550965644642
 40
0.1946550965644642
 40
0.1946550965644642
 10
48.10990174489779
 20
3.270031470544498
 30
0.0
 10
48.06556062401614
 20
3.317401634160602
 30
0.0
 10
48.02121950313448
 20
3.364771797776705
 30
0.0
 10
47.97687838225282
 20
3.412141961392809
 30
0.0
 11
48.10990174489779
 21
3.270031470544498
 31
0.0
 11
47.97687838225282
 21
3.412141961392809
 31
0.0
  0
SPLINE
  5
F3AA
330
18
100
AcDbEntity
  8
0
100
AcDbSpline
210
0.0
220
0.0
230
1.0
 70
     8
 71
     3
 72
     9
 73
     5
 74
     3
 42
0.0000000001
 43
0.0000000001
 44
0.0000000001
 40
0.0
 40
0.0
 40
0.0
 40
0.0
 40
0.0989079095671593
 40
0.1893497865208344
 40
0.1893497865208344
 40
0.1893497865208344
 40
0.1893497865208344
 10
47.81601279904662
 20
3.137189070459886
 30
0.0
 10
47.81353413943125
 20
3.170219006959215
 30
0.0
 10
47.80878898132325
 20
3.233451679172332
 30
0.0
 10
47.81995842481777
 20
3.295840344411555
 30
0.0
 10
47.82529344764895
 20
3.325639944868189
 30
0.0
 11
47.81601279904662
 21
3.137189070459886
 31
0.0
 11
47.81291920372011
 21
3.236048588175183
 31
0.0
 11
47.82529344764895
 21
3.325639944868189
 31
0.0
  0
SPLINE
  5
F3AB
330
18
100
AcDbEntity
  8
0
100
AcDbSpline
210
0.0
220
0.0
230
1.0
 70
     8
 71
     3
 72
     9
 73
     5
 74
     3
 42
0.0000000001
 43
0.0000000001
 44
0.0000000001
 40
0.0
 40
0.0
 40
0.0
 40
0.0
 40
0.136378092073239
 40
0.191068766056374
 40
0.191068766056374
 40
0.191068766056374
 40
0.191068766056374
 10
47.45715876347054
 20
3.27929956130821
 30
0.0
 10
47.49791701553574
 20
3.300921005439685
 30
0.0
 10
47.55502024091691
 20
3.331213133652912
 30
0.0
 10
47.59678821803191
 20
3.379721135400933
 30
0.0
 10
47.60874369807441
 20
3.393605850123964
 30
0.0
 11
47.45715876347054
 21
3.27929956130821
 31
0.0
 11
47.57162082891079
 21
3.353444146900745
 31
0.0
 11
47.60874369807441
 21
3.393605850123964
 31
0.0
  0
SPLINE
  5
F3AC
330
18
100
AcDbEntity
  8
0
100
AcDbSpline
210
0.0
220
0.0
230
1.0
 70
     8
 71
     3
 72
     9
 73
     5
 74
     3
 42
0.0000000001
 43
0.0000000001
 44
0.0000000001
 40
0.0
 40
0.0
 40
0.0
 40
0.0
 40
0.090560654270538
 40
0.1961494687969507
 40
0.1961494687969507
 40
0.1961494687969507
 40
0.1961494687969507
 10
47.58090161489027
 20
3.606771586396437
 30
0.0
 10
47.55103537445547
 20
3.601089895186083
 30
0.0
 10
47.48634671641259
 20
3.588783659969962
 30
0.0
 10
47.42111923067563
 20
3.598468662373311
 30
0.0
 10
47.38600675784689
 20
3.603682175969485
 30
0.0
 11
47.58090161489027
 21
3.606771586396437
 31
0.0
 11
47.49118803730769
 21
3.594414155464352
 31
0.0
 11
47.38600675784689
 21
3.603682175969485
 31
0.0
  0
SPLINE
  5
F3AD
330
18
100
AcDbEntity
  8
0
100
AcDbSpline
210
0.0
220
0.0
230
1.0
 70
     8
 71
     3
 72
     9
 73
     5
 74
     3
 42
0.0000000001
 43
0.0000000001
 44
0.0000000001
 40
0.0
 40
0.0
 40
0.0
 40
0.0
 40
0.0970916304676195
 40
0.1862397307119668
 40
0.1862397307119668
 40
0.1862397307119668
 40
0.1862397307119668
 10
47.66442786444275
 20
3.764328848345218
 30
0.0
 10
47.63661221067981
 20
3.781978616406153
 30
0.0
 10
47.58325663470031
 20
3.815834140666746
 30
0.0
 10
47.55237418029747
 20
3.870840932339724
 30
0.0
 10
47.53759155507366
 20
3.897171248429831
 30
0.0
 11
47.66442786444275
 21
3.764328848345218
 31
0.0
 11
47.58708866816612
 21
3.823026662837296
 31
0.0
 11
47.53759155507366
 21
3.897171248429831
 31
0.0
  0
SPLINE
  5
F3AE
330
18
100
AcDbEntity
  8
0
100
AcDbSpline
210
0.0
220
0.0
230
1.0
 70
     8
 71
     3
 72
    13
 73
     9
 74
     7
 42
0.0000000001
 43
0.0000000001
 44
0.0000000001
 40
0.0
 40
0.0
 40
0.0
 40
0.0
 40
0.1055501227819051
 40
0.2337241921264976
 40
0.3556305067521311
 40
0.4757561128822745
 40
0.5995373866494179
 40
0.6990479919927902
 40
0.6990479919927902
 40
0.6990479919927902
 40
0.6990479919927902
 10
48.19648642123447
 20
3.71854069725035
 30
0.0
 10
48.23092250311461
 20
3.733876651203282
 30
0.0
 10
48.30717580538754
 20
3.767835715898492
 30
0.0
 10
48.32177440113738
 20
3.891135430206419
 30
0.0
 10
48.32681323915827
 20
4.044368600357973
 30
0.0
 10
48.18183879631397
 20
4.035537670024251
 30
0.0
 10
48.050526519223
 20
4.069606524146692
 30
0.0
 10
48.02737643564293
 20
3.98703903212379
 30
0.0
 10
48.01705954082356
 20
3.95024261505026
 30
0.0
 11
48.19648642123447
 21
3.71854069725035
 31
0.0
 11
48.28619999881706
 21
3.774149171574041
 31
0.0
 11
48.32022913527708
 21
3.897723480894942
 31
0.0
 11
48.30166783807237
 21
4.018208450047456
 31
0.0
 11
48.18411217730564
 21
4.042923382170219
 31
0.0
 11
48.06036946326304
 21
4.039833971743252
 31
0.0
 11
48.01705954082356
 21
3.95024261505026
 31
0.0
  0
SPLINE
  5
F3AF
330
18
100
AcDbEntity
  8
0
100
AcDbSpline
210
0.0
220
0.0
230
1.0
 70
     8
 71
     3
 72
    15
 73
    11
 74
     9
 42
0.0000000001
 43
0.0000000001
 44
0.0000000001
 40
0.0
 40
0.0
 40
0.0
 40
0.0
 40
0.0787834375392609
 40
0.1946588384748342
 40
0.2913523599656125
 40
0.3600087394652669
 40
0.5086563919829997
 40
0.5311496024428623
 40
0.5629667000775634
 40
0.6118353403473991
 40
0.6118353403473991
 40
0.6118353403473991
 40
0.6118353403473991
 10
48.05108867728358
 20
4.03674463157488
 30
0.0
 10
48.04066948801865
 20
4.060849697631923
 30
0.0
 10
48.01492565982951
 20
4.120408715448134
 30
0.0
 10
47.95106907375884
 20
4.198039982027915
 30
0.0
 10
47.84384998510477
 20
4.21982079578616
 30
0.0
 10
47.76614815225395
 20
4.141839060275196
 30
0.0
 10
47.69684781704387
 20
4.101115189654223
 30
0.0
 10
47.66880132893833
 20
4.033132141441443
 30
0.0
 10
47.69423354009247
 20
4.00399107232746
 30
0.0
 10
47.70840194199343
 20
3.982061021324397
 30
0.0
 10
47.71698326694228
 20
3.968778726319104
 30
0.0
 11
48.05108867728358
 21
4.03674463157488
 31
0.0
 11
48.01705954082356
 21
4.107799876999042
 31
0.0
 11
47.93662674922045
 21
4.191212553355288
 31
0.0
 11
47.84072611836202
 21
4.203569984287373
 31
0.0
 11
47.78504181461658
 21
4.163408351322733
 31
0.0
 11
47.67986053515579
 21
4.058370153270677
 31
0.0
 11
47.6736733445028
 21
4.03674463157488
 31
0.0
 11
47.68914118375814
 21
4.008940429542325
 31
0.0
 11
47.71698326694228
 21
3.968778726319104
 31
0.0
  0
SPLINE
  5
F3B0
330
18
100
AcDbEntity
  8
0
100
AcDbSpline
210
0.0
220
0.0
230
1.0
 70
     8
 71
     3
 72
    14
 73
    10
 74
     8
 42
0.0000000001
 43
0.0000000001
 44
0.0000000001
 40
0.0
 40
0.0
 40
0.0
 40
0.0
 40
0.1028167588100942
 40
0.2851376490709079
 40
0.3391027485186065
 40
0.4472745325181847
 40
0.5122248137307077
 40
0.5836363489476547
 40
0.6474067945131946
 40
0.6474067945131946
 40
0.6474067945131946
 40
0.6474067945131946
 10
47.67676693982928
 20
4.033655291406508
 30
0.0
 10
47.64640020101996
 20
4.048528415317907
 30
0.0
 10
47.56218532579683
 20
4.089775461378459
 30
0.0
 10
47.41812465287627
 20
4.069799062817693
 30
0.0
 10
47.37202468876477
 20
3.956830097838344
 30
0.0
 10
47.38713024952225
 20
3.886774952016546
 30
0.0
 10
47.36641761221942
 20
3.787417878567058
 30
0.0
 10
47.45241023319714
 20
3.783150642723355
 30
0.0
 10
47.49344847350774
 20
3.770737044091937
 30
0.0
 10
47.51280776129657
 20
3.764881080810329
 30
0.0
 11
47.67676693982928
 21
4.033655291406508
 31
0.0
 11
47.58086630897087
 21
4.070727584202775
 31
0.0
 11
47.40453288650931
 21
4.024387200642796
 31
0.0
 11
47.38287799397812
 21
3.974957476914429
 31
0.0
 11
47.37978439865164
 21
3.866829938694014
 31
0.0
 11
47.38287799397812
 21
3.801953373606597
 31
0.0
 11
47.45093640427529
 21
3.78032792216938
 31
0.0
 11
47.51280776129657
 21
3.764881080810329
 31
0.0
  0
SPLINE
  5
F3B1
330
18
100
AcDbEntity
  8
0
100
AcDbSpline
210
0.0
220
0.0
230
1.0
 70
     8
 71
     3
 72
    14
 73
    10
 74
     8
 42
0.0000000001
 43
0.0000000001
 44
0.0000000001
 40
0.0
 40
0.0
 40
0.0
 40
0.0
 40
0.0678945236316006
 40
0.1990584431447503
 40
0.270382557092729
 40
0.3329624544278429
 40
0.425724039564435
 40
0.4825874355290056
 40
0.5804013462729475
 40
0.5804013462729475
 40
0.5804013462729475
 40
0.5804013462729475
 10
48.28619999881706
 20
3.761791740641957
 30
0.0
 10
48.30662759666259
 20
3.751571616527089
 30
0.0
 10
48.36651881626055
 20
3.721607462038125
 30
0.0
 10
48.41862104128797
 20
3.642112866162838
 30
0.0
 10
48.43560370542911
 20
3.54908642467425
 30
0.0
 10
48.38596783363509
 20
3.485099894473002
 30
0.0
 10
48.32943297303973
 20
3.446128641510783
 30
0.0
 10
48.25175021131006
 20
3.404827979356782
 30
0.0
 10
48.20273431373074
 20
3.432357563212427
 30
0.0
 10
48.17173793337681
 20
3.449766556912766
 30
0.0
 11
48.28619999881706
 21
3.761791740641957
 31
0.0
 11
48.34497776051187
 21
3.727808788014062
 31
0.0
 11
48.419223361462
 21
3.619681249793647
 31
0.0
 11
48.42541055211498
 21
3.548626004369484
 31
0.0
 11
48.39138127827783
 21
3.496106940472746
 31
0.0
 11
48.3171356773277
 21
3.440498466149055
 31
0.0
 11
48.26454496890875
 21
3.418872944453259
 31
0.0
 11
48.17173793337681
 21
3.449766556912766
 31
0.0
  0
SPLINE
  5
F3B2
330
18
100
AcDbEntity
  8
0
100
AcDbSpline
210
0.0
220
0.0
230
1.0
 70
     8
 71
     3
 72
    15
 73
    11
 74
     9
 42
0.0000000001
 43
0.0000000001
 44
0.0000000001
 40
0.0
 40
0.0
 40
0.0
 40
0.0
 40
0.1027132944898602
 40
0.23121478191666
 40
0.3128615940644435
 40
0.4130537181357573
 40
0.5316197587518655
 40
0.573677051518369
 40
0.6029892783028385
 40
0.6645518901712876
 40
0.6645518901712876
 40
0.6645518901712876
 40
0.6645518901712876
 10
48.25524220259037
 20
3.417777051070206
 30
0.0
 10
48.2714909181418
 20
3.386169526802808
 30
0.0
 10
48.30806790889366
 20
3.315018787585367
 30
0.0
 10
48.27786379242174
 20
3.212246272433233
 30
0.0
 10
48.23751498256227
 20
3.104331541808309
 30
0.0
 10
48.12116510582594
 20
3.110559097846244
 30
0.0
 10
48.03843864944582
 20
3.108366908923088
 30
0.0
 10
47.97770077863794
 20
3.142717662058592
 30
0.0
 10
47.96892645972127
 20
3.188107685664446
 30
0.0
 10
47.9588791187419
 20
3.216363318828128
 30
0.0
 10
47.95207260813685
 20
3.235504927257242
 30
0.0
 11
48.25524220259037
 21
3.417777051070206
 31
0.0
 11
48.292365071754
 21
3.322006943781861
 31
0.0
 11
48.27071017922281
 21
3.195343224034008
 31
0.0
 11
48.23049371473268
 21
3.124288048868439
 31
0.0
 11
48.13149948854777
 21
3.108841207509389
 31
0.0
 11
48.01394396515814
 21
3.124288048868439
 31
0.0
 11
47.97991469132102
 21
3.149002910732622
 31
0.0
 11
47.97063390534153
 21
3.176807112765178
 31
0.0
 11
47.95207260813685
 21
3.235504927257242
 31
0.0
  0
SPLINE
  5
F3B3
330
18
100
AcDbEntity
  8
0
100
AcDbSpline
210
0.0
220
0.0
230
1.0
 70
     8
 71
     3
 72
    13
 73
     9
 74
     7
 42
0.0000000001
 43
0.0000000001
 44
0.0000000001
 40
0.0
 40
0.0
 40
0.0
 40
0.0
 40
0.1174898321651549
 40
0.2225146884244719
 40
0.2871030174060324
 40
0.3562584638247806
 40
0.4633974896435883
 40
0.5202058853519836
 40
0.5202058853519836
 40
0.5202058853519836
 40
0.5202058853519836
 10
47.97372750066804
 20
3.155181591069368
 30
0.0
 10
47.95194700406348
 20
3.122476279022295
 30
0.0
 10
47.91069679265047
 20
3.060535494991304
 30
0.0
 10
47.84489908845541
 20
2.991471999659916
 30
0.0
 10
47.76336808839997
 20
2.958309632413772
 30
0.0
 10
47.6929371646702
 20
3.008847449314905
 30
0.0
 10
47.6294553327401
 20
3.056337531665163
 30
0.0
 10
47.61173360048051
 20
3.109096283790422
 30
0.0
 10
47.60559295386673
 20
3.127377389036812
 30
0.0
 11
47.97372750066804
 21
3.155181591069368
 31
0.0
 11
47.90566909037087
 21
3.059411483781037
 31
0.0
 11
47.82832975671714
 21
2.988356238356875
 31
0.0
 11
47.76645839969583
 21
2.969820127088031
 31
0.0
 11
47.70458704267453
 21
3.000713669288959
 31
0.0
 11
47.62724784639791
 21
3.074858254881494
 31
0.0
 11
47.60559295386673
 21
3.127377389036812
 31
0.0
  0
SPLINE
  5
F3B4
330
18
100
AcDbEntity
  8
0
100
AcDbSpline
210
0.0
220
0.0
230
1.0
 70
     8
 71
     3
 72
    16
 73
    12
 74
    10
 42
0.0000000001
 43
0.0000000001
 44
0.0000000001
 40
0.0
 40
0.0
 40
0.0
 40
0.0
 40
0.0822961161799065
 40
0.1237894269168261
 40
0.2290160659949875
 40
0.3189421583896048
 40
0.4038075480566867
 40
0.515196458163001
 40
0.6119688362816739
 40
0.6559008595146631
 40
0.749824120271186
 40
0.749824120271186
 40
0.749824120271186
 40
0.749824120271186
 10
47.6519964716327
 20
3.223147496325157
 30
0.0
 10
47.63951202554344
 20
3.197712115234695
 30
0.0
 10
47.62073298105748
 20
3.159452335858032
 30
0.0
 10
47.54852616863126
 20
3.123581566082847
 30
0.0
 10
47.47087541715392
 20
3.148656348280267
 30
0.0
 10
47.36632892443545
 20
3.126295615125711
 30
0.0
 10
47.31599268437932
 20
3.227292870781313
 30
0.0
 10
47.31646382094869
 20
3.323012221465296
 30
0.0
 10
47.33589011103828
 20
3.407047373571278
 30
0.0
 10
47.3852205571317
 20
3.471881222727494
 30
0.0
 10
47.43349323073154
 20
3.47828833584999
 30
0.0
 10
47.46638226319168
 20
3.482653616157609
 30
0.0
 11
47.6519964716327
 21
3.223147496325157
 31
0.0
 11
47.60559295386673
 21
3.155181591069368
 31
0.0
 11
47.5684700847031
 21
3.136645479800524
 31
0.0
 11
47.4632888052423
 21
3.139734819968911
 31
0.0
 11
47.37357522765974
 21
3.145913500305656
 31
0.0
 11
47.32717170989377
 21
3.216968745729818
 31
0.0
 11
47.32098465661791
 21
3.3281856943772
 31
0.0
 11
47.34882673980205
 21
3.420866391238579
 31
0.0
 11
47.37666882298622
 21
3.454849343866474
 31
0.0
 11
47.46638226319168
 21
3.482653616157609
 31
0.0
  0
SPLINE
  5
F3B5
330
18
100
AcDbEntity
  8
0
100
AcDbSpline
210
0.0
220
0.0
230
1.0
 70
     8
 71
     3
 72
    13
 73
     9
 74
     7
 42
0.0000000001
 43
0.0000000001
 44
0.0000000001
 40
0.0
 40
0.0
 40
0.0
 40
0.0
 40
0.0804166957202089
 40
0.1764250625371498
 40
0.2401269296774222
 40
0.3135744890150093
 40
0.4391329206714682
 40
0.4986212074401707
 40
0.4986212074401707
 40
0.4986212074401707
 40
0.4986212074401707
 10
47.36429457905739
 20
3.445581253102762
 30
0.0
 10
47.33701448419277
 20
3.453004127994051
 30
0.0
 10
47.27716506611601
 20
3.46928906926368
 30
0.0
 10
47.24545779359266
 20
3.547956458832489
 30
0.0
 10
47.19958738785478
 20
3.617302857325636
 30
0.0
 10
47.24739173733599
 20
3.705131714905313
 30
0.0
 10
47.3196291895972
 20
3.751042515376961
 30
0.0
 10
47.37449769344802
 20
3.7793877157939
 30
0.0
 10
47.39213666224156
 20
3.78850004929146
 30
0.0
 11
47.36429457905739
 21
3.445581253102762
 31
0.0
 11
47.29004884073014
 21
3.47647486556227
 31
0.0
 11
47.23745826968831
 21
3.556798201750144
 31
0.0
 11
47.21270964445351
 21
3.615496016242207
 31
0.0
 11
47.24055186501479
 21
3.683461851239403
 31
0.0
 11
47.3395459538226
 21
3.760695847258904
 31
0.0
 11
47.39213666224156
 21
3.78850004929146
 31
0.0
  0
SPLINE
  5
F3B6
330
18
100
AcDbEntity
  8
0
100
AcDbSpline
210
0.0
220
0.0
230
1.0
 70
     8
 71
     3
 72
    49
 73
    45
 74
    43
 42
0.0000000001
 43
0.0000000001
 44
0.0000000001
 40
0.0
 40
0.0
 40
0.0
 40
0.0
 40
0.1209000797746007
 40
0.1974441439220173
 40
0.2669364468269033
 40
0.3196178198992841
 40
0.3548718237094829
 40
0.4008055455888555
 40
0.4450410479071247
 40
0.5311157511669337
 40
0.6207605731884284
 40
0.7189484225912302
 40
0.8060255852396734
 40
0.9232744720296521
 40
1.037956894838516
 40
1.149560331286262
 40
1.239662365681708
 40
1.331474154765819
 40
1.397096883602342
 40
1.521455097556513
 40
1.635900732699891
 40
1.820442783347137
 40
2.080582354332999
 40
2.356297122115504
 40
2.606137155237958
 40
2.745033839890673
 40
2.923727600630678
 40
3.094201717214177
 40
3.22102983253219
 40
3.319609062627783
 40
3.371046737055159
 40
3.433225847523026
 40
3.487922354355109
 40
3.55287256538878
 40
3.656459342768024
 40
3.78982596375315
 40
3.951871134682929
 40
4.142190360594226
 40
4.348250329429387
 40
4.560507953402844
 40
4.687376959495964
 40
4.855436154313296
 40
5.063145065015575
 40
5.651355994595176
 40
5.651355994595176
 40
5.651355994595176
 40
5.651355994595176
 10
45.45517905357681
 20
16.6642367709899
 30
0.0
 10
45.47469834388268
 20
16.69995433352659
 30
0.0
 10
45.5065756558877
 20
16.7582853418368
 30
0.0
 10
45.57382514106885
 20
16.81776120221681
 30
0.0
 10
45.62645320282735
 20
16.85807461074099
 30
0.0
 10
45.68404502139305
 20
16.86659145762272
 30
0.0
 10
45.72058006253969
 20
16.83633706674353
 30
0.0
 10
45.73567666410004
 20
16.79420930810787
 30
0.0
 10
45.7186042811972
 20
16.73635674422562
 30
0.0
 10
45.68059925230584
 20
16.67112724430111
 30
0.0
 10
45.69411315848894
 20
16.57727642075953
 30
0.0
 10
45.70756989589961
 20
16.48596187100916
 30
0.0
 10
45.76432865518383
 20
16.40065288398811
 30
0.0
 10
45.7973502205685
 20
16.29768089152017
 30
0.0
 10
45.80424121518089
 20
16.184348443615
 30
0.0
 10
45.79777879538356
 20
16.07339521650658
 30
0.0
 10
45.85781231743929
 20
15.99447959980867
 30
0.0
 10
45.90939333245221
 20
15.92090645540768
 30
0.0
 10
46.00889372701606
 20
15.91964734723661
 30
0.0
 10
46.10845954413187
 20
15.91317421833086
 30
0.0
 10
46.24433903205434
 20
15.86631076478716
 30
0.0
 10
46.39497044319831
 20
15.75373432424795
 30
0.0
 10
46.56639933309423
 20
15.58415145997665
 30
0.0
 10
46.70374383226861
 20
15.35669034528157
 30
0.0
 10
46.88192127967094
 20
15.22148176039923
 30
0.0
 10
47.0298614063033
 20
15.10247878444183
 30
0.0
 10
47.18359983053407
 20
15.04310513150747
 30
0.0
 10
47.33641407150954
 20
15.00089080304461
 30
0.0
 10
47.47714922339755
 20
15.0229538350584
 30
0.0
 10
47.53811319568074
 20
15.09429770214863
 30
0.0
 10
47.56521275973823
 20
15.17073050414289
 30
0.0
 10
47.63371212296235
 20
15.15528809166043
 30
0.0
 10
47.68274716420082
 20
15.11418182504792
 30
0.0
 10
47.67554539247307
 20
15.0332334792447
 30
0.0
 10
47.65053268573433
 20
14.93540326186496
 30
0.0
 10
47.5433748738005
 20
14.84396630908068
 30
0.0
 10
47.39366131349934
 20
14.78211004057132
 30
0.0
 10
47.20522054634434
 20
14.75657064775525
 30
0.0
 10
47.00621633869867
 20
14.79392112570759
 30
0.0
 10
46.82297393666247
 20
14.83458063647157
 30
0.0
 10
46.69815935704116
 20
14.95600957326556
 30
0.0
 10
46.62171042880684
 20
15.10583807630257
 30
0.0
 10
46.42342612009058
 20
15.36036775138606
 30
0.0
 10
46.23440497026841
 20
15.54682156170048
 30
0.0
 10
46.09471212606473
 20
15.684617057601
 30
0.0
 11
45.45517905357681
 21
16.6642367709899
 31
0.0
 11
45.52043524541534
 21
16.76601328456862
 31
0.0
 11
45.57611954916078
 21
16.81853234846536
 31
0.0
 11
45.63489731085559
 21
16.85560464126162
 31
0.0
 11
45.68748801927452
 21
16.85869405168858
 31
0.0
 11
45.71533010245869
 21
16.83706852999278
 31
0.0
 11
45.73079794171403
 21
16.79381748660117
 31
0.0
 11
45.72151715573454
 21
16.75056651346816
 31
0.0
 11
45.69058147722389
 21
16.67024317728029
 31
0.0
 11
45.6936750725504
 21
16.5806517503287
 31
0.0
 11
45.71533010245869
 21
16.48488164304037
 31
0.0
 11
45.75554642957169
 21
16.40764771727945
 31
0.0
 11
45.79266929873532
 21
16.29643083889065
 31
0.0
 11
45.80194994733767
 21
16.18212455007489
 31
0.0
 11
45.81123073331712
 21
16.07090767168609
 31
0.0
 11
45.85763425108311
 21
15.99367367566659
 31
0.0
 11
45.9225992034309
 21
15.92879718083776
 31
0.0
 11
45.98756415577867
 21
15.91952909007405
 31
0.0
 11
46.11130686982128
 21
15.90717165914197
 31
0.0
 11
46.21958174460854
 21
15.8700993663457
 31
0.0
 11
46.37219632071392
 21
15.7663469706275
 31
0.0
 11
46.55471679645131
 21
15.58098550664616
 31
0.0
 11
46.72176957031052
 21
15.36164101977835
 31
0.0
 11
46.9104772367009
 21
15.19790507749282
 31
0.0
 11
47.02278261876131
 21
15.11617509420774
 31
0.0
 11
47.18674179729402
 21
15.04511984878359
 31
0.0
 11
47.3537944337761
 21
15.01113689615569
 31
0.0
 11
47.4775372851958
 21
15.03894116844683
 31
0.0
 11
47.5425022375436
 21
15.11308575403936
 31
0.0
 11
47.57034432072777
 21
15.15633679743097
 31
0.0
 11
47.63221567774905
 21
15.15015804683563
 31
0.0
 11
47.67243200486205
 21
15.11308575403936
 31
0.0
 11
47.67552560018856
 21
15.04820925921054
 31
0.0
 11
47.64458992167789
 21
14.94934974149524
 31
0.0
 11
47.54868929081945
 21
14.85666897437528
 31
0.0
 11
47.40019795154208
 21
14.79179247954646
 31
0.0
 11
47.21149028515168
 21
14.76707761768229
 31
0.0
 11
47.00731477950597
 21
14.79488181971485
 31
0.0
 11
46.80623286918677
 21
14.86284772497062
 31
0.0
 11
46.71342583365481
 21
14.94934974149524
 31
0.0
 11
46.62371239344935
 21
15.09146023234357
 31
0.0
 11
46.49996954202964
 21
15.25828558505606
 31
0.0
 11
46.09471212606473
 21
15.684617057601
 31
0.0
  0
SPLINE
  5
F3B7
330
18
100
AcDbEntity
  8
0
100
AcDbSpline
210
0.0
220
0.0
230
1.0
 70
     8
 71
     3
 72
    19
 73
    15
 74
    13
 42
0.0000000001
 43
0.0000000001
 44
0.0000000001
 40
0.0
 40
0.0
 40
0.0
 40
0.0
 40
0.1645124378519377
 40
0.3915957144641877
 40
0.5554485796575881
 40
0.6079835089877675
 40
0.707170367535961
 40
0.8316502082257088
 40
1.089810082554875
 40
1.310603561973347
 40
1.506901568347159
 40
1.792973262626174
 40
1.961671550275537
 40
2.077187345317121
 40
2.077187345317121
 40
2.077187345317121
 40
2.077187345317121
 10
46.69448455134096
 20
14.9667381788051
 30
0.0
 10
46.72268758176935
 20
14.91928400688217
 30
0.0
 10
46.78982041375983
 20
14.80632689189984
 30
0.0
 10
46.82661635553031
 20
14.62330286519665
 30
0.0
 10
46.85531034009303
 20
14.47625468021764
 30
0.0
 10
46.81030010191096
 20
14.36936287236856
 30
0.0
 10
46.69629547025798
 20
14.38137482791195
 30
0.0
 10
46.56654560542004
 20
14.46437456058149
 30
0.0
 10
46.39113746722633
 20
14.57131001952425
 30
0.0
 10
46.23341083028988
 20
14.73375031526978
 30
0.0
 10
46.10438096276308
 20
14.9309486536387
 30
0.0
 10
46.02088273287034
 20
15.13202421215756
 30
0.0
 10
45.92429920388883
 20
15.29605581288592
 30
0.0
 10
45.88384718066982
 20
15.38176000245232
 30
0.0
 10
45.86740588550617
 20
15.41659355996791
 30
0.0
 11
46.69448455134096
 21
14.9667381788051
 31
0.0
 11
46.77182374761758
 21
14.82153834778842
 31
0.0
 11
46.83060164668953
 21
14.60219393117919
 31
0.0
 11
46.83678869996538
 21
14.43845791863507
 31
0.0
 11
46.81204021210771
 21
14.39211753507509
 31
0.0
 11
46.71304598592278
 21
14.38593885473833
 31
0.0
 11
46.60167751580902
 21
14.44154725880344
 31
0.0
 11
46.38822136156096
 21
14.58674708982014
 31
0.0
 11
46.23354283163061
 21
14.7443044220275
 31
0.0
 11
46.12526795684334
 21
14.90804036431304
 31
0.0
 11
45.99843164747426
 21
15.16445714397712
 31
0.0
 11
45.91799885587113
 21
15.31274631516219
 31
0.0
 11
45.86740588550617
 21
15.41659355996791
 31
0.0
  0
SPLINE
  5
F3B8
330
18
100
AcDbEntity
  8
0
100
AcDbSpline
210
0.0
220
0.0
230
1.0
 70
     8
 71
     3
 72
     9
 73
     5
 74
     3
 42
0.0000000001
 43
0.0000000001
 44
0.0000000001
 40
0.0
 40
0.0
 40
0.0
 40
0.0
 40
0.1015223348022447
 40
0.2746811773968563
 40
0.2746811773968563
 40
0.2746811773968563
 40
0.2746811773968563
 10
45.23742505618344
 20
16.67408660282372
 30
0.0
 10
45.22767245398696
 20
16.64083899915979
 30
0.0
 10
45.20128558789262
 20
16.55088351362235
 30
0.0
 10
45.23936963338108
 20
16.46313602413048
 30
0.0
 10
45.26337779185993
 20
16.4078200615844
 30
0.0
 11
45.23742505618344
 21
16.67408660282372
 31
0.0
 11
45.21697427409395
 21
16.5746454142969
 31
0.0
 11
45.26337779185993
 21
16.4078200615844
 31
0.0
  0
SPLINE
  5
F3B9
330
18
100
AcDbEntity
  8
0
100
AcDbSpline
210
0.0
220
0.0
230
1.0
 70
     8
 71
     3
 72
    41
 73
    37
 74
    35
 42
0.0000000001
 43
0.0000000001
 44
0.0000000001
 40
0.0
 40
0.0
 40
0.0
 40
0.0
 40
0.0735189741644832
 40
0.2240528953874175
 40
0.2988775747170523
 40
0.359579201362262
 40
0.4371487727374028
 40
0.5264273296000347
 40
0.6488431469762805
 40
0.7997524947655349
 40
0.9661299370982618
 40
1.075833435938059
 40
1.161391864713281
 40
1.214739816716731
 40
1.304568431400504
 40
1.381001126270011
 40
1.453082675201264
 40
1.610039765212962
 40
1.825904590041994
 40
2.086266678930567
 40
2.396039865756168
 40
2.639471508109595
 40
2.840056778949684
 40
2.983807716092634
 40
3.139386846161206
 40
3.272505558192764
 40
3.358430269058715
 40
3.416149905819851
 40
3.467587580247228
 40
3.520051397383082
 40
3.670585454118962
 40
3.839025923464361
 40
4.081832362105889
 40
4.348164818310474
 40
4.577110856568618
 40
4.759785360254073
 40
4.759785360254073
 40
4.759785360254073
 40
4.759785360254073
 10
45.22625506007341
 20
16.49123273794065
 30
0.0
 10
45.20409357942997
 20
16.50212140173015
 30
0.0
 10
45.1365553151837
 20
16.53530517063691
 30
0.0
 10
45.02695999046328
 20
16.51933706405661
 30
0.0
 10
44.95195607107695
 20
16.44439655154983
 30
0.0
 10
44.97370871755604
 20
16.36240570858313
 30
0.0
 10
45.0548538451247
 20
16.34342715514596
 30
0.0
 10
45.15193663890538
 20
16.33236914351197
 30
0.0
 10
45.23247673255872
 20
16.22963242988152
 30
0.0
 10
45.30619140286991
 20
16.10665344845075
 30
0.0
 10
45.41455833127405
 20
16.00716664883876
 30
0.0
 10
45.52286756346284
 20
15.95591668258246
 30
0.0
 10
45.61956216204108
 20
15.96286618683379
 30
0.0
 10
45.65231021045309
 20
15.88527224959966
 30
0.0
 10
45.68525656573091
 20
15.82637462897113
 30
0.0
 10
45.7218656434492
 20
15.74258545738118
 30
0.0
 10
45.64039737696571
 20
15.66265632825657
 30
0.0
 10
45.63637786204854
 20
15.50584000344575
 30
0.0
 10
45.67019590355398
 20
15.29926895121351
 30
0.0
 10
45.77038406597455
 20
15.05396947244801
 30
0.0
 10
45.90544053201618
 20
14.81940571584915
 30
0.0
 10
46.03364067209902
 20
14.60239931324047
 30
0.0
 10
46.10624365130091
 20
14.42051629481269
 30
0.0
 10
46.1368958742508
 20
14.25197836771706
 30
0.0
 10
46.11003804101116
 20
14.11631823930216
 30
0.0
 10
46.08876295378306
 20
13.97128886701995
 30
0.0
 10
45.98241783185311
 20
13.95488045358934
 30
0.0
 10
45.95970696310239
 20
13.87910248554476
 30
0.0
 10
45.99862575285092
 20
13.83760738640408
 30
0.0
 10
46.05331653641017
 20
13.76788606595597
 30
0.0
 10
46.20456404670547
 20
13.81948021887562
 30
0.0
 10
46.32309737115666
 20
13.96141163793065
 30
0.0
 10
46.37168043742455
 20
14.19176591556776
 30
0.0
 10
46.35878363321308
 20
14.44059344534767
 30
0.0
 10
46.26635099935953
 20
14.64986587786023
 30
0.0
 10
46.20227107848378
 20
14.77091516638679
 30
0.0
 10
46.17383282881116
 20
14.82463604872821
 30
0.0
 11
45.22625506007341
 21
16.49123273794065
 31
0.0
 11
45.15819651239914
 21
16.51903693997321
 31
0.0
 11
45.00970531049887
 21
16.49432207810902
 31
0.0
 11
44.96330165535579
 21
16.43562426361696
 31
0.0
 11
44.9787694946111
 21
16.37692644912488
 31
0.0
 11
45.04992163761187
 21
16.34603290692395
 31
0.0
 11
45.13654148249085
 21
16.32440738522816
 31
0.0
 11
45.22316146474693
 21
16.23790529844495
 31
0.0
 11
45.30978144700301
 21
16.11433098912406
 31
0.0
 11
45.43352416104562
 21
16.00311411073526
 31
0.0
 11
45.53561184517991
 21
15.96295240751202
 31
0.0
 11
45.61913823210952
 21
15.94441629624319
 31
0.0
 11
45.64722347279302
 21
15.89905967336723
 31
0.0
 11
45.68743979990602
 21
15.81873640743795
 31
0.0
 11
45.70600123448784
 21
15.74459175158684
 31
0.0
 11
45.66887850270131
 21
15.68280459692639
 31
0.0
 11
45.64103628214005
 21
15.52833667514598
 31
0.0
 11
45.67506555597719
 21
15.31517093887351
 31
0.0
 11
45.76866814240108
 21
15.07221626584749
 31
0.0
 11
45.91715934430135
 21
14.80035271508296
 31
0.0
 11
46.03471500506808
 21
14.58718697881048
 31
0.0
 11
46.10599518354308
 21
14.39969408018613
 31
0.0
 11
46.12765021345137
 21
14.25758358933782
 31
0.0
 11
46.10908877886956
 21
14.10311566755741
 31
0.0
 11
46.05959166577711
 21
13.97954128797793
 31
0.0
 11
45.98534606482698
 21
13.93629031484491
 31
0.0
 11
45.96987822557164
 21
13.88068184052122
 31
0.0
 11
45.99772030875581
 21
13.83743079712962
 31
0.0
 11
46.03484304054231
 21
13.80035850433335
 31
0.0
 11
46.18333437981971
 21
13.82507336619753
 31
0.0
 11
46.29779644525996
 21
13.948647745777
 31
0.0
 11
46.35966780228125
 21
14.18343893348669
 31
0.0
 11
46.34110636769944
 21
14.44912380391448
 31
0.0
 11
46.25757998076983
 21
14.66228954018695
 31
0.0
 11
46.17383282881116
 21
14.82463604872821
 31
0.0
  0
LINE
  5
F3BA
330
18
100
AcDbEntity
  8
0
100
AcDbLine
 10
46.59792574670888
 20
14.67415480974269
 30
0.0
 11
45.80824401738865
 21
15.77794455498068
 31
0.0
  0
LINE
  5
F3BB
330
18
100
AcDbEntity
  8
0
100
AcDbLine
 10
45.41204181417498
 20
16.46569774763306
 30
0.0
 11
45.65024659365784
 21
16.02083016381927
 31
0.0
  0
SPLINE
  5
F3BC
330
18
100
AcDbEntity
  8
0
100
AcDbSpline
210
0.0
220
0.0
230
1.0
 70
    24
 71
     3
 72
     8
 73
     4
 74
     2
 42
0.0000000001
 43
0.0000000001
 44
0.0000000001
 40
0.0
 40
0.0
 40
0.0
 40
0.0
 40
0.1110078904350121
 40
0.1110078904350121
 40
0.1110078904350121
 40
0.1110078904350121
 10
45.45517905357681
 20
16.6642367709899
 30
0.0
 10
45.46967183583897
 20
16.6301904217003
 30
0.0
 10
45.48416461810114
 20
16.5961440724107
 30
0.0
 10
45.4986574003633
 20
16.5620977231211
 30
0.0
 11
45.45517905357681
 21
16.6642367709899
 31
0.0
 11
45.4986574003633
 21
16.5620977231211
 31
0.0
  0
SPLINE
  5
F3BD
330
18
100
AcDbEntity
  8
0
100
AcDbSpline
210
0.0
220
0.0
230
1.0
 70
     8
 71
     3
 72
     9
 73
     5
 74
     3
 42
0.0000000001
 43
0.0000000001
 44
0.0000000001
 40
0.0
 40
0.0
 40
0.0
 40
0.0
 40
0.1749283879083454
 40
0.2792814350153583
 40
0.2792814350153583
 40
0.2792814350153583
 40
0.2792814350153583
 10
45.93070514029486
 20
15.91908842823931
 30
0.0
 10
45.89575860157419
 20
15.8674288442858
 30
0.0
 10
45.83996480161162
 20
15.78495187807496
 30
0.0
 10
45.74387281297574
 20
15.77464888365186
 30
0.0
 10
45.70796820006734
 20
15.77079918679564
 30
0.0
 11
45.93070514029486
 21
15.91908842823931
 31
0.0
 11
45.81005588420163
 21
15.79242470849145
 31
0.0
 11
45.70796820006734
 21
15.77079918679564
 31
0.0
  0
SPLINE
  5
F3BE
330
18
100
AcDbEntity
  8
0
100
AcDbSpline
210
0.0
220
0.0
230
1.0
 70
     8
 71
     3
 72
    17
 73
    13
 74
    11
 42
0.0000000001
 43
0.0000000001
 44
0.0000000001
 40
0.0
 40
0.0
 40
0.0
 40
0.0
 40
0.6309501362374024
 40
1.404967271634435
 40
1.665740877316729
 40
1.88234970308138
 40
2.017308717379764
 40
2.09475199657513
 40
2.207652499481216
 40
2.343349587202779
 40
2.548743690076394
 40
2.792556340244572
 40
2.792556340244572
 40
2.792556340244572
 40
2.792556340244572
 10
46.48100710363959
 20
14.51865113592658
 30
0.0
 10
46.58417480049233
 20
14.33584459089014
 30
0.0
 10
46.81390331506617
 20
13.92878039030467
 30
0.0
 10
47.08541206900835
 20
13.43742503327323
 30
0.0
 10
47.19298527743714
 20
13.03483239319792
 30
0.0
 10
47.20074132647982
 20
12.82321386860865
 30
0.0
 10
47.11678043243735
 20
12.6941475801035
 30
0.0
 10
47.17192759369919
 20
12.57492660780581
 30
0.0
 10
47.31049592631725
 20
12.6140401596905
 30
0.0
 10
47.36644658335403
 20
12.76129385223795
 30
0.0
 10
47.3901698135302
 20
12.95635441010158
 30
0.0
 10
47.35831097424948
 20
13.10394283098225
 30
0.0
 10
47.341019186039
 20
13.18404831422663
 30
0.0
 11
46.48100710363959
 21
14.51865113592658
 31
0.0
 11
46.7903640261232
 21
13.96874535406074
 31
0.0
 11
47.12446929908736
 21
13.27055040100983
 31
0.0
 11
47.18634079348578
 21
13.01722296151412
 31
0.0
 11
47.17396641217982
 21
12.80096788507328
 31
0.0
 11
47.1368436803933
 21
12.67121489541563
 31
0.0
 11
47.17396641217982
 21
12.60324899015986
 31
0.0
 11
47.28533488229357
 21
12.6217851014287
 31
0.0
 11
47.35339342996787
 21
12.73918073041283
 31
0.0
 11
47.37814191782553
 21
12.94307837592159
 31
0.0
 11
47.341019186039
 21
13.18404831422663
 31
0.0
  0
SPLINE
  5
F3BF
330
18
100
AcDbEntity
  8
0
100
AcDbSpline
210
0.0
220
0.0
230
1.0
 70
     8
 71
     3
 72
    19
 73
    15
 74
    13
 42
0.0000000001
 43
0.0000000001
 44
0.0000000001
 40
0.0
 40
0.0
 40
0.0
 40
0.0
 40
0.3932982156721296
 40
0.8916094331459712
 40
1.294741111528299
 40
1.53151860809051
 40
1.729892192453199
 40
1.822699227985161
 40
1.899131854699304
 40
2.045650808318969
 40
2.192283461098161
 40
2.384482394746156
 40
2.544943886352116
 40
2.767952262640203
 40
2.767952262640203
 40
2.767952262640203
 40
2.767952262640203
 10
46.81511251398086
 20
14.37654064507827
 30
0.0
 10
46.88100647884295
 20
14.2627278777816
 30
0.0
 10
47.03038849563655
 20
14.00471364611077
 30
0.0
 10
47.24959983696959
 20
13.64204785869161
 30
0.0
 10
47.42112095823043
 20
13.27700212636749
 30
0.0
 10
47.71085923882796
 20
13.18335417293162
 30
0.0
 10
47.86998778329937
 20
13.19543848103058
 30
0.0
 10
48.02054731133495
 20
13.23352472521455
 30
0.0
 10
48.03804388747312
 20
13.10208416793461
 30
0.0
 10
47.968689454356
 20
12.99562480163405
 30
0.0
 10
47.8181084195111
 20
12.91684609354606
 30
0.0
 10
47.64398375476461
 20
12.93539748225926
 30
0.0
 10
47.47117595571511
 20
13.02647518747875
 30
0.0
 10
47.38887918785574
 20
13.12610703194688
 30
0.0
 10
47.341019186039
 20
13.18404831422663
 30
0.0
 11
46.81511251398086
 21
14.37654064507827
 31
0.0
 11
47.01310096635071
 21
14.03671118905794
 31
0.0
 11
47.2605863944359
 21
13.60420103617624
 31
0.0
 11
47.49569757859226
 21
13.27672908134659
 31
0.0
 11
47.71843451881977
 21
13.19640574515872
 31
0.0
 11
47.9164228338125
 21
13.2087631760908
 31
0.0
 11
48.00922986934446
 21
13.2087631760908
 31
0.0
 11
48.02779130392628
 21
13.13461859049827
 31
0.0
 11
47.95973289362911
 21
13.00486553058204
 31
0.0
 11
47.82980298893355
 21
12.93689969558484
 31
0.0
 11
47.63800172721667
 21
12.94925712651693
 31
0.0
 11
47.49569757859226
 21
13.02340171210946
 31
0.0
 11
47.341019186039
 21
13.18404831422663
 31
0.0
  0
SPLINE
  5
F3C0
330
18
100
AcDbEntity
  8
0
100
AcDbSpline
210
0.0
220
0.0
230
1.0
 70
     8
 71
     3
 72
    43
 73
    39
 74
    37
 42
0.0000000001
 43
0.0000000001
 44
0.0000000001
 40
0.0
 40
0.0
 40
0.0
 40
0.0
 40
0.4030419214868977
 40
0.7518262119810877
 40
0.9876669610916257
 40
1.240010606536553
 40
1.465520949591817
 40
1.61037385906181
 40
1.736560560720855
 40
1.841840119745996
 40
1.925889597440904
 40
1.994988637724462
 40
2.081150399869082
 40
2.353906468715038
 40
2.712812244734116
 40
3.023386297536104
 40
3.243086443515269
 40
3.409618968066995
 40
3.526995673714447
 40
3.690289352631347
 40
3.974577600413162
 40
4.534452113566316
 40
4.920717021893236
 40
5.176782506667684
 40
5.281932130690249
 40
5.364473159191494
 40
5.464312138599519
 40
5.533411116059006
 40
5.67035063880049
 40
5.783105775678082
 40
5.933589515044298
 40
6.079877656512271
 40
6.35836731285295
 40
6.627998815808738
 40
6.936859778309874
 40
7.27495865027605
 40
7.779255933066215
 40
8.086547565116434
 40
8.086547565116434
 40
8.086547565116434
 40
8.086547565116434
 10
47.95490683546404
 20
12.47520454873205
 30
0.0
 10
48.04087108373487
 20
12.37556648734471
 30
0.0
 10
48.20122704597529
 20
12.18970367191938
 30
0.0
 10
48.44915902600529
 20
11.92797085830538
 30
0.0
 10
48.74720449610726
 20
11.96492827193955
 30
0.0
 10
48.95849506958657
 20
12.10110092187982
 30
0.0
 10
49.01304484139973
 20
12.32727820995552
 30
0.0
 10
48.89624938077972
 20
12.48975429141812
 30
0.0
 10
48.76456000017786
 20
12.45240068902675
 30
0.0
 10
48.66327935657174
 20
12.36515841704613
 30
0.0
 10
48.73355422450813
 20
12.28717138978572
 30
0.0
 10
48.68607543258585
 20
12.18811027642686
 30
0.0
 10
48.53892103074172
 20
12.29660522930017
 30
0.0
 10
48.34359986255996
 20
12.38434855804135
 30
0.0
 10
48.15594347841894
 20
12.6680305565728
 30
0.0
 10
47.92347254203024
 20
12.83399644287614
 30
0.0
 10
47.66830998033522
 20
12.9211158449844
 30
0.0
 10
47.54543242049865
 20
12.77879478815156
 30
0.0
 10
47.38306802575251
 20
12.76877068125997
 30
0.0
 10
47.30109926818457
 20
12.56559184131717
 30
0.0
 10
47.34689790573788
 20
12.23761372798015
 30
0.0
 10
47.426267001756
 20
11.83170542583446
 30
0.0
 10
47.51799949820025
 20
11.44445731412621
 30
0.0
 10
47.45576727605299
 20
11.17604345141057
 30
0.0
 10
47.32360233658104
 20
11.09274199253479
 30
0.0
 10
47.21149149112075
 20
11.11213650281272
 30
0.0
 10
47.19944223200445
 20
11.2037960548372
 30
0.0
 10
47.16363405921343
 20
11.31396689991588
 30
0.0
 10
47.00769636030863
 20
11.24997212898038
 30
0.0
 10
47.00994030411638
 20
11.10657809879533
 30
0.0
 10
47.05237217701911
 20
10.97652492015053
 30
0.0
 10
47.19605253652921
 20
10.82974438380117
 30
0.0
 10
47.45915548531498
 20
10.86235447276151
 30
0.0
 10
47.69571759147483
 20
11.03648018008946
 30
0.0
 10
47.80009795060689
 20
11.34679860770064
 30
0.0
 10
47.71978649022237
 20
11.72892731610649
 30
0.0
 10
47.59011032969073
 20
12.08819652784227
 30
0.0
 10
47.52229423012794
 20
12.35037526779139
 30
0.0
 10
47.4966170436449
 20
12.44964391404155
 30
0.0
 11
47.95490683546404
 21
12.47520454873205
 31
0.0
 11
48.22095369813104
 21
12.17244745576659
 31
0.0
 11
48.499374942104
 21
11.96237105966249
 31
0.0
 11
48.73448612626035
 21
11.98090724118991
 31
0.0
 11
48.93866163190605
 21
12.12919641237498
 31
0.0
 11
48.97578450106968
 21
12.35163023941117
 31
0.0
 11
48.88297732816062
 21
12.46284711779997
 31
0.0
 11
48.75923461411804
 21
12.43813225593578
 31
0.0
 11
48.69117620382088
 21
12.35780891974791
 31
0.0
 11
48.71592469167854
 21
12.27748565381863
 31
0.0
 11
48.68498901316789
 21
12.2156984288996
 31
0.0
 11
48.60455622156479
 21
12.24659204135911
 31
0.0
 11
48.37563222806139
 21
12.39488121254418
 31
0.0
 11
48.13433385325206
 21
12.66056608297197
 31
0.0
 11
47.88066123451389
 21
12.83974879635798
 31
0.0
 11
47.66411148493935
 21
12.87682115941283
 31
0.0
 11
47.52180733631493
 21
12.79031907262962
 31
0.0
 11
47.41043886620118
 21
12.75324677983335
 31
0.0
 11
47.33000607459809
 21
12.61113628898504
 31
0.0
 11
47.33619326525103
 21
12.32691537754698
 31
0.0
 11
47.44137454471183
 21
11.77700959568115
 31
0.0
 11
47.49087165780429
 21
11.3939291665278
 31
0.0
 11
47.4042516755482
 21
11.15295922822277
 31
0.0
 11
47.31144464001627
 21
11.10352950449442
 31
0.0
 11
47.23101184841314
 21
11.12206561576326
 31
0.0
 11
47.19388911662664
 21
11.21474638288322
 31
0.0
 11
47.16295343811601
 21
11.27653353754366
 31
0.0
 11
47.03302353342041
 21
11.23328249415207
 31
0.0
 11
47.01446209883861
 21
11.12206561576326
 31
0.0
 11
47.06395921193106
 21
10.97995512491494
 31
0.0
 11
47.16953833552639
 21
10.87869669812983
 31
0.0
 11
47.44795944212222
 21
10.88487537846658
 31
0.0
 11
47.66450919169677
 21
11.04552205084232
 31
0.0
 11
47.76969060853466
 21
11.3359217128757
 31
0.0
 11
47.72554103714827
 21
11.67112562480276
 31
0.0
 11
47.577049835248
 21
12.15306557167141
 31
0.0
 11
47.4966170436449
 21
12.44964391404155
 31
0.0
  0
SPLINE
  5
F3C1
330
18
100
AcDbEntity
  8
0
100
AcDbSpline
210
0.0
220
0.0
230
1.0
 70
     8
 71
     3
 72
    22
 73
    18
 74
    16
 42
0.0000000001
 43
0.0000000001
 44
0.0000000001
 40
0.0
 40
0.0
 40
0.0
 40
0.0
 40
0.6606475205677328
 40
1.387068068881113
 40
1.832322778562662
 40
2.143152559772922
 40
2.453154179313089
 40
2.744539844385442
 40
2.972574738817653
 40
3.132999450881809
 40
3.213669210121418
 40
3.310261454848824
 40
3.389429735653197
 40
3.479506623493607
 40
3.664959138341515
 40
3.885508469485704
 40
4.072514797668243
 40
4.072514797668243
 40
4.072514797668243
 40
4.072514797668243
 10
47.55230121001321
 20
12.61029058641728
 30
0.0
 10
47.65440461549199
 20
12.41525865357001
 30
0.0
 10
47.86877668085891
 20
12.0057777154865
 30
0.0
 10
48.1336754809832
 20
11.4538908357875
 30
0.0
 10
48.19454419958764
 20
10.94359756307451
 30
0.0
 10
48.0195879982348
 20
10.60769294361664
 30
0.0
 10
47.74286995566296
 20
10.46365483093234
 30
0.0
 10
47.43068028849058
 20
10.45149101873048
 30
0.0
 10
47.29090687882234
 20
10.65603638721817
 30
0.0
 10
47.31362993281932
 20
10.85781996270017
 30
0.0
 10
47.44649145779042
 20
10.86395125416886
 30
0.0
 10
47.50915892844044
 20
10.80340121561805
 30
0.0
 10
47.55200565791038
 20
10.70684100869229
 30
0.0
 10
47.6881901531047
 20
10.76907721704639
 30
0.0
 10
47.76993510509194
 20
10.90876612389407
 30
0.0
 10
47.81398628985987
 20
11.10986475920667
 30
0.0
 10
47.7872944532292
 20
11.24388039779552
 30
0.0
 10
47.77504694237632
 20
11.30537328083618
 30
0.0
 11
47.55230121001321
 21
12.61029058641728
 31
0.0
 11
47.85547094184386
 21
12.02331251175518
 31
0.0
 11
48.12770499516384
 21
11.34983242056845
 31
0.0
 11
48.14626642974565
 21
10.90496476649607
 31
0.0
 11
47.99778388260384
 21
10.63189318964945
 31
0.0
 11
47.72554996666096
 21
10.4836039482058
 31
0.0
 11
47.43475447875917
 21
10.50214012973322
 31
0.0
 11
47.31101176471656
 21
10.6936803443099
 31
0.0
 11
47.35432168715604
 21
10.84814826609029
 31
0.0
 11
47.43475447875917
 21
10.85432694642705
 31
0.0
 11
47.50900007970929
 21
10.7925397917666
 31
0.0
 11
47.55849719280175
 21
10.73075263710617
 31
0.0
 11
47.64511717505786
 21
10.75546749897033
 31
0.0
 11
47.75648564517161
 21
10.903756740414
 31
0.0
 11
47.79979556761108
 21
11.12001181685484
 31
0.0
 11
47.77504694237632
 21
11.30537328083618
 31
0.0
  0
SPLINE
  5
F3C2
330
18
100
AcDbEntity
  8
0
100
AcDbSpline
210
0.0
220
0.0
230
1.0
 70
     8
 71
     3
 72
    22
 73
    18
 74
    16
 42
0.0000000001
 43
0.0000000001
 44
0.0000000001
 40
0.0
 40
0.0
 40
0.0
 40
0.0
 40
0.2982681862372978
 40
0.7124271321046783
 40
1.011589537498371
 40
1.293524014428886
 40
1.429313061692081
 40
1.556759616437639
 40
1.63224946723973
 40
1.745921241666886
 40
1.875821733913067
 40
2.040413908248382
 40
2.220763423448323
 40
2.469846859603078
 40
2.823999127301552
 40
3.282594922380175
 40
3.581487579663621
 40
3.581487579663621
 40
3.581487579663621
 40
3.581487579663621
 10
48.21433376955548
 20
11.06440334253115
 30
0.0
 10
48.24020296877626
 20
10.9681764605924
 30
0.0
 10
48.30199272799664
 20
10.7383341753798
 30
0.0
 10
48.31237265133987
 20
10.39805101357867
 30
0.0
 10
48.24483114332299
 20
10.06600094667879
 30
0.0
 10
48.17922479200584
 20
9.8531982434361
 30
0.0
 10
47.98730403761565
 20
9.699321465921562
 30
0.0
 10
47.93747014798781
 20
9.834182673151509
 30
0.0
 10
47.84524833418966
 20
9.915208602638855
 30
0.0
 10
47.75280589423793
 20
9.798807343012072
 30
0.0
 10
47.7767037177552
 20
9.662866080596044
 30
0.0
 10
47.86664631701506
 20
9.523279189522883
 30
0.0
 10
48.06475787136527
 20
9.44560112732625
 30
0.0
 10
48.32811771280791
 20
9.531147622958194
 30
0.0
 10
48.58716977056189
 20
9.800619128207628
 30
0.0
 10
48.63597115399279
 20
10.18187692984341
 30
0.0
 10
48.66704473004634
 20
10.43101657287279
 30
0.0
 10
48.67930585916187
 20
10.52932303511324
 30
0.0
 11
48.21433376955548
 21
11.06440334253115
 31
0.0
 11
48.28239217985265
 21
10.77400368049776
 31
0.0
 11
48.29476656115861
 21
10.36002963888491
 31
0.0
 11
48.24001916935981
 21
10.0659193400306
 31
0.0
 11
48.1162763179401
 21
9.81259197079348
 31
0.0
 11
47.99872079455048
 21
9.744626065537705
 31
0.0
 11
47.91828800294737
 21
9.843485512994408
 31
0.0
 11
47.85641664592605
 21
9.886736556386015
 31
0.0
 11
47.77598385432296
 21
9.806413220198141
 31
0.0
 11
47.78217104497594
 21
9.676660160281915
 31
0.0
 11
47.87497808050787
 21
9.540728420028944
 31
0.0
 11
48.04203071698996
 21
9.472762514773155
 31
0.0
 11
48.28332909179929
 21
9.534549669433605
 31
0.0
 11
48.5308145198845
 21
9.787877108929311
 31
0.0
 11
48.64218298999825
 21
10.2327446927431
 31
0.0
 11
48.67930585916187
 21
10.52932303511324
 31
0.0
  0
SPLINE
  5
F3C3
330
18
100
AcDbEntity
  8
0
100
AcDbSpline
210
0.0
220
0.0
230
1.0
 70
     8
 71
     3
 72
    21
 73
    17
 74
    15
 42
0.0000000001
 43
0.0000000001
 44
0.0000000001
 40
0.0
 40
0.0
 40
0.0
 40
0.0
 40
0.4023301345034444
 40
0.8105156019640265
 40
1.179200970733295
 40
1.522616205374331
 40
1.662780944644187
 40
1.820514463314801
 40
1.926419173541735
 40
2.053822854450371
 40
2.159102448679627
 40
2.29144646964529
 40
2.42252043125231
 40
2.715558402303662
 40
3.297516170709317
 40
4.466928569585198
 40
4.466928569585198
 40
4.466928569585198
 40
4.466928569585198
 10
48.42584535069431
 20
11.98517018073453
 30
0.0
 10
48.52729988981508
 20
11.89700803716521
 30
0.0
 10
48.73168549207413
 20
11.7194006775929
 30
0.0
 10
48.9489283241134
 20
11.38096289924719
 30
0.0
 10
49.03509926002834
 20
11.01500117995158
 30
0.0
 10
49.02371459701765
 20
10.7187697598502
 30
0.0
 10
48.88186066676938
 20
10.53478305375496
 30
0.0
 10
48.74208730308052
 20
10.52953628797668
 30
0.0
 10
48.60126453008222
 20
10.51670749502476
 30
0.0
 10
48.54018381164408
 20
10.66011145035618
 30
0.0
 10
48.64155430208223
 20
10.74807132559395
 30
0.0
 10
48.76109444976219
 20
10.8015013999979
 30
0.0
 10
48.77315408399216
 20
11.01359285705947
 30
0.0
 10
48.554220729123
 20
11.27995289347829
 30
0.0
 10
48.24974857616656
 20
11.88769865289671
 30
0.0
 10
47.89485040778245
 20
12.35456392859815
 30
0.0
 10
47.65788033360851
 20
12.66629588121973
 30
0.0
 11
48.42584535069431
 21
11.98517018073453
 31
0.0
 11
48.71664083859613
 21
11.70712787937464
 31
0.0
 11
48.93319058817067
 21
11.36111981327615
 31
0.0
 11
49.01981057042675
 21
11.00275424598698
 31
0.0
 11
48.9703134573343
 21
10.66292478996665
 31
0.0
 11
48.87750642180233
 21
10.55788666217319
 31
0.0
 11
48.72282789187199
 21
10.52699304971368
 31
0.0
 11
48.61764661241119
 21
10.53935048064577
 31
0.0
 11
48.56814949931873
 21
10.65674610962991
 31
0.0
 11
48.63620804699301
 21
10.73706937555919
 31
0.0
 11
48.74138932645379
 21
10.81739271174706
 31
0.0
 11
48.75995076103561
 21
10.94714577166329
 31
0.0
 11
48.62383380306417
 21
11.20665189149574
 31
0.0
 11
48.32685126188653
 21
11.70712787937464
 31
0.0
 11
47.65788033360851
 21
12.66629588121973
 31
0.0
  0
SPLINE
  5
F3C4
330
18
100
AcDbEntity
  8
0
100
AcDbSpline
210
0.0
220
0.0
230
1.0
 70
     8
 71
     3
 72
    10
 73
     6
 74
     4
 42
0.0000000001
 43
0.0000000001
 44
0.0000000001
 40
0.0
 40
0.0
 40
0.0
 40
0.0
 40
0.6467842138701006
 40
0.8506045406539424
 40
0.9927150315022668
 40
0.9927150315022668
 40
0.9927150315022668
 40
0.9927150315022668
 10
48.33850963365202
 20
11.68163637913014
 30
0.0
 10
48.4440548161185
 20
11.49341201283772
 30
0.0
 10
48.58286032423833
 20
11.24587272972497
 30
0.0
 10
48.6802083602882
 20
10.92442578044491
 30
0.0
 10
48.67482610663714
 20
10.80859258328314
 30
0.0
 10
48.67261504399329
 20
10.76100759904304
 30
0.0
 11
48.33850963365202
 21
11.68163637913014
 31
0.0
 11
48.62311793090083
 21
11.10083698480479
 31
0.0
 11
48.67261504399329
 21
10.90311808989137
 31
0.0
 11
48.67261504399329
 21
10.76100759904304
 31
0.0
  0
CIRCLE
  5
F3C5
330
18
100
AcDbEntity
  8
0
100
AcDbCircle
 10
46.73452254296357
 20
19.34199621548679
 30
0.0
 40
0.182898946860753
  0
SPLINE
  5
F3C6
330
18
100
AcDbEntity
  8
0
100
AcDbSpline
210
0.0
220
0.0
230
1.0
 70
     8
 71
     3
 72
    17
 73
    13
 74
    11
 42
0.0000000001
 43
0.0000000001
 44
0.0000000001
 40
0.0
 40
0.0
 40
0.0
 40
0.0
 40
0.1642180430238032
 40
0.3161341071036475
 40
0.4973047023983871
 40
0.6590424022297114
 40
0.8509347334946467
 40
1.059005380907191
 40
1.263634033424656
 40
1.403854651909196
 40
1.609324559187142
 40
1.775657351382499
 40
1.775657351382499
 40
1.775657351382499
 40
1.775657351382499
 10
46.91557310740184
 20
19.33393346994703
 30
0.0
 10
46.97008053096126
 20
19.33055876667819
 30
0.0
 10
47.07501209244001
 20
19.32406216749217
 30
0.0
 10
47.24166164003132
 20
19.30410267373415
 30
0.0
 10
47.40329021146902
 20
19.39133075220812
 30
0.0
 10
47.45720586826648
 20
19.57699026153583
 30
0.0
 10
47.39063906238758
 20
19.76007987181992
 30
0.0
 10
47.26263399834654
 20
19.91968168976919
 30
0.0
 10
47.05491738974412
 20
19.97656387319087
 30
0.0
 10
46.90589130542032
 20
19.84067057327454
 30
0.0
 10
46.8692797844904
 20
19.67084692476744
 30
0.0
 10
46.82067332836428
 20
19.55689343830995
 30
0.0
 10
46.79892833410353
 20
19.5059142452871
 30
0.0
 11
46.91557310740184
 21
19.33393346994703
 31
0.0
 11
47.07936702705275
 21
19.32213866007329
 31
0.0
 11
47.23127161742792
 21
19.32027159058772
 31
0.0
 11
47.38802214929175
 21
19.41111241488966
 31
0.0
 11
47.43794179235957
 21
19.56495360827657
 31
0.0
 11
47.38397475196559
 21
19.74910090081547
 31
0.0
 11
47.24470634310157
 21
19.90368972514361
 31
0.0
 11
47.04345512937517
 21
19.94071450609862
 31
0.0
 11
46.9348961050435
 21
19.85196339295438
 31
0.0
 11
46.85975602314684
 21
19.66072571128737
 31
0.0
 11
46.79892833410353
 21
19.5059142452871
 31
0.0
  0
SPLINE
  5
F3C7
330
18
100
AcDbEntity
  8
0
100
AcDbSpline
210
0.0
220
0.0
230
1.0
 70
     8
 71
     3
 72
    16
 73
    12
 74
    10
 42
0.0000000001
 43
0.0000000001
 44
0.0000000001
 40
0.0
 40
0.0
 40
0.0
 40
0.0
 40
0.1194859333279513
 40
0.2465349799473147
 40
0.4483371089430058
 40
0.6004538817210525
 40
0.7341024720487884
 40
0.887724143739611
 40
1.033267653820323
 40
1.188829942276075
 40
1.331625824077847
 40
1.331625824077847
 40
1.331625824077847
 40
1.331625824077847
 10
46.91244614739659
 20
19.80822209306145
 30
0.0
 10
46.90678229265521
 20
19.84834857683608
 30
0.0
 10
46.89509607758201
 20
19.93114143451569
 30
0.0
 10
46.7882164334336
 20
20.04893263244577
 30
0.0
 10
46.62415148911061
 20
20.08631579960671
 30
0.0
 10
46.45655019138152
 20
20.06180665521647
 30
0.0
 10
46.3474975976269
 20
19.95151284528508
 30
0.0
 10
46.31388992629442
 20
19.80090090265364
 30
0.0
 10
46.37734345019629
 20
19.65591201966984
 30
0.0
 10
46.47891799064092
 20
19.54768993023793
 30
0.0
 10
46.55166535036102
 20
19.47990940680424
 30
0.0
 10
46.58648264184331
 20
19.44746927082825
 30
0.0
 11
46.91244614739659
 21
19.80822209306145
 31
0.0
 11
46.88439435033997
 21
19.92436848751753
 31
0.0
 11
46.80099482602456
 21
20.02021200368243
 31
0.0
 11
46.60689981649146
 21
20.07544991223751
 31
0.0
 11
46.45793940075032
 21
20.04462286076265
 31
0.0
 11
46.36305884180936
 21
19.95049727852465
 31
0.0
 11
46.33039576622891
 21
19.80038817984403
 31
0.0
 11
46.38222631467034
 21
19.66438631377273
 31
0.0
 11
46.48305614615864
 21
19.54592547352739
 31
0.0
 11
46.58648264184331
 21
19.44746927082825
 31
0.0
  0
SPLINE
  5
F3C8
330
18
100
AcDbEntity
  8
0
100
AcDbSpline
210
0.0
220
0.0
230
1.0
 70
     8
 71
     3
 72
    16
 73
    12
 74
    10
 42
0.0000000001
 43
0.0000000001
 44
0.0000000001
 40
0.0
 40
0.0
 40
0.0
 40
0.0
 40
0.1470456303233071
 40
0.2969217532282208
 40
0.5026251241797893
 40
0.693028584565004
 40
0.838590951474721
 40
0.9614513872823554
 40
1.074027418706207
 40
1.205024791408755
 40
1.361174376889698
 40
1.361174376889698
 40
1.361174376889698
 40
1.361174376889698
 10
46.43174670877363
 20
19.60287926258342
 30
0.0
 10
46.38701679581004
 20
19.62556127947205
 30
0.0
 10
46.29669596036805
 20
19.67136192112672
 30
0.0
 10
46.11354457150944
 20
19.61875550797389
 30
0.0
 10
46.05172137865079
 20
19.42294244890726
 30
0.0
 10
46.06901032134231
 20
19.24614028132442
 30
0.0
 10
46.12595171076754
 20
19.09457240091059
 30
0.0
 10
46.25117312915246
 20
19.03400846057166
 30
0.0
 10
46.37602211106577
 20
19.05768195677944
 30
0.0
 10
46.4895454956944
 20
19.12930150210985
 30
0.0
 10
46.56568645572167
 20
19.18715164563809
 30
0.0
 10
46.60709166308166
 20
19.21861036624964
 30
0.0
 11
46.43174670877363
 21
19.60287926258342
 31
0.0
 11
46.29317316618482
 21
19.65207063064296
 31
0.0
 11
46.14975365104082
 21
19.60855402584815
 31
0.0
 11
46.06549456645035
 21
19.42089933370107
 31
0.0
 11
46.08038900917271
 21
19.23107933132341
 31
0.0
 11
46.14491666240458
 21
19.10060103953222
 31
0.0
 11
46.25532566883052
 21
19.04670727378071
 31
0.0
 11
46.36679511504673
 21
19.06245292116012
 31
0.0
 11
46.48127614856263
 21
19.1261271280268
 31
0.0
 11
46.60709166308166
 21
19.21861036624964
 31
0.0
  0
SPLINE
  5
F3C9
330
18
100
AcDbEntity
  8
0
100
AcDbSpline
210
0.0
220
0.0
230
1.0
 70
     8
 71
     3
 72
    19
 73
    15
 74
    13
 42
0.0000000001
 43
0.0000000001
 44
0.0000000001
 40
0.0
 40
0.0
 40
0.0
 40
0.0
 40
0.0820660640444931
 40
0.1751457505055718
 40
0.280845810341863
 40
0.4459478316136212
 40
0.5953814744161256
 40
0.718381367326621
 40
0.8258954914392459
 40
0.915647639166189
 40
1.018645070134187
 40
1.175593757891806
 40
1.319744707722316
 40
1.395900450836444
 40
1.395900450836444
 40
1.395900450836444
 40
1.395900450836444
 10
46.39218923179439
 20
19.0735000605592
 30
0.0
 10
46.36993253408037
 20
19.05708687130363
 30
0.0
 10
46.32243219310161
 20
19.02205777147012
 30
0.0
 10
46.28817553628059
 20
18.92481698705741
 30
0.0
 10
46.34405877838111
 20
18.80839810622565
 30
0.0
 10
46.45215617849985
 20
18.71572486251289
 30
0.0
 10
46.59086161669564
 20
18.66045154089909
 30
0.0
 10
46.71268239571015
 20
18.64213767598393
 30
0.0
 10
46.83213974416442
 20
18.64268850747592
 30
0.0
 10
46.88587139580962
 20
18.73542153655062
 30
0.0
 10
46.95078112075186
 20
18.83684258445611
 30
0.0
 10
46.90124481940133
 20
18.97662509017774
 30
0.0
 10
46.86643742169037
 20
19.09420576937587
 30
0.0
 10
46.83587129761622
 20
19.16132764877743
 30
0.0
 10
46.82530518243436
 20
19.18453037828473
 30
0.0
 11
46.39218923179439
 21
19.0735000605592
 31
0.0
 11
46.3311573645426
 21
19.01863704890731
 31
0.0
 11
46.3017248806212
 21
18.93033327253331
 31
0.0
 11
46.33921261321959
 21
18.83150426589039
 31
0.0
 11
46.46136770952542
 21
18.72043307307004
 31
0.0
 11
46.5995374107735
 21
18.66351605225691
 31
0.0
 11
46.72108456483011
 21
18.64466763065909
 31
0.0
 11
46.82739428080298
 21
18.66071540849515
 31
0.0
 11
46.88377985416508
 21
18.73054459392808
 31
0.0
 11
46.9281890969254
 21
18.82347623516755
 31
0.0
 11
46.90215650657236
 21
18.97825089339153
 31
0.0
 11
46.85577995023535
 21
19.11473793072239
 31
0.0
 11
46.82530518243436
 21
19.18453037828473
 31
0.0
  0
SPLINE
  5
F3CA
330
18
100
AcDbEntity
  8
0
100
AcDbSpline
210
0.0
220
0.0
230
1.0
 70
     8
 71
     3
 72
    15
 73
    11
 74
     9
 42
0.0000000001
 43
0.0000000001
 44
0.0000000001
 40
0.0
 40
0.0
 40
0.0
 40
0.0
 40
0.1121236595469286
 40
0.2868722594946268
 40
0.4533685491258704
 40
0.6183629095832313
 40
0.8385016611528213
 40
0.9688603266122447
 40
1.113016119148789
 40
1.200534659525412
 40
1.200534659525412
 40
1.200534659525412
 40
1.200534659525412
 10
46.93041891021318
 20
18.84121704057447
 30
0.0
 10
46.9501220032206
 20
18.80826446140657
 30
0.0
 10
47.0005330478914
 20
18.7239541483088
 30
0.0
 10
47.166399737871
 20
18.68676173513599
 30
0.0
 10
47.33217561515087
 20
18.74648066235958
 30
0.0
 10
47.44577302783002
 20
18.90450011598779
 30
0.0
 10
47.45906487361195
 20
19.08063043116877
 30
0.0
 10
47.42063550520476
 20
19.24953365555437
 30
0.0
 10
47.30203510502231
 20
19.31613734970862
 30
0.0
 10
47.22478792825699
 20
19.31546088433762
 30
0.0
 10
47.19560661985004
 20
19.31520533914562
 30
0.0
 11
46.93041891021318
 21
18.84121704057447
 31
0.0
 11
46.99786022225616
 21
18.75164369375681
 31
0.0
 11
47.16598359578206
 21
18.70398234193008
 31
0.0
 11
47.32250405705722
 21
18.76074817375857
 31
0.0
 11
47.42168349228351
 21
18.89260634988326
 31
0.0
 11
47.44707309395495
 21
19.1112760507327
 31
0.0
 11
47.40623736091508
 21
19.2350735651159
 31
0.0
 11
47.28295764907987
 21
19.309793075096
 31
0.0
 11
47.19560661985004
 21
19.31520533914562
 31
0.0
  0
LINE
  5
F3CB
330
18
100
AcDbEntity
  8
0
100
AcDbLine
 10
48.86724551824909
 20
12.46661827327045
 30
0.0
 11
48.86713211396139
 21
18.63683628894272
 31
0.0
  0
LINE
  5
F3CC
330
18
100
AcDbEntity
  8
0
100
AcDbLine
 10
48.86726337412787
 20
11.4950971146113
 30
0.0
 11
48.86725313495105
 21
12.05220085879898
 31
0.0
  0
LINE
  5
F48A
330
18
100
AcDbEntity
  8
0
100
AcDbLine
 10
65.42633538513145
 20
2.530106336356929
 30
0.0
 11
65.42633538513145
 21
22.00817002199408
 31
0.0
  0
LINE
  5
F48D
330
18
100
AcDbEntity
  8
0
100
AcDbLine
 10
65.32633538513145
 20
22.10817002199409
 30
0.0
 11
64.65133538513147
 21
22.10817002199409
 31
0.0
  0
LINE
  5
F48E
330
18
100
AcDbEntity
  8
0
100
AcDbLine
 10
64.55133538513148
 20
22.00817002199408
 30
0.0
 11
64.55133538513146
 21
2.530106336356929
 31
0.0
  0
LINE
  5
F48F
330
18
100
AcDbEntity
  8
0
100
AcDbLine
 10
65.32633538513145
 20
2.43010633635693
 30
0.0
 11
64.65133538513146
 21
2.43010633635693
 31
0.0
  0
ARC
  5
F491
330
18
100
AcDbEntity
  8
0
100
AcDbCircle
 10
65.32633538513145
 20
2.530106336356929
 30
0.0
 40
0.1
100
AcDbArc
 50
270.0
 51
360.0
  0
ARC
  5
F492
330
18
100
AcDbEntity
  8
0
100
AcDbCircle
 10
64.65133538513146
 20
2.530106336356929
 30
0.0
 40
0.1
100
AcDbArc
 50
180.0
 51
270.0
  0
LINE
  5
F495
330
18
100
AcDbEntity
  8
0
100
AcDbLine
 10
64.52633538513146
 20
9.483364464741727
 30
0.0
 11
64.55133538513146
 21
9.483364464741727
 31
0.0
  0
LINE
  5
F497
330
18
100
AcDbEntity
  8
0
100
AcDbLine
 10
64.52633538513146
 20
16.84278118514618
 30
0.0
 11
64.55133538513146
 21
16.84278118514618
 31
0.0
  0
LINE
  5
F499
330
18
100
AcDbEntity
  8
0
100
AcDbLine
 10
64.52633538513146
 20
12.85782253588981
 30
0.0
 11
64.55133538513146
 21
12.85782253588981
 31
0.0
  0
LINE
  5
F49A
330
18
100
AcDbEntity
  8
0
100
AcDbLine
 10
64.52633538513146
 20
4.569504297984821
 30
0.0
 11
64.55133538513146
 21
4.569504297984822
 31
0.0
  0
LINE
  5
F49B
330
18
100
AcDbEntity
  8
0
100
AcDbLine
 10
64.52633538513146
 20
2.590887132368282
 30
0.0
 11
64.55133538513146
 21
2.590887132368282
 31
0.0
  0
LINE
  5
F49F
330
18
100
AcDbEntity
  8
0
100
AcDbLine
 10
64.55133538513146
 20
13.79685021223247
 30
0.0
 11
64.52633538513146
 21
13.79685021223247
 31
0.0
  0
LINE
  5
F4A0
330
18
100
AcDbEntity
  8
0
100
AcDbLine
 10
64.42633538513146
 20
13.89685021223247
 30
0.0
 11
64.42633538513146
 21
16.74278118514618
 31
0.0
  0
LINE
  5
F4A3
330
18
100
AcDbEntity
  8
0
100
AcDbLine
 10
64.52633538513146
 20
20.08325053430082
 30
0.0
 11
64.55133538513146
 21
20.08325053430082
 31
0.0
  0
LINE
  5
F4A4
330
18
100
AcDbEntity
  8
0
100
AcDbLine
 10
64.52633538513146
 20
18.65183361588551
 30
0.0
 11
64.55133538513146
 21
18.65183361588551
 31
0.0
  0
LINE
  5
F4A5
330
18
100
AcDbEntity
  8
0
100
AcDbLine
 10
64.42633538513146
 20
18.75183361588551
 30
0.0
 11
64.42633538513146
 21
19.98325053430081
 31
0.0
  0
LINE
  5
F4A6
330
18
100
AcDbEntity
  8
0
100
AcDbLine
 10
64.42633538513146
 20
4.469504297984822
 30
0.0
 11
64.42633538513146
 21
2.690887132368281
 31
0.0
  0
LINE
  5
F4A7
330
18
100
AcDbEntity
  8
0
100
AcDbLine
 10
64.42633538513146
 20
9.583364464741727
 30
0.0
 11
64.42633538513146
 21
12.75782253588981
 31
0.0
  0
ARC
  5
F4A8
330
18
100
AcDbEntity
  8
0
100
AcDbCircle
 10
64.52633538513146
 20
2.690887132368281
 30
0.0
 40
0.1
100
AcDbArc
 50
180.0
 51
270.0
  0
ARC
  5
F4A9
330
18
100
AcDbEntity
  8
0
100
AcDbCircle
 10
64.52633538513146
 20
4.469504297984822
 30
0.0
 40
0.1
100
AcDbArc
 50
90.0
 51
180.0
  0
ARC
  5
F4AA
330
18
100
AcDbEntity
  8
0
100
AcDbCircle
 10
64.52633538513146
 20
9.583364464741727
 30
0.0
 40
0.1
100
AcDbArc
 50
180.0
 51
270.0
  0
ARC
  5
F4AB
330
18
100
AcDbEntity
  8
0
100
AcDbCircle
 10
64.52633538513146
 20
12.75782253588981
 30
0.0
 40
0.1
100
AcDbArc
 50
90.0
 51
180.0
  0
ARC
  5
F4AC
330
18
100
AcDbEntity
  8
0
100
AcDbCircle
 10
64.52633538513146
 20
13.89685021223247
 30
0.0
 40
0.1
100
AcDbArc
 50
180.0
 51
270.0
  0
ARC
  5
F4AE
330
18
100
AcDbEntity
  8
0
100
AcDbCircle
 10
64.52633538513146
 20
16.74278118514618
 30
0.0
 40
0.1
100
AcDbArc
 50
90.0
 51
180.0
  0
ARC
  5
F4AF
330
18
100
AcDbEntity
  8
0
100
AcDbCircle
 10
64.52633538513146
 20
18.75183361588551
 30
0.0
 40
0.1
100
AcDbArc
 50
180.0
 51
270.0
  0
ARC
  5
F4B0
330
18
100
AcDbEntity
  8
0
100
AcDbCircle
 10
64.52633538513146
 20
19.98325053430081
 30
0.0
 40
0.1
100
AcDbArc
 50
90.0
 51
180.0
  0
ARC
  5
F4B1
330
18
100
AcDbEntity
  8
0
100
AcDbCircle
 10
65.32633538513145
 20
22.00817002199408
 30
0.0
 40
0.1
100
AcDbArc
 50
360.0
 51
90.0
  0
ARC
  5
F4B2
330
18
100
AcDbEntity
  8
0
100
AcDbCircle
 10
64.65133538513147
 20
22.00817002199408
 30
0.0
 40
0.1
100
AcDbArc
 50
89.99999999999975
 51
180.0
  0
LINE
  5
F4B4
330
18
100
AcDbEntity
  8
0
100
AcDbLine
 10
38.04529948955386
 20
2.530106336356929
 30
0.0
 11
38.04529948955386
 21
22.00817002199408
 31
0.0
  0
LINE
  5
F4B5
330
18
100
AcDbEntity
  8
0
100
AcDbLine
 10
38.14529948955385
 20
22.10817002199409
 30
0.0
 11
38.82029948955383
 21
22.10817002199409
 31
0.0
  0
LINE
  5
F4B6
330
18
100
AcDbEntity
  8
0
100
AcDbLine
 10
38.92029948955383
 20
22.00817002199408
 30
0.0
 11
38.92029948955384
 21
2.530106336356929
 31
0.0
  0
LINE
  5
F4B7
330
18
100
AcDbEntity
  8
0
100
AcDbLine
 10
38.14529948955385
 20
2.43010633635693
 30
0.0
 11
38.82029948955385
 21
2.43010633635693
 31
0.0
  0
ARC
  5
F4B8
330
18
100
AcDbEntity
  8
0
100
AcDbCircle
 10
38.14529948955385
 20
2.530106336356929
 30
0.0
 40
0.1
100
AcDbArc
 50
180.0000000000001
 51
270.0
  0
ARC
  5
F4B9
330
18
100
AcDbEntity
  8
0
100
AcDbCircle
 10
38.82029948955385
 20
2.530106336356929
 30
0.0
 40
0.1
100
AcDbArc
 50
270.0
 51
0.000000000000007
  0
LINE
  5
F4BA
330
18
100
AcDbEntity
  8
0
100
AcDbLine
 10
38.94529948955385
 20
9.483364464741727
 30
0.0
 11
38.92029948955384
 21
9.483364464741727
 31
0.0
  0
LINE
  5
F4BB
330
18
100
AcDbEntity
  8
0
100
AcDbLine
 10
38.94529948955385
 20
16.84278118514618
 30
0.0
 11
38.92029948955384
 21
16.84278118514618
 31
0.0
  0
LINE
  5
F4BC
330
18
100
AcDbEntity
  8
0
100
AcDbLine
 10
38.94529948955385
 20
12.85782253588981
 30
0.0
 11
38.92029948955384
 21
12.85782253588981
 31
0.0
  0
LINE
  5
F4BD
330
18
100
AcDbEntity
  8
0
100
AcDbLine
 10
38.94529948955385
 20
4.569504297984821
 30
0.0
 11
38.92029948955384
 21
4.569504297984822
 31
0.0
  0
LINE
  5
F4BE
330
18
100
AcDbEntity
  8
0
100
AcDbLine
 10
38.94529948955385
 20
2.590887132368282
 30
0.0
 11
38.92029948955384
 21
2.590887132368282
 31
0.0
  0
LINE
  5
F4BF
330
18
100
AcDbEntity
  8
0
100
AcDbLine
 10
38.92029948955384
 20
13.79685021223247
 30
0.0
 11
38.94529948955385
 21
13.79685021223247
 31
0.0
  0
LINE
  5
F4C0
330
18
100
AcDbEntity
  8
0
100
AcDbLine
 10
39.04529948955384
 20
13.89685021223247
 30
0.0
 11
39.04529948955384
 21
16.74278118514618
 31
0.0
  0
LINE
  5
F4C1
330
18
100
AcDbEntity
  8
0
100
AcDbLine
 10
38.94529948955385
 20
20.08325053430082
 30
0.0
 11
38.92029948955384
 21
20.08325053430082
 31
0.0
  0
LINE
  5
F4C2
330
18
100
AcDbEntity
  8
0
100
AcDbLine
 10
38.94529948955385
 20
18.65183361588551
 30
0.0
 11
38.92029948955384
 21
18.65183361588551
 31
0.0
  0
LINE
  5
F4C3
330
18
100
AcDbEntity
  8
0
100
AcDbLine
 10
39.04529948955384
 20
18.75183361588551
 30
0.0
 11
39.04529948955384
 21
19.98325053430081
 31
0.0
  0
LINE
  5
F4C4
330
18
100
AcDbEntity
  8
0
100
AcDbLine
 10
39.04529948955384
 20
4.469504297984822
 30
0.0
 11
39.04529948955384
 21
2.690887132368281
 31
0.0
  0
LINE
  5
F4C5
330
18
100
AcDbEntity
  8
0
100
AcDbLine
 10
39.04529948955384
 20
9.583364464741727
 30
0.0
 11
39.04529948955384
 21
12.75782253588981
 31
0.0
  0
ARC
  5
F4C6
330
18
100
AcDbEntity
  8
0
100
AcDbCircle
 10
38.94529948955385
 20
2.690887132368281
 30
0.0
 40
0.1
100
AcDbArc
 50
270.0
 51
0.000000000000007
  0
ARC
  5
F4C7
330
18
100
AcDbEntity
  8
0
100
AcDbCircle
 10
38.94529948955385
 20
4.469504297984822
 30
0.0
 40
0.1
100
AcDbArc
 50
0.000000000000007
 51
90.0
  0
ARC
  5
F4C8
330
18
100
AcDbEntity
  8
0
100
AcDbCircle
 10
38.94529948955385
 20
9.583364464741727
 30
0.0
 40
0.1
100
AcDbArc
 50
270.0
 51
0.000000000000007
  0
ARC
  5
F4C9
330
18
100
AcDbEntity
  8
0
100
AcDbCircle
 10
38.94529948955385
 20
12.75782253588981
 30
0.0
 40
0.1
100
AcDbArc
 50
0.000000000000007
 51
90.0
  0
ARC
  5
F4CA
330
18
100
AcDbEntity
  8
0
100
AcDbCircle
 10
38.94529948955385
 20
13.89685021223247
 30
0.0
 40
0.1
100
AcDbArc
 50
270.0
 51
0.000000000000007
  0
ARC
  5
F4CB
330
18
100
AcDbEntity
  8
0
100
AcDbCircle
 10
38.94529948955385
 20
16.74278118514618
 30
0.0
 40
0.1
100
AcDbArc
 50
0.000000000000007
 51
90.0
  0
ARC
  5
F4CC
330
18
100
AcDbEntity
  8
0
100
AcDbCircle
 10
38.94529948955385
 20
18.75183361588551
 30
0.0
 40
0.1
100
AcDbArc
 50
270.0
 51
0.000000000000007
  0
ARC
  5
F4CD
330
18
100
AcDbEntity
  8
0
100
AcDbCircle
 10
38.94529948955385
 20
19.98325053430081
 30
0.0
 40
0.1
100
AcDbArc
 50
0.000000000000007
 51
90.0
  0
ARC
  5
F4CE
330
18
100
AcDbEntity
  8
0
100
AcDbCircle
 10
38.14529948955385
 20
22.00817002199408
 30
0.0
 40
0.1
100
AcDbArc
 50
90.0
 51
180.0000000000001
  0
ARC
  5
F4CF
330
18
100
AcDbEntity
  8
0
100
AcDbCircle
 10
38.82029948955383
 20
22.00817002199408
 30
0.0
 40
0.1
100
AcDbArc
 50
0.000000000000007
 51
90.00000000000026
  0
DIMENSION
  5
F4E4
330
18
100
AcDbEntity
  8
DIM
100
AcDbDimension
  2
*D8
 10
65.42633538513145
 20
25.62435303933769
 30
0.0
 11
65.86300205179812
 21
25.62435303933769
 31
0.0
 70
    32
 71
     5
 42
0.9999999999999857
  3
STANDARD
100
AcDbAlignedDimension
 13
64.42633538513146
 23
19.36754207509316
 33
0.0
 14
65.42633538513145
 24
19.36754207509316
 34
0.0
100
AcDbRotatedDimension
  0
DIMENSION
  5
F4F2
330
18
100
AcDbEntity
  8
DIM
100
AcDbDimension
  2
*D9
 10
38.04529948955386
 20
25.6243530393377
 30
0.0
 11
37.60863282288719
 21
25.6243530393377
 31
0.0
 70
   160
 71
     5
 42
0.9999999999999857
  3
STANDARD
100
AcDbAlignedDimension
 13
39.04529948955384
 23
19.36754207509316
 33
0.0
 14
38.04529948955386
 24
20.36754207509315
 34
0.0
100
AcDbRotatedDimension
  0
VIEWPORT
  5
F478
330
15
100
AcDbEntity
 67
     1
  8
0
 62
     6
100
AcDbViewport
 10
5.249999639556163
 20
3.999999883606677
 30
0.0
 40
17.58407771518677
 41
8.992999745766947
 68
     2
 69
     1
 12
5.249999639556163
 22
3.999999883606677
 13
0.0
 23
0.0
 14
10.0
 24
10.0
 15
10.0
 25
10.0
 16
0.0
 26
0.0
 36
1.0
 17
0.0
 27
0.0
 37
0.0
 42
50.0
 43
0.0
 44
0.0
 45
8.992999745766947
 50
0.0
 51
0.0
 72
   100
 90
    32800
  1

281
     0
 71
     1
 74
     0
110
0.0
120
0.0
130
0.0
111
1.0
121
0.0
131
0.0
112
0.0
122
1.0
132
0.0
 79
     0
146
0.0
170
     0
  0
VIEWPORT
  5
F47A
330
15
100
AcDbEntity
 67
     1
  8
0
 62
     6
100
AcDbViewport
 10
5.24999976158142
 20
3.99999976158142
 30
0.0
 40
8.399999618530271
 41
6.399999618530272
 68
     1
 69
     2
 12
52.6285226273772
 22
12.11682601990967
 13
0.0
 23
0.0
 14
0.5
 24
0.5
 15
0.5
 25
0.5
 16
0.0
 26
0.0
 36
1.0
 17
0.0
 27
0.0
 37
0.0
 42
50.0
 43
0.0
 44
0.0
 45
24.36027672512987
 50
0.0
 51
0.0
 72
   100
 90
    32800
  1

281
     0
 71
     1
 74
     0
110
0.0
120
0.0
130
0.0
111
1.0
121
0.0
131
0.0
112
0.0
122
1.0
132
0.0
 79
     0
146
0.0
170
     0
  0
ENDSEC
  0
SECTION
  2
OBJECTS
  0
DICTIONARY
  5
C
330
0
100
AcDbDictionary
281
     1
  3
ACAD_COLOR
350
F267
  3
ACAD_GROUP
350
D
  3
ACAD_IMAGE_DICT
350
21
  3
ACAD_IMAGE_VARS
350
20
  3
ACAD_LAYOUT
350
F268
  3
ACAD_MATERIAL
350
F266
  3
ACAD_MLINESTYLE
350
1B
  3
ACAD_PLOTSETTINGS
350
F269
  3
ACAD_PLOTSTYLENAME
350
F264
  0
DICTIONARY
  5
F272
330
18
100
AcDbDictionary
280
     1
281
     1
  3
ACAD_SORTENTS
360
F273
  0
DICTIONARY
  5
F267
102
{ACAD_REACTORS
330
C
102
}
330
C
100
AcDbDictionary
281
     1
  0
DICTIONARY
  5
D
102
{ACAD_REACTORS
330
C
102
}
330
C
100
AcDbDictionary
281
     1
  0
DICTIONARY
  5
21
102
{ACAD_REACTORS
330
C
102
}
330
C
100
AcDbDictionary
281
     1
  3
2208-1
350
E877
  3
2208-2
350
E87A
  3
FÊTE ISABELLE 31 ANS 047
350
F47D
  3
FÊTE ISABELLE 31 ANS 048
350
F482
  3
rien 001
350
F487
  3
SUP-2208
350
F26E
  0
RASTERVARIABLES
  5
20
102
{ACAD_REACTORS
330
C
102
}
330
C
100
AcDbRasterVariables
 90
        0
 70
     1
 71
     1
 72
     0
  0
DICTIONARY
  5
F268
102
{ACAD_REACTORS
330
C
102
}
330
C
100
AcDbDictionary
281
     1
  3
Layout1
350
F26B
  3
Model
350
F26A
  0
DICTIONARY
  5
F266
102
{ACAD_REACTORS
330
C
102
}
330
C
100
AcDbDictionary
281
     1
  0
DICTIONARY
  5
1B
102
{ACAD_REACTORS
330
C
102
}
330
C
100
AcDbDictionary
281
     1
  3
STANDARD
350
1C
  0
DICTIONARY
  5
F269
102
{ACAD_REACTORS
330
C
102
}
330
C
100
AcDbDictionary
281
     1
  0
ACDBDICTIONARYWDFLT
  5
F264
102
{ACAD_REACTORS
330
C
102
}
330
C
100
AcDbDictionary
281
     1
  3
Normal
350
F265
100
AcDbDictionaryWithDefault
340
F265
  0
SORTENTSTABLE
  5
F273
102
{ACAD_REACTORS
330
F272
102
}
330
F272
100
AcDbSortentsTable
330
18
331
F27A
  5
F282
331
F2E9
  5
F2EC
331
F338
  5
F395
331
F2F1
  5
F2F4
331
F282
  5
F2E1
331
F3B7
  5
F3BA
331
F2F9
  5
F2FC
331
F3BF
  5
F3C2
331
F3C7
  5
F3CA
331
F301
  5
F304
331
F398
  5
F39B
331
F309
  5
F30D
331
F3A0
  5
F3A3
331
F2E2
  5
F2E9
331
F329
  5
F32C
331
F3A8
  5
F3AB
331
F3B0
  5
F3B3
331
F2EA
  5
F2ED
331
F339
  5
F396
331
F3B8
  5
F3BB
331
F2F2
  5
F2F5
331
F2FA
  5
F2FD
331
F3C0
  5
F3C3
331
F302
  5
F305
331
F3C8
  5
F3CB
331
F30A
  5
F30E
331
F2D3
  5
F2E3
331
F399
  5
F39C
331
F3A1
  5
F3A4
331
F3A9
  5
F3AC
331
F2E3
  5
F2EA
331
F32A
  5
F32D
331
F2EB
  5
F2EE
331
F3B1
  5
F3B4
331
F2F3
  5
F2F6
331
F3B9
  5
F3BC
331
F2FB
  5
F2FF
331
F3C1
  5
F3C4
331
F303
  5
F306
331
F3C9
  5
F3CC
331
F39A
  5
F39D
331
F3A2
  5
F3A5
331
F275
  5
F27A
331
F2E4
  5
F2EB
331
F32B
  5
F338
331
F3AA
  5
F3AD
331
F3B2
  5
F3B5
331
F2EC
  5
F2EF
331
F3BA
  5
F3BD
331
F2F4
  5
F2F7
331
F2FC
  5
F300
331
F3C2
  5
F3C5
331
F29D
  5
F2E2
331
F304
  5
F307
331
F3CA
  5
F47F
331
F39B
  5
F39E
331
F30C
  5
F328
331
F3A3
  5
F3A6
331
F32C
  5
F339
331
F3AB
  5
F3AE
331
F2ED
  5
F2F0
331
F3B3
  5
F3B6
331
F2F5
  5
F2F8
331
F3BB
  5
F3BE
331
F2FD
  5
F301
331
F3C3
  5
F3C6
331
F48A
  5
F48A
331
F394
  5
F397
331
F305
  5
F308
331
F3CB
  5
F480
331
F39C
  5
F39F
331
F30D
  5
F329
331
F3A4
  5
F3A7
331
F3AC
  5
F3AF
331
F277
  5
F280
331
F32D
  5
F394
331
F3B4
  5
F3B7
331
F2EE
  5
F2F1
331
F3BC
  5
F3BF
331
F2F6
  5
F2F9
331
F3C4
  5
F3C7
331
F395
  5
F398
331
F306
  5
F309
331
F3CC
  5
F481
331
F39D
  5
F3A0
331
F30E
  5
F32A
331
F3A5
  5
F3A8
331
F3AD
  5
F3B0
331
F278
  5
F281
331
F2EF
  5
F2F2
331
F280
  5
F29D
331
F3B5
  5
F3B8
331
F3BD
  5
F3C0
331
F2F7
  5
F2FA
331
F2FF
  5
F302
331
F3C5
  5
F3C8
331
F396
  5
F399
331
F307
  5
F30A
331
F39E
  5
F3A1
331
F3A6
  5
F3A9
331
F3AE
  5
F3B1
331
F3B6
  5
F3B9
331
F281
  5
F2D3
331
F2F0
  5
F2F3
331
F2F8
  5
F2FB
331
F3BE
  5
F3C1
331
F3C6
  5
F3C9
331
F300
  5
F303
331
F397
  5
F39A
331
F308
  5
F30C
331
F39F
  5
F3A2
331
F3A7
  5
F3AA
331
F2E1
  5
F2E4
331
F328
  5
F32B
331
F3AF
  5
F3B2
  0
IMAGEDEF
  5
E877
102
{ACAD_REACTORS
330
21
102
}
330
21
100
AcDbRasterImageDef
 90
        0
  1
U:\TPDWG\MichelQ\2208-1.tif
 10
2916.0
 20
3526.0
 11
0.0705555555555556
 21
0.0705555555555556
280
     1
281
     5
  0
IMAGEDEF
  5
E87A
102
{ACAD_REACTORS
330
21
102
}
330
21
100
AcDbRasterImageDef
 90
        0
  1
U:\TPDWG\MichelQ\2208-2.tif
 10
2916.0
 20
3526.0
 11
0.0705555555555556
 21
0.0705555555555556
280
     1
281
     5
  0
IMAGEDEF
  5
F47D
102
{ACAD_REACTORS
330
21
102
}
330
21
100
AcDbRasterImageDef
 90
        0
  1
C:\Documents and Settings\USAGER\Mes documents\Mes images\FÊTE ISABELLE 31 ANS 047.jpg
 10
1704.0
 20
2272.0
 11
0.0005868544600939
 21
0.0005868544600939
280
     1
281
     0
  0
IMAGEDEF
  5
F482
102
{ACAD_REACTORS
330
21
102
}
330
21
100
AcDbRasterImageDef
 90
        0
  1
C:\Documents and Settings\USAGER\Mes documents\Mes images\FÊTE ISABELLE 31 ANS 048.jpg
 10
1704.0
 20
2272.0
 11
0.0005868544600939
 21
0.0005868544600939
280
     1
281
     0
  0
IMAGEDEF
  5
F487
102
{ACAD_REACTORS
330
21
330
F488
102
}
330
21
100
AcDbRasterImageDef
 90
        0
  1
C:\Documents and Settings\USAGER\Mes documents\Mes images\rien\rien 001.jpg
 10
1704.0
 20
2272.0
 11
0.0005868544600939
 21
0.0005868544600939
280
     1
281
     0
  0
IMAGEDEF
  5
F26E
102
{ACAD_REACTORS
330
21
102
}
330
21
100
AcDbRasterImageDef
 90
        0
  1
H:\CATALOGUE\Photos_originales_2005\Supports\SUP-2208.tif
 10
1512.0
 20
2760.0
 11
0.0846666666666667
 21
0.0846666666666667
280
     1
281
     5
  0
LAYOUT
  5
F26B
102
{ACAD_REACTORS
330
F268
102
}
330
F268
100
AcDbPlotSettings
  1

  2
none_device
  4
Letter_(8.50_x_11.00_Inches)
  6

 40
6.349999904632568
 41
6.349999904632568
 42
6.350006103515625
 43
6.350006103515625
 44
215.8999938964844
 45
279.3999938964844
 46
0.0
 47
0.0
 48
0.0
 49
0.0
140
0.0
141
0.0
142
1.0
143
1.0
 70
   688
 72
     0
 73
     1
 74
     5
  7

 75
    16
147
1.0
 76
     1
 77
     2
 78
   300
148
0.0
149
0.0
100
AcDbLayout
  1
Layout1
 70
     1
 71
     1
 10
-0.2500002402958907
 20
-0.2499999962453767
 11
10.74999951940821
 21
8.249999763458731
 12
0.0
 22
0.0
 32
0.0
 14
1.049743681505489
 24
0.7996673802841308
 34
-0.0015258207003583
 15
9.450622583565561
 25
7.200576801086516
 35
0.0000000349246037
146
0.0
 13
0.0
 23
0.0
 33
0.0
 16
1.0
 26
0.0
 36
0.0
 17
0.0
 27
1.0
 37
0.0
 76
     0
330
15
331
F47A
  0
LAYOUT
  5
F26A
102
{ACAD_REACTORS
330
F268
102
}
330
F268
100
AcDbPlotSettings
  1

  2
None
  4

  6

 40
0.0
 41
0.0
 42
0.0
 43
0.0
 44
0.0
 45
0.0
 46
0.0
 47
0.0
 48
0.0
 49
0.0
140
0.0
141
0.0
142
1.0
143
1.0
 70
  1712
 72
     0
 73
     0
 74
     0
  7

 75
     0
147
1.0
 76
     0
 77
     2
 78
   300
148
0.0
149
0.0
100
AcDbLayout
  1
Model
 70
     1
 71
     0
 10
0.0
 20
0.0
 11
12.0
 21
9.0
 12
0.0
 22
0.0
 32
0.0
 14
0.0
 24
0.0
 34
0.0
 15
0.0
 25
0.0
 35
0.0
146
0.0
 13
0.0
 23
0.0
 33
0.0
 16
1.0
 26
0.0
 36
0.0
 17
0.0
 27
1.0
 37
0.0
 76
     0
330
18
  0
MLINESTYLE
  5
1C
102
{ACAD_REACTORS
330
1B
102
}
330
1B
100
AcDbMlineStyle
  2
STANDARD
 70
     0
  3

 62
   256
 51
90.0
 52
90.0
 71
     2
 49
0.5
 62
   256
  6
BYLAYER
 49
-0.5
 62
   256
  6
BYLAYER
  0
ACDBPLACEHOLDER
  5
F265
102
{ACAD_REACTORS
330
F264
102
}
330
F264
  0
ENDSEC
  0
EOF
