  0
SECTION
  2
HEADER
  9
$ACADVER
  1
AC1018
  9
$ACADMAINTVER
 70
     0
  9
$DWGCODEPAGE
  3
ANSI_1252
  9
$INSBASE
 10
0.0
 20
0.0
 30
0.0
  9
$EXTMIN
 10
8.602248440890196
 20
4.048127440232597
 30
0.0
  9
$EXTMAX
 10
30.18490968473636
 20
17.95134296139054
 30
0.0
  9
$LIMMIN
 10
0.0
 20
0.0
  9
$LIMMAX
 10
420.0
 20
297.0
  9
$ORTHOMODE
 70
     0
  9
$REGENMODE
 70
     1
  9
$FILLMODE
 70
     1
  9
$QTEXTMODE
 70
     0
  9
$MIRRTEXT
 70
     1
  9
$LTSCALE
 40
0.04
  9
$ATTMODE
 70
     1
  9
$TEXTSIZE
 40
0.09375
  9
$TRACEWID
 40
1.0
  9
$TEXTSTYLE
  7
STYLE1
  9
$CLAYER
  8
0
  9
$CELTYPE
  6
BYLAYER
  9
$CECOLOR
 62
   256
  9
$CELTSCALE
 40
1.0
  9
$DISPSILH
 70
     0
  9
$DIMSCALE
 40
1.0
  9
$DIMASZ
 40
0.18
  9
$DIMEXO
 40
0.0625
  9
$DIMDLI
 40
0.38
  9
$DIMRND
 40
0.0
  9
$DIMDLE
 40
0.0
  9
$DIMEXE
 40
0.18
  9
$DIMTP
 40
0.0
  9
$DIMTM
 40
0.0
  9
$DIMTXT
 40
1.0
  9
$DIMCEN
 40
0.09
  9
$DIMTSZ
 40
0.0
  9
$DIMTOL
 70
     0
  9
$DIMLIM
 70
     0
  9
$DIMTIH
 70
     1
  9
$DIMTOH
 70
     1
  9
$DIMSE1
 70
     0
  9
$DIMSE2
 70
     0
  9
$DIMTAD
 70
     0
  9
$DIMZIN
 70
     0
  9
$DIMBLK
  1

  9
$DIMASO
 70
     1
  9
$DIMSHO
 70
     1
  9
$DIMPOST
  1

  9
$DIMAPOST
  1

  9
$DIMALT
 70
     0
  9
$DIMALTD
 70
     2
  9
$DIMALTF
 40
25.4
  9
$DIMLFAC
 40
1.0
  9
$DIMTOFL
 70
     0
  9
$DIMTVP
 40
0.0
  9
$DIMTIX
 70
     0
  9
$DIMSOXD
 70
     0
  9
$DIMSAH
 70
     0
  9
$DIMBLK1
  1

  9
$DIMBLK2
  1

  9
$DIMSTYLE
  2
STANDARD
  9
$DIMCLRD
 70
     0
  9
$DIMCLRE
 70
     0
  9
$DIMCLRT
 70
     0
  9
$DIMTFAC
 40
1.0
  9
$DIMGAP
 40
0.09
  9
$DIMJUST
 70
     0
  9
$DIMSD1
 70
     0
  9
$DIMSD2
 70
     0
  9
$DIMTOLJ
 70
     1
  9
$DIMTZIN
 70
     0
  9
$DIMALTZ
 70
     0
  9
$DIMALTTZ
 70
     0
  9
$DIMUPT
 70
     0
  9
$DIMDEC
 70
     4
  9
$DIMTDEC
 70
     4
  9
$DIMALTU
 70
     2
  9
$DIMALTTD
 70
     2
  9
$DIMTXSTY
  7
STANDARD
  9
$DIMAUNIT
 70
     0
  9
$DIMADEC
 70
     0
  9
$DIMALTRND
 40
0.0
  9
$DIMAZIN
 70
     0
  9
$DIMDSEP
 70
    46
  9
$DIMATFIT
 70
     3
  9
$DIMFRAC
 70
     0
  9
$DIMLDRBLK
  1

  9
$DIMLUNIT
 70
     2
  9
$DIMLWD
 70
    -2
  9
$DIMLWE
 70
    -2
  9
$DIMTMOVE
 70
     0
  9
$LUNITS
 70
     4
  9
$LUPREC
 70
     4
  9
$SKETCHINC
 40
1.0
  9
$FILLETRAD
 40
0.0
  9
$AUNITS
 70
     0
  9
$AUPREC
 70
     0
  9
$MENU
  1
.
  9
$ELEVATION
 40
0.0
  9
$PELEVATION
 40
0.0
  9
$THICKNESS
 40
0.0
  9
$LIMCHECK
 70
     0
  9
$CHAMFERA
 40
10.0
  9
$CHAMFERB
 40
10.0
  9
$CHAMFERC
 40
20.0
  9
$CHAMFERD
 40
0.0
  9
$SKPOLY
 70
     0
  9
$TDCREATE
 40
2451158.432431366
  9
$TDUCREATE
 40
2451158.599098032
  9
$TDUPDATE
 40
2453488.682710579
  9
$TDUUPDATE
 40
2453488.849377245
  9
$TDINDWG
 40
0.6343499074
  9
$TDUSRTIMER
 40
0.6343499074
  9
$USRTIMER
 70
     1
  9
$ANGBASE
 50
0.0
  9
$ANGDIR
 70
     0
  9
$PDMODE
 70
     3
  9
$PDSIZE
 40
0.25
  9
$PLINEWID
 40
0.0
  9
$SPLFRAME
 70
     0
  9
$SPLINETYPE
 70
     6
  9
$SPLINESEGS
 70
     8
  9
$HANDSEED
  5
3EEB
  9
$SURFTAB1
 70
     6
  9
$SURFTAB2
 70
     6
  9
$SURFTYPE
 70
     6
  9
$SURFU
 70
     6
  9
$SURFV
 70
     6
  9
$UCSBASE
  2

  9
$UCSNAME
  2

  9
$UCSORG
 10
0.0
 20
0.0
 30
0.0
  9
$UCSXDIR
 10
1.0
 20
0.0
 30
0.0
  9
$UCSYDIR
 10
0.0
 20
1.0
 30
0.0
  9
$UCSORTHOREF
  2

  9
$UCSORTHOVIEW
 70
     0
  9
$UCSORGTOP
 10
0.0
 20
0.0
 30
0.0
  9
$UCSORGBOTTOM
 10
0.0
 20
0.0
 30
0.0
  9
$UCSORGLEFT
 10
0.0
 20
0.0
 30
0.0
  9
$UCSORGRIGHT
 10
0.0
 20
0.0
 30
0.0
  9
$UCSORGFRONT
 10
0.0
 20
0.0
 30
0.0
  9
$UCSORGBACK
 10
0.0
 20
0.0
 30
0.0
  9
$PUCSBASE
  2

  9
$PUCSNAME
  2

  9
$PUCSORG
 10
0.0
 20
0.0
 30
0.0
  9
$PUCSXDIR
 10
1.0
 20
0.0
 30
0.0
  9
$PUCSYDIR
 10
0.0
 20
1.0
 30
0.0
  9
$PUCSORTHOREF
  2

  9
$PUCSORTHOVIEW
 70
     0
  9
$PUCSORGTOP
 10
0.0
 20
0.0
 30
0.0
  9
$PUCSORGBOTTOM
 10
0.0
 20
0.0
 30
0.0
  9
$PUCSORGLEFT
 10
0.0
 20
0.0
 30
0.0
  9
$PUCSORGRIGHT
 10
0.0
 20
0.0
 30
0.0
  9
$PUCSORGFRONT
 10
0.0
 20
0.0
 30
0.0
  9
$PUCSORGBACK
 10
0.0
 20
0.0
 30
0.0
  9
$USERI1
 70
     0
  9
$USERI2
 70
     0
  9
$USERI3
 70
     0
  9
$USERI4
 70
     0
  9
$USERI5
 70
     0
  9
$USERR1
 40
0.0
  9
$USERR2
 40
0.0
  9
$USERR3
 40
0.0
  9
$USERR4
 40
0.0
  9
$USERR5
 40
0.0
  9
$WORLDVIEW
 70
     1
  9
$SHADEDGE
 70
     3
  9
$SHADEDIF
 70
    70
  9
$TILEMODE
 70
     1
  9
$MAXACTVP
 70
    48
  9
$PINSBASE
 10
0.0
 20
0.0
 30
0.0
  9
$PLIMCHECK
 70
     0
  9
$PEXTMIN
 10
26.66076962115563
 20
20.31135699206658
 30
-0.0000000000000058
  9
$PEXTMAX
 10
240.039213369355
 20
182.8886381005154
 30
0.0000000000000104
  9
$PLIMMIN
 10
-6.350006103515625
 20
-6.349999904632568
  9
$PLIMMAX
 10
273.0499877929688
 20
209.5499939918518
  9
$UNITMODE
 70
     0
  9
$VISRETAIN
 70
     1
  9
$PLINEGEN
 70
     0
  9
$PSLTSCALE
 70
     1
  9
$TREEDEPTH
 70
  3020
  9
$CMLSTYLE
  2
STANDARD
  9
$CMLJUST
 70
     0
  9
$CMLSCALE
 40
20.0
  9
$PROXYGRAPHICS
 70
     1
  9
$MEASUREMENT
 70
     1
  9
$CELWEIGHT
370
    -1
  9
$ENDCAPS
280
     0
  9
$JOINSTYLE
280
     0
  9
$LWDISPLAY
290
     0
  9
$INSUNITS
 70
     0
  9
$HYPERLINKBASE
  1

  9
$STYLESHEET
  1

  9
$XEDIT
290
     1
  9
$CEPSNTYPE
380
     0
  9
$PSTYLEMODE
290
     1
  9
$FINGERPRINTGUID
  2
{5BEC3829-BEBE-4EE2-B18F-9ACB6ADA25C4}
  9
$VERSIONGUID
  2
{69A1A61E-6051-46D6-ADE8-4FE60D796360}
  9
$EXTNAMES
290
     1
  9
$PSVPSCALE
 40
0.0
  9
$OLESTARTUP
290
     0
  9
$SORTENTS
280
    96
  9
$INDEXCTL
280
     0
  9
$HIDETEXT
280
     0
  9
$XCLIPFRAME
290
     0
  9
$HALOGAP
280
     0
  9
$OBSCOLOR
 70
   257
  9
$OBSLTYPE
280
     0
  9
$INTERSECTIONDISPLAY
280
     0
  9
$INTERSECTIONCOLOR
 70
   257
  9
$DIMASSOC
280
     1
  9
$PROJECTNAME
  1

  0
ENDSEC
  0
SECTION
  2
CLASSES
  0
CLASS
  1
RASTERVARIABLES
  2
AcDbRasterVariables
  3
ISM
 90
        0
 91
        1
280
     0
281
     0
  0
CLASS
  1
IMAGEDEF
  2
AcDbRasterImageDef
  3
ISM
 90
        0
 91
        6
280
     0
281
     0
  0
CLASS
  1
IMAGEDEF_REACTOR
  2
AcDbRasterImageDefReactor
  3
ISM
 90
        1
 91
        0
280
     0
281
     0
  0
CLASS
  1
IMAGE
  2
AcDbRasterImage
  3
ISM
 90
      127
 91
        0
280
     0
281
     1
  0
CLASS
  1
DICTIONARYVAR
  2
AcDbDictionaryVar
  3
ObjectDBX Classes
 90
        0
 91
        1
280
     0
281
     0
  0
CLASS
  1
ACDBDICTIONARYWDFLT
  2
AcDbDictionaryWithDefault
  3
ObjectDBX Classes
 90
        0
 91
        1
280
     0
281
     0
  0
ENDSEC
  0
SECTION
  2
TABLES
  0
TABLE
  2
VPORT
  5
8
330
0
100
AcDbSymbolTable
 70
     2
  0
VPORT
  5
3EEA
330
8
100
AcDbSymbolTableRecord
100
AcDbViewportTableRecord
  2
*Active
 70
     0
 10
0.0
 20
0.0
 11
1.0
 21
1.0
 12
20.27757385730341
 22
10.48287116575013
 13
0.0
 23
0.0
 14
10.0
 24
10.0
 15
10.0
 25
10.0
 16
0.0
 26
0.0
 36
1.0
 17
0.0
 27
0.0
 37
0.0
 40
17.90040325643535
 41
1.977142857142857
 42
50.0
 43
0.0
 44
0.0
 50
0.0
 51
0.0
 71
     0
 72
   100
 73
     1
 74
     1
 75
     0
 76
     0
 77
     0
 78
     0
281
     0
 65
     1
110
0.0
120
0.0
130
0.0
111
1.0
121
0.0
131
0.0
112
0.0
122
1.0
132
0.0
 79
     0
146
0.0
  0
ENDTAB
  0
TABLE
  2
LTYPE
  5
5
330
0
100
AcDbSymbolTable
 70
     2
  0
LTYPE
  5
12
330
5
100
AcDbSymbolTableRecord
100
AcDbLinetypeTableRecord
  2
BYBLOCK
 70
     0
  3

 72
    65
 73
     0
 40
0.0
  0
LTYPE
  5
13
330
5
100
AcDbSymbolTableRecord
100
AcDbLinetypeTableRecord
  2
BYLAYER
 70
     0
  3

 72
    65
 73
     0
 40
0.0
  0
LTYPE
  5
14
330
5
100
AcDbSymbolTableRecord
100
AcDbLinetypeTableRecord
  2
CONTINUOUS
 70
     0
  3
Solid line
 72
    65
 73
     0
 40
0.0
  0
LTYPE
  5
3BE5
330
5
100
AcDbSymbolTableRecord
100
AcDbLinetypeTableRecord
  2
DASHED
 70
     0
  3
Dashed __ __ __ __ __ __ __ __ __ __ __ __ __ _
 72
    65
 73
     2
 40
19.05
 49
12.7
 74
     0
 49
-6.349999999999999
 74
     0
  0
ENDTAB
  0
TABLE
  2
LAYER
  5
2
330
0
100
AcDbSymbolTable
 70
     3
  0
LAYER
  5
E
330
2
100
AcDbSymbolTableRecord
100
AcDbLayerTableRecord
  2
0
 70
     0
 62
     7
  6
CONTINUOUS
370
    -3
390
38F4
  0
LAYER
  5
3912
330
2
100
AcDbSymbolTableRecord
100
AcDbLayerTableRecord
  2
Defpoints
 70
     0
 62
     7
  6
CONTINUOUS
290
     0
370
    -3
390
38F4
  0
LAYER
  5
3EB7
330
2
100
AcDbSymbolTableRecord
100
AcDbLayerTableRecord
  2
DIM
 70
     0
 62
    -3
  6
CONTINUOUS
370
    -3
390
38F4
  0
ENDTAB
  0
TABLE
  2
STYLE
  5
3
330
0
100
AcDbSymbolTable
 70
     4
  0
STYLE
  5
F
330
3
100
AcDbSymbolTableRecord
100
AcDbTextStyleTableRecord
  2
STANDARD
 70
     0
 40
0.0
 41
1.0
 50
0.0
 71
     0
 42
2.5
  3
txt
  4

  0
STYLE
  5
36AA
330
3
100
AcDbSymbolTableRecord
100
AcDbTextStyleTableRecord
  2
STYLE1
 70
     0
 40
0.09375
 41
1.0
 50
0.0
 71
     0
 42
0.09375
  3
simplex.shx
  4

  0
STYLE
  5
3B18
330
3
100
AcDbSymbolTableRecord
100
AcDbTextStyleTableRecord
  2
ITALICT
 70
     0
 40
4.0
 41
1.0
 50
0.0
 71
     0
 42
4.0
  3
italict.shx
  4

  0
STYLE
  5
3BE4
330
3
100
AcDbSymbolTableRecord
100
AcDbTextStyleTableRecord
  2

 70
     1
 40
0.0
 41
1.0
 50
0.0
 71
     0
 42
0.09375
  3
ltypeshp.shx
  4

  0
ENDTAB
  0
TABLE
  2
VIEW
  5
6
330
0
100
AcDbSymbolTable
 70
     0
  0
ENDTAB
  0
TABLE
  2
UCS
  5
7
330
0
100
AcDbSymbolTable
 70
     0
  0
ENDTAB
  0
TABLE
  2
APPID
  5
9
330
0
100
AcDbSymbolTable
 70
     1
  0
APPID
  5
10
330
9
100
AcDbSymbolTableRecord
100
AcDbRegAppTableRecord
  2
ACAD
 70
     0
  0
ENDTAB
  0
TABLE
  2
DIMSTYLE
  5
A
330
0
100
AcDbSymbolTable
 70
     1
100
AcDbDimStyleTable
 71
     1
340
1D
  0
DIMSTYLE
105
1D
102
{ACAD_REACTORS
330
3C15
330
3E1E
330
3E58
330
3E84
102
}
330
A
100
AcDbSymbolTableRecord
100
AcDbDimStyleTableRecord
  2
STANDARD
 70
     0
140
1.0
340
F
  0
ENDTAB
  0
TABLE
  2
BLOCK_RECORD
  5
1
330
0
100
AcDbSymbolTable
 70
     5
  0
BLOCK_RECORD
  5
18
330
1
100
AcDbSymbolTableRecord
100
AcDbBlockTableRecord
  2
*MODEL_SPACE
340
38F9
  0
BLOCK_RECORD
  5
15
330
1
100
AcDbSymbolTableRecord
100
AcDbBlockTableRecord
  2
*PAPER_SPACE
340
38FA
  0
BLOCK_RECORD
  5
38DD
330
1
100
AcDbSymbolTableRecord
100
AcDbBlockTableRecord
  2
2212B_E
340
0
  0
BLOCK_RECORD
  5
3C16
330
1
100
AcDbSymbolTableRecord
100
AcDbBlockTableRecord
  2
*D1
340
0
  0
BLOCK_RECORD
  5
3E1F
330
1
100
AcDbSymbolTableRecord
100
AcDbBlockTableRecord
  2
*D2
340
0
  0
BLOCK_RECORD
  5
3E59
330
1
100
AcDbSymbolTableRecord
100
AcDbBlockTableRecord
  2
*D3
340
0
  0
BLOCK_RECORD
  5
3E85
330
1
100
AcDbSymbolTableRecord
100
AcDbBlockTableRecord
  2
*D4
340
0
  0
ENDTAB
  0
ENDSEC
  0
SECTION
  2
BLOCKS
  0
BLOCK
  5
19
330
18
100
AcDbEntity
  8
0
100
AcDbBlockBegin
  2
*MODEL_SPACE
 70
     0
 10
0.0
 20
0.0
 30
0.0
  3
*MODEL_SPACE
  1

  0
ENDBLK
  5
1A
330
18
100
AcDbEntity
  8
0
100
AcDbBlockEnd
  0
BLOCK
  5
16
330
15
100
AcDbEntity
 67
     1
  8
0
100
AcDbBlockBegin
  2
*PAPER_SPACE
 70
     0
 10
0.0
 20
0.0
 30
0.0
  3
*PAPER_SPACE
  1

  0
ENDBLK
  5
17
330
15
100
AcDbEntity
 67
     1
  8
0
100
AcDbBlockEnd
  0
BLOCK
  5
38DE
330
38DD
100
AcDbEntity
  8
0
100
AcDbBlockBegin
  2
2212B_E
 70
     0
 10
0.0
 20
0.0
 30
0.0
  3
2212B_E
  1

  0
LINE
  5
38DF
330
38DD
100
AcDbEntity
  8
0
100
AcDbLine
 10
-1.919500000000004
 20
2.75
 30
0.0
 11
-1.919500000000001
 21
8.5
 31
0.0
  0
LINE
  5
38E0
330
38DD
100
AcDbEntity
  8
0
100
AcDbLine
 10
-1.151499999999998
 20
2.75
 30
0.0
 11
-1.151500000000002
 21
8.5
 31
0.0
  0
LINE
  5
38E1
330
38DD
100
AcDbEntity
  8
0
100
AcDbLine
 10
-0.3834999999999944
 20
2.75
 30
0.0
 11
-0.3835000000000015
 21
8.5
 31
0.0
  0
LINE
  5
38E2
330
38DD
100
AcDbEntity
  8
0
100
AcDbLine
 10
0.3845000000000027
 20
2.75
 30
0.0
 11
0.3844999999999992
 21
8.5
 31
0.0
  0
LINE
  5
38E3
330
38DD
100
AcDbEntity
  8
0
100
AcDbLine
 10
1.152500000000003
 20
2.75
 30
0.0
 11
1.152499999999999
 21
8.5
 31
0.0
  0
LINE
  5
38E4
330
38DD
100
AcDbEntity
  8
0
100
AcDbLine
 10
1.920500000000004
 20
2.75
 30
0.0
 11
1.9205
 21
8.5
 31
0.0
  0
LINE
  5
38E5
330
38DD
100
AcDbEntity
  8
0
100
AcDbLine
 10
2.6875
 20
0.0
 30
0.0
 11
2.6875
 21
8.5
 31
0.0
  0
LINE
  5
38E6
330
38DD
100
AcDbEntity
  8
0
100
AcDbLine
 10
-2.6875
 20
0.0000000000000009
 30
0.0
 11
-2.687500000000001
 21
8.5
 31
0.0
  0
LINE
  5
38E7
330
38DD
100
AcDbEntity
  8
0
100
AcDbLine
 10
-2.6875
 20
1.9375
 30
0.0
 11
2.6875
 21
1.9375
 31
0.0
  0
LINE
  5
38E8
330
38DD
100
AcDbEntity
  8
0
100
AcDbLine
 10
-2.6875
 20
1.375
 30
0.0
 11
2.6875
 21
1.375
 31
0.0
  0
LINE
  5
38E9
330
38DD
100
AcDbEntity
  8
0
100
AcDbLine
 10
-2.6875
 20
2.75
 30
0.0
 11
2.6875
 21
2.75
 31
0.0
  0
LINE
  5
38EA
330
38DD
100
AcDbEntity
  8
0
100
AcDbLine
 10
-2.6875
 20
0.0000000000000009
 30
0.0
 11
2.6875
 21
0.0
 31
0.0
  0
LINE
  5
38EB
330
38DD
100
AcDbEntity
  8
0
100
AcDbLine
 10
-2.687500000000001
 20
8.5
 30
0.0
 11
2.6875
 21
8.5
 31
0.0
  0
ENDBLK
  5
38EC
330
38DD
100
AcDbEntity
  8
0
100
AcDbBlockEnd
  0
BLOCK
  5
3C21
330
3C16
100
AcDbEntity
  8
0
100
AcDbBlockBegin
  2
*D1
 70
     1
 10
0.0
 20
0.0
 30
0.0
  3
*D1
  1

  0
LINE
  5
3EC2
330
3C16
100
AcDbEntity
  8
DIM
 62
     0
370
    -2
100
AcDbLine
 10
15.17563073891118
 20
5.451450164098651
 30
0.0
 11
10.83891510755687
 21
5.451450164098652
 31
0.0
  0
LINE
  5
3EC3
330
3C16
100
AcDbEntity
  8
DIM
 62
     0
370
    -2
100
AcDbLine
 10
15.17563073891118
 20
14.82645016409865
 30
0.0
 11
10.83891510755687
 21
14.82645016409865
 31
0.0
  0
LINE
  5
3EC4
330
3C16
100
AcDbEntity
  8
DIM
 62
     0
370
    -2
100
AcDbLine
 10
11.01891510755686
 20
5.631450164098652
 30
0.0
 11
11.01891510755686
 21
9.548950164098652
 31
0.0
  0
LINE
  5
3EC5
330
3C16
100
AcDbEntity
  8
DIM
 62
     0
370
    -2
100
AcDbLine
 10
11.01891510755687
 20
14.64645016409865
 30
0.0
 11
11.01891510755686
 21
10.72895016409865
 31
0.0
  0
SOLID
  5
3EC6
330
3C16
100
AcDbEntity
  8
DIM
 62
     0
100
AcDbTrace
 10
10.98891510755686
 20
5.631450164098652
 30
0.0
 11
11.04891510755686
 21
5.631450164098652
 31
0.0
 12
11.01891510755686
 22
5.451450164098652
 32
0.0
 13
11.01891510755686
 23
5.451450164098652
 33
0.0
  0
SOLID
  5
3EC7
330
3C16
100
AcDbEntity
  8
DIM
 62
     0
100
AcDbTrace
 10
10.98891510755687
 20
14.64645016409865
 30
0.0
 11
11.04891510755686
 21
14.64645016409865
 31
0.0
 12
11.01891510755687
 22
14.82645016409865
 32
0.0
 13
11.01891510755687
 23
14.82645016409865
 33
0.0
  0
MTEXT
  5
3EC8
330
3C16
100
AcDbEntity
  8
DIM
 62
     0
100
AcDbMText
 10
11.01891510755686
 20
10.13895016409865
 30
0.0
 40
1.0
 41
0.0
 71
     5
 72
     1
  1
\A1;9.3750
 73
     1
 44
1.0
  0
POINT
  5
3EC9
330
3C16
100
AcDbEntity
  8
Defpoints
 62
     0
100
AcDbPoint
 10
15.23813073891118
 20
5.451450164098651
 30
0.0
  0
POINT
  5
3ECA
330
3C16
100
AcDbEntity
  8
Defpoints
 62
     0
100
AcDbPoint
 10
15.23813073891118
 20
14.82645016409865
 30
0.0
  0
POINT
  5
3ECB
330
3C16
100
AcDbEntity
  8
Defpoints
 62
     0
100
AcDbPoint
 10
11.01891510755687
 20
14.82645016409865
 30
0.0
  0
ENDBLK
  5
3C22
330
3C16
100
AcDbEntity
  8
0
100
AcDbBlockEnd
  0
BLOCK
  5
3E2A
330
3E1F
100
AcDbEntity
  8
0
100
AcDbBlockBegin
  2
*D2
 70
     1
 10
0.0
 20
0.0
 30
0.0
  3
*D2
  1

  0
LINE
  5
3EB8
330
3E1F
100
AcDbEntity
  8
DIM
 62
     0
370
    -2
100
AcDbLine
 10
15.23813073891118
 20
14.88895016409865
 30
0.0
 11
15.23813073891118
 21
17.63134296139053
 31
0.0
  0
LINE
  5
3EB9
330
3E1F
100
AcDbEntity
  8
DIM
 62
     0
370
    -2
100
AcDbLine
 10
20.23815879607039
 20
14.88910688871636
 30
0.0
 11
20.23815879607039
 21
17.63134296139053
 31
0.0
  0
LINE
  5
3EBA
330
3E1F
100
AcDbEntity
  8
DIM
 62
     0
370
    -2
100
AcDbLine
 10
15.05813073891118
 20
17.45134296139054
 30
0.0
 11
14.87813073891118
 21
17.45134296139054
 31
0.0
  0
LINE
  5
3EBB
330
3E1F
100
AcDbEntity
  8
DIM
 62
     0
370
    -2
100
AcDbLine
 10
20.41815879607039
 20
17.45134296139054
 30
0.0
 11
20.59815879607039
 21
17.45134296139054
 31
0.0
  0
SOLID
  5
3EBC
330
3E1F
100
AcDbEntity
  8
DIM
 62
     0
100
AcDbTrace
 10
15.05813073891118
 20
17.48134296139054
 30
0.0
 11
15.05813073891118
 21
17.42134296139053
 31
0.0
 12
15.23813073891118
 22
17.45134296139054
 32
0.0
 13
15.23813073891118
 23
17.45134296139054
 33
0.0
  0
SOLID
  5
3EBD
330
3E1F
100
AcDbEntity
  8
DIM
 62
     0
100
AcDbTrace
 10
20.41815879607039
 20
17.48134296139054
 30
0.0
 11
20.41815879607039
 21
17.42134296139053
 31
0.0
 12
20.23815879607039
 22
17.45134296139054
 32
0.0
 13
20.23815879607039
 23
17.45134296139054
 33
0.0
  0
MTEXT
  5
3EBE
330
3E1F
100
AcDbEntity
  8
DIM
 62
     0
100
AcDbMText
 10
17.73814476749079
 20
17.45134296139054
 30
0.0
 40
1.0
 41
0.0
 71
     5
 72
     1
  1
\A1;5.0000
 73
     1
 44
1.0
  0
POINT
  5
3EBF
330
3E1F
100
AcDbEntity
  8
Defpoints
 62
     0
100
AcDbPoint
 10
15.23813073891118
 20
14.82645016409865
 30
0.0
  0
POINT
  5
3EC0
330
3E1F
100
AcDbEntity
  8
Defpoints
 62
     0
100
AcDbPoint
 10
20.23815879607039
 20
14.82660688871636
 30
0.0
  0
POINT
  5
3EC1
330
3E1F
100
AcDbEntity
  8
Defpoints
 62
     0
100
AcDbPoint
 10
20.23815879607039
 20
17.45134296139054
 30
0.0
  0
ENDBLK
  5
3E2B
330
3E1F
100
AcDbEntity
  8
0
100
AcDbBlockEnd
  0
BLOCK
  5
3E64
330
3E59
100
AcDbEntity
  8
0
100
AcDbBlockBegin
  2
*D3
 70
     1
 10
0.0
 20
0.0
 30
0.0
  3
*D3
  1

  0
LINE
  5
3ECC
330
3E59
100
AcDbEntity
  8
DIM
 62
     0
370
    -2
100
AcDbLine
 10
23.83157635140303
 20
14.88916241615159
 30
0.0
 11
23.83157635140303
 21
16.27813952470182
 31
0.0
  0
LINE
  5
3ECD
330
3E59
100
AcDbEntity
  8
DIM
 62
     0
370
    -2
100
AcDbLine
 10
24.76905639326163
 20
14.88916241615159
 30
0.0
 11
24.76905639326163
 21
16.27813952470182
 31
0.0
  0
LINE
  5
3ECE
330
3E59
100
AcDbEntity
  8
DIM
 62
     0
370
    -2
100
AcDbLine
 10
24.01157635140303
 20
16.09813952470182
 30
0.0
 11
24.58905639326163
 21
16.09813952470182
 31
0.0
  0
LINE
  5
3ECF
330
3E59
100
AcDbEntity
  8
DIM
 62
     0
370
    -2
100
AcDbLine
 10
24.76905639326163
 20
16.09813952470182
 30
0.0
 11
24.94905639326163
 21
16.09813952470182
 31
0.0
  0
SOLID
  5
3ED0
330
3E59
100
AcDbEntity
  8
DIM
 62
     0
100
AcDbTrace
 10
24.01157635140303
 20
16.12813952470182
 30
0.0
 11
24.01157635140303
 21
16.06813952470182
 31
0.0
 12
23.83157635140303
 22
16.09813952470182
 32
0.0
 13
23.83157635140303
 23
16.09813952470182
 33
0.0
  0
SOLID
  5
3ED1
330
3E59
100
AcDbEntity
  8
DIM
 62
     0
100
AcDbTrace
 10
24.58905639326163
 20
16.12813952470182
 30
0.0
 11
24.58905639326163
 21
16.06813952470182
 31
0.0
 12
24.76905639326163
 22
16.09813952470182
 32
0.0
 13
24.76905639326163
 23
16.09813952470182
 33
0.0
  0
MTEXT
  5
3ED2
330
3E59
100
AcDbEntity
  8
DIM
 62
     0
100
AcDbMText
 10
27.45572305992829
 20
16.09813952470182
 30
0.0
 40
1.0
 41
0.0
 71
     5
 72
     1
  1
\A1;0.9375
 73
     1
 44
1.0
  0
POINT
  5
3ED3
330
3E59
100
AcDbEntity
  8
Defpoints
 62
     0
100
AcDbPoint
 10
23.83157635140303
 20
14.82666241615159
 30
0.0
  0
POINT
  5
3ED4
330
3E59
100
AcDbEntity
  8
Defpoints
 62
     0
100
AcDbPoint
 10
24.76905639326163
 20
14.82666241615159
 30
0.0
  0
POINT
  5
3ED5
330
3E59
100
AcDbEntity
  8
Defpoints
 62
     0
100
AcDbPoint
 10
24.76905639326163
 20
16.09813952470182
 30
0.0
  0
ENDBLK
  5
3E65
330
3E59
100
AcDbEntity
  8
0
100
AcDbBlockEnd
  0
BLOCK
  5
3E90
330
3E85
100
AcDbEntity
  8
0
100
AcDbBlockBegin
  2
*D4
 70
     1
 10
0.0
 20
0.0
 30
0.0
  3
*D4
  1

  0
LINE
  5
3ED6
330
3E85
100
AcDbEntity
  8
DIM
 62
     0
370
    -2
100
AcDbLine
 10
23.83157635140303
 20
8.022181982917093
 30
0.0
 11
23.83157635140303
 21
4.368127440232598
 31
0.0
  0
LINE
  5
3ED7
330
3E85
100
AcDbEntity
  8
DIM
 62
     0
370
    -2
100
AcDbLine
 10
25.58157635140303
 20
8.022181982917093
 30
0.0
 11
25.58157635140303
 21
4.368127440232598
 31
0.0
  0
LINE
  5
3ED8
330
3E85
100
AcDbEntity
  8
DIM
 62
     0
370
    -2
100
AcDbLine
 10
24.01157635140303
 20
4.548127440232597
 30
0.0
 11
25.40157635140303
 21
4.548127440232597
 31
0.0
  0
LINE
  5
3ED9
330
3E85
100
AcDbEntity
  8
DIM
 62
     0
370
    -2
100
AcDbLine
 10
25.58157635140303
 20
4.548127440232597
 30
0.0
 11
25.76157635140303
 21
4.548127440232597
 31
0.0
  0
SOLID
  5
3EDA
330
3E85
100
AcDbEntity
  8
DIM
 62
     0
100
AcDbTrace
 10
24.01157635140303
 20
4.578127440232598
 30
0.0
 11
24.01157635140303
 21
4.518127440232597
 31
0.0
 12
23.83157635140303
 22
4.548127440232597
 32
0.0
 13
23.83157635140303
 23
4.548127440232597
 33
0.0
  0
SOLID
  5
3EDB
330
3E85
100
AcDbEntity
  8
DIM
 62
     0
100
AcDbTrace
 10
25.40157635140303
 20
4.578127440232598
 30
0.0
 11
25.40157635140303
 21
4.518127440232597
 31
0.0
 12
25.58157635140303
 22
4.548127440232597
 32
0.0
 13
25.58157635140303
 23
4.548127440232597
 33
0.0
  0
MTEXT
  5
3EDC
330
3E85
100
AcDbEntity
  8
DIM
 62
     0
100
AcDbMText
 10
28.0182430180697
 20
4.548127440232597
 30
0.0
 40
1.0
 41
0.0
 71
     5
 72
     1
  1
\A1;1.7500
 73
     1
 44
1.0
  0
POINT
  5
3EDD
330
3E85
100
AcDbEntity
  8
Defpoints
 62
     0
100
AcDbPoint
 10
23.83157635140303
 20
8.084681982917093
 30
0.0
  0
POINT
  5
3EDE
330
3E85
100
AcDbEntity
  8
Defpoints
 62
     0
100
AcDbPoint
 10
25.58157635140303
 20
8.084681982917093
 30
0.0
  0
POINT
  5
3EDF
330
3E85
100
AcDbEntity
  8
Defpoints
 62
     0
100
AcDbPoint
 10
25.58157635140303
 20
4.548127440232597
 30
0.0
  0
ENDBLK
  5
3E91
330
3E85
100
AcDbEntity
  8
0
100
AcDbBlockEnd
  0
ENDSEC
  0
SECTION
  2
ENTITIES
  0
LINE
  5
38CB
330
18
100
AcDbEntity
  8
0
100
AcDbLine
 10
15.23813073891118
 20
5.451450164098651
 30
0.0
 11
20.23815879607039
 21
5.45145016409865
 31
0.0
  0
LINE
  5
38CC
330
18
100
AcDbEntity
  8
0
100
AcDbLine
 10
20.23815879607039
 20
5.451606888716366
 30
0.0
 11
20.23815879607039
 21
14.82660688871636
 31
0.0
  0
LINE
  5
38CD
330
18
100
AcDbEntity
  8
0
100
AcDbLine
 10
15.23813073891118
 20
5.451450164098651
 30
0.0
 11
15.23813073891118
 21
14.82645016409865
 31
0.0
  0
LINE
  5
38CE
330
18
100
AcDbEntity
  8
0
100
AcDbLine
 10
15.23813073891118
 20
8.20150016409865
 30
0.0
 11
20.23815879607039
 21
8.20150016409865
 31
0.0
  0
LINE
  5
38CF
330
18
100
AcDbEntity
  8
0
100
AcDbLine
 10
15.23813073891118
 20
6.82647516409865
 30
0.0
 11
20.23815879607039
 21
6.82647516409865
 31
0.0
  0
LINE
  5
38D1
330
18
100
AcDbEntity
  8
0
100
AcDbLine
 10
15.23813073891118
 20
7.45146266409865
 30
0.0
 11
20.23815879607039
 21
7.45146266409865
 31
0.0
  0
LINE
  5
38D3
330
18
100
AcDbEntity
  8
0
100
AcDbLine
 10
15.23813073891118
 20
14.82645016409865
 30
0.0
 11
20.23815879607039
 21
14.82645016409865
 31
0.0
  0
LINE
  5
38D4
330
18
100
AcDbEntity
  8
0
100
AcDbLine
 10
15.95242453891118
 20
8.20150016409865
 30
0.0
 11
15.95242453891118
 21
14.82645016409865
 31
0.0
  0
LINE
  5
38D5
330
18
100
AcDbEntity
  8
0
100
AcDbLine
 10
16.66673310799833
 20
8.201295288033072
 30
0.0
 11
16.66673310799833
 21
14.82624528803307
 31
0.0
  0
LINE
  5
38D6
330
18
100
AcDbEntity
  8
0
100
AcDbLine
 10
17.38101794443748
 20
8.201657784329439
 30
0.0
 11
17.38101794443748
 21
14.82660778432944
 31
0.0
  0
LINE
  5
38D7
330
18
100
AcDbEntity
  8
0
100
AcDbLine
 10
18.09530593918812
 20
8.201498906199773
 30
0.0
 11
18.09530593918812
 21
14.82644890619977
 31
0.0
  0
LINE
  5
390C
330
18
100
AcDbEntity
  8
0
100
AcDbLine
 10
24.76905639326162
 20
8.202703699483237
 30
0.0
 11
24.76905639326163
 21
14.82645016409865
 31
0.0
  0
LINE
  5
390D
330
18
100
AcDbEntity
  8
0
100
AcDbLine
 10
24.51906171543266
 20
6.833417477596742
 30
0.0
 11
24.79305639326163
 21
6.833417477596742
 31
0.0
  0
LINE
  5
390E
330
18
100
AcDbEntity
  8
0
100
AcDbLine
 10
24.51906171543267
 20
5.451450164098651
 30
0.0
 11
24.51906171543266
 21
6.82647516409865
 31
0.0
  0
LINE
  5
390F
330
18
100
AcDbEntity
  8
0
100
AcDbLine
 10
23.83157635140302
 20
5.451450164098651
 30
0.0
 11
24.51906171543267
 21
5.451450164098651
 31
0.0
  0
LINE
  5
3910
330
18
100
AcDbEntity
  8
0
100
AcDbLine
 10
23.83157635140303
 20
5.451450164098651
 30
0.0
 11
23.83157635140303
 21
14.82645016409865
 31
0.0
  0
LINE
  5
3BA8
330
18
100
AcDbEntity
  8
0
100
AcDbLine
 10
20.24225573891119
 20
6.82647516409865
 30
0.0
 11
20.24225573891119
 21
6.82647516409865
 31
0.0
  0
LWPOLYLINE
  5
3BAC
330
18
100
AcDbEntity
  8
0
100
AcDbPolyline
 90
        2
 70
     0
 43
0.0
 10
24.79305639326163
 20
6.833417477596742
 10
24.79305639326163
 20
6.895917477596742
  0
ARC
  5
3BAD
330
18
100
AcDbEntity
  8
0
100
AcDbCircle
 10
24.74184679502354
 20
7.271995866420425
 30
0.0
 40
0.1206510577711467
100
AcDbArc
 50
23.54080094912214
 51
77.17151576363848
  0
LINE
  5
3BB9
330
18
100
AcDbEntity
  8
0
100
AcDbLine
 10
23.83157635140303
 20
14.82645016409865
 30
0.0
 11
24.76905639326163
 21
14.82645016409865
 31
0.0
  0
LINE
  5
3BE1
330
18
100
AcDbEntity
  8
0
100
AcDbLine
 10
24.76905639326163
 20
14.82645016409865
 30
0.0
 11
24.48055639326163
 21
14.82645016409865
 31
0.0
  0
LINE
  5
3BE2
330
18
100
AcDbEntity
  8
0
  6
DASHED
100
AcDbLine
 10
24.45655639326163
 20
14.82645016409865
 30
0.0
 11
24.45655639326163
 21
8.202391474780888
 31
0.0
  0
LINE
  5
3BE8
330
18
100
AcDbEntity
  8
0
100
AcDbLine
 10
25.31307478370067
 20
8.20150016409865
 30
0.0
 11
24.79305639326162
 21
8.20150016409865
 31
0.0
  0
LINE
  5
3BE9
330
18
100
AcDbEntity
  8
0
  6
DASHED
100
AcDbLine
 10
24.79305639326162
 20
8.20150016409865
 30
0.0
 11
24.45655639326163
 21
8.20150016409865
 31
0.0
  0
LINE
  5
3BEC
330
18
100
AcDbEntity
  8
0
100
AcDbLine
 10
20.23815879607039
 20
6.895917477596743
 30
0.0
 11
15.23813073891118
 21
6.895917477596744
 31
0.0
  0
DIMENSION
  5
3C15
330
18
100
AcDbEntity
  8
DIM
100
AcDbDimension
  2
*D1
 10
11.01891510755687
 20
14.82645016409865
 30
0.0
 11
11.01891510755686
 21
10.13895016409865
 31
0.0
 70
    32
 71
     5
 42
9.374999999999996
  3
STANDARD
100
AcDbAlignedDimension
 13
15.23813073891118
 23
5.451450164098651
 33
0.0
 14
15.23813073891118
 24
14.82645016409865
 34
0.0
 50
90.0
100
AcDbRotatedDimension
  0
LINE
  5
3DED
330
18
100
AcDbEntity
  8
0
100
AcDbLine
 10
18.80960593041198
 20
8.201500167440954
 30
0.0
 11
18.80960593041197
 21
14.82645016744095
 31
0.0
  0
LINE
  5
3DF3
330
18
100
AcDbEntity
  8
0
100
AcDbLine
 10
19.52390592163584
 20
8.201500170783258
 30
0.0
 11
19.52390592163583
 21
14.82645017078326
 31
0.0
  0
DIMENSION
  5
3E1E
330
18
100
AcDbEntity
  8
DIM
100
AcDbDimension
  2
*D2
 10
20.23815879607039
 20
17.45134296139054
 30
0.0
 11
17.73814476749079
 21
17.45134296139054
 31
0.0
 70
    32
 71
     5
 42
5.000028057159202
  3
STANDARD
100
AcDbAlignedDimension
 13
15.23813073891118
 23
14.82645016409865
 33
0.0
 14
20.23815879607039
 24
14.82660688871636
 34
0.0
100
AcDbRotatedDimension
  0
SPLINE
  5
3E2F
330
18
100
AcDbEntity
  8
0
100
AcDbSpline
210
0.0
220
0.0
230
1.0
 70
     8
 71
     3
 72
    13
 73
     9
 74
     7
 42
0.0000000001
 43
0.0000000001
 44
0.0000000001
 40
0.0
 40
0.0
 40
0.0
 40
0.0
 40
0.1528073648333043
 40
0.3056147296666076
 40
0.4114742300911333
 40
0.5936200676723403
 40
0.6801230484014117
 40
0.766626029130435
 40
0.766626029130435
 40
0.766626029130435
 40
0.766626029130435
 10
24.79305639326163
 20
6.895917477596742
 30
0.0
 10
24.84243683502989
 20
6.90470115445319
 30
0.0
 10
24.94119771856639
 20
6.922268508166086
 30
0.0
 10
25.081226913279
 20
6.975513192402514
 30
0.0
 10
25.12933647987977
 20
7.129896771842648
 30
0.0
 10
25.04687424998955
 20
7.25426293545206
 30
0.0
 10
24.93432015386183
 20
7.292448992220479
 30
0.0
 10
24.87974456841364
 20
7.310939092177441
 30
0.0
 10
24.85245677568955
 20
7.320184142155921
 30
0.0
 11
24.79305639326163
 21
6.895917477596742
 31
0.0
 11
24.94250850902024
 21
6.927763291176765
 31
0.0
 11
25.07633562512816
 21
7.001522315990911
 31
0.0
 11
25.10819669020905
 21
7.102473325703749
 31
0.0
 11
25.01386901918188
 21
7.258291799020456
 31
0.0
 11
24.93438344529192
 21
7.292421100484127
 31
0.0
 11
24.85245677568955
 21
7.320184142155921
 31
0.0
  0
SPLINE
  5
3E30
330
18
100
AcDbEntity
  8
0
100
AcDbSpline
210
0.0
220
0.0
230
1.0
 70
     8
 71
     3
 72
    21
 73
    17
 74
    15
 42
0.0000000001
 43
0.0000000001
 44
0.0000000001
 40
0.0
 40
0.0
 40
0.0
 40
0.0
 40
0.0632787102812505
 40
0.1358119411465964
 40
0.29038410664596
 40
0.4375022887773977
 40
0.6145854934107514
 40
0.805757158854327
 40
0.8780138826573743
 40
0.9710121754263123
 40
1.060019116907616
 40
1.137439601093181
 40
1.232056125905873
 40
1.326672650718561
 40
1.386102565283836
 40
1.445532479849115
 40
1.445532479849115
 40
1.445532479849115
 40
1.445532479849115
 10
24.76863534265329
 20
7.389635364282263
 30
0.0
 10
24.78733865488195
 20
7.399396208979867
 30
0.0
 10
24.82748064147358
 20
7.42034542333206
 30
0.0
 10
24.90981171184366
 20
7.471480642268752
 30
0.0
 10
25.02468385608465
 20
7.521006333199839
 30
0.0
 10
25.16478260932293
 20
7.597484211197945
 30
0.0
 10
25.31140576159898
 20
7.687701762549529
 30
0.0
 10
25.42568049873342
 20
7.780017551199252
 30
0.0
 10
25.51337659349549
 20
7.861122219009765
 30
0.0
 10
25.55576425561379
 20
7.936070945110387
 30
0.0
 10
25.5855976906915
 20
8.016953136003547
 30
0.0
 10
25.59107621052588
 20
8.108302011084024
 30
0.0
 10
25.52672780165974
 20
8.182580666219744
 30
0.0
 10
25.44363544567219
 20
8.20450275932783
 30
0.0
 10
25.37251032057777
 20
8.200898053273039
 30
0.0
 10
25.33288662932637
 20
8.201299460490112
 30
0.0
 10
25.31307478370067
 20
8.20150016409865
 30
0.0
 11
24.76863534265329
 21
7.389635364282263
 31
0.0
 11
24.82439013243977
 21
7.419561917553962
 31
0.0
 11
24.88709457215405
 21
7.456020425750042
 31
0.0
 11
25.02583618065308
 21
7.524162339564258
 31
0.0
 11
25.15547208169531
 21
7.593720176467281
 31
0.0
 11
25.30526148144791
 21
7.688174382752531
 31
0.0
 11
25.45467361055853
 21
7.807433014905935
 31
0.0
 11
25.50576682994599
 21
7.858526234293394
 31
0.0
 11
25.55397241720836
 21
7.938055498181769
 31
0.0
 11
25.58245502136737
 21
8.022382106628789
 31
0.0
 11
25.58157635140303
 21
8.09979760449983
 31
0.0
 11
25.52233579136384
 21
8.17357322929471
 31
0.0
 11
25.43193461283122
 21
8.201500164098648
 31
0.0
 11
25.37250469826595
 21
8.20150016409865
 31
0.0
 11
25.31307478370067
 21
8.20150016409865
 31
0.0
  0
DIMENSION
  5
3E58
330
18
100
AcDbEntity
  8
DIM
100
AcDbDimension
  2
*D3
 10
24.76905639326163
 20
16.09813952470182
 30
0.0
 11
27.45572305992829
 21
16.09813952470182
 31
0.0
 70
    32
 71
     5
 42
0.937480041858592
  3
STANDARD
100
AcDbAlignedDimension
 13
23.83157635140303
 23
14.82666241615159
 33
0.0
 14
24.76905639326163
 24
14.82666241615159
 34
0.0
100
AcDbRotatedDimension
  0
DIMENSION
  5
3E84
330
18
100
AcDbEntity
  8
DIM
100
AcDbDimension
  2
*D4
 10
25.58157635140303
 20
4.548127440232597
 30
0.0
 11
28.0182430180697
 21
4.548127440232597
 31
0.0
 70
    32
 71
     5
 42
1.75
  3
STANDARD
100
AcDbAlignedDimension
 13
23.83157635140303
 23
8.084681982917093
 33
0.0
 14
25.58157635140303
 24
8.084681982917093
 34
0.0
100
AcDbRotatedDimension
  0
HATCH
  5
3EAA
330
18
100
AcDbEntity
  8
0
100
AcDbHatch
 10
0.0
 20
0.0
 30
0.0
210
0.0
220
0.0
230
1.0
  2
SOLID
 70
     1
 71
     0
 91
        4
 92
        7
 72
     0
 73
     1
 93
        4
 10
20.23815879607038
 20
14.82645016409865
 10
19.52390592163584
 20
14.82645016409865
 10
19.52390592163583
 20
8.20150016409865
 10
20.23815879607039
 20
8.201500164098652
 97
        0
 92
        7
 72
     0
 73
     1
 93
        4
 10
18.80960593041197
 20
14.82645016409865
 10
18.09530593918812
 20
14.82645016409865
 10
18.09530593918812
 20
8.20150016409865
 10
18.80960593041198
 20
8.20150016409865
 97
        0
 92
        7
 72
     0
 73
     1
 93
        4
 10
17.38101794443747
 20
14.82645016409865
 10
16.66673310799833
 20
14.82645016409865
 10
16.66673310799833
 20
8.20150016409865
 10
17.38101794443748
 20
8.20150016409865
 97
        0
 92
        7
 72
     0
 73
     1
 93
        4
 10
15.95242453891118
 20
14.82645016409865
 10
15.23813073891118
 20
14.82645016409865
 10
15.23813073891118
 20
8.20150016409865
 10
15.95242453891117
 20
8.20150016409865
 97
        0
 75
     0
 76
     1
 47
0.049861847510962
 98
        4
 10
19.88242166930596
 20
11.48010811834064
 10
18.43445752860449
 20
11.82914104410757
 10
17.13628278765562
 20
11.77927919756943
 10
15.63838883280989
 20
11.67955550449317
450
        0
451
        0
460
0.0
461
0.0
452
        1
462
1.0
453
        2
463
0.0
 63
     5
421
      255
463
1.0
 63
     7
421
 16777215
470
LINEAR
  0
VIEWPORT
  5
3C04
330
15
100
AcDbEntity
 67
     1
  8
0
100
AcDbViewport
 10
133.3499908447265
 20
101.5999970436096
 30
0.0
 40
446.6355739657439
 41
228.4221935424805
 68
     2
 69
     1
 12
133.3499908447265
 22
101.5999970436096
 13
0.0
 23
0.0
 14
10.0
 24
10.0
 15
10.0
 25
10.0
 16
0.0
 26
0.0
 36
1.0
 17
0.0
 27
0.0
 37
0.0
 42
50.0
 43
0.0
 44
0.0
 45
228.4221935424805
 50
0.0
 51
0.0
 72
   100
 90
    32800
  1

281
     0
 71
     1
 74
     0
110
0.0
120
0.0
130
0.0
111
1.0
121
0.0
131
0.0
112
0.0
122
1.0
132
0.0
 79
     0
146
0.0
170
     0
  0
VIEWPORT
  5
3C06
330
15
100
AcDbEntity
 67
     1
  8
0
100
AcDbViewport
 10
133.3499939441681
 20
101.5999939441681
 30
0.0
 40
213.3599903106689
 41
162.5599903106689
 68
     1
 69
     2
 12
19.47974912417996
 22
11.18481319602243
 13
0.0
 23
0.0
 14
10.0
 24
10.0
 15
10.0
 25
10.0
 16
0.0
 26
0.0
 36
1.0
 17
0.0
 27
0.0
 37
0.0
 42
50.0
 43
0.0
 44
0.0
 45
18.06002911647462
 50
0.0
 51
0.0
 72
   100
 90
    32800
  1

281
     0
 71
     1
 74
     0
110
0.0
120
0.0
130
0.0
111
1.0
121
0.0
131
0.0
112
0.0
122
1.0
132
0.0
 79
     0
146
0.0
170
     0
  0
ENDSEC
  0
SECTION
  2
OBJECTS
  0
DICTIONARY
  5
C
330
0
100
AcDbDictionary
281
     1
  3
ACAD_COLOR
350
38F6
  3
ACAD_GROUP
350
D
  3
ACAD_IMAGE_DICT
350
21
  3
ACAD_IMAGE_VARS
350
20
  3
ACAD_LAYOUT
350
38F7
  3
ACAD_MATERIAL
350
38F5
  3
ACAD_MLINESTYLE
350
1B
  3
ACAD_PLOTSETTINGS
350
38F8
  3
ACAD_PLOTSTYLENAME
350
38F3
  3
ACDBVARIABLEDICTIONARY
350
34D4
  0
DICTIONARY
  5
38F6
102
{ACAD_REACTORS
330
C
102
}
330
C
100
AcDbDictionary
281
     1
  0
DICTIONARY
  5
D
102
{ACAD_REACTORS
330
C
102
}
330
C
100
AcDbDictionary
281
     1
  0
DICTIONARY
  5
21
102
{ACAD_REACTORS
330
C
102
}
330
C
100
AcDbDictionary
281
     1
  3
3304-1
350
22
  3
3304-1B
350
1C41
  3
3304-2
350
25
  3
3304-2B
350
1C44
  3
3304-3
350
28
  3
3304-3B
350
1C47
  0
RASTERVARIABLES
  5
20
102
{ACAD_REACTORS
330
C
102
}
330
C
100
AcDbRasterVariables
 90
        0
 70
     1
 71
     1
 72
     0
  0
DICTIONARY
  5
38F7
102
{ACAD_REACTORS
330
C
102
}
330
C
100
AcDbDictionary
281
     1
  3
Layout1
350
38FA
  3
Model
350
38F9
  0
DICTIONARY
  5
38F5
102
{ACAD_REACTORS
330
C
102
}
330
C
100
AcDbDictionary
281
     1
  0
DICTIONARY
  5
1B
102
{ACAD_REACTORS
330
C
102
}
330
C
100
AcDbDictionary
281
     1
  3
STANDARD
350
1C
  0
DICTIONARY
  5
38F8
102
{ACAD_REACTORS
330
C
102
}
330
C
100
AcDbDictionary
281
     1
  0
ACDBDICTIONARYWDFLT
  5
38F3
102
{ACAD_REACTORS
330
C
102
}
330
C
100
AcDbDictionary
281
     1
  3
Normal
350
38F4
100
AcDbDictionaryWithDefault
340
38F4
  0
DICTIONARY
  5
34D4
102
{ACAD_REACTORS
330
C
102
}
330
C
100
AcDbDictionary
281
     1
  3
SORTENTS
350
34D5
  0
IMAGEDEF
  5
22
102
{ACAD_REACTORS
330
21
102
}
330
21
100
AcDbRasterImageDef
 90
        0
  1
U:\TPDWG\MichelQ\3304-1.tif
 10
2243.0
 20
3009.0
 11
0.0705555555555556
 21
0.0705555555555556
280
     1
281
     5
  0
IMAGEDEF
  5
1C41
102
{ACAD_REACTORS
330
21
102
}
330
21
100
AcDbRasterImageDef
 90
        0
  1
U:\TPDWG\MichelQ\3304-1b.TIF
 10
2202.0
 20
2931.0
 11
0.0705555555555556
 21
0.0705555555555556
280
     1
281
     5
  0
IMAGEDEF
  5
25
102
{ACAD_REACTORS
330
21
102
}
330
21
100
AcDbRasterImageDef
 90
        0
  1
U:\TPDWG\MichelQ\3304-2.tif
 10
2243.0
 20
3009.0
 11
0.0705555555555556
 21
0.0705555555555556
280
     1
281
     5
  0
IMAGEDEF
  5
1C44
102
{ACAD_REACTORS
330
21
102
}
330
21
100
AcDbRasterImageDef
 90
        0
  1
U:\TPDWG\MichelQ\3304-2b.TIF
 10
2202.0
 20
2931.0
 11
0.0705555555555556
 21
0.0705555555555556
280
     1
281
     5
  0
IMAGEDEF
  5
28
102
{ACAD_REACTORS
330
21
102
}
330
21
100
AcDbRasterImageDef
 90
        0
  1
U:\TPDWG\MichelQ\3304-3.tif
 10
2243.0
 20
3009.0
 11
0.0705555555555556
 21
0.0705555555555556
280
     1
281
     5
  0
IMAGEDEF
  5
1C47
102
{ACAD_REACTORS
330
21
102
}
330
21
100
AcDbRasterImageDef
 90
        0
  1
U:\TPDWG\MichelQ\3304-3b.TIF
 10
2202.0
 20
2931.0
 11
0.0705555555555556
 21
0.0705555555555556
280
     1
281
     5
  0
LAYOUT
  5
38FA
102
{ACAD_REACTORS
330
38F7
102
}
330
38F7
100
AcDbPlotSettings
  1

  2
none_device
  4
Letter_(8.50_x_11.00_Inches)
  6

 40
6.349999904632568
 41
6.349999904632568
 42
6.350006103515625
 43
6.350006103515625
 44
215.8999938964844
 45
279.3999938964844
 46
0.0
 47
0.0
 48
0.0
 49
0.0
140
0.0
141
0.0
142
1.0
143
1.0
 70
   688
 72
     1
 73
     1
 74
     5
  7

 75
    16
147
1.0
 76
     1
 77
     2
 78
   300
148
0.0
149
0.0
100
AcDbLayout
  1
Layout1
 70
     1
 71
     1
 10
-6.350006103515625
 20
-6.349999904632568
 11
273.0499877929688
 21
209.5499939918518
 12
0.0
 22
0.0
 32
0.0
 14
26.66076962115563
 24
20.31135699206658
 34
-0.0000000000000058
 15
240.039213369355
 25
182.8886381005154
 35
0.0000000000000104
146
0.0
 13
0.0
 23
0.0
 33
0.0
 16
1.0
 26
0.0
 36
0.0
 17
0.0
 27
1.0
 37
0.0
 76
     0
330
15
331
3C06
  0
LAYOUT
  5
38F9
102
{ACAD_REACTORS
330
38F7
102
}
330
38F7
100
AcDbPlotSettings
  1

  2
None
  4

  6

 40
0.0
 41
0.0
 42
0.0
 43
0.0
 44
0.0
 45
0.0
 46
0.0
 47
0.0
 48
0.0
 49
0.0
140
0.0
141
0.0
142
1.0
143
1.0
 70
  1712
 72
     0
 73
     0
 74
     0
  7

 75
     0
147
1.0
 76
     0
 77
     2
 78
   300
148
0.0
149
0.0
100
AcDbLayout
  1
Model
 70
     1
 71
     0
 10
0.0
 20
0.0
 11
12.0
 21
9.0
 12
0.0
 22
0.0
 32
0.0
 14
0.0
 24
0.0
 34
0.0
 15
0.0
 25
0.0
 35
0.0
146
0.0
 13
0.0
 23
0.0
 33
0.0
 16
1.0
 26
0.0
 36
0.0
 17
0.0
 27
1.0
 37
0.0
 76
     0
330
18
  0
MLINESTYLE
  5
1C
102
{ACAD_REACTORS
330
1B
102
}
330
1B
100
AcDbMlineStyle
  2
STANDARD
 70
     0
  3

 62
   256
 51
90.0
 52
90.0
 71
     2
 49
0.5
 62
   256
  6
BYLAYER
 49
-0.5
 62
   256
  6
BYLAYER
  0
ACDBPLACEHOLDER
  5
38F4
102
{ACAD_REACTORS
330
38F3
102
}
330
38F3
  0
DICTIONARYVAR
  5
34D5
102
{ACAD_REACTORS
330
34D4
102
}
330
34D4
100
DictionaryVariables
280
     0
  1
96
  0
ENDSEC
  0
EOF
