  0
SECTION
  2
HEADER
  9
$ACADVER
  1
AC1018
  9
$ACADMAINTVER
 70
     0
  9
$DWGCODEPAGE
  3
ANSI_1252
  9
$INSBASE
 10
0.0
 20
0.0
 30
0.0
  9
$EXTMIN
 10
6.974587612648987
 20
12.88847085268385
 30
0.0
  9
$EXTMAX
 10
39.91656797460203
 20
30.0931419784604
 30
0.0
  9
$LIMMIN
 10
0.0
 20
0.0
  9
$LIMMAX
 10
12.0
 20
9.0
  9
$ORTHOMODE
 70
     0
  9
$REGENMODE
 70
     1
  9
$FILLMODE
 70
     1
  9
$QTEXTMODE
 70
     0
  9
$MIRRTEXT
 70
     1
  9
$LTSCALE
 40
1.0
  9
$ATTMODE
 70
     1
  9
$TEXTSIZE
 40
0.2
  9
$TRACEWID
 40
0.05
  9
$TEXTSTYLE
  7
STANDARD
  9
$CLAYER
  8
0
  9
$CELTYPE
  6
BYLAYER
  9
$CECOLOR
 62
   256
  9
$CELTSCALE
 40
1.0
  9
$DISPSILH
 70
     0
  9
$DIMSCALE
 40
1.0
  9
$DIMASZ
 40
0.18
  9
$DIMEXO
 40
0.0625
  9
$DIMDLI
 40
0.38
  9
$DIMRND
 40
0.0
  9
$DIMDLE
 40
0.0
  9
$DIMEXE
 40
0.18
  9
$DIMTP
 40
0.0
  9
$DIMTM
 40
0.0
  9
$DIMTXT
 40
1.0
  9
$DIMCEN
 40
0.09
  9
$DIMTSZ
 40
0.0
  9
$DIMTOL
 70
     0
  9
$DIMLIM
 70
     0
  9
$DIMTIH
 70
     1
  9
$DIMTOH
 70
     1
  9
$DIMSE1
 70
     0
  9
$DIMSE2
 70
     0
  9
$DIMTAD
 70
     0
  9
$DIMZIN
 70
     0
  9
$DIMBLK
  1

  9
$DIMASO
 70
     1
  9
$DIMSHO
 70
     1
  9
$DIMPOST
  1

  9
$DIMAPOST
  1

  9
$DIMALT
 70
     0
  9
$DIMALTD
 70
     2
  9
$DIMALTF
 40
25.4
  9
$DIMLFAC
 40
1.0
  9
$DIMTOFL
 70
     0
  9
$DIMTVP
 40
0.0
  9
$DIMTIX
 70
     0
  9
$DIMSOXD
 70
     0
  9
$DIMSAH
 70
     0
  9
$DIMBLK1
  1

  9
$DIMBLK2
  1

  9
$DIMSTYLE
  2
STANDARD
  9
$DIMCLRD
 70
     0
  9
$DIMCLRE
 70
     0
  9
$DIMCLRT
 70
     0
  9
$DIMTFAC
 40
1.0
  9
$DIMGAP
 40
0.09
  9
$DIMJUST
 70
     0
  9
$DIMSD1
 70
     0
  9
$DIMSD2
 70
     0
  9
$DIMTOLJ
 70
     1
  9
$DIMTZIN
 70
     0
  9
$DIMALTZ
 70
     0
  9
$DIMALTTZ
 70
     0
  9
$DIMUPT
 70
     0
  9
$DIMDEC
 70
     4
  9
$DIMTDEC
 70
     4
  9
$DIMALTU
 70
     2
  9
$DIMALTTD
 70
     2
  9
$DIMTXSTY
  7
STANDARD
  9
$DIMAUNIT
 70
     0
  9
$DIMADEC
 70
     0
  9
$DIMALTRND
 40
0.0
  9
$DIMAZIN
 70
     0
  9
$DIMDSEP
 70
    46
  9
$DIMATFIT
 70
     3
  9
$DIMFRAC
 70
     0
  9
$DIMLDRBLK
  1

  9
$DIMLUNIT
 70
     2
  9
$DIMLWD
 70
    -2
  9
$DIMLWE
 70
    -2
  9
$DIMTMOVE
 70
     0
  9
$LUNITS
 70
     4
  9
$LUPREC
 70
     4
  9
$SKETCHINC
 40
0.1
  9
$FILLETRAD
 40
0.0
  9
$AUNITS
 70
     0
  9
$AUPREC
 70
     0
  9
$MENU
  1
.
  9
$ELEVATION
 40
0.0
  9
$PELEVATION
 40
0.0
  9
$THICKNESS
 40
0.0
  9
$LIMCHECK
 70
     0
  9
$CHAMFERA
 40
0.5
  9
$CHAMFERB
 40
0.5
  9
$CHAMFERC
 40
1.0
  9
$CHAMFERD
 40
0.0
  9
$SKPOLY
 70
     0
  9
$TDCREATE
 40
2451160.318790972
  9
$TDUCREATE
 40
2451160.485457639
  9
$TDUPDATE
 40
2453488.682606956
  9
$TDUUPDATE
 40
2453488.849273623
  9
$TDINDWG
 40
0.5273022917
  9
$TDUSRTIMER
 40
0.5273022917
  9
$USRTIMER
 70
     1
  9
$ANGBASE
 50
0.0
  9
$ANGDIR
 70
     0
  9
$PDMODE
 70
     3
  9
$PDSIZE
 40
1.0
  9
$PLINEWID
 40
0.0
  9
$SPLFRAME
 70
     0
  9
$SPLINETYPE
 70
     6
  9
$SPLINESEGS
 70
     8
  9
$HANDSEED
  5
150BA
  9
$SURFTAB1
 70
     6
  9
$SURFTAB2
 70
     6
  9
$SURFTYPE
 70
     6
  9
$SURFU
 70
     6
  9
$SURFV
 70
     6
  9
$UCSBASE
  2

  9
$UCSNAME
  2

  9
$UCSORG
 10
0.0
 20
0.0
 30
0.0
  9
$UCSXDIR
 10
1.0
 20
0.0
 30
0.0
  9
$UCSYDIR
 10
0.0
 20
1.0
 30
0.0
  9
$UCSORTHOREF
  2

  9
$UCSORTHOVIEW
 70
     0
  9
$UCSORGTOP
 10
0.0
 20
0.0
 30
0.0
  9
$UCSORGBOTTOM
 10
0.0
 20
0.0
 30
0.0
  9
$UCSORGLEFT
 10
0.0
 20
0.0
 30
0.0
  9
$UCSORGRIGHT
 10
0.0
 20
0.0
 30
0.0
  9
$UCSORGFRONT
 10
0.0
 20
0.0
 30
0.0
  9
$UCSORGBACK
 10
0.0
 20
0.0
 30
0.0
  9
$PUCSBASE
  2

  9
$PUCSNAME
  2

  9
$PUCSORG
 10
0.0
 20
0.0
 30
0.0
  9
$PUCSXDIR
 10
1.0
 20
0.0
 30
0.0
  9
$PUCSYDIR
 10
0.0
 20
1.0
 30
0.0
  9
$PUCSORTHOREF
  2

  9
$PUCSORTHOVIEW
 70
     0
  9
$PUCSORGTOP
 10
0.0
 20
0.0
 30
0.0
  9
$PUCSORGBOTTOM
 10
0.0
 20
0.0
 30
0.0
  9
$PUCSORGLEFT
 10
0.0
 20
0.0
 30
0.0
  9
$PUCSORGRIGHT
 10
0.0
 20
0.0
 30
0.0
  9
$PUCSORGFRONT
 10
0.0
 20
0.0
 30
0.0
  9
$PUCSORGBACK
 10
0.0
 20
0.0
 30
0.0
  9
$USERI1
 70
     0
  9
$USERI2
 70
     0
  9
$USERI3
 70
     0
  9
$USERI4
 70
     0
  9
$USERI5
 70
     0
  9
$USERR1
 40
0.0
  9
$USERR2
 40
0.0
  9
$USERR3
 40
0.0
  9
$USERR4
 40
0.0
  9
$USERR5
 40
0.0
  9
$WORLDVIEW
 70
     1
  9
$SHADEDGE
 70
     3
  9
$SHADEDIF
 70
    70
  9
$TILEMODE
 70
     1
  9
$MAXACTVP
 70
    48
  9
$PINSBASE
 10
0.0
 20
0.0
 30
0.0
  9
$PLIMCHECK
 70
     0
  9
$PEXTMIN
 10
1.049743681505489
 20
0.7996673802841308
 30
-0.0015258207003583
  9
$PEXTMAX
 10
9.450622583565561
 20
7.200576801086516
 30
0.0000000349246037
  9
$PLIMMIN
 10
-0.2500002402958907
 20
-0.2499999962453767
  9
$PLIMMAX
 10
10.74999951940821
 20
8.249999763458731
  9
$UNITMODE
 70
     0
  9
$VISRETAIN
 70
     1
  9
$PLINEGEN
 70
     0
  9
$PSLTSCALE
 70
     1
  9
$TREEDEPTH
 70
  3020
  9
$CMLSTYLE
  2
STANDARD
  9
$CMLJUST
 70
     0
  9
$CMLSCALE
 40
1.0
  9
$PROXYGRAPHICS
 70
     1
  9
$MEASUREMENT
 70
     0
  9
$CELWEIGHT
370
    -1
  9
$ENDCAPS
280
     0
  9
$JOINSTYLE
280
     0
  9
$LWDISPLAY
290
     0
  9
$INSUNITS
 70
     0
  9
$HYPERLINKBASE
  1

  9
$STYLESHEET
  1

  9
$XEDIT
290
     1
  9
$CEPSNTYPE
380
     0
  9
$PSTYLEMODE
290
     1
  9
$FINGERPRINTGUID
  2
{13BCE04E-FEE0-4A79-A5A9-55C2AB8DC858}
  9
$VERSIONGUID
  2
{E8EB4120-CFC7-4C24-9CCD-E21FBD3A67D6}
  9
$EXTNAMES
290
     1
  9
$PSVPSCALE
 40
0.0
  9
$OLESTARTUP
290
     0
  9
$SORTENTS
280
   127
  9
$INDEXCTL
280
     0
  9
$HIDETEXT
280
     0
  9
$XCLIPFRAME
290
     0
  9
$HALOGAP
280
     0
  9
$OBSCOLOR
 70
   257
  9
$OBSLTYPE
280
     0
  9
$INTERSECTIONDISPLAY
280
     0
  9
$INTERSECTIONCOLOR
 70
   257
  9
$DIMASSOC
280
     1
  9
$PROJECTNAME
  1

  0
ENDSEC
  0
SECTION
  2
CLASSES
  0
CLASS
  1
RASTERVARIABLES
  2
AcDbRasterVariables
  3
ISM
 90
        0
 91
        1
280
     0
281
     0
  0
CLASS
  1
IMAGEDEF
  2
AcDbRasterImageDef
  3
ISM
 90
        0
 91
        1
280
     0
281
     0
  0
CLASS
  1
IMAGEDEF_REACTOR
  2
AcDbRasterImageDefReactor
  3
ISM
 90
        1
 91
        0
280
     0
281
     0
  0
CLASS
  1
IMAGE
  2
AcDbRasterImage
  3
ISM
 90
      127
 91
        0
280
     0
281
     1
  0
CLASS
  1
ACDBDICTIONARYWDFLT
  2
AcDbDictionaryWithDefault
  3
ObjectDBX Classes
 90
        0
 91
        1
280
     0
281
     0
  0
ENDSEC
  0
SECTION
  2
TABLES
  0
TABLE
  2
VPORT
  5
8
330
0
100
AcDbSymbolTable
 70
     2
  0
VPORT
  5
150B9
330
8
100
AcDbSymbolTableRecord
100
AcDbViewportTableRecord
  2
*Active
 70
     0
 10
0.0
 20
0.0
 11
1.0
 21
1.0
 12
23.43410246182489
 22
21.95453201251888
 13
0.0
 23
0.0
 14
0.5
 24
0.5
 15
0.5
 25
0.5
 16
0.0
 26
0.0
 36
1.0
 17
0.0
 27
0.0
 37
0.0
 40
22.37972825022548
 41
1.977142857142857
 42
50.0
 43
0.0
 44
0.0
 50
0.0
 51
0.0
 71
     0
 72
   100
 73
     1
 74
     1
 75
     0
 76
     0
 77
     0
 78
     0
281
     0
 65
     1
110
0.0
120
0.0
130
0.0
111
1.0
121
0.0
131
0.0
112
0.0
122
1.0
132
0.0
 79
     0
146
0.0
  0
ENDTAB
  0
TABLE
  2
LTYPE
  5
5
330
0
100
AcDbSymbolTable
 70
     1
  0
LTYPE
  5
12
330
5
100
AcDbSymbolTableRecord
100
AcDbLinetypeTableRecord
  2
BYBLOCK
 70
     0
  3

 72
    65
 73
     0
 40
0.0
  0
LTYPE
  5
13
330
5
100
AcDbSymbolTableRecord
100
AcDbLinetypeTableRecord
  2
BYLAYER
 70
     0
  3

 72
    65
 73
     0
 40
0.0
  0
LTYPE
  5
14
330
5
100
AcDbSymbolTableRecord
100
AcDbLinetypeTableRecord
  2
CONTINUOUS
 70
     0
  3
Solid line
 72
    65
 73
     0
 40
0.0
  0
ENDTAB
  0
TABLE
  2
LAYER
  5
2
330
0
100
AcDbSymbolTable
 70
     4
  0
LAYER
  5
E
330
2
100
AcDbSymbolTableRecord
100
AcDbLayerTableRecord
  2
0
 70
     0
 62
     7
  6
CONTINUOUS
370
    -3
390
14CBB
  0
LAYER
  5
14CC5
330
2
100
AcDbSymbolTableRecord
100
AcDbLayerTableRecord
  2
Defpoints
 70
     0
 62
     7
  6
CONTINUOUS
290
     0
370
    -3
390
14CBB
  0
LAYER
  5
15041
330
2
100
AcDbSymbolTableRecord
100
AcDbLayerTableRecord
  2
gravure latéral
 70
     0
 62
   210
  6
CONTINUOUS
370
    -3
390
14CBB
  0
LAYER
  5
1507C
330
2
100
AcDbSymbolTableRecord
100
AcDbLayerTableRecord
  2
DIM
 70
     0
 62
    -3
  6
CONTINUOUS
370
    -3
390
14CBB
  0
ENDTAB
  0
TABLE
  2
STYLE
  5
3
330
0
100
AcDbSymbolTable
 70
     1
  0
STYLE
  5
F
330
3
100
AcDbSymbolTableRecord
100
AcDbTextStyleTableRecord
  2
STANDARD
 70
     0
 40
0.0
 41
1.0
 50
0.0
 71
     0
 42
0.2
  3
txt
  4

  0
ENDTAB
  0
TABLE
  2
VIEW
  5
6
330
0
100
AcDbSymbolTable
 70
     0
  0
ENDTAB
  0
TABLE
  2
UCS
  5
7
330
0
100
AcDbSymbolTable
 70
     0
  0
ENDTAB
  0
TABLE
  2
APPID
  5
9
330
0
100
AcDbSymbolTable
 70
     1
  0
APPID
  5
10
330
9
100
AcDbSymbolTableRecord
100
AcDbRegAppTableRecord
  2
ACAD
 70
     0
  0
ENDTAB
  0
TABLE
  2
DIMSTYLE
  5
A
330
0
100
AcDbSymbolTable
 70
     1
100
AcDbDimStyleTable
 71
     1
340
1D
  0
DIMSTYLE
105
1D
102
{ACAD_REACTORS
330
14F7F
330
14F8D
330
14F9B
330
14FA9
330
1501B
102
}
330
A
100
AcDbSymbolTableRecord
100
AcDbDimStyleTableRecord
  2
STANDARD
 70
     0
140
1.0
340
F
  0
ENDTAB
  0
TABLE
  2
BLOCK_RECORD
  5
1
330
0
100
AcDbSymbolTable
 70
     7
  0
BLOCK_RECORD
  5
18
330
1
100
AcDbSymbolTableRecord
100
AcDbBlockTableRecord
  2
*MODEL_SPACE
340
14CC0
  0
BLOCK_RECORD
  5
15
330
1
100
AcDbSymbolTableRecord
100
AcDbBlockTableRecord
  2
*PAPER_SPACE
340
14CC1
  0
BLOCK_RECORD
  5
147D5
330
1
100
AcDbSymbolTableRecord
100
AcDbBlockTableRecord
  2
2212_E
340
0
  0
BLOCK_RECORD
  5
147ED
330
1
100
AcDbSymbolTableRecord
100
AcDbBlockTableRecord
  2
2212_C
340
0
  0
BLOCK_RECORD
  5
14F80
330
1
100
AcDbSymbolTableRecord
100
AcDbBlockTableRecord
  2
*D2
340
0
  0
BLOCK_RECORD
  5
14F8E
330
1
100
AcDbSymbolTableRecord
100
AcDbBlockTableRecord
  2
*D3
340
0
  0
BLOCK_RECORD
  5
14F9C
330
1
100
AcDbSymbolTableRecord
100
AcDbBlockTableRecord
  2
*D4
340
0
  0
BLOCK_RECORD
  5
14FAA
330
1
100
AcDbSymbolTableRecord
100
AcDbBlockTableRecord
  2
*D5
340
0
  0
BLOCK_RECORD
  5
1501C
330
1
100
AcDbSymbolTableRecord
100
AcDbBlockTableRecord
  2
*D6
340
0
  0
ENDTAB
  0
ENDSEC
  0
SECTION
  2
BLOCKS
  0
BLOCK
  5
19
330
18
100
AcDbEntity
  8
0
100
AcDbBlockBegin
  2
*MODEL_SPACE
 70
     0
 10
0.0
 20
0.0
 30
0.0
  3
*MODEL_SPACE
  1

  0
ENDBLK
  5
1A
330
18
100
AcDbEntity
  8
0
100
AcDbBlockEnd
  0
BLOCK
  5
16
330
15
100
AcDbEntity
 67
     1
  8
0
100
AcDbBlockBegin
  2
*PAPER_SPACE
 70
     0
 10
0.0
 20
0.0
 30
0.0
  3
*PAPER_SPACE
  1

  0
ENDBLK
  5
17
330
15
100
AcDbEntity
 67
     1
  8
0
100
AcDbBlockEnd
  0
BLOCK
  5
147D6
330
147D5
100
AcDbEntity
  8
0
100
AcDbBlockBegin
  2
2212_E
 70
     0
 10
0.0
 20
0.0
 30
0.0
  3
2212_E
  1

  0
LINE
  5
147D7
330
147D5
100
AcDbEntity
  8
0
100
AcDbLine
 10
2.481157791487184
 20
-9.560205674757018
 30
0.0
 11
-2.481157791487186
 21
-9.560205674757
 31
0.0
  0
LINE
  5
147D8
330
147D5
100
AcDbEntity
  8
0
100
AcDbLine
 10
-2.48115779148719
 20
-10.49999999999999
 30
0.0
 11
2.481157791487188
 21
-10.49999999999999
 31
0.0
  0
LINE
  5
147D9
330
147D5
100
AcDbEntity
  8
0
100
AcDbLine
 10
2.481157791487163
 20
-3.615680087577278
 30
0.0
 11
-2.481157791487163
 21
-3.615680087577278
 31
0.0
  0
LINE
  5
147DA
330
147D5
100
AcDbEntity
  8
0
100
AcDbLine
 10
2.906801128567387
 20
-1.718198871432619
 30
0.0
 11
-2.906801128567387
 21
-1.718198871432612
 31
0.0
  0
LINE
  5
147DB
330
147D5
100
AcDbEntity
  8
0
100
AcDbLine
 10
-3.375
 20
-1.249999999999996
 30
0.0
 11
3.375
 21
-1.249999999999996
 31
0.0
  0
LINE
  5
147DC
330
147D5
100
AcDbEntity
  8
0
100
AcDbLine
 10
-3.375
 20
-0.9999999999999964
 30
0.0
 11
3.375
 21
-0.9999999999999964
 31
0.0
  0
LINE
  5
147DD
330
147D5
100
AcDbEntity
  8
0
100
AcDbLine
 10
-4.375
 20
0.0000000000000036
 30
0.0
 11
4.375
 21
0.0
 31
0.0
  0
LINE
  5
147DE
330
147D5
100
AcDbEntity
  8
0
100
AcDbLine
 10
1.748842208512813
 20
-9.560205674757021
 30
0.0
 11
1.748842208512837
 21
-3.615680087577292
 31
0.0
  0
LINE
  5
147DF
330
147D5
100
AcDbEntity
  8
0
100
AcDbLine
 10
1.043842208512813
 20
-9.560205674757018
 30
0.0
 11
1.043842208512836
 21
-3.615680087577288
 31
0.0
  0
LINE
  5
147E0
330
147D5
100
AcDbEntity
  8
0
100
AcDbLine
 10
0.3388422085128138
 20
-9.560205674757014
 30
0.0
 11
0.3388422085128369
 21
-3.615680087577285
 31
0.0
  0
LINE
  5
147E1
330
147D5
100
AcDbEntity
  8
0
100
AcDbLine
 10
-0.3661577914871863
 20
-9.56020567475701
 30
0.0
 11
-0.3661577914871632
 21
-3.615680087577281
 31
0.0
  0
LINE
  5
147E2
330
147D5
100
AcDbEntity
  8
0
100
AcDbLine
 10
-1.071157791487186
 20
-9.560205674757007
 30
0.0
 11
-1.071157791487163
 21
-3.615680087577278
 31
0.0
  0
LINE
  5
147E3
330
147D5
100
AcDbEntity
  8
0
100
AcDbLine
 10
-1.776157791487186
 20
-9.560205674757003
 30
0.0
 11
-1.776157791487163
 21
-3.615680087577274
 31
0.0
  0
LINE
  5
147E4
330
147D5
100
AcDbEntity
  8
0
100
AcDbLine
 10
-2.48115779148719
 20
-10.49999999999999
 30
0.0
 11
-2.481157791487156
 21
-1.718198871432619
 31
0.0
  0
ARC
  5
147E5
330
147D5
100
AcDbEntity
  8
0
100
AcDbCircle
 10
-3.375
 20
0.0000000000000036
 30
0.0
 40
1.0
100
AcDbArc
 50
180.0
 51
270.0
  0
ARC
  5
147E6
330
147D5
100
AcDbEntity
  8
0
100
AcDbCircle
 10
-3.375000000000003
 20
-1.718198871432612
 30
0.0
 40
0.468198871432616
100
AcDbArc
 50
0.0
 51
90.0
  0
LINE
  5
147E7
330
147D5
100
AcDbEntity
  8
0
100
AcDbLine
 10
-3.375
 20
-0.9999999999999964
 30
0.0
 11
-3.375
 21
-1.249999999999996
 31
0.0
  0
LINE
  5
147E8
330
147D5
100
AcDbEntity
  8
0
100
AcDbLine
 10
2.481157791487188
 20
-10.49999999999999
 30
0.0
 11
2.481157791487156
 21
-1.718198871432619
 31
0.0
  0
ARC
  5
147E9
330
147D5
100
AcDbEntity
  8
0
100
AcDbCircle
 10
3.375
 20
0.0000000000000036
 30
0.0
 40
1.0
100
AcDbArc
 50
270.0
 51
0.000000000000007
  0
ARC
  5
147EA
330
147D5
100
AcDbEntity
  8
0
100
AcDbCircle
 10
3.375000000000003
 20
-1.718198871432612
 30
0.0
 40
0.468198871432616
100
AcDbArc
 50
90.0
 51
180.0
  0
LINE
  5
147EB
330
147D5
100
AcDbEntity
  8
0
100
AcDbLine
 10
3.375
 20
-0.9999999999999964
 30
0.0
 11
3.375
 21
-1.249999999999996
 31
0.0
  0
ENDBLK
  5
147EC
330
147D5
100
AcDbEntity
  8
0
100
AcDbBlockEnd
  0
BLOCK
  5
147EE
330
147ED
100
AcDbEntity
  8
0
100
AcDbBlockBegin
  2
2212_C
 70
     0
 10
0.0
 20
0.0
 30
0.0
  3
2212_C
  1

  0
ARC
  5
147EF
330
147ED
100
AcDbEntity
  8
0
100
AcDbCircle
 10
-10.12500000000001
 20
0.0
 30
0.0
 40
1.0
100
AcDbArc
 50
180.0
 51
270.0
  0
LINE
  5
147F0
330
147ED
100
AcDbEntity
  8
0
100
AcDbLine
 10
-11.125
 20
0.0
 30
0.0
 11
0.0
 21
0.0
 31
0.0
  0
LINE
  5
147F1
330
147ED
100
AcDbEntity
  8
0
100
AcDbLine
 10
-0.0000000000000071
 20
-1.718198871432623
 30
0.0
 11
-9.656801128567394
 21
-1.718198871432615
 31
0.0
  0
LINE
  5
147F2
330
147ED
100
AcDbEntity
  8
0
100
AcDbLine
 10
-10.12500000000001
 20
-1.0
 30
0.0
 11
0.0
 21
-1.0
 31
0.0
  0
LINE
  5
147F3
330
147ED
100
AcDbEntity
  8
0
100
AcDbLine
 10
-10.12500000000001
 20
-1.25
 30
0.0
 11
0.0
 21
-1.25
 31
0.0
  0
LINE
  5
147F4
330
147ED
100
AcDbEntity
  8
0
100
AcDbLine
 10
-2.25000000000001
 20
-10.49999999999999
 30
0.0
 11
-0.0000000000000142
 21
-10.49999999999999
 31
0.0
  0
LWPOLYLINE
  5
147F5
330
147ED
100
AcDbEntity
  8
0
100
AcDbPolyline
 90
     1006
 70
     0
 43
0.0
 10
-2.25000000000001
 20
-9.933975585345454
 10
-2.244654114942719
 20
-9.917762048699454
 10
-2.234737105135245
 20
-9.894052987847597
 10
-2.224108342054169
 20
-9.873716673718291
 10
-2.212769970540378
 20
-9.855922793237475
 10
-2.200724135434754
 20
-9.839841033331097
 10
-2.187972981578166
 20
-9.824641080925115
 10
-2.174496500614043
 20
-9.809619923332018
 10
-2.160186071395919
 20
-9.79458374941046
 10
-2.144910919579842
 20
-9.779466048405655
 10
-2.128540270821858
 20
-9.764200309562792
 10
-2.110943350778036
 20
-9.748720022127077
 10
-2.091989385104422
 20
-9.732958675343716
 10
-2.07154759945708
 20
-9.716849758457907
 10
-2.049487219492064
 20
-9.700326760714848
 10
-2.025734997154163
 20
-9.683344268714819
 10
-2.00044778954307
 20
-9.665941258478408
 10
-1.973839980047223
 20
-9.648177803381273
 10
-1.946125952055066
 20
-9.630113976799069
 10
-1.917520088955019
 20
-9.611809852107459
 10
-1.888236774135517
 20
-9.593325502682102
 10
-1.858490390985011
 20
-9.574721001898662
 10
-1.828495322891917
 20
-9.556056423132794
 10
-1.798421254871087
 20
-9.537350367640396
 10
-1.768259078443026
 20
-9.518455548198286
 10
-1.737954986754672
 20
-9.499183205463531
 10
-1.707455172952933
 20
-9.479344580093176
 10
-1.676705830184744
 20
-9.458750912744285
 10
-1.645653151597016
 20
-9.437213444073918
 10
-1.614243330336694
 20
-9.414543414739124
 10
-1.582422559550682
 20
-9.390552065396963
 10
-1.550158592812298
 20
-9.365078624053435
 10
-1.517505425400408
 20
-9.338074268110293
 10
-1.484538613020269
 20
-9.309518162318227
 10
-1.451333711377131
 20
-9.279389471427936
 10
-1.417966276176255
 20
-9.24766736019011
 10
-1.384511863122895
 20
-9.214330993355446
 10
-1.351046027922301
 20
-9.179359535674635
 10
-1.317644326279722
 20
-9.142732151898371
 10
-1.284391987049996
 20
-9.104466411846914
 10
-1.251412931686218
 20
-9.064733505618796
 10
-1.21884075479107
 20
-9.023743028382106
 10
-1.18680905096722
 20
-8.981704575304945
 10
-1.155451414817335
 20
-8.938827741555407
 10
-1.124901440944107
 20
-8.895322122301585
 10
-1.095292723950208
 20
-8.851397312711569
 10
-1.066758858438284
 20
-8.807262907953465
 10
-1.039401321826893
 20
-8.763067279375949
 10
-1.013193122797936
 20
-8.718713903050101
 10
-0.9880751528491629
 20
-8.674045031227588
 10
-0.9639883034783451
 20
-8.628902916160075
 10
-0.940873466183234
 20
-8.583129810099222
 10
-0.9186715324615946
 20
-8.536567965296704
 10
-0.8973233938112059
 20
-8.489059634004178
 10
-0.8767699417297905
 20
-8.440447068473314
 10
-0.8570057033673919
 20
-8.390536370514102
 10
-0.8382397484830903
 20
-8.338989040169785
 10
-0.8207347824882305
 20
-8.285430427041941
 10
-0.8047535107941428
 20
-8.229485880732141
 10
-0.790558638812172
 20
-8.170780750841963
 10
-0.7784128719536696
 20
-8.108940386972978
 10
-0.7685789156299734
 20
-8.043590138726745
 10
-0.7613194752524138
 20
-7.974355355704851
 10
-0.7568231609511784
 20
-7.901088991483593
 10
-0.7549822017317851
 20
-7.824554415538205
 10
-0.7556147313185733
 20
-7.745742601318639
 10
-0.7585388834358966
 20
-7.665644522274863
 10
-0.7635727918081159
 20
-7.58525115185683
 10
-0.7705345901595706
 20
-7.505553463514502
 10
-0.7792424122146287
 20
-7.427542430697837
 10
-0.7895143916976082
 20
-7.352209026856801
 10
-0.8012149517533089
 20
-7.280284742552399
 10
-0.8143936732081442
 20
-7.211463136789866
 10
-0.8291464263089736
 20
-7.145178285685478
 10
-0.8455690813026492
 20
-7.080864265355515
 10
-0.8637575084360165
 20
-7.017955151916257
 10
-0.8838075779559204
 20
-6.955885021483986
 10
-0.9058151601092205
 20
-6.894087950174984
 10
-0.929876125142762
 20
-6.831998014105529
 10
-0.9560784826410042
 20
-6.769150914450008
 10
-0.9844787995387065
 20
-6.70548885261525
 10
-1.015125782108299
 20
-6.641055655066189
 10
-1.048068136622177
 20
-6.575895148267751
 10
-1.083354569352728
 20
-6.510051158684877
 10
-1.121033786572333
 20
-6.44356751278249
 10
-1.161154494553407
 20
-6.376488037025534
 10
-1.203765399568336
 20
-6.308856557878936
 10
-1.248830406180992
 20
-6.240767619130195
 10
-1.295974212121162
 20
-6.172518633857066
 10
-1.344736713410128
 20
-6.104457732459863
 10
-1.394657806069147
 20
-6.036933045338916
 10
-1.445277386119506
 20
-5.970292702894536
 10
-1.496135349582456
 20
-5.904884835527049
 10
-1.546771592479291
 20
-5.841057573636767
 10
-1.596726010831268
 20
-5.779159047624013
 10
-1.645713557603787
 20
-5.719414224378116
 10
-1.694149413538745
 20
-5.661555416744405
 10
-1.742623816322186
 20
-5.605191774057246
 10
-1.791727003640129
 20
-5.549932445650977
 10
-1.842049213178608
 20
-5.495386580859939
 10
-1.894180682623638
 20
-5.44116332901849
 10
-1.948711649661262
 20
-5.386871839460965
 10
-2.006232351977519
 20
-5.332121261521724
 10
-2.067127110111794
 20
-5.276658572340885
 10
-2.130956576016991
 20
-5.220782060281674
 10
-2.1970754844994
 20
-5.164927841513094
 10
-2.264838570365277
 20
-5.109532032204146
 10
-2.333600568420916
 20
-5.05503074852384
 10
-2.402716213472583
 20
-5.001860106641178
 10
-2.471540240326557
 20
-4.950456222725161
 10
-2.53942738378911
 20
-4.901255212944786
 10
-2.605861897132978
 20
-4.854527828625695
 10
-2.670846107496711
 20
-4.809883361720014
 10
-2.73451186048533
 20
-4.766765739336502
 10
-2.796991001703844
 20
-4.724618888583922
 10
-2.85841537675726
 20
-4.682886736571031
 10
-2.918916831250605
 20
-4.641013210406583
 10
-2.978627210788868
 20
-4.598442237199346
 10
-3.037678360977075
 20
-4.554617744058077
 10
-3.096068743878745
 20
-4.509197082345647
 10
-3.153263287391386
 20
-4.462691300441374
 10
-3.208593535871031
 20
-4.415824870978685
 10
-3.261391033673714
 20
-4.369322266591009
 10
-3.310987325155434
 20
-4.323907959911782
 10
-3.35671395467224
 20
-4.280306423574433
 10
-3.397902466580152
 20
-4.239242130212382
 10
-3.433884405235183
 20
-4.201439552459071
 10
-3.464203428438992
 20
-4.167403171173543
 10
-3.489251647775795
 20
-4.136757500117326
 10
-3.509633288275409
 20
-4.108907061277577
 10
-3.525952574967671
 20
-4.083256376641447
 10
-3.538813732882413
 20
-4.059209968196082
 10
-3.548820987049474
 20
-4.036172357928638
 10
-3.556578562498668
 20
-4.013548067826263
 10
-3.562690684259848
 20
-3.990741619876107
 10
-3.567654943051206
 20
-3.96728075802466
 10
-3.571542392344436
 20
-3.943186114055741
 10
-3.574317451299599
 20
-3.918601541712511
 10
-3.575944539076754
 20
-3.893670894738132
 10
-3.576388074835957
 20
-3.868538026875754
 10
-3.57561247773728
 20
-3.843346791868544
 10
-3.573582166940784
 20
-3.818241043459654
 10
-3.570261561606518
 20
-3.793364635392247
 10
-3.565661581431353
 20
-3.768875456400884
 10
-3.559979148259351
 20
-3.744987535185707
 10
-3.553457684471386
 20
-3.721928935438278
 10
-3.546340612448311
 20
-3.699927720850148
 10
-3.538871354571018
 20
-3.679211955112869
 10
-3.531293333220343
 20
-3.660009701917992
 10
-3.523849970777174
 20
-3.642549024957073
 10
-3.51678468962238
 20
-3.627057987921659
 10
-3.510296025779108
 20
-3.613684313854154
 10
-3.504402969839688
 20
-3.602254363200348
 10
-3.499079626038735
 20
-3.592514155756884
 10
-3.494300098610857
 20
-3.584209711320394
 10
-3.490038491790684
 20
-3.577087049687509
 10
-3.486268909812817
 20
-3.570892190654884
 10
-3.482965456911877
 20
-3.565371154019143
 10
-3.480102237322469
 20
-3.560269959576935
 10
-3.477662850271741
 20
-3.555370910107061
 10
-3.47566887495688
 20
-3.550601440316999
 10
-3.474151385567598
 20
-3.545925267896411
 10
-3.47314145629361
 20
-3.541306110534947
 10
-3.472670161324636
 20
-3.536707685922237
 10
-3.472768574850373
 20
-3.532093711747968
 10
-3.473467771060555
 20
-3.527427905701763
 10
-3.474798824144876
 20
-3.522673985473279
 10
-3.476785039828442
 20
-3.517817265557429
 10
-3.479418649977887
 20
-3.512929447670117
 10
-3.48268411799523
 20
-3.50810383033249
 10
-3.486565907282486
 20
-3.503433712065724
 10
-3.491048481241669
 20
-3.499012391390973
 10
-3.496116303274803
 20
-3.494933166829394
 10
-3.501753836783905
 20
-3.491289336902156
 10
-3.507945545170993
 20
-3.488174200130405
 10
-3.514693155571254
 20
-3.485631813989179
 10
-3.522067450052578
 20
-3.483509271769026
 10
-3.530156474416024
 20
-3.481604425714351
 10
-3.539048274462647
 20
-3.479715128069553
 10
-3.548830895993511
 20
-3.477639231079063
 10
-3.559592384809672
 20
-3.475174586987272
 10
-3.571420786712192
 20
-3.472119048038603
 10
-3.58440414750213
 20
-3.468270466477459
 10
-3.598570952377858
 20
-3.463459522168282
 10
-3.613711444127066
 20
-3.457648205455537
 10
-3.629556304934741
 20
-3.450831334303739
 10
-3.645836216985884
 20
-3.443003726677368
 10
-3.662281862465491
 20
-3.434160200540933
 10
-3.678623923558561
 20
-3.424295573858938
 10
-3.694593082450079
 20
-3.413404664595873
 10
-3.709920021325064
 20
-3.401482290716234
 10
-3.724384624687104
 20
-3.388511175505236
 10
-3.737963586314233
 20
-3.374425663530896
 10
-3.750682802303082
 20
-3.359148004681934
 10
-3.762568168750288
 20
-3.342600448847083
 10
-3.773645581752489
 20
-3.324705245915076
 10
-3.783940937406313
 20
-3.305384645774623
 10
-3.793480131808397
 20
-3.284560898314463
 10
-3.802289061055375
 20
-3.262156253423331
 10
-3.810372904454915
 20
-3.238137882905348
 10
-3.817653974158766
 20
-3.212652646226313
 10
-3.824033865529724
 20
-3.185892324767433
 10
-3.829414173930572
 20
-3.158048699909912
 10
-3.833696494724101
 20
-3.129313553034943
 10
-3.836782423273099
 20
-3.099878665523743
 10
-3.838573554940346
 20
-3.06993581875751
 10
-3.838971485088645
 20
-3.039676794117454
 10
-3.837908884264233
 20
-3.00928214236195
 10
-3.835442723747206
 20
-2.978887491758143
 10
-3.831661050001123
 20
-2.948617239950348
 10
-3.826651909489555
 20
-2.918595784582873
 10
-3.820503348676041
 20
-2.888947523300036
 10
-3.813303414024151
 20
-2.859796853746153
 10
-3.805140151997441
 20
-2.831268173565547
 10
-3.796101609059469
 20
-2.803485880402529
 10
-3.786274105201105
 20
-2.776551047463069
 10
-3.775737054522441
 20
-2.750471450199786
 10
-3.76456814465088
 20
-2.725231539626943
 10
-3.752845063213833
 20
-2.700815766758804
 10
-3.740645497838695
 20
-2.677208582609633
 10
-3.728047136152891
 20
-2.654394438193715
 10
-3.715127665783803
 20
-2.632357784525297
 10
-3.701964774358845
 20
-2.611083072618654
 10
-3.688651325041391
 20
-2.590548638006676
 10
-3.675340883138666
 20
-2.570708354296662
 10
-3.662202189493868
 20
-2.551509979614561
 10
-3.649403984950186
 20
-2.532901272086292
 10
-3.637115010350818
 20
-2.514829989837792
 10
-3.625504006538953
 20
-2.49724389099499
 10
-3.614739714357789
 20
-2.48009073368382
 10
-3.604990874650521
 20
-2.463318276030211
 10
-3.596393490921805
 20
-2.446875137241363
 10
-3.588952617322185
 20
-2.430713380849621
 10
-3.582640570663663
 20
-2.414785931468561
 10
-3.577429667758242
 20
-2.399045713711782
 10
-3.573292225417922
 20
-2.383445652192893
 10
-3.570200560454718
 20
-2.367938671525489
 10
-3.568126989680624
 20
-2.352477696323163
 10
-3.56704382990765
 20
-2.337015651199525
 10
-3.566925960604788
 20
-2.321546109236621
 10
-3.567758511868998
 20
-2.306225237390354
 10
-3.569529176454231
 20
-2.291249851085083
 10
-3.57222564711445
 20
-2.276816765745167
 10
-3.575835616603583
 20
-2.26312279679497
 10
-3.580346777675593
 20
-2.25036475965884
 10
-3.585746823084445
 20
-2.238739469761139
 10
-3.592023445584064
 20
-2.228443742526238
 10
-3.599158445495667
 20
-2.219645830951623
 10
-3.607110053409464
 20
-2.21239973832743
 10
-3.615830607482909
 20
-2.206730905516884
 10
-3.625272445873463
 20
-2.202664773383265
 10
-3.635387906738586
 20
-2.200226782789819
 10
-3.646129328235737
 20
-2.199442374599801
 10
-3.65744904852238
 20
-2.200336989676475
 10
-3.669299405755964
 20
-2.202936068883094
 10
-3.681650533096213
 20
-2.20727568463424
 10
-3.694543743711864
 20
-2.213434435549846
 10
-3.708038145773894
 20
-2.22150155180115
 10
-3.722192847453307
 20
-2.231566263559418
 10
-3.73706695692109
 20
-2.243717800995902
 10
-3.752719582348223
 20
-2.258045394281843
 10
-3.769209831905708
 20
-2.274638273588511
 10
-3.786596813764528
 20
-2.293585669087146
 10
-3.804910267013063
 20
-2.314951186103044
 10
-3.824062454409212
 20
-2.338695930577653
 10
-3.843936269628258
 20
-2.364755383606485
 10
-3.864414606345491
 20
-2.393065026285032
 10
-3.885380358236201
 20
-2.423560339708775
 10
-3.906716418975662
 20
-2.456176804973221
 10
-3.928305682239173
 20
-2.490849903173863
 10
-3.950031041702011
 20
-2.527515115406192
 10
-3.971742831471534
 20
-2.56608972421791
 10
-3.993161147383336
 20
-2.606418217965536
 10
-4.013973525705104
 20
-2.64832688645778
 10
-4.033867502704499
 20
-2.691642019503369
 10
-4.052530614649182
 20
-2.736189906911011
 10
-4.069650397806835
 20
-2.781796838489423
 10
-4.084914388445131
 20
-2.828289104047328
 10
-4.09801012283173
 20
-2.875492993393443
 10
-4.108696164482079
 20
-2.923240472927474
 10
-4.117015185902666
 20
-2.971386215413076
 10
-4.123080886847766
 20
-3.019790570204889
 10
-4.12700696707165
 20
-3.068313886657566
 10
-4.128907126328581
 20
-3.116816514125741
 10
-4.12889506437283
 20
-3.165158801964064
 10
-4.127084480958664
 20
-3.213201099527179
 10
-4.123589075840342
 20
-3.260803756169732
 10
-4.118511089469755
 20
-3.307894417838603
 10
-4.111906925089208
 20
-3.354669916849619
 10
-4.103821526638625
 20
-3.401394382110861
 10
-4.094299838057931
 20
-3.448331942530391
 10
-4.083386803287051
 20
-3.495746727016285
 10
-4.071127366265905
 20
-3.543902864476613
 10
-4.057566470934421
 20
-3.593064483819439
 10
-4.04274906123252
 20
-3.643495713952841
 10
-4.026690609771804
 20
-3.695368445587618
 10
-4.009288703850643
 20
-3.748485616645499
 10
-3.990411459439055
 20
-3.802557926850951
 10
-3.969926992507097
 20
-3.857296075928438
 10
-3.947703419024804
 20
-3.912410763602419
 10
-3.923608854962218
 20
-3.967612689597356
 10
-3.897511416289368
 20
-4.022612553637717
 10
-3.869279218976302
 20
-4.07712105544796
 10
-3.838772511926485
 20
-4.130916657395914
 10
-3.80582007577713
 20
-4.184048872422845
 10
-3.770242824098865
 20
-4.236634976113396
 10
-3.731861670462322
 20
-4.288792244052192
 10
-3.690497528438143
 20
-4.340637951823872
 10
-3.645971311596955
 20
-4.392289375013071
 10
-3.598103933509403
 20
-4.44386378920441
 10
-3.546716307746113
 20
-4.49547846998254
 10
-3.491739544557503
 20
-4.547188479329886
 10
-3.433545540913137
 20
-4.5988000248201
 10
-3.372616390462333
 20
-4.650057100424621
 10
-3.309434186854439
 20
-4.700703700114907
 10
-3.244481023738781
 20
-4.750483817862392
 10
-3.178238994764701
 20
-4.799141447638529
 10
-3.111190193581538
 20
-4.846420583414772
 10
-3.043816713838623
 20
-4.89206521916256
 10
-2.976607208478597
 20
-4.935858734300222
 10
-2.910076567617394
 20
-4.977742050033601
 10
-2.844746240664228
 20
-5.017695473015432
 10
-2.781137677028326
 20
-5.055699309898439
 10
-2.719772326118928
 20
-5.091733867335349
 10
-2.661171637345251
 20
-5.125779451978889
 10
-2.60585706011653
 20
-5.157816370481782
 10
-2.554350043841996
 20
-5.187824929496766
 10
-2.507008060235474
 20
-5.215851078439929
 10
-2.463532670229238
 20
-5.242203337780871
 10
-2.423461457060131
 20
-5.267255870752542
 10
-2.386332003965026
 20
-5.29138284058791
 10
-2.351681894180785
 20
-5.314958410519935
 10
-2.319048710944269
 20
-5.338356743781577
 10
-2.287970037492332
 20
-5.361952003605804
 10
-2.25798345706185
 20
-5.386118353225572
 10
-2.228690504039612
 20
-5.411147902563591
 10
-2.199948517412153
 20
-5.437004548301544
 10
-2.171678787315912
 20
-5.463570133810879
 10
-2.143802603887387
 20
-5.490726502463029
 10
-2.116241257263006
 20
-5.518355497629425
 10
-2.088916037579252
 20
-5.546338962681517
 10
-2.061748234972576
 20
-5.574558740990735
 10
-2.034659139579442
 20
-5.602896675928512
 10
-2.007645289565935
 20
-5.631196147924224
 10
-1.981004215216636
 20
-5.659146685639022
 10
-1.955108694845765
 20
-5.686399354791969
 10
-1.930331506767515
 20
-5.71260522110214
 10
-1.907045429296086
 20
-5.737415350288618
 10
-1.885623240745715
 20
-5.760480808070472
 10
-1.866437719430575
 20
-5.781452660166785
 10
-1.849861643664898
 20
-5.799981972296624
 10
-1.836151440963199
 20
-5.815829879822498
 10
-1.825098135641269
 20
-5.829197796680624
 10
-1.816376401215237
 20
-5.840397206450628
 10
-1.809660911201209
 20
-5.849739592712165
 10
-1.804626339115294
 20
-5.857536439044856
 10
-1.800947358473607
 20
-5.864099229028354
 10
-1.798298642792275
 20
-5.869739446242295
 10
-1.796354865587392
 20
-5.874768574266319
 10
-1.794844567294745
 20
-5.879448644394535
 10
-1.793711756028766
 20
-5.883843878778971
 10
-1.792954306823542
 20
-5.887969047286116
 10
-1.792570094713155
 20
-5.891838919782461
 10
-1.792556994731711
 20
-5.895468266134496
 10
-1.792912881913288
 20
-5.898871856208721
 10
-1.793635631291984
 20
-5.902064459871631
 10
-1.794723117901884
 20
-5.905060846989716
 10
-1.796178292569251
 20
-5.907868127913797
 10
-1.798024409289048
 20
-5.910462774931996
 10
-1.80028979784841
 20
-5.912813600816765
 10
-1.803002788034451
 20
-5.914889418340553
 10
-1.806191709634319
 20
-5.916659040275817
 10
-1.809884892435142
 20
-5.918091279395
 10
-1.814110666224053
 20
-5.919154948470556
 10
-1.818897360788181
 20
-5.919818860274936
 10
-1.824260085413577
 20
-5.92006316828591
 10
-1.830161067381983
 20
-5.91991338880252
 10
-1.836549313474076
 20
-5.919406378829126
 10
-1.84337383047049
 20
-5.918578995370101
 10
-1.850583625151912
 20
-5.917468095429804
 10
-1.85812770429899
 20
-5.916110536012588
 10
-1.865955074692394
 20
-5.91454317412283
 10
-1.87401474311278
 20
-5.912802866764881
 10
-1.882449691720083
 20
-5.910868602672607
 10
-1.89217880419121
 20
-5.908487897497835
 10
-1.904314939582391
 20
-5.905350398621894
 10
-1.919970956949782
 20
-5.901145753426106
 10
-1.940259715349593
 20
-5.895563609291794
 10
-1.966294073838007
 20
-5.888293613600289
 10
-1.999186891471218
 20
-5.879025413732914
 10
-2.040051027305423
 20
-5.867448657070994
 10
-2.089588895695452
 20
-5.853371418943723
 10
-2.1468611321907
 20
-5.837075486471736
 10
-2.210517927639216
 20
-5.818961074723556
 10
-2.279209472889032
 20
-5.799428398767695
 10
-2.351585958788184
 20
-5.778877673672653
 10
-2.426297576184712
 20
-5.757709114506948
 10
-2.501994515926661
 20
-5.736322936339096
 10
-2.577326968862077
 20
-5.715119354237604
 10
-2.651217006255773
 20
-5.694432190564548
 10
-2.723674221039718
 20
-5.674329696856304
 10
-2.794980086562677
 20
-5.654813731942805
 10
-2.865416076173399
 20
-5.635886154653988
 10
-2.935263663220641
 20
-5.617548823819788
 10
-3.004804321053146
 20
-5.599803598270135
 10
-3.074319523019685
 20
-5.582652336834978
 10
-3.144090742469
 20
-5.566096898344245
 10
-3.214235236168324
 20
-5.550141736676547
 10
-3.284213394558737
 20
-5.534801685905168
 10
-3.353321391499797
 20
-5.520094175152078
 10
-3.420855400851053
 20
-5.506036633539228
 10
-3.48611159647206
 20
-5.49264649018858
 10
-3.548386152222374
 20
-5.479941174222094
 10
-3.60697524196156
 20
-5.467938114761732
 10
-3.661175039549149
 20
-5.456654740929451
 10
-3.710500849646596
 20
-5.446069615525239
 10
-3.755344500122841
 20
-5.436005836061166
 10
-3.796316949648719
 20
-5.426247633727339
 10
-3.83402915689507
 20
-5.416579239713843
 10
-3.869092080532709
 20
-5.40678488521079
 10
-3.902116679232481
 20
-5.396648801408282
 10
-3.933713911665208
 20
-5.385955219496405
 10
-3.964494736501734
 20
-5.374488370665272
 10
-3.994953379240797
 20
-5.362066896340937
 10
-4.025117132692777
 20
-5.348647078893307
 10
-4.054896556496007
 20
-5.334219610928247
 10
-4.084202210288765
 20
-5.318775185051624
 10
-4.112944653709373
 20
-5.302304493869304
 10
-4.141034446396126
 20
-5.284798229987156
 10
-4.168382147987326
 20
-5.266247086011041
 10
-4.194898318121289
 20
-5.246641754546828
 10
-4.220500305616827
 20
-5.225969309585977
 10
-4.245132616014778
 20
-5.204202350662288
 10
-4.268746544036506
 20
-5.181309858695165
 10
-4.29129338440336
 20
-5.157260814603997
 10
-4.312724431836684
 20
-5.132024199308194
 10
-4.332990981057854
 20
-5.105568993727146
 10
-4.352044326788202
 20
-5.077864178780249
 10
-4.369835763749101
 20
-5.0488787353869
 10
-4.386323228325938
 20
-5.018662883914814
 10
-4.401491223560256
 20
-4.987591802525027
 10
-4.415330894157648
 20
-4.956121908826862
 10
-4.427833384823692
 20
-4.924709620429666
 10
-4.438989840263985
 20
-4.893811354942776
 10
-4.448791405184113
 20
-4.863883529975534
 10
-4.457229224289658
 20
-4.835382563137287
 10
-4.464294442286206
 20
-4.808764872037368
 10
-4.470006984110668
 20
-4.784386432877859
 10
-4.474501895625238
 20
-4.762201456231789
 10
-4.477943002923431
 20
-4.742063711264936
 10
-4.480494132098744
 20
-4.723826967143061
 10
-4.48231910924472
 20
-4.707344993031941
 10
-4.48358176045485
 20
-4.692471558097345
 10
-4.484445911822653
 20
-4.679060431505039
 10
-4.485075389441647
 20
-4.666965382420805
 10
-4.485619260470901
 20
-4.656049042371783
 10
-4.486167556331743
 20
-4.64620949233063
 10
-4.48679554951105
 20
-4.637353675631391
 10
-4.487578512495719
 20
-4.629388535608093
 10
-4.48859171777261
 20
-4.622221015594771
 10
-4.489910437828626
 20
-4.615758058925472
 10
-4.491609945150646
 20
-4.609906608934227
 10
-4.49376551222555
 20
-4.604573608955071
 10
-4.496442079976947
 20
-4.599688897371432
 10
-4.499663263075358
 20
-4.595273892764318
 10
-4.503442344628027
 20
-4.591372908764132
 10
-4.507792607742203
 20
-4.588030259001268
 10
-4.51272733552512
 20
-4.585290257106134
 10
-4.518259811084025
 20
-4.58319721670912
 10
-4.524403317526171
 20
-4.58179545144063
 10
-4.531171137958793
 20
-4.581129274931068
 10
-4.538549250974597
 20
-4.581215674532757
 10
-4.546414417108106
 20
-4.581962332485751
 10
-4.554616092379301
 20
-4.58324960475203
 10
-4.563003732808166
 20
-4.584957847293576
 10
-4.57142679441468
 20
-4.586967416072361
 10
-4.579734733218835
 20
-4.58915866705038
 10
-4.587777005240603
 20
-4.591411956189599
 10
-4.595403066499976
 20
-4.593607639452002
 10
-4.602525198083991
 20
-4.595662237637405
 10
-4.609306981347941
 20
-4.5976369308969
 10
-4.615974822714207
 20
-4.599629064219421
 10
-4.622755128605135
 20
-4.601735982593904
 10
-4.629874305443099
 20
-4.604055031009274
 10
-4.637558759650456
 20
-4.606683554454463
 10
-4.646034897649574
 20
-4.609718897918401
 10
-4.655529125862805
 20
-4.613258406390027
 10
-4.666230515243675
 20
-4.617355121209183
 10
-4.678178794870326
 20
-4.621884869119437
 10
-4.691376358352062
 20
-4.626679173215283
 10
-4.705825599298183
 20
-4.631569556591195
 10
-4.721528911317989
 20
-4.636387542341658
 10
-4.738488688020776
 20
-4.640964653561169
 10
-4.756707323015849
 20
-4.645132413344214
 10
-4.776187209912503
 20
-4.648722344785273
 10
-4.796914827545482
 20
-4.651571057231997
 10
-4.818812995651285
 20
-4.653535505044704
 10
-4.841788619191863
 20
-4.654477728836877
 10
-4.865748603129134
 20
-4.65425976922199
 10
-4.890599852425058
 20
-4.652743666813528
 10
-4.916249272041568
 20
-4.649791462224971
 10
-4.942603766940596
 20
-4.645265196069797
 10
-4.969570242084099
 20
-4.63902690896149
 10
-4.997036661087445
 20
-4.63097380562749
 10
-5.024815222179803
 20
-4.6211437472511
 10
-5.052699182243774
 20
-4.609609759129579
 10
-5.080481798161962
 20
-4.596444866560183
 10
-5.107956326816971
 20
-4.581722094840184
 10
-5.134916025091403
 20
-4.56551446926684
 10
-5.161154149867861
 20
-4.54789501513741
 10
-5.186463958028951
 20
-4.528936757749157
 10
-5.210677217420382
 20
-4.508745178406933
 10
-5.233779739740288
 20
-4.487555582445924
 10
-5.255795847649899
 20
-4.465635731208916
 10
-5.276749863810458
 20
-4.443253386038691
 10
-5.296666110883204
 20
-4.420676308278014
 10
-5.315568911529378
 20
-4.398172259269678
 10
-5.333482588410205
 20
-4.376009000356454
 10
-5.350431464186939
 20
-4.354454292881126
 10
-5.366439185937338
 20
-4.333748175150713
 10
-5.381526698405274
 20
-4.314019793329187
 10
-5.395714270751163
 20
-4.295370570544765
 10
-5.409022172135404
 20
-4.277901929925665
 10
-5.42147067171841
 20
-4.261715294600094
 10
-5.433080038660591
 20
-4.246912087696273
 10
-5.44387054212234
 20
-4.233593732342416
 10
-5.453862451264075
 20
-4.221861651666735
 10
-5.463101709074376
 20
-4.211783460896096
 10
-5.471736953854563
 20
-4.203291543651943
 10
-5.479942497734128
 20
-4.196284475654366
 10
-5.487892652842578
 20
-4.190660832623468
 10
-5.495761731309404
 20
-4.186319190279331
 10
-5.503724045264092
 20
-4.18315812434206
 10
-5.511953906836154
 20
-4.181076210531742
 10
-5.520625628155087
 20
-4.179972024568471
 10
-5.529856768584572
 20
-4.17975022780573
 10
-5.539537876425086
 20
-4.180339824130548
 10
-5.549502747211299
 20
-4.181675903063339
 10
-5.559585176477874
 20
-4.18369355412452
 10
-5.569618959759463
 20
-4.186327866834506
 10
-5.579437892590743
 20
-4.189513930713719
 10
-5.588875770506383
 20
-4.193186835282567
 10
-5.597766389041048
 20
-4.197281670061475
 10
-5.605970568779728
 20
-4.201753132884903
 10
-5.613457230508767
 20
-4.206634354843568
 10
-5.620222320064829
 20
-4.211978075342219
 10
-5.626261783284586
 20
-4.217837033785617
 10
-5.631571566004712
 20
-4.224263969578515
 10
-5.636147614061862
 20
-4.231311622125673
 10
-5.639985873292719
 20
-4.239032730831858
 10
-5.64308228953395
 20
-4.247480035101819
 10
-5.645438213786867
 20
-4.256673818908581
 10
-5.647076617711398
 20
-4.266504544498193
 10
-5.648025878132106
 20
-4.276830218684967
 10
-5.648314371873556
 20
-4.287508848283234
 10
-5.647970475760331
 20
-4.298398440107291
 10
-5.647022566616985
 20
-4.309357000971473
 10
-5.645499021268086
 20
-4.320242537690077
 10
-5.643428216538215
 20
-4.330913057077431
 10
-5.640760155937947
 20
-4.341347598829731
 10
-5.637131349721911
 20
-4.352009334170723
 10
-5.63209993483073
 20
-4.363482467206036
 10
-5.625224048205058
 20
-4.376351202041309
 10
-5.616061826785539
 20
-4.391199742782177
 10
-5.604171407512787
 20
-4.408612293534257
 10
-5.589110927327464
 20
-4.429173058403193
 10
-5.570438523170196
 20
-4.453466241494613
 10
-5.547860124492409
 20
-4.481884222632441
 10
-5.521672830788627
 20
-4.51405208451376
 10
-5.492321534064164
 20
-4.549403085553958
 10
-5.460251126324337
 20
-4.587370484168403
 10
-5.425906499574459
 20
-4.627387538772484
 10
-5.389732545819846
 20
-4.668887507781573
 10
-5.3521741570658
 20
-4.71130364961105
 10
-5.313676225317649
 20
-4.754069222676299
 10
-5.274610264289194
 20
-4.796705756972794
 10
-5.23505427452827
 20
-4.839087868816431
 10
-5.19501287829118
 20
-4.881178446103188
 10
-5.154490697834262
 20
-4.922940376729066
 10
-5.113492355413821
 20
-4.964336548590051
 10
-5.072022473286192
 20
-5.005329849582125
 10
-5.030085673707688
 20
-5.045883167601292
 10
-4.987686578934642
 20
-5.085959390543532
 10
-4.944798187435424
 20
-5.12552483105119
 10
-4.90126700252668
 20
-5.164559500752051
 10
-4.856907903737109
 20
-5.203046836020252
 10
-4.811535770595408
 20
-5.240970273229915
 10
-4.764965482630284
 20
-5.278313248755193
 10
-4.717011919370435
 20
-5.31505919897021
 10
-4.667489960344553
 20
-5.351191560249102
 10
-4.616214485081354
 20
-5.386693768966008
 10
-4.563136976175893
 20
-5.421512163787191
 10
-4.508755328488664
 20
-5.455444692547455
 10
-4.453704039946551
 20
-5.488252205373726
 10
-4.39861760847641
 20
-5.519695552392931
 10
-4.344130532005117
 20
-5.549535583732009
 10
-4.290877308459528
 20
-5.577533149517883
 10
-4.239492435766521
 20
-5.603449099877483
 10
-4.190610411852947
 20
-5.627044284937745
 10
-4.144694508713104
 20
-5.648158179550524
 10
-4.101523094610953
 20
-5.666944757467366
 10
-4.060703311877876
 20
-5.683636617164765
 10
-4.021842302845257
 20
-5.698466357119194
 10
-3.984547209844482
 20
-5.711666575807136
 10
-3.948425175206924
 20
-5.723469871705077
 10
-3.91308334126397
 20
-5.734108843289494
 10
-3.878128850347014
 20
-5.743816089036872
 10
-3.843301111686667
 20
-5.752789693535497
 10
-3.808868602110514
 20
-5.761089685820923
 10
-3.775232065345385
 20
-5.76874158104049
 10
-3.74279224511811
 20
-5.775770894341558
 10
-3.711949885155508
 20
-5.782203140871477
 10
-3.683105729184401
 20
-5.788063835777595
 10
-3.656660520931627
 20
-5.793378494207274
 10
-3.633015004124001
 20
-5.79817263130786
 10
-3.612452821960513
 20
-5.802479035541864
 10
-3.594789215528745
 20
-5.806359588632403
 10
-3.579722325388445
 20
-5.809883445617757
 10
-3.566950292099363
 20
-5.813119761536203
 10
-3.55617125622124
 20
-5.816137691426018
 10
-3.547083358313823
 20
-5.819006390325483
 10
-3.539384738936856
 20
-5.821795013272865
 10
-3.532773538650086
 20
-5.824572715306455
 10
-3.527000632556308
 20
-5.827399552238606
 10
-3.522027833930533
 20
-5.830299182978045
 10
-3.517869690590806
 20
-5.833286167207585
 10
-3.514540750355184
 20
-5.836375064610031
 10
-3.512055561041716
 20
-5.839580434868199
 10
-3.510428670468467
 20
-5.842916837664898
 10
-3.509674626453474
 20
-5.84639883268294
 10
-3.509807976814808
 20
-5.850040979605136
 10
-3.510885093105237
 20
-5.853906974068582
 10
-3.513129641816401
 20
-5.858257055527502
 10
-3.516807113174685
 20
-5.863400599390413
 10
-3.522182997406453
 20
-5.869646981065827
 10
-3.529522784738063
 20
-5.877305575962253
 10
-3.539091965395897
 20
-5.886685759488209
 10
-3.551156029606321
 20
-5.898096907052206
 10
-3.565980467595707
 20
-5.911848394062751
 10
-3.583725300835567
 20
-5.928164062590568
 10
-3.604128675778
 20
-5.946925621355166
 10
-3.626823270120265
 20
-5.967929245738268
 10
-3.651441761559603
 20
-5.990971111121577
 10
-3.677616827793272
 20
-6.015847392886826
 10
-3.704981146518516
 20
-6.042354266415728
 10
-3.733167395432587
 20
-6.070287907089994
 10
-3.761808252232736
 20
-6.09944449029135
 10
-3.790601152634849
 20
-6.129672788284448
 10
-3.819502564429424
 20
-6.161031960865749
 10
-3.848533713425574
 20
-6.19363376471464
 10
-3.877715825432431
 20
-6.227589956510517
 10
-3.907070126259132
 20
-6.263012292932774
 10
-3.936617841714785
 20
-6.300012530660815
 10
-3.966380197608533
 20
-6.338702426374027
 10
-3.996378419749497
 20
-6.379193736751801
 10
-4.02659224637518
 20
-6.421568414811272
 10
-4.056835465436574
 20
-6.465789198920493
 10
-4.086880377313043
 20
-6.511789023785251
 10
-4.116499282383955
 20
-6.559500824111328
 10
-4.145464481028682
 20
-6.608857534604524
 10
-4.173548273626575
 20
-6.659792089970615
 10
-4.200522960557016
 20
-6.712237424915389
 10
-4.226160842199359
 20
-6.766126474144641
 10
-4.250249492297982
 20
-6.821413794122719
 10
-4.272637578057246
 20
-6.878140428348238
 10
-4.29318904004652
 20
-6.936369042078375
 10
-4.311767818835182
 20
-6.996162300570311
 10
-4.328237854992604
 20
-7.057582869081223
 10
-4.342463089088145
 20
-7.120693412868291
 10
-4.354307461691195
 20
-7.185556597188696
 10
-4.363634913371104
 20
-7.252235087299617
 10
-4.370313188601546
 20
-7.320740630741354
 10
-4.374225247473336
 20
-7.390881304186752
 10
-4.375257853981594
 20
-7.462414266591764
 10
-4.373297772121421
 20
-7.535096676912345
 10
-4.368231765887944
 20
-7.608685694104462
 10
-4.359946599276263
 20
-7.682938477124075
 10
-4.348329036281505
 20
-7.75761218492714
 10
-4.333265840898764
 20
-7.832463976469618
 10
-4.314680174438056
 20
-7.907232123064318
 10
-4.292640787468936
 20
-7.981579345451407
 10
-4.267252827875854
 20
-8.055149476727905
 10
-4.238621443543252
 20
-8.127586349990835
 10
-4.206851782355592
 20
-8.198533798337209
 10
-4.172048992197307
 20
-8.267635654864047
 10
-4.134318220952859
 20
-8.334535752668369
 10
-4.093764616506696
 20
-8.398877924847194
 10
-4.050528376314115
 20
-8.460355921682495
 10
-4.004889896113859
 20
-8.518863162196073
 10
-3.957164621215525
 20
-8.574342982594696
 10
-3.907667996928701
 20
-8.626738719085114
 10
-3.856715468562978
 20
-8.675993707874098
 10
-3.804622481427962
 20
-8.722051285168404
 10
-3.751704480833247
 20
-8.764854787174794
 10
-3.698276912088413
 20
-8.804347550100029
 10
-3.644623371023758
 20
-8.840504907977219
 10
-3.590900055552378
 20
-8.873430186144894
 10
-3.537231314108044
 20
-8.903258707767939
 10
-3.483741495124544
 20
-8.930125796011228
 10
-3.430554947035659
 20
-8.954166774039649
 10
-3.37779601827518
 20
-8.975516965018076
 10
-3.325589057276886
 20
-8.994311692111395
 10
-3.274058412474559
 20
-9.010686278484485
 10
-3.22326457379151
 20
-9.024775273173656
 10
-3.173012597109153
 20
-9.036710128700896
 10
-3.123043679798428
 20
-9.046621523459634
 10
-3.073099019230284
 20
-9.0546401358433
 10
-3.022919812775658
 20
-9.06089664424531
 10
-2.972247257805484
 20
-9.065521727059085
 10
-2.920822551690719
 20
-9.068646062678052
 10
-2.868386891802295
 20
-9.07040032949563
 10
-2.814766069415789
 20
-9.07086543009041
 10
-2.760124251425288
 20
-9.069923163781631
 10
-2.704710198629541
 20
-9.067405554073697
 10
-2.64877267182727
 20
-9.063144624471011
 10
-2.592560431817211
 20
-9.056972398477977
 10
-2.536322239398092
 20
-9.048720899599004
 10
-2.480306855368638
 20
-9.038222151338494
 10
-2.42476304052759
 20
-9.025308177200852
 10
-2.369900596585136
 20
-9.009842751287074
 10
-2.315773488897249
 20
-8.991816650084555
 10
-2.262396723731384
 20
-8.971252400677286
 10
-2.20978530735498
 20
-8.94817253014925
 10
-2.157954246035465
 20
-8.922599565584441
 10
-2.106918546040297
 20
-8.894556034066841
 10
-2.056693213636908
 20
-8.864064462680438
 10
-2.00729325509274
 20
-8.831147378509228
 10
-1.958769943312184
 20
-8.795868610114681
 10
-1.911319617747363
 20
-8.758457191968236
 10
-1.865174884487345
 20
-8.719183460018825
 10
-1.820568349621233
 20
-8.678317750215366
 10
-1.777732619238076
 20
-8.636130398506796
 10
-1.736900299426963
 20
-8.592891740842038
 10
-1.698303996276976
 20
-8.548872113170023
 10
-1.662176315877172
 20
-8.504341851439672
 10
-1.628712347212626
 20
-8.459538751134957
 10
-1.597957110852316
 20
-8.414570445880031
 10
-1.569918110261212
 20
-8.369512028834073
 10
-1.544602848904286
 20
-8.324438593156283
 10
-1.522018830246508
 20
-8.279425232005845
 10
-1.50217355775285
 20
-8.234547038541943
 10
-1.485074534888283
 20
-8.189879105923772
 10
-1.470729265117775
 20
-8.14549652731053
 10
-1.459135247286326
 20
-8.101410566724066
 10
-1.450249961759126
 20
-8.057377171636961
 10
-1.444020884281361
 20
-8.013088460384455
 10
-1.440395490598255
 20
-7.968236551301803
 10
-1.439321256455023
 20
-7.92251356272424
 10
-1.440745657596853
 20
-7.875611612987022
 10
-1.444616169768977
 20
-7.82722282042539
 10
-1.450880268716584
 20
-7.777039303374596
 10
-1.459484179773028
 20
-7.724909624107564
 10
-1.470369126624166
 20
-7.671308120647957
 10
-1.483475082543982
 20
-7.616865574957117
 10
-1.498742020806457
 20
-7.562212768996399
 10
-1.516109914685586
 20
-7.507980484727134
 10
-1.535518737455355
 20
-7.454799504110678
 10
-1.556908462389756
 20
-7.40330060910837
 10
-1.580219062762772
 20
-7.354114581681553
 10
-1.605325482094691
 20
-7.307772079771275
 10
-1.631842544891007
 20
-7.264403265237355
 10
-1.659320045903498
 20
-7.224038175919314
 10
-1.687307779883955
 20
-7.186706849656676
 10
-1.715355541584187
 20
-7.15243932428897
 10
-1.743013125755965
 20
-7.121265637655703
 10
-1.769830327151083
 20
-7.093215827596402
 10
-1.795356940521326
 20
-7.068319931950597
 10
-1.819232111045931
 20
-7.046563063283286
 10
-1.841452385613884
 20
-7.02775063306143
 10
-1.862103661541617
 20
-7.011643127477473
 10
-1.881271836145565
 20
-6.998001032723859
 10
-1.899042806742151
 20
-6.986584834993035
 10
-1.915502470647812
 20
-6.977155020477447
 10
-1.930736725178981
 20
-6.969472075369534
 10
-1.944831467652079
 20
-6.963296485861743
 10
-1.95786934770247
 20
-6.958409342097802
 10
-1.969920024241204
 20
-6.954674150026555
 10
-1.981049908498267
 20
-6.95197501954814
 10
-1.991325411703627
 20
-6.950196060562696
 10
-2.000812945087268
 20
-6.94922138297035
 10
-2.009578919879171
 20
-6.948935096671231
 10
-2.017689747309294
 20
-6.949221311565477
 10
-2.025211838607638
 20
-6.949964137553223
 10
-2.032204848065298
 20
-6.951071557465972
 10
-2.03870140221781
 20
-6.95254704586074
 10
-2.04472737066186
 20
-6.954417950225916
 10
-2.050308622994112
 20
-6.95671161804988
 10
-2.055471028811226
 20
-6.959455396821017
 10
-2.060240457709891
 20
-6.962676634027722
 10
-2.064642779286771
 20
-6.966402677158377
 10
-2.068703863138523
 20
-6.970660873701369
 10
-2.072435710712667
 20
-6.975468633391855
 10
-2.075794850860006
 20
-6.980803614952058
 10
-2.078723944282188
 20
-6.986633539350968
 10
-2.081165651680855
 20
-6.992926127557591
 10
-2.083062633757656
 20
-6.99964910054091
 10
-2.084357551214239
 20
-7.006770179269921
 10
-2.084993064752246
 20
-7.014257084713619
 10
-2.084911835073327
 20
-7.022077537840999
 10
-2.084059845201768
 20
-7.030268225781938
 10
-2.082396367452425
 20
-7.039141700309858
 10
-2.079883996462793
 20
-7.049079479359068
 10
-2.076485326870379
 20
-7.060463080863883
 10
-2.07216295331268
 20
-7.073674022758602
 10
-2.066879470427195
 20
-7.089093822977542
 10
-2.060597472851419
 20
-7.107103999455002
 10
-2.053279555222864
 20
-7.128086070125302
 10
-2.044928517152364
 20
-7.152311976875058
 10
-2.03570797814412
 20
-7.179615357400162
 10
-2.025821762675686
 20
-7.209720273348818
 10
-2.015473695224613
 20
-7.242350786369243
 10
-2.004867600268447
 20
-7.277230958109633
 10
-1.994207302284728
 20
-7.314084850218197
 10
-1.983696625751015
 20
-7.352636524343139
 10
-1.973539395144854
 20
-7.392610042132677
 10
-1.963931371391019
 20
-7.433769103574128
 10
-1.955036061203252
 20
-7.476035962011287
 10
-1.947008907742521
 20
-7.519372509127087
 10
-1.940005354169795
 20
-7.563740636604439
 10
-1.934180843646046
 20
-7.609102236126265
 10
-1.929690819332233
 20
-7.655419199375486
 10
-1.926690724389342
 20
-7.702653418035023
 10
-1.925336001978315
 20
-7.750766783787799
 10
-1.925738680257758
 20
-7.799656201345641
 10
-1.927837127376733
 20
-7.848958627536024
 10
-1.931526296481877
 20
-7.898246032215347
 10
-1.936701140719868
 20
-7.947090385239988
 10
-1.94325661323738
 20
-7.995063656466342
 10
-1.951087667181074
 20
-8.041737815750799
 10
-1.96008925569761
 20
-8.086684832949746
 10
-1.970156331933655
 20
-8.12947667791958
 10
-1.981206358989133
 20
-8.169772928914476
 10
-1.993246839776919
 20
-8.207583597779823
 10
-2.006307787163137
 20
-8.243006304758793
 10
-2.020419214013944
 20
-8.276138670094567
 10
-2.035611133195452
 20
-8.307078314030324
 10
-2.051913557573794
 20
-8.335922856809236
 10
-2.069356500015111
 20
-8.362769918674484
 10
-2.087969973385519
 20
-8.38771711986925
 10
-2.107795245803835
 20
-8.410859577819323
 10
-2.128918606399487
 20
-8.43228239868096
 10
-2.151437599554604
 20
-8.452068185793045
 10
-2.17544976965129
 20
-8.470299542494451
 10
-2.20105266107166
 20
-8.487059072124054
 10
-2.228343818197821
 20
-8.502429378020732
 10
-2.257420785411895
 20
-8.516493063523363
 10
-2.288381107095979
 20
-8.529332731970818
 10
-2.321259799254328
 20
-8.541028483404726
 10
-2.355841764379661
 20
-8.551650404677683
 10
-2.391849376586833
 20
-8.561266079345042
 10
-2.429005009990689
 20
-8.569943090962148
 10
-2.467031038706092
 20
-8.577749023084351
 10
-2.505649836847894
 20
-8.584751459266993
 10
-2.544583778530935
 20
-8.591017983065434
 10
-2.583555237870079
 20
-8.596616178035006
 10
-2.62235392384434
 20
-8.601586469120075
 10
-2.661038884889364
 20
-8.605860646821003
 10
-2.699736504304969
 20
-8.60934334302717
 10
-2.738573165390963
 20
-8.61193918962795
 10
-2.777675251447174
 20
-8.613552818512719
 10
-2.817169145773391
 20
-8.614088861570849
 10
-2.85718123166945
 20
-8.613451950691715
 10
-2.897837892435155
 20
-8.611546717764699
 10
-2.939225087496232
 20
-8.608261803347961
 10
-2.981267080782036
 20
-8.60342188267484
 10
-3.023847712347844
 20
-8.596835639647462
 10
-3.066850822248923
 20
-8.588311758167947
 10
-3.110160250540552
 20
-8.577658922138429
 10
-3.153659837277995
 20
-8.564685815461029
 10
-3.197233422516514
 20
-8.549201122037878
 10
-3.240764846311403
 20
-8.531013525771097
 10
-3.284116352571786
 20
-8.50999528930323
 10
-3.327063800622266
 20
-8.486272990238489
 10
-3.369361453641332
 20
-8.460036784921491
 10
-3.410763574807454
 20
-8.431476829696865
 10
-3.45102442729911
 20
-8.400783280909234
 10
-3.489898274294777
 20
-8.368146294903215
 10
-3.527139378972925
 20
-8.333756028023437
 10
-3.562502004512047
 20
-8.297802636614527
 10
-3.59581363917918
 20
-8.260411367309309
 10
-3.627194671595699
 20
-8.22144782789347
 10
-3.65683871547155
 20
-8.180712716440886
 10
-3.684939384516681
 20
-8.138006731025448
 10
-3.711690292441037
 20
-8.093130569721044
 10
-3.737285052954565
 20
-8.045884930601552
 10
-3.761917279767214
 20
-7.996070511740867
 10
-3.785780586588924
 20
-7.94348801121287
 10
-3.808982843954677
 20
-7.888077453919567
 10
-3.831288949699565
 20
-7.830336172075455
 10
-3.852378058483719
 20
-7.770900824723138
 10
-3.871929324967247
 20
-7.710408070905238
 10
-3.889621903810279
 20
-7.649494569664359
 10
-3.905134949672955
 20
-7.588796980043113
 10
-3.918147617215378
 20
-7.528951961084118
 10
-3.928339061097688
 20
-7.470596171829981
 10
-3.935457583662568
 20
-7.414208490559833
 10
-3.939528077983002
 20
-7.359636672498837
 10
-3.940644584814521
 20
-7.306570692108689
 10
-3.938901144912687
 20
-7.25470052385107
 10
-3.93439179903304
 20
-7.203716142187666
 10
-3.927210587931121
 20
-7.153307521580163
 10
-3.917451552362486
 20
-7.103164636490248
 10
-3.90520873308267
 20
-7.052977461379608
 10
-3.890545745906642
 20
-7.002526394801275
 10
-3.873404506887041
 20
-6.951953531673677
 10
-3.853696507135936
 20
-6.901491391006583
 10
-3.83133323776537
 20
-6.851372491809776
 10
-3.806226189887418
 20
-6.801829353093022
 10
-3.778286854614133
 20
-6.7530944938661
 10
-3.747426723057575
 20
-6.705400433138784
 10
-3.713557286329802
 20
-6.658979689920844
 10
-3.67664074383239
 20
-6.614044483893152
 10
-3.636842128124946
 20
-6.570725837420972
 10
-3.594377180056582
 20
-6.529134473540654
 10
-3.54946164047643
 20
-6.489381115288544
 10
-3.502311250233599
 20
-6.451576485701007
 10
-3.453141750177216
 20
-6.415831307814393
 10
-3.402168881156391
 20
-6.382256304665052
 10
-3.349608384020253
 20
-6.350962199289348
 10
-3.295656369327485
 20
-6.32205140306269
 10
-3.240430426475086
 20
-6.295593080716763
 10
-3.1840285145696
 20
-6.271648085322315
 10
-3.12654859271759
 20
-6.250277269950085
 10
-3.068088620025616
 20
-6.231541487670817
 10
-3.008746555600229
 20
-6.215501591555263
 10
-2.948620358547994
 20
-6.202218434674165
 10
-2.887807987975463
 20
-6.191752870098262
 10
-2.82638755490219
 20
-6.184148223498677
 10
-2.764357777999681
 20
-6.179377710948024
 10
-2.70169752785242
 20
-6.177397021119276
 10
-2.638385675044908
 20
-6.17816184268543
 10
-2.574401090161629
 20
-6.181627864319459
 10
-2.509722643787096
 20
-6.187750774694343
 10
-2.444329206505781
 20
-6.196486262483077
 10
-2.378199648902192
 20
-6.207790016358636
 10
-2.311359575186894
 20
-6.221645290344017
 10
-2.244021524074742
 20
-6.238145599862264
 10
-2.176444767906662
 20
-6.257412025686427
 10
-2.108888579023602
 20
-6.279565648589564
 10
-2.041612229766471
 20
-6.304727549344729
 10
-1.974874992476209
 20
-6.333018808724968
 10
-1.908936139493757
 20
-6.364560507503348
 10
-1.844054943160031
 20
-6.399473726452917
 10
-1.780498220079834
 20
-6.4378168069974
 10
-1.71856296391347
 20
-6.479397133163221
 10
-1.658553712585128
 20
-6.523959349627475
 10
-1.600775004018966
 20
-6.571248101067247
 10
-1.545531376139159
 20
-6.621008032159643
 10
-1.493127366869877
 20
-6.672983787581745
 10
-1.443867514135313
 20
-6.726920012010658
 10
-1.398056355859626
 20
-6.782561350123472
 10
-1.355910635253103
 20
-6.839653819413438
 10
-1.317295916670435
 20
-6.897948928638463
 10
-1.28198996975243
 20
-6.9571995593726
 10
-1.2497705641399
 20
-7.017158593189922
 10
-1.220415469473646
 20
-7.077578911664481
 10
-1.193702455394472
 20
-7.138213396370346
 10
-1.169409291543178
 20
-7.198814928881574
 10
-1.147313747560588
 20
-7.259136390772226
 10
-1.127253952001588
 20
-7.318997934871397
 10
-1.109309469077565
 20
-7.378488799028279
 10
-1.093620221913965
 20
-7.437765492347093
 10
-1.080326133636255
 20
-7.496984523932059
 10
-1.0695671273699
 20
-7.556302402887403
 10
-1.061483126240368
 20
-7.615875638317341
 10
-1.056214053373111
 20
-7.6758607393261
 10
-1.05389983189363
 20
-7.736414215017898
 10
-1.054626929861292
 20
-7.797626255018911
 10
-1.058267995071361
 20
-7.859321771043102
 10
-1.06464222025302
 20
-7.921259355326405
 10
-1.07356879813544
 20
-7.983197600104727
 10
-1.08486692144784
 20
-8.044895097613991
 10
-1.098355782919362
 20
-8.106110440090123
 10
-1.113854575279205
 20
-8.166602219769032
 10
-1.131182491256566
 20
-8.226129028886653
 10
-1.150174849195529
 20
-8.284488075891889
 10
-1.170731469899788
 20
-8.341631034085622
 10
-1.192768299787946
 20
-8.39754819298173
 10
-1.216201285278625
 20
-8.45222984209408
 10
-1.240946372790411
 20
-8.505666270936544
 10
-1.266919508741917
 20
-8.557847769022998
 10
-1.294036639551737
 20
-8.608764625867319
 10
-1.322213711638493
 20
-8.658407130983373
 10
-1.351376511409711
 20
-8.706755528640606
 10
-1.381490185228638
 20
-8.753749882130737
 10
-1.412529719447469
 20
-8.799320209501058
 10
-1.444470100418392
 20
-8.843396528798855
 10
-1.477286314493589
 20
-8.885908858071424
 10
-1.510953348025243
 20
-8.926787215366051
 10
-1.545446187365541
 20
-8.96596161873003
 10
-1.580739818866668
 20
-9.003362086210646
 10
-1.616888652007471
 20
-9.039006623975243
 10
-1.65426478877335
 20
-9.073265190671385
 10
-1.693319754276398
 20
-9.106595733066672
 10
-1.734505073628675
 20
-9.139456197928726
 10
-1.778272271942253
 20
-9.172304532025155
 10
-1.825072874329208
 20
-9.205598682123568
 10
-1.8753584059016
 20
-9.239796594991577
 10
-1.929580391771519
 20
-9.275356217396794
 10
-1.988241506564939
 20
-9.312677125218993
 10
-2.052049022963544
 20
-9.351925410786627
 10
-2.121761363162914
 20
-9.393208795540306
 10
-2.198136949358655
 20
-9.436635000920652
 10
-2.281934203746359
 20
-9.482311748368285
 10
-2.373911548521604
 20
-9.530346759323805
 10
-2.450670523859589
 20
-9.568759004937245
  0
LWPOLYLINE
  5
14BE5
330
147ED
100
AcDbEntity
  8
0
100
AcDbPolyline
 90
      198
 70
     0
 43
0.0
 10
-8.052353181354309
 20
-3.615680087577278
 10
-8.043788250477213
 20
-3.611377104346626
 10
-8.031085054517461
 20
-3.604126516382923
 10
-8.019641889307809
 20
-3.596801969676072
 10
-8.00910772091435
 20
-3.589388672477443
 10
-7.999131515403202
 20
-3.581871833038398
 10
-7.989426287156913
 20
-3.574242822790925
 10
-7.979961243823936
 20
-3.566517665889438
 10
-7.970769641369205
 20
-3.558718549668945
 10
-7.961884735757639
 20
-3.55086766146449
 10
-7.953339782954149
 20
-3.542987188611075
 10
-7.945168038923672
 20
-3.53509931844373
 10
-7.937402759631122
 20
-3.52722623829748
 10
-7.930077201041427
 20
-3.519390135507347
 10
-7.923189515472156
 20
-3.511595940176331
 10
-7.916597440651486
 20
-3.503779553479379
 10
-7.910123610660264
 20
-3.495859619359396
 10
-7.903590659579318
 20
-3.487754781759321
 10
-7.896821221489489
 20
-3.47938368462206
 10
-7.889637930471597
 20
-3.470664971890542
 10
-7.881863420606492
 20
-3.461517287507685
 10
-7.873320325975004
 20
-3.451859275416413
 10
-7.863879317254173
 20
-3.441651490473834
 10
-7.853603211505866
 20
-3.431022131193842
 10
-7.842602862388162
 20
-3.420141307004534
 10
-7.83098912355912
 20
-3.409179127333988
 10
-7.818872848676818
 20
-3.398305701610297
 10
-7.806364891399333
 20
-3.387691139261551
 10
-7.79357610538473
 20
-3.377505549715831
 10
-7.78061734429108
 20
-3.367919042401226
 10
-7.767560047164558
 20
-3.359057350348248
 10
-7.754317994603745
 20
-3.350868700997082
 10
-7.740765552595341
 20
-3.343256945390319
 10
-7.726777087126009
 20
-3.336125934570556
 10
-7.712226964182448
 20
-3.329379519580395
 10
-7.696989549751339
 20
-3.322921551462435
 10
-7.680939209819364
 20
-3.316655881259286
 10
-7.663950310373216
 20
-3.310486360013534
 10
-7.64593909540401
 20
-3.304343957549452
 10
-7.626989320920635
 20
-3.298268118817968
 10
-7.607226620936394
 20
-3.292325407551704
 10
-7.586776629464601
 20
-3.286582387483239
 10
-7.565764980518579
 20
-3.28110562234519
 10
-7.544317308111637
 20
-3.27596167587016
 10
-7.522559246257092
 20
-3.271217111790754
 10
-7.500616428968264
 20
-3.266938493839564
 10
-7.47859231950477
 20
-3.263187455358281
 10
-7.45650169811142
 20
-3.26000590812486
 10
-7.434337174279367
 20
-3.257430833526331
 10
-7.412091357499722
 20
-3.255499212949739
 10
-7.389756857263623
 20
-3.254248027782114
 10
-7.367326283062194
 20
-3.253714259410497
 10
-7.344792244386564
 20
-3.253934889221916
 10
-7.322147350727867
 20
-3.254946898603407
 10
-7.299396528760762
 20
-3.256774941908979
 10
-7.276593973894062
 20
-3.259394365360467
 10
-7.253806198720102
 20
-3.262768188146683
 10
-7.231099715831227
 20
-3.266859429456442
 10
-7.208541037819784
 20
-3.271631108478551
 10
-7.186196677278118
 20
-3.277046244401816
 10
-7.164133146798562
 20
-3.283067856415065
 10
-7.142416958973463
 20
-3.289658963707093
 10
-7.121082601905673
 20
-3.296793679710066
 10
-7.100036465740135
 20
-3.30449049482959
 10
-7.079152916132251
 20
-3.312778993714601
 10
-7.058306318737482
 20
-3.321688761014069
 10
-7.037371039211251
 20
-3.331249381376938
 10
-7.016221443208998
 20
-3.341490439452151
 10
-6.994731896386156
 20
-3.352441519888667
 10
-6.972776764398165
 20
-3.364132207335451
 10
-6.950248888620546
 20
-3.376600714913475
 10
-6.927115013309219
 20
-3.389919769631948
 10
-6.903360358440192
 20
-3.40417072697209
 10
-6.878970143989466
 20
-3.419434942415136
 10
-6.853929589933045
 20
-3.43579377144233
 10
-6.82822391624694
 20
-3.453328569534892
 10
-6.80183834290716
 20
-3.472120692174065
 10
-6.774758089889704
 20
-3.49225149484107
 10
-6.746971506264319
 20
-3.513805365036741
 10
-6.71847945747568
 20
-3.536878818340241
 10
-6.689285938062194
 20
-3.561571402350317
 10
-6.659394942562279
 20
-3.587982664665723
 10
-6.628810465514341
 20
-3.616212152885221
 10
-6.597536501456783
 20
-3.646359414607555
 10
-6.565577044928026
 20
-3.678523997431483
 10
-6.532936090466478
 20
-3.712805448955755
 10
-6.499633245230302
 20
-3.749288158120805
 10
-6.465750566856694
 20
-3.787995879233797
 10
-6.431385725602588
 20
-3.828937207943564
 10
-6.396636391724932
 20
-3.872120739898964
 10
-6.361600235480672
 20
-3.917555070748822
 10
-6.326374927126753
 20
-3.965248796141988
 10
-6.291058136920117
 20
-4.0152105117273
 10
-6.255747535117709
 20
-4.067448813153607
 10
-6.220540326129185
 20
-4.12193944675954
 10
-6.185531850975003
 20
-4.178526761642928
 10
-6.150816984828363
 20
-4.237022257591398
 10
-6.11649060286243
 20
-4.297237434392574
 10
-6.082647580250394
 20
-4.358983791834081
 10
-6.049382792165431
 20
-4.422072829703541
 10
-6.016791113780726
 20
-4.486316047788584
 10
-5.984967420269452
 20
-4.551524945876831
 10
-5.953983583786587
 20
-4.617555933482584
 10
-5.923819464414254
 20
-4.68444505902687
 10
-5.89443191921638
 20
-4.752273280657373
 10
-5.865777805256872
 20
-4.821121556521802
 10
-5.837813979599655
 20
-4.891070844767842
 10
-5.810497299308657
 20
-4.962202103543198
 10
-5.783784621447786
 20
-5.034596290995565
 10
-5.757632803080959
 20
-5.108334365272636
 10
-5.731975212421207
 20
-5.183570861287609
 10
-5.706651262277979
 20
-5.260754621015674
 10
-5.681476876609828
 20
-5.340408063197525
 10
-5.656267979375307
 20
-5.423053606573851
 10
-5.630840494532971
 20
-5.50921366988534
 10
-5.605010346041382
 20
-5.599410671872693
 10
-5.578593457859078
 20
-5.694167031276585
 10
-5.551405753944628
 20
-5.794005166837717
 10
-5.523288015333772
 20
-5.899244359278522
 10
-5.494180451371015
 20
-6.009391337248423
 10
-5.464048128478051
 20
-6.123749691378591
 10
-5.432856113076578
 20
-6.241623012300191
 10
-5.400569471588294
 20
-6.362314890644391
 10
-5.367153270434894
 20
-6.485128917042363
 10
-5.332572576038064
 20
-6.609368682125275
 10
-5.296792454819517
 20
-6.734337776524291
 10
-5.259806521612773
 20
-6.85936840512355
 10
-5.221722584898735
 20
-6.983907229819035
 10
-5.18267700157013
 20
-7.107429526759691
 10
-5.142806128519691
 20
-7.229410572094487
 10
-5.102246322640148
 20
-7.34932564197236
 10
-5.061133940824227
 20
-7.466650012542267
 10
-5.01960533996467
 20
-7.580858959953168
 10
-4.977796876954208
 20
-7.691427760353999
 10
-4.935848108335456
 20
-7.797886229967996
 10
-4.8939113892506
 20
-7.899982345315514
 10
-4.852142274491701
 20
-7.997518622991165
 10
-4.81069631885084
 20
-8.090297579589574
 10
-4.769729077120079
 20
-8.178121731705363
 10
-4.729396104091495
 20
-8.260793595933161
 10
-4.689852954557153
 20
-8.338115688867585
 10
-4.651255183309125
 20
-8.409890527103264
 10
-4.613721664054132
 20
-8.476034501682764
 10
-4.577224546157534
 20
-8.536919501440465
 10
-4.541699297899338
 20
-8.593031289658686
 10
-4.507081387559559
 20
-8.644855629619758
 10
-4.473306283418196
 20
-8.692878284605999
 10
-4.440309453755265
 20
-8.737585017899736
 10
-4.408026366850769
 20
-8.779461592783295
 10
-4.376392490984731
 20
-8.818993772539005
 10
-4.345323892708911
 20
-8.856612488133205
 10
-4.314659031662166
 20
-8.892529341268353
 10
-4.284216965755117
 20
-8.926901101330937
 10
-4.253816752898366
 20
-8.959884537707434
 10
-4.223277451002541
 20
-8.99163641978432
 10
-4.192418117978245
 20
-9.022313516948077
 10
-4.161057811736103
 20
-9.052072598585194
 10
-4.129015590186732
 20
-9.081070434082139
 10
-4.096126287221732
 20
-9.10943406651841
 10
-4.062287840656704
 20
-9.137171633745506
 10
-4.027413964288236
 20
-9.164261547307937
 10
-3.991418371912914
 20
-9.190682218750222
 10
-3.954214777327329
 20
-9.216412059616864
 10
-3.915716894328067
 20
-9.241429481452382
 10
-3.875838436711724
 20
-9.265712895801282
 10
-3.834493118274885
 20
-9.289240714208073
 10
-3.791643188658625
 20
-9.311987750141362
 10
-3.747445040882041
 20
-9.333914424766078
 10
-3.702103603808684
 20
-9.354977561171246
 10
-3.65582380630213
 20
-9.375133982445888
 10
-3.608810577225955
 20
-9.394340511679022
 10
-3.561268845443738
 20
-9.412553971959678
 10
-3.513403539819041
 20
-9.429731186376873
 10
-3.465419589215429
 20
-9.445828978019637
 10
-3.417466196273061
 20
-9.460816763242682
 10
-3.36946965873836
 20
-9.474714331463552
 10
-3.321300548134338
 20
-9.487554065365465
 10
-3.272829435984004
 20
-9.499368347631669
 10
-3.223926893810361
 20
-9.510189560945395
 10
-3.174463493136411
 20
-9.520050087989869
 10
-3.124309805485175
 20
-9.528982311448327
 10
-3.073336402379656
 20
-9.537018614004004
 10
-3.021486458703609
 20
-9.5441874436824
 10
-2.968993562783886
 20
-9.55050150987811
 10
-2.91616390630805
 20
-9.555969587327979
 10
-2.863303680963703
 20
-9.56060045076887
 10
-2.810719078438431
 20
-9.564402874937634
 10
-2.758716290419823
 20
-9.567385634571135
 10
-2.70760150859547
 20
-9.569557504406219
 10
-2.657680924652954
 20
-9.57092725917975
 10
-2.6090178787524
 20
-9.571512392124507
 10
-2.560704304944092
 20
-9.571365270456976
 10
-2.511589285750815
 20
-9.570546979889559
 10
-2.460521903695401
 20
-9.569118606134676
 10
-2.406351241300626
 20
-9.567141234904728
 10
-2.347926381089315
 20
-9.564675951912132
 10
-2.284096405584278
 20
-9.561783842869292
 10
-2.25000000000001
 20
-9.560205674756957
  0
LINE
  5
14CAD
330
147ED
100
AcDbEntity
  8
0
100
AcDbLine
 10
-2.25000000000001
 20
-9.560205674756961
 30
0.0
 11
-2.25000000000001
 21
-10.49999999999999
 31
0.0
  0
LINE
  5
14CAE
330
147ED
100
AcDbEntity
  8
0
100
AcDbLine
 10
-8.052353181354309
 20
-3.615680087577281
 30
0.0
 11
-9.23115779148717
 21
-3.615680087577281
 31
0.0
  0
LINE
  5
14CAF
330
147ED
100
AcDbEntity
  8
0
100
AcDbLine
 10
-9.23115779148717
 20
-3.615680087577281
 30
0.0
 11
-9.231157791487163
 21
-1.718198871432623
 31
0.0
  0
ARC
  5
14CB0
330
147ED
100
AcDbEntity
  8
0
100
AcDbCircle
 10
-10.12500000000001
 20
-1.718198871432615
 30
0.0
 40
0.468198871432616
100
AcDbArc
 50
0.0
 51
90.0
  0
LINE
  5
14CB1
330
147ED
100
AcDbEntity
  8
0
100
AcDbLine
 10
-10.12500000000001
 20
-1.0
 30
0.0
 11
-10.12500000000001
 21
-1.25
 31
0.0
  0
LINE
  5
14CB2
330
147ED
100
AcDbEntity
  8
0
100
AcDbLine
 10
0.0
 20
0.0
 30
0.0
 11
-0.0000000000000142
 21
-10.49999999999999
 31
0.0
  0
ENDBLK
  5
14CB3
330
147ED
100
AcDbEntity
  8
0
100
AcDbBlockEnd
  0
BLOCK
  5
14F8B
330
14F80
100
AcDbEntity
  8
0
100
AcDbBlockBegin
  2
*D2
 70
     1
 10
0.0
 20
0.0
 30
0.0
  3
*D2
  1

  0
LINE
  5
15087
330
14F80
100
AcDbEntity
  8
DIM
 62
     0
370
    -2
100
AcDbLine
 10
16.43169439383553
 20
27.1545980530281
 30
0.0
 11
16.43169439383553
 21
29.7731419784604
 31
0.0
  0
LINE
  5
15088
330
14F80
100
AcDbEntity
  8
DIM
 62
     0
370
    -2
100
AcDbLine
 10
7.181694393835535
 20
27.1545980530281
 30
0.0
 11
7.181694393835535
 21
29.7731419784604
 31
0.0
  0
LINE
  5
15089
330
14F80
100
AcDbEntity
  8
DIM
 62
     0
370
    -2
100
AcDbLine
 10
16.25169439383553
 20
29.59314197846039
 30
0.0
 11
14.23002772716887
 21
29.59314197846039
 31
0.0
  0
LINE
  5
1508A
330
14F80
100
AcDbEntity
  8
DIM
 62
     0
370
    -2
100
AcDbLine
 10
7.361694393835534
 20
29.59314197846039
 30
0.0
 11
9.383361060502201
 21
29.59314197846039
 31
0.0
  0
SOLID
  5
1508B
330
14F80
100
AcDbEntity
  8
DIM
 62
     0
100
AcDbTrace
 10
16.25169439383553
 20
29.6231419784604
 30
0.0
 11
16.25169439383553
 21
29.56314197846039
 31
0.0
 12
16.43169439383553
 22
29.59314197846039
 32
0.0
 13
16.43169439383553
 23
29.59314197846039
 33
0.0
  0
SOLID
  5
1508C
330
14F80
100
AcDbEntity
  8
DIM
 62
     0
100
AcDbTrace
 10
7.361694393835534
 20
29.6231419784604
 30
0.0
 11
7.361694393835534
 21
29.56314197846039
 31
0.0
 12
7.181694393835535
 22
29.59314197846039
 32
0.0
 13
7.181694393835535
 23
29.59314197846039
 33
0.0
  0
MTEXT
  5
1508D
330
14F80
100
AcDbEntity
  8
DIM
 62
     0
100
AcDbMText
 10
11.80669439383553
 20
29.59314197846039
 30
0.0
 40
1.0
 41
0.0
 71
     5
 72
     1
  1
\A1;9.2500
 73
     1
 44
1.0
  0
POINT
  5
1508E
330
14F80
100
AcDbEntity
  8
Defpoints
 62
     0
100
AcDbPoint
 10
16.43169439383553
 20
27.0920980530281
 30
0.0
  0
POINT
  5
1508F
330
14F80
100
AcDbEntity
  8
Defpoints
 62
     0
100
AcDbPoint
 10
7.181694393835535
 20
27.0920980530281
 30
0.0
  0
POINT
  5
15090
330
14F80
100
AcDbEntity
  8
Defpoints
 62
     0
100
AcDbPoint
 10
7.181694393835535
 20
29.59314197846039
 30
0.0
  0
ENDBLK
  5
14F8C
330
14F80
100
AcDbEntity
  8
0
100
AcDbBlockEnd
  0
BLOCK
  5
14F99
330
14F8E
100
AcDbEntity
  8
0
100
AcDbBlockBegin
  2
*D3
 70
     1
 10
0.0
 20
0.0
 30
0.0
  3
*D3
  1

  0
LINE
  5
15091
330
14F8E
100
AcDbEntity
  8
DIM
 62
     0
370
    -2
100
AcDbLine
 10
21.8985105471014
 20
27.1545980530281
 30
0.0
 11
21.8985105471014
 21
29.7731419784604
 31
0.0
  0
LINE
  5
15092
330
14F8E
100
AcDbEntity
  8
DIM
 62
     0
370
    -2
100
AcDbLine
 10
32.89851054710141
 20
27.1545980530281
 30
0.0
 11
32.89851054710141
 21
29.7731419784604
 31
0.0
  0
LINE
  5
15093
330
14F8E
100
AcDbEntity
  8
DIM
 62
     0
370
    -2
100
AcDbLine
 10
22.0785105471014
 20
29.59314197846039
 30
0.0
 11
24.97517721376807
 21
29.59314197846039
 31
0.0
  0
LINE
  5
15094
330
14F8E
100
AcDbEntity
  8
DIM
 62
     0
370
    -2
100
AcDbLine
 10
32.71851054710141
 20
29.59314197846039
 30
0.0
 11
29.82184388043474
 21
29.59314197846039
 31
0.0
  0
SOLID
  5
15095
330
14F8E
100
AcDbEntity
  8
DIM
 62
     0
100
AcDbTrace
 10
22.0785105471014
 20
29.6231419784604
 30
0.0
 11
22.0785105471014
 21
29.56314197846039
 31
0.0
 12
21.8985105471014
 22
29.59314197846039
 32
0.0
 13
21.8985105471014
 23
29.59314197846039
 33
0.0
  0
SOLID
  5
15096
330
14F8E
100
AcDbEntity
  8
DIM
 62
     0
100
AcDbTrace
 10
32.71851054710141
 20
29.6231419784604
 30
0.0
 11
32.71851054710141
 21
29.56314197846039
 31
0.0
 12
32.89851054710141
 22
29.59314197846039
 32
0.0
 13
32.89851054710141
 23
29.59314197846039
 33
0.0
  0
MTEXT
  5
15097
330
14F8E
100
AcDbEntity
  8
DIM
 62
     0
100
AcDbMText
 10
27.39851054710141
 20
29.59314197846039
 30
0.0
 40
1.0
 41
0.0
 71
     5
 72
     1
  1
\A1;11.0000
 73
     1
 44
1.0
  0
POINT
  5
15098
330
14F8E
100
AcDbEntity
  8
Defpoints
 62
     0
100
AcDbPoint
 10
21.8985105471014
 20
27.0920980530281
 30
0.0
  0
POINT
  5
15099
330
14F8E
100
AcDbEntity
  8
Defpoints
 62
     0
100
AcDbPoint
 10
32.89851054710141
 20
27.0920980530281
 30
0.0
  0
POINT
  5
1509A
330
14F8E
100
AcDbEntity
  8
Defpoints
 62
     0
100
AcDbPoint
 10
32.89851054710141
 20
29.59314197846039
 30
0.0
  0
ENDBLK
  5
14F9A
330
14F8E
100
AcDbEntity
  8
0
100
AcDbBlockEnd
  0
BLOCK
  5
14FA7
330
14F9C
100
AcDbEntity
  8
0
100
AcDbBlockBegin
  2
*D4
 70
     1
 10
0.0
 20
0.0
 30
0.0
  3
*D4
  1

  0
LINE
  5
150A5
330
14F9C
100
AcDbEntity
  8
DIM
 62
     0
370
    -2
100
AcDbLine
 10
30.7110105471014
 20
16.4045980530281
 30
0.0
 11
30.7110105471014
 21
13.20847085268384
 31
0.0
  0
LINE
  5
150A6
330
14F9C
100
AcDbEntity
  8
DIM
 62
     0
370
    -2
100
AcDbLine
 10
32.8985105471014
 20
16.4045980530281
 30
0.0
 11
32.8985105471014
 21
13.20847085268384
 31
0.0
  0
LINE
  5
150A7
330
14F9C
100
AcDbEntity
  8
DIM
 62
     0
370
    -2
100
AcDbLine
 10
30.8910105471014
 20
13.38847085268384
 30
0.0
 11
32.7185105471014
 21
13.38847085268384
 31
0.0
  0
LINE
  5
150A8
330
14F9C
100
AcDbEntity
  8
DIM
 62
     0
370
    -2
100
AcDbLine
 10
32.8985105471014
 20
13.38847085268384
 30
0.0
 11
33.0785105471014
 21
13.38847085268384
 31
0.0
  0
SOLID
  5
150A9
330
14F9C
100
AcDbEntity
  8
DIM
 62
     0
100
AcDbTrace
 10
30.8910105471014
 20
13.41847085268384
 30
0.0
 11
30.8910105471014
 21
13.35847085268384
 31
0.0
 12
30.7110105471014
 22
13.38847085268384
 32
0.0
 13
30.7110105471014
 23
13.38847085268384
 33
0.0
  0
SOLID
  5
150AA
330
14F9C
100
AcDbEntity
  8
DIM
 62
     0
100
AcDbTrace
 10
32.7185105471014
 20
13.41847085268384
 30
0.0
 11
32.7185105471014
 21
13.35847085268384
 31
0.0
 12
32.8985105471014
 22
13.38847085268384
 32
0.0
 13
32.8985105471014
 23
13.38847085268384
 33
0.0
  0
MTEXT
  5
150AB
330
14F9C
100
AcDbEntity
  8
DIM
 62
     0
100
AcDbMText
 10
35.50184388043473
 20
13.38847085268384
 30
0.0
 40
1.0
 41
0.0
 71
     5
 72
     1
  1
\A1;2.1875
 73
     1
 44
1.0
  0
POINT
  5
150AC
330
14F9C
100
AcDbEntity
  8
Defpoints
 62
     0
100
AcDbPoint
 10
30.7110105471014
 20
16.4670980530281
 30
0.0
  0
POINT
  5
150AD
330
14F9C
100
AcDbEntity
  8
Defpoints
 62
     0
100
AcDbPoint
 10
32.8985105471014
 20
16.4670980530281
 30
0.0
  0
POINT
  5
150AE
330
14F9C
100
AcDbEntity
  8
Defpoints
 62
     0
100
AcDbPoint
 10
32.8985105471014
 20
13.38847085268384
 30
0.0
  0
ENDBLK
  5
14FA8
330
14F9C
100
AcDbEntity
  8
0
100
AcDbBlockEnd
  0
BLOCK
  5
14FB5
330
14FAA
100
AcDbEntity
  8
0
100
AcDbBlockBegin
  2
*D5
 70
     1
 10
0.0
 20
0.0
 30
0.0
  3
*D5
  1

  0
LINE
  5
1509B
330
14FAA
100
AcDbEntity
  8
DIM
 62
     0
370
    -2
100
AcDbLine
 10
32.96101054710141
 20
27.0920980530281
 30
0.0
 11
37.42990130793538
 21
27.0920980530281
 31
0.0
  0
LINE
  5
1509C
330
14FAA
100
AcDbEntity
  8
DIM
 62
     0
370
    -2
100
AcDbLine
 10
32.96101054710141
 20
16.4670980530281
 30
0.0
 11
37.42990130793538
 21
16.4670980530281
 31
0.0
  0
LINE
  5
1509D
330
14FAA
100
AcDbEntity
  8
DIM
 62
     0
370
    -2
100
AcDbLine
 10
37.24990130793538
 20
26.9120980530281
 30
0.0
 11
37.24990130793538
 21
22.3695980530281
 31
0.0
  0
LINE
  5
1509E
330
14FAA
100
AcDbEntity
  8
DIM
 62
     0
370
    -2
100
AcDbLine
 10
37.24990130793538
 20
16.6470980530281
 30
0.0
 11
37.24990130793538
 21
21.1895980530281
 31
0.0
  0
SOLID
  5
1509F
330
14FAA
100
AcDbEntity
  8
DIM
 62
     0
100
AcDbTrace
 10
37.21990130793538
 20
26.9120980530281
 30
0.0
 11
37.27990130793538
 21
26.9120980530281
 31
0.0
 12
37.24990130793538
 22
27.0920980530281
 32
0.0
 13
37.24990130793538
 23
27.0920980530281
 33
0.0
  0
SOLID
  5
150A0
330
14FAA
100
AcDbEntity
  8
DIM
 62
     0
100
AcDbTrace
 10
37.21990130793538
 20
16.6470980530281
 30
0.0
 11
37.27990130793538
 21
16.6470980530281
 31
0.0
 12
37.24990130793538
 22
16.4670980530281
 32
0.0
 13
37.24990130793538
 23
16.4670980530281
 33
0.0
  0
MTEXT
  5
150A1
330
14FAA
100
AcDbEntity
  8
DIM
 62
     0
100
AcDbMText
 10
37.24990130793537
 20
21.77959805302811
 30
0.0
 40
1.0
 41
0.0
 71
     5
 72
     1
  1
\A1;10.6250
 73
     1
 44
1.0
  0
POINT
  5
150A2
330
14FAA
100
AcDbEntity
  8
Defpoints
 62
     0
100
AcDbPoint
 10
32.89851054710141
 20
27.0920980530281
 30
0.0
  0
POINT
  5
150A3
330
14FAA
100
AcDbEntity
  8
Defpoints
 62
     0
100
AcDbPoint
 10
32.89851054710141
 20
16.4670980530281
 30
0.0
  0
POINT
  5
150A4
330
14FAA
100
AcDbEntity
  8
Defpoints
 62
     0
100
AcDbPoint
 10
37.24990130793538
 20
16.4670980530281
 30
0.0
  0
ENDBLK
  5
14FB6
330
14FAA
100
AcDbEntity
  8
0
100
AcDbBlockEnd
  0
BLOCK
  5
15027
330
1501C
100
AcDbEntity
  8
0
100
AcDbBlockBegin
  2
*D6
 70
     1
 10
0.0
 20
0.0
 30
0.0
  3
*D6
  1

  0
LINE
  5
1507D
330
1501C
100
AcDbEntity
  8
DIM
 62
     0
370
    -2
100
AcDbLine
 10
9.212944393835533
 20
16.4045980530281
 30
0.0
 11
9.212944393835533
 21
14.3139891347033
 31
0.0
  0
LINE
  5
1507E
330
1501C
100
AcDbEntity
  8
DIM
 62
     0
370
    -2
100
AcDbLine
 10
14.40044439383553
 20
16.4045980530281
 30
0.0
 11
14.40044439383553
 21
14.3139891347033
 31
0.0
  0
LINE
  5
1507F
330
1501C
100
AcDbEntity
  8
DIM
 62
     0
370
    -2
100
AcDbLine
 10
9.032944393835533
 20
14.4939891347033
 30
0.0
 11
8.852944393835533
 21
14.4939891347033
 31
0.0
  0
LINE
  5
15080
330
1501C
100
AcDbEntity
  8
DIM
 62
     0
370
    -2
100
AcDbLine
 10
14.58044439383553
 20
14.4939891347033
 30
0.0
 11
14.76044439383553
 21
14.4939891347033
 31
0.0
  0
SOLID
  5
15081
330
1501C
100
AcDbEntity
  8
DIM
 62
     0
100
AcDbTrace
 10
9.032944393835533
 20
14.5239891347033
 30
0.0
 11
9.032944393835533
 21
14.4639891347033
 31
0.0
 12
9.212944393835533
 22
14.4939891347033
 32
0.0
 13
9.212944393835533
 23
14.4939891347033
 33
0.0
  0
SOLID
  5
15082
330
1501C
100
AcDbEntity
  8
DIM
 62
     0
100
AcDbTrace
 10
14.58044439383553
 20
14.5239891347033
 30
0.0
 11
14.58044439383553
 21
14.4639891347033
 31
0.0
 12
14.40044439383553
 22
14.4939891347033
 32
0.0
 13
14.40044439383553
 23
14.4939891347033
 33
0.0
  0
MTEXT
  5
15083
330
1501C
100
AcDbEntity
  8
DIM
 62
     0
100
AcDbMText
 10
11.80669439383553
 20
14.4939891347033
 30
0.0
 40
1.0
 41
0.0
 71
     5
 72
     1
  1
\A1;5.1875
 73
     1
 44
1.0
  0
POINT
  5
15084
330
1501C
100
AcDbEntity
  8
Defpoints
 62
     0
100
AcDbPoint
 10
9.212944393835533
 20
16.4670980530281
 30
0.0
  0
POINT
  5
15085
330
1501C
100
AcDbEntity
  8
Defpoints
 62
     0
100
AcDbPoint
 10
14.40044439383553
 20
16.4670980530281
 30
0.0
  0
POINT
  5
15086
330
1501C
100
AcDbEntity
  8
Defpoints
 62
     0
100
AcDbPoint
 10
14.40044439383553
 20
14.4939891347033
 30
0.0
  0
ENDBLK
  5
15028
330
1501C
100
AcDbEntity
  8
0
100
AcDbBlockEnd
  0
ENDSEC
  0
SECTION
  2
ENTITIES
  0
LINE
  5
13D50
330
18
100
AcDbEntity
  8
0
100
AcDbLine
 10
30.7110105471014
 20
17.40689237827114
 30
0.0
 11
30.7110105471014
 21
16.4670980530281
 31
0.0
  0
LINE
  5
13D51
330
18
100
AcDbEntity
  8
0
100
AcDbLine
 10
24.9086573657471
 20
23.35141796545082
 30
0.0
 11
23.91735275561424
 21
23.35141796545082
 31
0.0
  0
LINE
  5
13D52
330
18
100
AcDbEntity
  8
0
100
AcDbLine
 10
23.91735275561424
 20
23.35141796545082
 30
0.0
 11
23.91735275561424
 21
25.24889918159548
 31
0.0
  0
LINE
  5
13D53
330
18
100
AcDbEntity
  8
0
100
AcDbLine
 10
32.8985105471014
 20
25.24889918159548
 30
0.0
 11
23.36670941853402
 21
25.24889918159548
 31
0.0
  0
LWPOLYLINE
  5
14215
330
18
100
AcDbEntity
  8
gravure latéral
100
AcDbPolyline
 90
     1006
 70
     0
 43
0.0
 10
30.7110105471014
 20
17.03312246768264
 10
30.71635643215869
 20
17.04933600432864
 10
30.72627344196617
 20
17.0730450651805
 10
30.73690220504724
 20
17.09338137930981
 10
30.74824057656103
 20
17.11117525979062
 10
30.76028641166665
 20
17.127257019697
 10
30.77303756552324
 20
17.14245697210298
 10
30.78651404648736
 20
17.15747812969608
 10
30.80082447570549
 20
17.17251430361764
 10
30.81609962752157
 20
17.18763200462244
 10
30.83247027627955
 20
17.20289774346531
 10
30.85006719632338
 20
17.21837803090102
 10
30.86902116199699
 20
17.23413937768438
 10
30.88946294764433
 20
17.25024829457019
 10
30.91152332760934
 20
17.26677129231325
 10
30.93527554994725
 20
17.28375378431328
 10
30.96056275755834
 20
17.30115679454969
 10
30.98717056705419
 20
17.31892024964682
 10
31.01488459504635
 20
17.33698407622903
 10
31.04349045814639
 20
17.35528820092064
 10
31.07277377296589
 20
17.373772550346
 10
31.1025201561164
 20
17.39237705112943
 10
31.13251522420949
 20
17.4110416298953
 10
31.16258929223032
 20
17.4297476853877
 10
31.19275146865839
 20
17.44864250482981
 10
31.22305556034674
 20
17.46791484756457
 10
31.25355537414848
 20
17.48775347293492
 10
31.28430471691667
 20
17.50834714028381
 10
31.31535739550439
 20
17.52988460895418
 10
31.34676721676472
 20
17.55255463828897
 10
31.37858798755073
 20
17.57654598763113
 10
31.41085195428911
 20
17.60201942897466
 10
31.443505121701
 20
17.6290237849178
 10
31.47647193408114
 20
17.65757989070987
 10
31.50967683572428
 20
17.68770858160016
 10
31.54304427092516
 20
17.71943069283799
 10
31.57649868397851
 20
17.75276705967265
 10
31.60996451917911
 20
17.78773851735346
 10
31.64336622082169
 20
17.82436590112973
 10
31.67661856005141
 20
17.86263164118118
 10
31.70959761541519
 20
17.9023645474093
 10
31.74216979231034
 20
17.94335502464599
 10
31.77420149613419
 20
17.98539347772315
 10
31.80555913228408
 20
18.02827031147269
 10
31.8361091061573
 20
18.07177593072651
 10
31.8657178231512
 20
18.11570074031653
 10
31.89425168866313
 20
18.15983514507463
 10
31.92160922527452
 20
18.20403077365215
 10
31.94781742430347
 20
18.248384149978
 10
31.97293539425225
 20
18.29305302180051
 10
31.99702224362307
 20
18.33819513686802
 10
32.02013708091818
 20
18.38396824292887
 10
32.04233901463982
 20
18.43053008773139
 10
32.0636871532902
 20
18.47803841902392
 10
32.08424060537162
 20
18.52665098455478
 10
32.10400484373402
 20
18.576561682514
 10
32.12277079861832
 20
18.62810901285831
 10
32.14027576461318
 20
18.68166762598615
 10
32.15625703630727
 20
18.73761217229596
 10
32.17045190828924
 20
18.79631730218613
 10
32.18259767514774
 20
18.85815766605512
 10
32.19243163147144
 20
18.92350791430135
 10
32.199691071849
 20
18.99274269732325
 10
32.20418738615023
 20
19.0660090615445
 10
32.20602834536963
 20
19.14254363748989
 10
32.20539581578284
 20
19.22135545170946
 10
32.20247166366551
 20
19.30145353075323
 10
32.19743775529329
 20
19.38184690117127
 10
32.19047595694184
 20
19.4615445895136
 10
32.18176813488678
 20
19.53955562233026
 10
32.1714961554038
 20
19.6148890261713
 10
32.1597955953481
 20
19.6868133104757
 10
32.14661687389327
 20
19.75563491623823
 10
32.13186412079244
 20
19.82191976734262
 10
32.11544146579876
 20
19.88623378767258
 10
32.0972530386654
 20
19.94914290111184
 10
32.07720296914549
 20
20.01121303154411
 10
32.05519538699219
 20
20.07301010285312
 10
32.03113442195865
 20
20.13510003892257
 10
32.0049320644604
 20
20.19794713857809
 10
31.97653174756271
 20
20.26160920041285
 10
31.94588476499311
 20
20.32604239796191
 10
31.91294241047923
 20
20.39120290476035
 10
31.87765597774868
 20
20.45704689434322
 10
31.83997676052908
 20
20.52353054024561
 10
31.799856052548
 20
20.59061001600257
 10
31.75724514753307
 20
20.65824149514916
 10
31.71218014092042
 20
20.72633043389791
 10
31.66503633498025
 20
20.79457941917103
 10
31.61627383369128
 20
20.86264032056824
 10
31.56635274103226
 20
20.93016500768918
 10
31.5157331609819
 20
20.99680535013356
 10
31.46487519751895
 20
21.06221321750105
 10
31.41423895462212
 20
21.12604047939133
 10
31.36428453627014
 20
21.18793900540409
 10
31.31529698949762
 20
21.24768382864998
 10
31.26686113356266
 20
21.30554263628369
 10
31.21838673077923
 20
21.36190627897085
 10
31.16928354346128
 20
21.41716560737712
 10
31.1189613339228
 20
21.47171147216816
 10
31.06682986447777
 20
21.52593472400961
 10
31.01229889744015
 20
21.58022621356713
 10
30.95477819512389
 20
21.63497679150637
 10
30.89388343698962
 20
21.69043948068722
 10
30.83005397108442
 20
21.74631599274643
 10
30.76393506260201
 20
21.802170211515
 10
30.69617197673613
 20
21.85756602082395
 10
30.62740997868049
 20
21.91206730450426
 10
30.55829433362883
 20
21.96523794638692
 10
30.48947030677485
 20
22.01664183030294
 10
30.4215831633123
 20
22.06584284008331
 10
30.35514864996843
 20
22.11257022440241
 10
30.2901644396047
 20
22.15721469130809
 10
30.22649868661608
 20
22.2003323136916
 10
30.16401954539757
 20
22.24247916444418
 10
30.10259517034415
 20
22.28421131645707
 10
30.0420937158508
 20
22.32608484262152
 10
29.98238333631254
 20
22.36865581582875
 10
29.92333218612433
 20
22.41248030897002
 10
29.86494180322266
 20
22.45790097068245
 10
29.80774725971003
 20
22.50440675258673
 10
29.75241701123038
 20
22.55127318204941
 10
29.69961951342769
 20
22.59777578643709
 10
29.65002322194598
 20
22.64319009311632
 10
29.60429659242917
 20
22.68679162945367
 10
29.56310808052126
 20
22.72785592281572
 10
29.52712614186623
 20
22.76565850056903
 10
29.49680711866242
 20
22.79969488185455
 10
29.47175889932561
 20
22.83034055291077
 10
29.451377258826
 20
22.85819099175052
 10
29.43505797213374
 20
22.88384167638665
 10
29.422196814219
 20
22.90788808483202
 10
29.41218956005194
 20
22.93092569509946
 10
29.40443198460274
 20
22.95354998520183
 10
29.39831986284156
 20
22.97635643315199
 10
29.3933556040502
 20
22.99981729500344
 10
29.38946815475697
 20
23.02391193897236
 10
29.38669309580181
 20
23.04849651131559
 10
29.38506600802466
 20
23.07342715828997
 10
29.38462247226545
 20
23.09856002615235
 10
29.38539806936413
 20
23.12375126115956
 10
29.38742838016063
 20
23.14885700956844
 10
29.39074898549489
 20
23.17373341763585
 10
29.39534896567005
 20
23.19822259662721
 10
29.40103139884206
 20
23.22211051784239
 10
29.40755286263002
 20
23.24516911758982
 10
29.4146699346531
 20
23.26717033217795
 10
29.42213919253039
 20
23.28788609791523
 10
29.42971721388106
 20
23.30708835111011
 10
29.43716057632423
 20
23.32454902807103
 10
29.44422585747903
 20
23.34004006510644
 10
29.4507145213223
 20
23.35341373917394
 10
29.45660757726172
 20
23.36484368982775
 10
29.46193092106268
 20
23.37458389727121
 10
29.46671044849055
 20
23.38288834170771
 10
29.47097205531072
 20
23.39001100334059
 10
29.47474163728859
 20
23.39620586237321
 10
29.47804509018953
 20
23.40172689900896
 10
29.48090830977894
 20
23.40682809345116
 10
29.48334769682967
 20
23.41172714292104
 10
29.48534167214453
 20
23.4164966127111
 10
29.48685916153381
 20
23.42117278513169
 10
29.4878690908078
 20
23.42579194249315
 10
29.48834038577678
 20
23.43039036710586
 10
29.48824197225104
 20
23.43500434128013
 10
29.48754277604086
 20
23.43967014732633
 10
29.48621172295653
 20
23.44442406755482
 10
29.48422550727297
 20
23.44928078747067
 10
29.48159189712352
 20
23.45416860535798
 10
29.47832642910618
 20
23.45899422269561
 10
29.47444463981892
 20
23.46366434096237
 10
29.46996206585974
 20
23.46808566163713
 10
29.46489424382661
 20
23.47216488619871
 10
29.4592567103175
 20
23.47580871612594
 10
29.45306500193042
 20
23.47892385289769
 10
29.44631739153015
 20
23.48146623903892
 10
29.43894309704883
 20
23.48358878125907
 10
29.43085407268539
 20
23.48549362731375
 10
29.42196227263876
 20
23.48738292495855
 10
29.4121796511079
 20
23.48945882194904
 10
29.40141816229174
 20
23.49192346604083
 10
29.38958976038922
 20
23.4949790049895
 10
29.37660639959928
 20
23.49882758655064
 10
29.36243959472355
 20
23.50363853085982
 10
29.34729910297435
 20
23.50944984757256
 10
29.33145424216667
 20
23.51626671872436
 10
29.31517433011553
 20
23.52409432635073
 10
29.29872868463592
 20
23.53293785248717
 10
29.28238662354285
 20
23.54280247916916
 10
29.26641746465133
 20
23.55369338843223
 10
29.25109052577635
 20
23.56561576231186
 10
29.23662592241431
 20
23.57858687752286
 10
29.22304696078718
 20
23.5926723894972
 10
29.21032774479833
 20
23.60795004834617
 10
29.19844237835112
 20
23.62449760418102
 10
29.18736496534892
 20
23.64239280711302
 10
29.1770696096951
 20
23.66171340725347
 10
29.16753041529301
 20
23.68253715471364
 10
29.15872148604604
 20
23.70494179960477
 10
29.1506376426465
 20
23.72896017012275
 10
29.14335657294265
 20
23.75444540680179
 10
29.13697668157169
 20
23.78120572826067
 10
29.13159637317084
 20
23.80904935311819
 10
29.12731405237731
 20
23.83778449999315
 10
29.12422812382831
 20
23.86721938750436
 10
29.12243699216107
 20
23.89716223427059
 10
29.12203906201277
 20
23.92742125891064
 10
29.12310166283718
 20
23.95781591066615
 10
29.1255678233542
 20
23.98821056126996
 10
29.12934949710029
 20
24.01848081307775
 10
29.13435863761185
 20
24.04850226844523
 10
29.14050719842537
 20
24.07815052972806
 10
29.14770713307726
 20
24.10730119928194
 10
29.15587039510397
 20
24.13582987946255
 10
29.16490893804194
 20
24.16361217262557
 10
29.1747364419003
 20
24.19054700556503
 10
29.18527349257897
 20
24.21662660282831
 10
29.19644240245053
 20
24.24186651340116
 10
29.20816548388758
 20
24.2662822862693
 10
29.22036504926272
 20
24.28988947041847
 10
29.23296341094852
 20
24.31270361483438
 10
29.24588288131761
 20
24.33474026850281
 10
29.25904577274256
 20
24.35601498040945
 10
29.27235922206002
 20
24.37654941502142
 10
29.28566966396275
 20
24.39638969873144
 10
29.29880835760754
 20
24.41558807341354
 10
29.31160656215122
 20
24.43419678094181
 10
29.32389553675059
 20
24.45226806319031
 10
29.33550654056246
 20
24.46985416203311
 10
29.34627083274362
 20
24.48700731934428
 10
29.35601967245089
 20
24.50377977699789
 10
29.3646170561796
 20
24.52022291578674
 10
29.37205792977922
 20
24.53638467217848
 10
29.37836997643774
 20
24.55231212155954
 10
29.38358087934317
 20
24.56805233931632
 10
29.38771832168349
 20
24.58365240083521
 10
29.39080998664669
 20
24.59915938150261
 10
29.39288355742079
 20
24.61462035670494
 10
29.39396671719376
 20
24.63008240182857
 10
29.39408458649662
 20
24.64555194379148
 10
29.39325203523241
 20
24.66087281563775
 10
29.39148137064718
 20
24.67584820194302
 10
29.38878489998696
 20
24.69028128728294
 10
29.38517493049783
 20
24.70397525623313
 10
29.38066376942582
 20
24.71673329336926
 10
29.37526372401697
 20
24.72835858326696
 10
29.36898710151734
 20
24.73865431050186
 10
29.36185210160574
 20
24.74745222207648
 10
29.35390049369195
 20
24.75469831470067
 10
29.3451799396185
 20
24.76036714751121
 10
29.33573810122794
 20
24.76443327964484
 10
29.32562264036283
 20
24.76687127023828
 10
29.31488121886567
 20
24.7676556784283
 10
29.30356149857903
 20
24.76676106335162
 10
29.29171114134545
 20
24.76416198414501
 10
29.27936001400519
 20
24.75982236839386
 10
29.26646680338955
 20
24.75366361747826
 10
29.25297240132751
 20
24.74559650122695
 10
29.2388176996481
 20
24.73553178946868
 10
29.22394359018032
 20
24.7233802520322
 10
29.20829096475319
 20
24.70905265874626
 10
29.1918007151957
 20
24.69245977943959
 10
29.17441373333688
 20
24.67351238394095
 10
29.15610028008835
 20
24.65214686692505
 10
29.1369480926922
 20
24.62840212245045
 10
29.11707427747315
 20
24.60234266942161
 10
29.09659594075592
 20
24.57403302674307
 10
29.07563018886521
 20
24.54353771331933
 10
29.05429412812575
 20
24.51092124805488
 10
29.03270486486224
 20
24.47624814985424
 10
29.0109795053994
 20
24.43958293762191
 10
28.98926771562988
 20
24.40100832881019
 10
28.96784939971807
 20
24.36067983506256
 10
28.94703702139631
 20
24.31877116657032
 10
28.92714304439691
 20
24.27545603352473
 10
28.90847993245223
 20
24.23090814611709
 10
28.89136014929457
 20
24.18530121453868
 10
28.87609615865628
 20
24.13880894898077
 10
28.86300042426968
 20
24.09160505963466
 10
28.85231438261933
 20
24.04385758010063
 10
28.84399536119874
 20
23.99571183761502
 10
28.83792966025364
 20
23.94730748282321
 10
28.83400358002976
 20
23.89878416637053
 10
28.83210342077283
 20
23.85028153890236
 10
28.83211548272858
 20
23.80193925106404
 10
28.83392606614274
 20
23.75389695350092
 10
28.83742147126107
 20
23.70629429685837
 10
28.84249945763166
 20
23.6592036351895
 10
28.8491036220122
 20
23.61242813617848
 10
28.85718902046278
 20
23.56570367091724
 10
28.86671070904348
 20
23.51876611049771
 10
28.87762374381436
 20
23.47135132601181
 10
28.8898831808355
 20
23.42319518855148
 10
28.90344407616699
 20
23.37403356920866
 10
28.91826148586889
 20
23.32360233907526
 10
28.9343199373296
 20
23.27172960744048
 10
28.95172184325076
 20
23.2186124363826
 10
28.97059908766236
 20
23.16454012617715
 10
28.99108355459431
 20
23.10980197709966
 10
29.01330712807661
 20
23.05468728942568
 10
29.03740169213919
 20
22.99948536343074
 10
29.06349913081204
 20
22.94448549939038
 10
29.09173132812511
 20
22.88997699758014
 10
29.12223803517493
 20
22.83618139563218
 10
29.15519047132428
 20
22.78304918060525
 10
29.19076772300254
 20
22.7304630769147
 10
29.22914887663909
 20
22.67830580897591
 10
29.27051301866327
 20
22.62646010120423
 10
29.31503923550446
 20
22.57480867801503
 10
29.36290661359201
 20
22.52323426382369
 10
29.41429423935529
 20
22.47161958304556
 10
29.46927100254391
 20
22.41990957369822
 10
29.52746500618827
 20
22.368298028208
 10
29.58839415663908
 20
22.31704095260348
 10
29.65157636024697
 20
22.26639435291319
 10
29.71652952336263
 20
22.21661423516571
 10
29.78277155233671
 20
22.16795660538957
 10
29.84982035351987
 20
22.12067746961333
 10
29.91719383326279
 20
22.07503283386554
 10
29.98440333862281
 20
22.03123931872788
 10
30.05093397948402
 20
21.9893560029945
 10
30.11626430643718
 20
21.94940258001267
 10
30.17987287007308
 20
21.91139874312966
 10
30.24123822098248
 20
21.87536418569275
 10
30.29983890975616
 20
21.84131860104921
 10
30.35515348698488
 20
21.80928168254632
 10
30.40666050325941
 20
21.77927312353133
 10
30.45400248686594
 20
21.75124697458817
 10
30.49747787687217
 20
21.72489471524723
 10
30.53754909004128
 20
21.69984218227556
 10
30.57467854313638
 20
21.67571521244019
 10
30.60932865292063
 20
21.65213964250817
 10
30.64196183615714
 20
21.62874130924652
 10
30.67304050960908
 20
21.6051460494223
 10
30.70302709003956
 20
21.58097969980253
 10
30.7323200430618
 20
21.55595015046451
 10
30.76106202968926
 20
21.53009350472656
 10
30.7893317597855
 20
21.50352791921722
 10
30.81720794321402
 20
21.47637155056507
 10
30.8447692898384
 20
21.44874255539868
 10
30.87209450952216
 20
21.42075909034658
 10
30.89926231212884
 20
21.39253931203736
 10
30.92635140752197
 20
21.36420137709959
 10
30.95336525753547
 20
21.33590190510387
 10
30.98000633188477
 20
21.30795136738908
 10
31.00590185225565
 20
21.28069869823613
 10
31.0306790403339
 20
21.25449283192596
 10
31.05396511780532
 20
21.22968270273948
 10
31.0753873063557
 20
21.20661724495763
 10
31.09457282767083
 20
21.18564539286131
 10
31.11114890343651
 20
21.16711608073147
 10
31.12485910613821
 20
21.1512681732056
 10
31.13591241146014
 20
21.13790025634747
 10
31.14463414588617
 20
21.12670084657747
 10
31.1513496359002
 20
21.11735846031594
 10
31.15638420798612
 20
21.10956161398324
 10
31.1600631886278
 20
21.10299882399974
 10
31.16271190430913
 20
21.0973586067858
 10
31.16465568151402
 20
21.09232947876178
 10
31.16616597980666
 20
21.08764940863356
 10
31.16729879107265
 20
21.08325417424913
 10
31.16805624027787
 20
21.07912900574198
 10
31.16844045238825
 20
21.07525913324564
 10
31.1684535523697
 20
21.0716297868936
 10
31.16809766518812
 20
21.06822619681938
 10
31.16737491580943
 20
21.06503359315647
 10
31.16628742919953
 20
21.06203720603838
 10
31.16483225453216
 20
21.0592299251143
 10
31.16298613781236
 20
21.0566352780961
 10
31.160720749253
 20
21.05428445221134
 10
31.15800775906696
 20
21.05220863468755
 10
31.15481883746709
 20
21.05043901275228
 10
31.15112565466627
 20
21.0490067736331
 10
31.14689988087736
 20
21.04794310455754
 10
31.14211318631323
 20
21.04727919275316
 10
31.13675046168783
 20
21.04703488474219
 10
31.13084947971943
 20
21.04718466422558
 10
31.12446123362734
 20
21.04769167419897
 10
31.11763671663092
 20
21.048519057658
 10
31.1104269219495
 20
21.0496299575983
 10
31.10288284280242
 20
21.05098751701551
 10
31.09505547240902
 20
21.05255487890527
 10
31.08699580398863
 20
21.05429518626322
 10
31.07856085538133
 20
21.05622945035549
 10
31.0688317429102
 20
21.05861015553026
 10
31.05669560751902
 20
21.0617476544062
 10
31.04103959015163
 20
21.06595229960199
 10
31.02075083175181
 20
21.07153444373631
 10
30.9947164732634
 20
21.07880443942781
 10
30.96182365563019
 20
21.08807263929518
 10
30.92095951979599
 20
21.09964939595711
 10
30.87142165140596
 20
21.11372663408438
 10
30.81414941491071
 20
21.13002256655637
 10
30.75049261946219
 20
21.14813697830454
 10
30.68180107421238
 20
21.16766965426041
 10
30.60942458831322
 20
21.18822037935545
 10
30.5347129709167
 20
21.20938893852115
 10
30.45901603117475
 20
21.230775116689
 10
30.38368357823933
 20
21.2519786987905
 10
30.30979354084564
 20
21.27266586246355
 10
30.23733632606169
 20
21.29276835617179
 10
30.16603046053873
 20
21.31228432108529
 10
30.09559447092801
 20
21.33121189837411
 10
30.02574688388077
 20
21.34954922920831
 10
29.95620622604826
 20
21.36729445475797
 10
29.88669102408172
 20
21.38444571619312
 10
29.81691980463241
 20
21.40100115468385
 10
29.74677531093309
 20
21.41695631635155
 10
29.67679715254267
 20
21.43229636712293
 10
29.60768915560161
 20
21.44700387787602
 10
29.54015514625036
 20
21.46106141948887
 10
29.47489895062935
 20
21.47445156283952
 10
29.41262439487904
 20
21.48715687880601
 10
29.35403530513985
 20
21.49915993826637
 10
29.29983550755226
 20
21.51044331209865
 10
29.25050969745481
 20
21.52102843750286
 10
29.20566604697857
 20
21.53109221696693
 10
29.16469359745269
 20
21.54085041930076
 10
29.12698139020634
 20
21.55051881331425
 10
29.0919184665687
 20
21.56031316781731
 10
29.05889386786893
 20
21.57044925161982
 10
29.0272966354362
 20
21.58114283353169
 10
28.99651581059968
 20
21.59260968236283
 10
28.96605716786061
 20
21.60503115668716
 10
28.93589341440863
 20
21.61845097413479
 10
28.9061139906054
 20
21.63287844209985
 10
28.87680833681264
 20
21.64832286797647
 10
28.84806589339204
 20
21.6647935591588
 10
28.81997610070528
 20
21.68229982304094
 10
28.79262839911408
 20
21.70085096701706
 10
28.76611222898012
 20
21.72045629848127
 10
28.74051024148458
 20
21.74112874344212
 10
28.71587793108663
 20
21.76289570236581
 10
28.6922640030649
 20
21.78578819433294
 10
28.66971716269805
 20
21.8098372384241
 10
28.64828611526473
 20
21.8350738537199
 10
28.62801956604356
 20
21.86152905930095
 10
28.60896622031321
 20
21.88923387424785
 10
28.59117478335231
 20
21.9182193176412
 10
28.57468731877547
 20
21.94843516911328
 10
28.55951932354115
 20
21.97950625050307
 10
28.54567965294376
 20
22.01097614420124
 10
28.53317716227772
 20
22.04238843259843
 10
28.52202070683743
 20
22.07328669808532
 10
28.5122191419173
 20
22.10321452305256
 10
28.50378132281175
 20
22.13171548989081
 10
28.4967161048152
 20
22.15833318099073
 10
28.49100356299074
 20
22.18271162015024
 10
28.48650865147617
 20
22.20489659679631
 10
28.48306754417798
 20
22.22503434176316
 10
28.48051641500267
 20
22.24327108588504
 10
28.47869143785669
 20
22.25975305999616
 10
28.47742878664656
 20
22.27462649493075
 10
28.47656463527876
 20
22.28803762152306
 10
28.47593515765976
 20
22.30013267060729
 10
28.47539128663051
 20
22.31104901065632
 10
28.47484299076967
 20
22.32088856069747
 10
28.47421499759036
 20
22.32974437739671
 10
28.47343203460569
 20
22.33770951742001
 10
28.4724188293288
 20
22.34487703743333
 10
28.47110010927278
 20
22.35133999410263
 10
28.46940060195077
 20
22.35719144409387
 10
28.46724503487586
 20
22.36252444407303
 10
28.46456846712446
 20
22.36740915565667
 10
28.46134728402605
 20
22.37182416026378
 10
28.45756820247338
 20
22.37572514426397
 10
28.45321793935921
 20
22.37906779402683
 10
28.44828321157629
 20
22.38180779592196
 10
28.44275073601739
 20
22.38390083631898
 10
28.43660722957524
 20
22.38530260158747
 10
28.42983940914262
 20
22.38596877809703
 10
28.42246129612681
 20
22.38588237849534
 10
28.4145961299933
 20
22.38513572054235
 10
28.40639445472211
 20
22.38384844827607
 10
28.39800681429324
 20
22.38214020573452
 10
28.38958375268673
 20
22.38013063695574
 10
28.38127581388258
 20
22.37793938597772
 10
28.37323354186081
 20
22.3756860968385
 10
28.36560748060144
 20
22.3734904135761
 10
28.35848534901742
 20
22.37143581539069
 10
28.35170356575347
 20
22.3694611221312
 10
28.3450357243872
 20
22.36746898880868
 10
28.33825541849627
 20
22.36536207043419
 10
28.33113624165831
 20
22.36304302201883
 10
28.32345178745095
 20
22.36041449857363
 10
28.31497564945184
 20
22.3573791551097
 10
28.30548142123861
 20
22.35383964663807
 10
28.29478003185773
 20
22.34974293181892
 10
28.28283175223108
 20
22.34521318390866
 10
28.26963418874935
 20
22.34041887981282
 10
28.25518494780323
 20
22.3355284964369
 10
28.23948163578342
 20
22.33071051068644
 10
28.22252185908063
 20
22.32613339946693
 10
28.20430322408556
 20
22.32196563968388
 10
28.18482333718891
 20
22.31837570824283
 10
28.16409571955593
 20
22.3155269957961
 10
28.14219755145013
 20
22.3135625479834
 10
28.11922192790955
 20
22.31262032419122
 10
28.09526194397228
 20
22.31283828380611
 10
28.07041069467635
 20
22.31435438621457
 10
28.04476127505984
 20
22.31730659080313
 10
28.01840678016081
 20
22.3218328569583
 10
27.99144030501731
 20
22.32807114406661
 10
27.96397388601397
 20
22.33612424740061
 10
27.93619532492161
 20
22.345954305777
 10
27.90831136485764
 20
22.35748829389852
 10
27.88052874893945
 20
22.37065318646791
 10
27.85305422028444
 20
22.38537595818792
 10
27.82609452201001
 20
22.40158358376126
 10
27.79985639723355
 20
22.41920303789069
 10
27.77454658907246
 20
22.43816129527894
 10
27.75033332968103
 20
22.45835287462117
 10
27.72723080736112
 20
22.47954247058217
 10
27.70521469945151
 20
22.50146232181919
 10
27.68426068329095
 20
22.52384466698941
 10
27.6643444362182
 20
22.54642174475009
 10
27.64544163557203
 20
22.56892579375842
 10
27.62752795869121
 20
22.59108905267165
 10
27.61057908291447
 20
22.61264376014697
 10
27.59457136116407
 20
22.63334987787739
 10
27.57948384869614
 20
22.65307825969891
 10
27.56529627635025
 20
22.67172748248333
 10
27.551988374966
 20
22.68919612310243
 10
27.539539875383
 20
22.70538275842801
 10
27.52793050844082
 20
22.72018596533182
 10
27.51714000497907
 20
22.73350432068568
 10
27.50714809583734
 20
22.74523640136136
 10
27.49790883802703
 20
22.755314592132
 10
27.48927359324685
 20
22.76380650937616
 10
27.48106804936728
 20
22.77081357737373
 10
27.47311789425883
 20
22.77643722040463
 10
27.46524881579201
 20
22.78077886274877
 10
27.45728650183732
 20
22.78393992868604
 10
27.44905664026525
 20
22.78602184249636
 10
27.44038491894632
 20
22.78712602845963
 10
27.43115377851684
 20
22.78734782522237
 10
27.42147267067633
 20
22.78675822889755
 10
27.41150779989011
 20
22.78542214996476
 10
27.40142537062354
 20
22.78340449890358
 10
27.39139158734195
 20
22.78077018619359
 10
27.38157265451067
 20
22.77758412231438
 10
27.37213477659503
 20
22.77391121774553
 10
27.36324415806036
 20
22.76981638296662
 10
27.35503997832168
 20
22.7653449201432
 10
27.34755331659264
 20
22.76046369818453
 10
27.34078822703658
 20
22.75511997768588
 10
27.33474876381682
 20
22.74926101924248
 10
27.3294389810967
 20
22.74283408344958
 10
27.32486293303955
 20
22.73578643090242
 10
27.32102467380869
 20
22.72806532219624
 10
27.31792825756746
 20
22.71961801792628
 10
27.31557233331454
 20
22.71042423411952
 10
27.31393392939001
 20
22.7005935085299
 10
27.31298466896931
 20
22.69026783434313
 10
27.31269617522785
 20
22.67958920474486
 10
27.31304007134108
 20
22.66869961292081
 10
27.31398798048442
 20
22.65774105205663
 10
27.31551152583332
 20
22.64685551533802
 10
27.3175823305632
 20
22.63618499595067
 10
27.32025039116346
 20
22.62575045419837
 10
27.3238791973795
 20
22.61508871885737
 10
27.32891061227068
 20
22.60361558582206
 10
27.33578649889635
 20
22.59074685098679
 10
27.34494872031587
 20
22.57589831024592
 10
27.35683913958862
 20
22.55848575949384
 10
27.37189961977394
 20
22.53792499462491
 10
27.39057202393122
 20
22.51363181153349
 10
27.413150422609
 20
22.48521383039566
 10
27.43933771631278
 20
22.45304596851434
 10
27.46868901303725
 20
22.41769496747414
 10
27.50075942077707
 20
22.37972756885969
 10
27.53510404752695
 20
22.33971051425561
 10
27.57127800128156
 20
22.29821054524653
 10
27.60883639003561
 20
22.25579440341705
 10
27.64733432178376
 20
22.2130288303518
 10
27.68640028281222
 20
22.1703922960553
 10
27.72595627257314
 20
22.12801018421167
 10
27.76599766881023
 20
22.08591960692491
 10
27.80651984926715
 20
22.04415767629903
 10
27.84751819168759
 20
22.00276150443805
 10
27.88898807381522
 20
21.96176820344597
 10
27.93092487339372
 20
21.92121488542681
 10
27.97332396816677
 20
21.88113866248457
 10
28.01621235966599
 20
21.84157322197691
 10
28.05974354457473
 20
21.80253855227605
 10
28.1041026433643
 20
21.76405121700785
 10
28.149474776506
 20
21.72612777979818
 10
28.19604506447113
 20
21.68878480427291
 10
28.24399862773097
 20
21.65203885405789
 10
28.29352058675686
 20
21.615906492779
 10
28.34479606202006
 20
21.58040428406209
 10
28.39787357092552
 20
21.54558588924091
 10
28.45225521861275
 20
21.51165336048064
 10
28.50730650715486
 20
21.47884584765437
 10
28.562392938625
 20
21.44740250063517
 10
28.61688001509629
 20
21.41756246929609
 10
28.67013323864188
 20
21.38956490351022
 10
28.72151811133489
 20
21.36364895315062
 10
28.77040013524846
 20
21.34005376809035
 10
28.8163160383883
 20
21.31893987347758
 10
28.85948745249045
 20
21.30015329556073
 10
28.90030723522353
 20
21.28346143586334
 10
28.93916824425615
 20
21.2686316959089
 10
28.97646333725693
 20
21.25543147722096
 10
29.01258537189449
 20
21.24362818132302
 10
29.04792720583744
 20
21.2329892097386
 10
29.0828816967544
 20
21.22328196399123
 10
29.11770943541474
 20
21.2143083594926
 10
29.15214194499089
 20
21.20600836720718
 10
29.18577848175603
 20
21.19835647198761
 10
29.2182183019833
 20
21.19132715868654
 10
29.2490606619459
 20
21.18489491215662
 10
29.27790481791701
 20
21.1790342172505
 10
29.30435002616978
 20
21.17371955882083
 10
29.32799554297741
 20
21.16892542172024
 10
29.3485577251409
 20
21.16461901748623
 10
29.36622133157266
 20
21.1607384643957
 10
29.38128822171297
 20
21.15721460741034
 10
29.39406025500204
 20
21.15397829149189
 10
29.40483929088017
 20
21.15096036160208
 10
29.41392718878759
 20
21.14809166270262
 10
29.42162580816455
 20
21.14530303975524
 10
29.42823700845132
 20
21.14252533772164
 10
29.4340099145451
 20
21.13969850078949
 10
29.43898271317088
 20
21.13679887005005
 10
29.4431408565106
 20
21.13381188582051
 10
29.44646979674623
 20
21.13072298841807
 10
29.4489549860597
 20
21.1275176181599
 10
29.45058187663294
 20
21.1241812153632
 10
29.45133592064794
 20
21.12069922034516
 10
29.4512025702866
 20
21.11705707342296
 10
29.45012545399617
 20
21.11319107895952
 10
29.44788090528501
 20
21.1088409975006
 10
29.44420343392673
 20
21.10369745363769
 10
29.43882754969496
 20
21.09745107196227
 10
29.43148776236334
 20
21.08979247706585
 10
29.42191858170551
 20
21.08041229353989
 10
29.40985451749509
 20
21.06900114597589
 10
29.3950300795057
 20
21.05524965896535
 10
29.37728524626584
 20
21.03893399043753
 10
29.35688187132341
 20
21.02017243167293
 10
29.33418727698115
 20
20.99916880728983
 10
29.3095687855418
 20
20.97612694190652
 10
29.28339371930814
 20
20.95125066014127
 10
29.2560294005829
 20
20.92474378661237
 10
29.22784315166882
 20
20.89681014593811
 10
29.19920229486868
 20
20.86765356273675
 10
29.17040939446656
 20
20.83742526474365
 10
29.14150798267199
 20
20.80606609216235
 10
29.11247683367584
 20
20.77346428831346
 10
29.08329472166898
 20
20.73950809651758
 10
29.05394042084228
 20
20.70408576009532
 10
29.02439270538663
 20
20.66708552236729
 10
28.99463034949288
 20
20.62839562665407
 10
28.96463212735191
 20
20.5879043162763
 10
28.93441830072623
 20
20.54552963821683
 10
28.90417508166484
 20
20.5013088541076
 10
28.87413016978836
 20
20.45530902924285
 10
28.84451126471745
 20
20.40759722891677
 10
28.81554606607273
 20
20.35824051842357
 10
28.78746227347484
 20
20.30730596305748
 10
28.7604875865444
 20
20.25486062811271
 10
28.73484970490205
 20
20.20097157888346
 10
28.71076105480343
 20
20.14568425890538
 10
28.68837296904417
 20
20.08895762467986
 10
28.66782150705489
 20
20.03072901094972
 10
28.64924272826623
 20
19.97093575245779
 10
28.63277269210881
 20
19.90951518394687
 10
28.61854745801327
 20
19.84640464015981
 10
28.60670308541021
 20
19.7815414558394
 10
28.59737563373031
 20
19.71486296572848
 10
28.59069735849987
 20
19.64635742228674
 10
28.58678529962807
 20
19.57621674884135
 10
28.58575269311982
 20
19.50468378643633
 10
28.58771277497999
 20
19.43200137611575
 10
28.59277878121347
 20
19.35841235892364
 10
28.60106394782515
 20
19.28415957590402
 10
28.6126815108199
 20
19.20948586810096
 10
28.62774470620264
 20
19.13463407655848
 10
28.64633037266335
 20
19.05986592996378
 10
28.66836975963247
 20
18.98551870757669
 10
28.69375771922556
 20
18.91194857630019
 10
28.72238910355816
 20
18.83951170303726
 10
28.75415876474582
 20
18.76856425469089
 10
28.7889615549041
 20
18.69946239816405
 10
28.82669232614855
 20
18.63256230035973
 10
28.86724593059471
 20
18.5682201281809
 10
28.9104821707873
 20
18.5067421313456
 10
28.95612065098755
 20
18.44823489083202
 10
29.00384592588589
 20
18.3927550704334
 10
29.05334255017271
 20
18.34035933394298
 10
29.10429507853843
 20
18.291104345154
 10
29.15638806567345
 20
18.24504676785969
 10
29.20930606626816
 20
18.2022432658533
 10
29.262733635013
 20
18.16275050292807
 10
29.31638717607765
 20
18.12659314505088
 10
29.37011049154903
 20
18.0936678668832
 10
29.42377923299337
 20
18.06383934526016
 10
29.47726905197687
 20
18.03697225701687
 10
29.53045560006575
 20
18.01293127898845
 10
29.58321452882623
 20
17.99158108801002
 10
29.63542148982453
 20
17.9727863609167
 10
29.68695213462685
 20
17.95641177454361
 10
29.7377459733099
 20
17.94232277985444
 10
29.78799794999226
 20
17.9303879243272
 10
29.83796686730298
 20
17.92047652956846
 10
29.88791152787113
 20
17.9124579171848
 10
29.93809073432575
 20
17.90620140878279
 10
29.98876328929592
 20
17.90157632596901
 10
30.04018799541069
 20
17.89845199035005
 10
30.09262365529912
 20
17.89669772353247
 10
30.14624447768562
 20
17.89623262293769
 10
30.20088629567612
 20
17.89717488924647
 10
30.25630034847187
 20
17.8996924989544
 10
30.31223787527414
 20
17.90395342855709
 10
30.3684501152842
 20
17.91012565455012
 10
30.42468830770332
 20
17.91837715342909
 10
30.48070369173277
 20
17.9288759016896
 10
30.53624750657382
 20
17.94178987582724
 10
30.59110995051627
 20
17.95725530174102
 10
30.64523705820416
 20
17.97528140294354
 10
30.69861382337002
 20
17.99584565235081
 10
30.75122523974643
 20
18.01892552287885
 10
30.80305630106594
 20
18.04449848744366
 10
30.85409200106111
 20
18.07254201896126
 10
30.9043173334645
 20
18.10303359034766
 10
30.95371729200867
 20
18.13595067451887
 10
31.00224060378923
 20
18.17122944291342
 10
31.04969092935405
 20
18.20864086105986
 10
31.09583566261406
 20
18.24791459300927
 10
31.14044219748018
 20
18.28878030281273
 10
31.18327792786333
 20
18.3309676545213
 10
31.22411024767445
 20
18.37420631218606
 10
31.26270655082443
 20
18.41822593985807
 10
31.29883423122424
 20
18.46275620158843
 10
31.33229819988879
 20
18.50755930189314
 10
31.36305343624909
 20
18.55252760714807
 10
31.3910924368402
 20
18.59758602419402
 10
31.41640769819713
 20
18.64265945987181
 10
31.4389917168549
 20
18.68767282102225
 10
31.45883698934856
 20
18.73255101448615
 10
31.47593601221313
 20
18.77721894710433
 10
31.49028128198363
 20
18.82160152571757
 10
31.50187529981508
 20
18.86568748630403
 10
31.51076058534228
 20
18.90972088139114
 10
31.51698966282005
 20
18.95400959264364
 10
31.52061505650316
 20
18.99886150172629
 10
31.52168929064639
 20
19.04458449030386
 10
31.52026488950456
 20
19.09148644004108
 10
31.51639437733243
 20
19.13987523260271
 10
31.51013027838482
 20
19.1900587496535
 10
31.50152636732838
 20
19.24218842892053
 10
31.49064142047724
 20
19.29578993238014
 10
31.47753546455743
 20
19.35023247807098
 10
31.46226852629495
 20
19.4048852840317
 10
31.44490063241582
 20
19.45911756830096
 10
31.42549180964606
 20
19.51229854891742
 10
31.40410208471165
 20
19.56379744391973
 10
31.38079148433864
 20
19.61298347134654
 10
31.35568506500672
 20
19.65932597325682
 10
31.3291680022104
 20
19.70269478779074
 10
31.30169050119791
 20
19.74305987710878
 10
31.27370276721745
 20
19.78039120337142
 10
31.24565500551722
 20
19.81465872873913
 10
31.21799742134545
 20
19.84583241537239
 10
31.19118021995033
 20
19.8738822254317
 10
31.16565360658008
 20
19.8987781210775
 10
31.14177843605548
 20
19.92053498974481
 10
31.11955816148753
 20
19.93934741996667
 10
31.09890688555979
 20
19.95545492555062
 10
31.07973871095584
 20
19.96909702030424
 10
31.06196774035926
 20
19.98051321803506
 10
31.0455080764536
 20
19.98994303255065
 10
31.03027382192243
 20
19.99762597765856
 10
31.01617907944933
 20
20.00380156716635
 10
31.00314119939894
 20
20.0086887109303
 10
30.99109052286021
 20
20.01242390300154
 10
30.97996063860315
 20
20.01512303347996
 10
30.96968513539778
 20
20.01690199246541
 10
30.96019760201414
 20
20.01787667005775
 10
30.95143162722224
 20
20.01816295635687
 10
30.94332079979212
 20
20.01787674146262
 10
30.93579870849377
 20
20.01713391547488
 10
30.92880569903611
 20
20.01602649556213
 10
30.9223091448836
 20
20.01455100716736
 10
30.91628317643955
 20
20.01268010280218
 10
30.9107019241073
 20
20.01038643497822
 10
30.90553951829019
 20
20.00764265620708
 10
30.90077008939152
 20
20.00442141900037
 10
30.89636776781464
 20
20.00069537586972
 10
30.89230668396289
 20
19.99643717932673
 10
30.88857483638874
 20
19.99162941963624
 10
30.8852156962414
 20
19.98629443807604
 10
30.88228660281922
 20
19.98046451367713
 10
30.87984489542055
 20
19.9741719254705
 10
30.87794791334375
 20
19.96744895248719
 10
30.87665299588717
 20
19.96032787375818
 10
30.87601748234916
 20
19.95284096831448
 10
30.87609871202808
 20
19.9450205151871
 10
30.87695070189964
 20
19.93682982724616
 10
30.87861417964898
 20
19.92795635271824
 10
30.88112655063862
 20
19.91801857366903
 10
30.88452522023103
 20
19.90663497216421
 10
30.88884759378873
 20
19.8934240302695
 10
30.89413107667422
 20
19.87800423005056
 10
30.90041307424999
 20
19.8599940535731
 10
30.90773099187855
 20
19.83901198290279
 10
30.91608202994905
 20
19.81478607615304
 10
30.92530256895729
 20
19.78748269562793
 10
30.93518878442572
 20
19.75737777967928
 10
30.9455368518768
 20
19.72474726665885
 10
30.95614294683296
 20
19.68986709491846
 10
30.96680324481668
 20
19.6530132028099
 10
30.9773139213504
 20
19.61446152868496
 10
30.98747115195656
 20
19.57448801089542
 10
30.99707917571039
 20
19.53332894945397
 10
31.00597448589816
 20
19.49106209101681
 10
31.01400163935889
 20
19.44772554390101
 10
31.02100519293161
 20
19.40335741642366
 10
31.02682970345536
 20
19.35799581690183
 10
31.03131972776918
 20
19.31167885365261
 10
31.03431982271207
 20
19.26444463499307
 10
31.03567454512309
 20
19.2163312692403
 10
31.03527186684365
 20
19.16744185168246
 10
31.03317341972468
 20
19.11813942549207
 10
31.02948425061953
 20
19.06885202081275
 10
31.02430940638154
 20
19.02000766778811
 10
31.01775393386403
 20
18.97203439656175
 10
31.00992287992033
 20
18.9253602372773
 10
31.0009212914038
 20
18.88041322007835
 10
30.99085421516776
 20
18.83762137510852
 10
30.97980418811228
 20
18.79732512411362
 10
30.96776370732449
 20
18.75951445524827
 10
30.95470275993827
 20
18.7240917482693
 10
30.94059133308747
 20
18.69095938293353
 10
30.92539941390596
 20
18.66001973899777
 10
30.90909698952762
 20
18.63117519621886
 10
30.8916540470863
 20
18.60432813435361
 10
30.87304057371589
 20
18.57938093315885
 10
30.85321530129757
 20
18.55623847520877
 10
30.83209194070192
 20
18.53481565434714
 10
30.80957294754681
 20
18.51502986723505
 10
30.78556077745012
 20
18.49679851053364
 10
30.75995788602975
 20
18.48003898090404
 10
30.73266672890359
 20
18.46466867500737
 10
30.70358976168952
 20
18.45060498950473
 10
30.67262944000543
 20
18.43776532105728
 10
30.63975074784708
 20
18.42606956962337
 10
30.60516878272175
 20
18.41544764835041
 10
30.56916117051458
 20
18.40583197368306
 10
30.53200553711072
 20
18.39715496206595
 10
30.49397950839532
 20
18.38934902994375
 10
30.45536071025352
 20
18.3823465937611
 10
30.41642676857048
 20
18.37608006996266
 10
30.37745530923133
 20
18.37048187499309
 10
30.33865662325707
 20
18.36551158390802
 10
30.29997166221205
 20
18.36123740620709
 10
30.26127404279644
 20
18.35775471000093
 10
30.22243738171045
 20
18.35515886340015
 10
30.18333529565424
 20
18.35354523451538
 10
30.14384140132802
 20
18.35300919145725
 10
30.10382931543196
 20
18.35364610233638
 10
30.06317265466626
 20
18.3555513352634
 10
30.02178545960518
 20
18.35883624968014
 10
29.97974346631938
 20
18.36367617035326
 10
29.93716283475357
 20
18.37026241338064
 10
29.89415972485249
 20
18.37878629486015
 10
29.85085029656086
 20
18.38943913088967
 10
29.80735070982341
 20
18.40241223756707
 10
29.7637771245849
 20
18.41789693099022
 10
29.72024570079001
 20
18.436084527257
 10
29.67689419452963
 20
18.45710276372487
 10
29.63394674647915
 20
18.48082506278961
 10
29.59164909346008
 20
18.50706126810661
 10
29.55024697229396
 20
18.53562122333123
 10
29.5099861198023
 20
18.56631477211886
 10
29.47111227280663
 20
18.59895175812488
 10
29.43387116812849
 20
18.63334202500466
 10
29.39850854258936
 20
18.66929541641357
 10
29.36519690792223
 20
18.70668668571879
 10
29.33381587550571
 20
18.74565022513463
 10
29.30417183162986
 20
18.78638533658721
 10
29.27607116258473
 20
18.82909132200265
 10
29.24932025466037
 20
18.87396748330705
 10
29.22372549414685
 20
18.92121312242655
 10
29.19909326733419
 20
18.97102754128723
 10
29.17522996051248
 20
19.02361004181523
 10
29.15202770314673
 20
19.07902059910853
 10
29.12972159740185
 20
19.13676188095264
 10
29.10863248861769
 20
19.19619722830496
 10
29.08908122213416
 20
19.25668998212286
 10
29.07138864329113
 20
19.31760348336374
 10
29.05587559742846
 20
19.37830107298498
 10
29.04286292988603
 20
19.43814609194398
 10
29.03267148600372
 20
19.49650188119812
 10
29.02555296343884
 20
19.55288956246826
 10
29.02148246911841
 20
19.60746138052926
 10
29.02036596228689
 20
19.66052736091941
 10
29.02210940218872
 20
19.71239752917703
 10
29.02661874806837
 20
19.76338191084043
 10
29.03379995917029
 20
19.81379053144793
 10
29.04355899473893
 20
19.86393341653785
 10
29.05580181401874
 20
19.91412059164849
 10
29.07046480119477
 20
19.96457165822682
 10
29.08760604021437
 20
20.01514452135442
 10
29.10731403996548
 20
20.06560666202152
 10
29.12967730933604
 20
20.11572556121832
 10
29.15478435721399
 20
20.16526869993508
 10
29.18272369248727
 20
20.214003559162
 10
29.21358382404383
 20
20.26169761988931
 10
29.24745326077161
 20
20.30811836310725
 10
29.28436980326902
 20
20.35305356913495
 10
29.32416841897646
 20
20.39637221560713
 10
29.36663336704483
 20
20.43796357948744
 10
29.41154890662498
 20
20.47771693773956
 10
29.45869929686781
 20
20.51552156732709
 10
29.50786879692419
 20
20.55126674521371
 10
29.55884166594502
 20
20.58484174836305
 10
29.61140216308116
 20
20.61613585373875
 10
29.66535417777393
 20
20.64504664996541
 10
29.72058012062632
 20
20.67150497231134
 10
29.77698203253181
 20
20.69544996770579
 10
29.83446195438382
 20
20.71682078307802
 10
29.8929219270758
 20
20.73555656535728
 10
29.95226399150118
 20
20.75159646147284
 10
30.01239018855342
 20
20.76487961835393
 10
30.07320255912595
 20
20.77534518292984
 10
30.13462299219922
 20
20.78294982952942
 10
30.19665276910173
 20
20.78772034208007
 10
30.25931301924899
 20
20.78970103190882
 10
30.3226248720565
 20
20.78893621034267
 10
30.38660945693978
 20
20.78547018870864
 10
30.45128790331431
 20
20.77934727833376
 10
30.51668134059563
 20
20.77061179054502
 10
30.58281089819922
 20
20.75930803666946
 10
30.64965097191452
 20
20.74545276268408
 10
30.71698902302667
 20
20.72895245316583
 10
30.78456577919475
 20
20.70968602734167
 10
30.85212196807781
 20
20.68753240443854
 10
30.91939831733494
 20
20.66237050368337
 10
30.9861355546252
 20
20.63407924430313
 10
31.05207440760765
 20
20.60253754552475
 10
31.11695560394138
 20
20.56762432657518
 10
31.18051232702157
 20
20.5292812460307
 10
31.24244758318794
 20
20.48770091986488
 10
31.30245683451628
 20
20.44313870340062
 10
31.36023554308244
 20
20.39584995196085
 10
31.41547917096225
 20
20.34609002086845
 10
31.46788318023153
 20
20.29411426544635
 10
31.5171430329661
 20
20.24017804101744
 10
31.56295419124178
 20
20.18453670290463
 10
31.60509991184831
 20
20.12744423361466
 10
31.64371463043098
 20
20.06914912438964
 10
31.67902057734898
 20
20.0098984936555
 10
31.71123998296151
 20
19.94993945983818
 10
31.74059507762776
 20
19.88951914136362
 10
31.76730809170694
 20
19.82888465665775
 10
31.79160125555823
 20
19.76828312414652
 10
31.81369679954082
 20
19.70796166225587
 10
31.83375659509982
 20
19.6481001181567
 10
31.85170107802385
 20
19.58860925399982
 10
31.86739032518744
 20
19.529332560681
 10
31.88068441346516
 20
19.47011352909604
 10
31.89144341973151
 20
19.41079565014069
 10
31.89952742086104
 20
19.35122241471075
 10
31.9047964937283
 20
19.291237313702
 10
31.90711071520778
 20
19.2306838380102
 10
31.90638361724012
 20
19.16947179800919
 10
31.90274255203005
 20
19.107776281985
 10
31.89636832684839
 20
19.04583869770169
 10
31.88744174896597
 20
18.98390045292337
 10
31.87614362565357
 20
18.92220295541411
 10
31.86265476418205
 20
18.86098761293797
 10
31.84715597182221
 20
18.80049583325907
 10
31.82982805584484
 20
18.74096902414144
 10
31.81083569790588
 20
18.68260997713621
 10
31.79027907720162
 20
18.62546701894247
 10
31.76824224731346
 20
18.56954986004637
 10
31.74480926182278
 20
18.51486821093402
 10
31.720064174311
 20
18.46143178209155
 10
31.69409103835949
 20
18.4092502840051
 10
31.66697390754967
 20
18.35833342716078
 10
31.63879683546292
 20
18.30869092204472
 10
31.6096340356917
 20
18.26034252438749
 10
31.57952036187277
 20
18.21334817089736
 10
31.54848082765394
 20
18.16777784352704
 10
31.51654044668302
 20
18.12370152422924
 10
31.48372423260782
 20
18.08118919495667
 10
31.45005719907617
 20
18.04031083766204
 10
31.41556435973587
 20
18.00113643429807
 10
31.38027072823474
 20
17.96373596681745
 10
31.34412189509394
 20
17.92809142905285
 10
31.30674575832806
 20
17.89383286235671
 10
31.26769079282501
 20
17.86050231996142
 10
31.22650547347273
 20
17.82764185509937
 10
31.18273827515916
 20
17.79479352100294
 10
31.1359376727722
 20
17.76149937090453
 10
31.08565214119981
 20
17.72730145803652
 10
31.03143015532989
 20
17.6917418356313
 10
30.97276904053647
 20
17.6544209278091
 10
30.90896152413787
 20
17.61517264224147
 10
30.83924918393849
 20
17.57388925748779
 10
30.76287359774275
 20
17.53046305210745
 10
30.67907634335505
 20
17.48478630465981
 10
30.5870989985798
 20
17.43675129370429
 10
30.51034002324182
 20
17.39833904809085
  0
LWPOLYLINE
  5
146D7
330
18
100
AcDbEntity
  8
0
100
AcDbPolyline
 90
      198
 70
     0
 43
0.0
 10
24.9086573657471
 20
23.35141796545082
 10
24.9172222966242
 20
23.35572094868147
 10
24.92992549258395
 20
23.36297153664518
 10
24.9413686577936
 20
23.37029608335203
 10
24.95190282618706
 20
23.37770938055065
 10
24.96187903169821
 20
23.3852262199897
 10
24.9715842599445
 20
23.39285523023717
 10
24.98104930327747
 20
23.40058038713866
 10
24.9902409057322
 20
23.40837950335915
 10
24.99912581134377
 20
23.41623039156361
 10
25.00767076414726
 20
23.42411086441702
 10
25.01584250817774
 20
23.43199873458437
 10
25.02360778747029
 20
23.43987181473062
 10
25.03093334605998
 20
23.44770791752075
 10
25.03782103162925
 20
23.45550211285177
 10
25.04441310644992
 20
23.46331849954872
 10
25.05088693644115
 20
23.4712384336687
 10
25.05741988752209
 20
23.47934327126878
 10
25.06418932561192
 20
23.48771436840604
 10
25.07137261662981
 20
23.49643308113756
 10
25.07914712649492
 20
23.50558076552041
 10
25.08769022112641
 20
23.51523877761168
 10
25.09713122984724
 20
23.52544656255426
 10
25.10740733559555
 20
23.53607592183426
 10
25.11840768471325
 20
23.54695674602357
 10
25.13002142354229
 20
23.55791892569411
 10
25.14213769842459
 20
23.5687923514178
 10
25.15464565570208
 20
23.57940691376655
 10
25.16743444171668
 20
23.58959250331227
 10
25.18039320281033
 20
23.59917901062687
 10
25.19345049993685
 20
23.60804070267985
 10
25.20669255249766
 20
23.61622935203102
 10
25.22024499450607
 20
23.62384110763778
 10
25.2342334599754
 20
23.63097211845754
 10
25.24878358291896
 20
23.6377185334477
 10
25.26402099735007
 20
23.64417650156566
 10
25.28007133728205
 20
23.65044217176881
 10
25.29706023672819
 20
23.65661169301457
 10
25.3150714516974
 20
23.66275409547865
 10
25.33402122618078
 20
23.66882993421013
 10
25.35378392616502
 20
23.67477264547639
 10
25.37423391763681
 20
23.68051566554486
 10
25.39524556658283
 20
23.68599243068291
 10
25.41669323898978
 20
23.69113637715794
 10
25.43845130084432
 20
23.69588094123734
 10
25.46039411813314
 20
23.70015955918853
 10
25.48241822759664
 20
23.70391059766982
 10
25.50450884898999
 20
23.70709214490324
 10
25.52667337282204
 20
23.70966721950177
 10
25.54891918960169
 20
23.71159884007836
 10
25.57125368983779
 20
23.71285002524599
 10
25.59368426403922
 20
23.7133837936176
 10
25.61621830271485
 20
23.71316316380618
 10
25.63886319637354
 20
23.71215115442469
 10
25.66161401834065
 20
23.71032311111912
 10
25.68441657320735
 20
23.70770368766763
 10
25.70720434838131
 20
23.70432986488141
 10
25.72991083127018
 20
23.70023862357166
 10
25.75246950928163
 20
23.69546694454955
 10
25.77481386982329
 20
23.69005180862628
 10
25.79687740030285
 20
23.68403019661303
 10
25.81859358812795
 20
23.67743908932101
 10
25.83992794519574
 20
23.67030437331803
 10
25.86097408136128
 20
23.66260755819851
 10
25.88185763096916
 20
23.6543190593135
 10
25.90270422836393
 20
23.64540929201403
 10
25.92363950789016
 20
23.63584867165116
 10
25.94478910389241
 20
23.62560761357595
 10
25.96627865071525
 20
23.61465653313943
 10
25.98823378270325
 20
23.60296584569265
 10
26.01076165848086
 20
23.59049733811462
 10
26.03389553379219
 20
23.57717828339615
 10
26.05765018866122
 20
23.56292732605601
 10
26.08204040311195
 20
23.54766311061296
 10
26.10708095716836
 20
23.53130428158577
 10
26.13278663085447
 20
23.5137694834932
 10
26.15917220419425
 20
23.49497736085403
 10
26.18625245721171
 20
23.47484655818703
 10
26.21403904083709
 20
23.45329268799136
 10
26.24253108962573
 20
23.43021923468786
 10
26.27172460903921
 20
23.40552665067778
 10
26.30161560453913
 20
23.37911538836237
 10
26.33220008158707
 20
23.35088590014288
 10
26.36347404564463
 20
23.32073863842055
 10
26.39543350217338
 20
23.28857405559662
 10
26.42807445663493
 20
23.25429260407235
 10
26.46137730187111
 20
23.21780989490729
 10
26.49525998024472
 20
23.1791021737943
 10
26.52962482149882
 20
23.13816084508454
 10
26.56437415537648
 20
23.09497731312914
 10
26.59941031162074
 20
23.04954298227928
 10
26.63463561997466
 20
23.00184925688611
 10
26.66995241018129
 20
22.9518875413008
 10
26.7052630119837
 20
22.89964923987449
 10
26.74047022097223
 20
22.84515860626856
 10
26.77547869612641
 20
22.78857129138517
 10
26.81019356227305
 20
22.7300757954367
 10
26.84451994423898
 20
22.66986061863553
 10
26.87836296685102
 20
22.60811426119402
 10
26.91162775493598
 20
22.54502522332456
 10
26.94421943332069
 20
22.48078200523952
 10
26.97604312683196
 20
22.41557310715127
 10
27.00702696331482
 20
22.34954211954551
 10
27.03719108268716
 20
22.28265299400123
 10
27.06657862788503
 20
22.21482477237072
 10
27.09523274184454
 20
22.1459764965063
 10
27.12319656750175
 20
22.07602720826026
 10
27.15051324779275
 20
22.0048959494849
 10
27.17722592565362
 20
21.93250176203253
 10
27.20337774402045
 20
21.85876368775546
 10
27.2290353346802
 20
21.78352719174049
 10
27.25435928482343
 20
21.70634343201243
 10
27.27953367049158
 20
21.62668998983058
 10
27.3047425677261
 20
21.54404444645425
 10
27.33017005256844
 20
21.45788438314276
 10
27.35600020106003
 20
21.36768738115541
 10
27.38241708924233
 20
21.27293102175151
 10
27.40960479315678
 20
21.17309288619038
 10
27.43772253176764
 20
21.06785369374958
 10
27.4668300957304
 20
20.95770671577968
 10
27.49696241862336
 20
20.84334836164951
 10
27.52815443402483
 20
20.72547504072791
 10
27.56044107551312
 20
20.60478316238371
 10
27.59385727666652
 20
20.48196913598574
 10
27.62843797106335
 20
20.35772937090282
 10
27.6642180922819
 20
20.23276027650381
 10
27.70120402548864
 20
20.10772964790455
 10
27.73928796220268
 20
19.98319082320906
 10
27.77833354553128
 20
19.85966852626841
 10
27.81820441858172
 20
19.73768748093361
 10
27.85876422446126
 20
19.61777241105574
 10
27.89987660627718
 20
19.50044804048583
 10
27.94140520713674
 20
19.38623909307493
 10
27.9832136701472
 20
19.2756702926741
 10
28.02516243876596
 20
19.1692118230601
 10
28.06709915785081
 20
19.06711570771258
 10
28.10886827260971
 20
18.96957943003693
 10
28.15031422825057
 20
18.87680047343852
 10
28.19128146998133
 20
18.78897632132273
 10
28.23161444300991
 20
18.70630445709494
 10
28.27115759254425
 20
18.62898236416051
 10
28.30975536379229
 20
18.55720752592483
 10
28.34728888304728
 20
18.49106355134533
 10
28.38378600094388
 20
18.43017855158763
 10
28.41931124920207
 20
18.37406676336941
 10
28.45392915954185
 20
18.32224242340834
 10
28.48770426368322
 20
18.2742197684221
 10
28.52070109334615
 20
18.22951303512836
 10
28.55298418025064
 20
18.1876364602448
 10
28.58461805611668
 20
18.14810428048909
 10
28.6156866543925
 20
18.11048556489489
 10
28.64635151543924
 20
18.07456871175974
 10
28.67679358134629
 20
18.04019695169716
 10
28.70719379420304
 20
18.00721351532066
 10
28.73773309609887
 20
17.97546163324378
 10
28.76859242912317
 20
17.94478453608002
 10
28.79995273536531
 20
17.9150254544429
 10
28.83199495691468
 20
17.88602761894596
 10
28.86488425987968
 20
17.85766398650969
 10
28.89872270644471
 20
17.82992641928259
 10
28.93359658281318
 20
17.80283650572016
 10
28.9695921751885
 20
17.77641583427788
 10
29.00679576977408
 20
17.75068599341123
 10
29.04529365277334
 20
17.72566857157572
 10
29.08517211038969
 20
17.70138515722681
 10
29.12651742882653
 20
17.67785733882002
 10
29.16936735844279
 20
17.65511030288674
 10
29.21356550621937
 20
17.63318362826202
 10
29.25890694329273
 20
17.61212049185685
 10
29.30518674079928
 20
17.59196407058221
 10
29.35219996987545
 20
17.57275754134908
 10
29.39974170165767
 20
17.55454408106842
 10
29.44760700728237
 20
17.53736686665122
 10
29.49559095788598
 20
17.52126907500846
 10
29.54354435082835
 20
17.50628128978541
 10
29.59154088836305
 20
17.49238372156455
 10
29.63970999896707
 20
17.47954398766263
 10
29.68818111111741
 20
17.46772970539643
 10
29.73708365329105
 20
17.4569084920827
 10
29.786547053965
 20
17.44704796503823
 10
29.83670074161624
 20
17.43811574157977
 10
29.88767414472175
 20
17.43007943902409
 10
29.9395240883978
 20
17.4229106093457
 10
29.99201698431753
 20
17.41659654314999
 10
30.04484664079336
 20
17.41112846570012
 10
30.09770686613771
 20
17.40649760225923
 10
30.15029146866298
 20
17.40269517809046
 10
30.20229425668159
 20
17.39971241845696
 10
30.25340903850594
 20
17.39754054862188
 10
30.30332962244846
 20
17.39617079384835
 10
30.35199266834901
 20
17.39558566090359
 10
30.40030624215732
 20
17.39573278257112
 10
30.44942126135059
 20
17.39655107313854
 10
30.50048864340601
 20
17.39797944689342
 10
30.55465930580079
 20
17.39995681812337
 10
30.61308416601209
 20
17.40242210111597
 10
30.67691414151713
 20
17.4053142101588
 10
30.7110105471014
 20
17.40689237827114
  0
LINE
  5
147AB
330
18
100
AcDbEntity
  8
0
100
AcDbLine
 10
32.89851054710141
 20
27.0920980530281
 30
0.0
 11
32.8985105471014
 21
16.4670980530281
 31
0.0
  0
LINE
  5
147AC
330
18
100
AcDbEntity
  8
0
100
AcDbLine
 10
30.7110105471014
 20
16.4670980530281
 30
0.0
 11
32.8985105471014
 21
16.4670980530281
 31
0.0
  0
LINE
  5
147AF
330
18
100
AcDbEntity
  8
0
100
AcDbLine
 10
21.8985105471014
 20
27.0920980530281
 30
0.0
 11
32.89851054710141
 21
27.0920980530281
 31
0.0
  0
LINE
  5
147B2
330
18
100
AcDbEntity
  8
0
100
AcDbLine
 10
22.8985105471014
 20
26.0920980530281
 30
0.0
 11
32.89851054710141
 21
26.0920980530281
 31
0.0
  0
LINE
  5
147B3
330
18
100
AcDbEntity
  8
0
100
AcDbLine
 10
22.8985105471014
 20
25.8420980530281
 30
0.0
 11
32.89851054710141
 21
25.8420980530281
 31
0.0
  0
ARC
  5
147B5
330
18
100
AcDbEntity
  8
0
100
AcDbCircle
 10
22.8985105471014
 20
27.0920980530281
 30
0.0
 40
1.0
100
AcDbArc
 50
180.0
 51
270.0
  0
LINE
  5
147B6
330
18
100
AcDbEntity
  8
0
100
AcDbLine
 10
22.8985105471014
 20
26.0920980530281
 30
0.0
 11
22.8985105471014
 21
25.8420980530281
 31
0.0
  0
ARC
  5
147B7
330
18
100
AcDbEntity
  8
0
100
AcDbCircle
 10
22.77780655028907
 20
25.26546004223976
 30
0.0
 40
0.5891356807496934
100
AcDbArc
 50
358.3891784850458
 51
78.17733889006627
  0
ARC
  5
147B9
330
18
100
AcDbEntity
  8
0
100
AcDbCircle
 10
8.181694393835535
 20
27.0920980530281
 30
0.0
 40
1.0
100
AcDbArc
 50
180.0
 51
270.0
  0
LINE
  5
147BA
330
18
100
AcDbEntity
  8
0
100
AcDbLine
 10
7.181694393835535
 20
27.0920980530281
 30
0.0
 11
16.43169439383553
 21
27.0920980530281
 31
0.0
  0
LINE
  5
147BB
330
18
100
AcDbEntity
  8
0
100
AcDbLine
 10
14.96349552240292
 20
25.24889918159548
 30
0.0
 11
8.649893265268147
 21
25.24889918159548
 31
0.0
  0
LINE
  5
147BC
330
18
100
AcDbEntity
  8
0
100
AcDbLine
 10
8.181694393835535
 20
26.0920980530281
 30
0.0
 11
15.43169439383553
 21
26.0920980530281
 31
0.0
  0
LINE
  5
147BD
330
18
100
AcDbEntity
  8
0
100
AcDbLine
 10
8.181694393835535
 20
25.8420980530281
 30
0.0
 11
15.43169439383553
 21
25.8420980530281
 31
0.0
  0
ARC
  5
147BE
330
18
100
AcDbEntity
  8
0
100
AcDbCircle
 10
8.060990397023202
 20
25.26546004223976
 30
0.0
 40
0.5891356807496916
100
AcDbArc
 50
358.3891784850458
 51
78.17733889006643
  0
LINE
  5
147BF
330
18
100
AcDbEntity
  8
0
100
AcDbLine
 10
8.181694393835535
 20
26.0920980530281
 30
0.0
 11
8.181694393835535
 21
25.8420980530281
 31
0.0
  0
ARC
  5
147C2
330
18
100
AcDbEntity
  8
0
100
AcDbCircle
 10
15.43169439383553
 20
27.0920980530281
 30
0.0
 40
1.0
100
AcDbArc
 50
270.0
 51
0.000000000000007
  0
ARC
  5
147C3
330
18
100
AcDbEntity
  8
0
100
AcDbCircle
 10
15.55239839064786
 20
25.26546004223976
 30
0.0
 40
0.5891356807496933
100
AcDbArc
 50
101.8226611099336
 51
181.6108215149542
  0
LINE
  5
147C4
330
18
100
AcDbEntity
  8
0
100
AcDbLine
 10
15.43169439383553
 20
26.0920980530281
 30
0.0
 11
15.43169439383553
 21
25.8420980530281
 31
0.0
  0
LINE
  5
147C6
330
18
100
AcDbEntity
  8
0
100
AcDbLine
 10
9.212944393835533
 20
16.4670980530281
 30
0.0
 11
9.212944393835567
 21
25.24889918159548
 31
0.0
  0
LINE
  5
147C7
330
18
100
AcDbEntity
  8
0
100
AcDbLine
 10
14.40044439383553
 20
16.4670980530281
 30
0.0
 11
14.4004443938355
 21
25.24889918159548
 31
0.0
  0
LINE
  5
147C8
330
18
100
AcDbEntity
  8
0
100
AcDbLine
 10
14.40044439383551
 20
23.35141796545082
 30
0.0
 11
9.212944393835559
 21
23.35141796545082
 31
0.0
  0
LINE
  5
147CC
330
18
100
AcDbEntity
  8
0
100
AcDbLine
 10
14.40044439383553
 20
17.40689237827108
 30
0.0
 11
9.212944393835536
 21
17.40689237827109
 31
0.0
  0
LINE
  5
147CD
330
18
100
AcDbEntity
  8
0
100
AcDbLine
 10
12.17722999383554
 20
17.40689237827109
 30
0.0
 11
12.17722999383556
 21
23.35141796545082
 31
0.0
  0
LINE
  5
147CE
330
18
100
AcDbEntity
  8
0
100
AcDbLine
 10
11.43615859383553
 20
17.40689237827109
 30
0.0
 11
11.43615859383556
 21
23.35141796545082
 31
0.0
  0
LINE
  5
147CF
330
18
100
AcDbEntity
  8
0
100
AcDbLine
 10
10.69508719383553
 20
17.4068923782711
 30
0.0
 11
10.69508719383556
 21
23.35141796545083
 31
0.0
  0
LINE
  5
147D0
330
18
100
AcDbEntity
  8
0
100
AcDbLine
 10
12.91830159383553
 20
17.40689237827109
 30
0.0
 11
12.91830159383555
 21
23.35141796545082
 31
0.0
  0
LINE
  5
147D1
330
18
100
AcDbEntity
  8
0
100
AcDbLine
 10
9.954015793835537
 20
17.4068923782711
 30
0.0
 11
9.95401579383556
 21
23.35141796545083
 31
0.0
  0
LINE
  5
147D2
330
18
100
AcDbEntity
  8
0
100
AcDbLine
 10
13.65937299383553
 20
17.40689237827108
 30
0.0
 11
13.65937299383555
 21
23.35141796545081
 31
0.0
  0
DIMENSION
  5
14F7F
330
18
100
AcDbEntity
  8
DIM
100
AcDbDimension
  2
*D2
 10
7.181694393835535
 20
29.59314197846039
 30
0.0
 11
11.80669439383553
 21
29.59314197846039
 31
0.0
 70
    32
 71
     5
 42
9.25
  3
STANDARD
100
AcDbAlignedDimension
 13
16.43169439383553
 23
27.0920980530281
 33
0.0
 14
7.181694393835535
 24
27.0920980530281
 34
0.0
100
AcDbRotatedDimension
  0
DIMENSION
  5
14F8D
330
18
100
AcDbEntity
  8
DIM
100
AcDbDimension
  2
*D3
 10
32.89851054710141
 20
29.59314197846039
 30
0.0
 11
27.39851054710141
 21
29.59314197846039
 31
0.0
 70
    32
 71
     5
 42
11.0
  3
STANDARD
100
AcDbAlignedDimension
 13
21.8985105471014
 23
27.0920980530281
 33
0.0
 14
32.89851054710141
 24
27.0920980530281
 34
0.0
100
AcDbRotatedDimension
  0
DIMENSION
  5
14F9B
330
18
100
AcDbEntity
  8
DIM
100
AcDbDimension
  2
*D4
 10
32.8985105471014
 20
13.38847085268384
 30
0.0
 11
35.50184388043473
 21
13.38847085268384
 31
0.0
 70
    32
 71
     5
 42
2.187499999999996
  3
STANDARD
100
AcDbAlignedDimension
 13
30.7110105471014
 23
16.4670980530281
 33
0.0
 14
32.8985105471014
 24
16.4670980530281
 34
0.0
100
AcDbRotatedDimension
  0
DIMENSION
  5
14FA9
330
18
100
AcDbEntity
  8
DIM
100
AcDbDimension
  2
*D5
 10
37.24990130793538
 20
16.4670980530281
 30
0.0
 11
37.24990130793537
 21
21.77959805302811
 31
0.0
 70
    32
 71
     5
 42
10.625
  3
STANDARD
100
AcDbAlignedDimension
 13
32.89851054710141
 23
27.0920980530281
 33
0.0
 14
32.89851054710141
 24
16.4670980530281
 34
0.0
 50
90.0
100
AcDbRotatedDimension
  0
LINE
  5
14FB8
330
18
100
AcDbEntity
  8
0
100
AcDbLine
 10
9.212944393835533
 20
16.4670980530281
 30
0.0
 11
14.40044439383553
 21
16.4670980530281
 31
0.0
  0
DIMENSION
  5
1501B
330
18
100
AcDbEntity
  8
DIM
100
AcDbDimension
  2
*D6
 10
14.40044439383553
 20
14.4939891347033
 30
0.0
 11
11.80669439383553
 21
14.4939891347033
 31
0.0
 70
    32
 71
     5
 42
5.187500000000001
  3
STANDARD
100
AcDbAlignedDimension
 13
9.212944393835533
 23
16.4670980530281
 33
0.0
 14
14.40044439383553
 24
16.4670980530281
 34
0.0
100
AcDbRotatedDimension
  0
HATCH
  5
1503E
330
18
100
AcDbEntity
  8
0
100
AcDbHatch
 10
0.0
 20
0.0
 30
0.0
210
0.0
220
0.0
230
1.0
  2
SOLID
 70
     1
 71
     0
 91
        4
 92
        7
 72
     0
 73
     1
 93
        4
 10
14.40044439383551
 20
23.35141796545082
 10
13.65937299383555
 20
23.35141796545082
 10
13.65937299383553
 20
17.40689237827108
 10
14.40044439383553
 20
17.40689237827107
 97
        0
 92
        7
 72
     0
 73
     1
 93
        4
 10
12.91830159383555
 20
23.35141796545082
 10
12.17722999383556
 20
23.35141796545082
 10
12.17722999383554
 20
17.40689237827109
 10
12.91830159383553
 20
17.40689237827108
 97
        0
 92
        7
 72
     0
 73
     1
 93
        4
 10
11.43615859383556
 20
23.35141796545082
 10
10.69508719383556
 20
23.35141796545082
 10
10.69508719383553
 20
17.40689237827109
 10
11.43615859383553
 20
17.40689237827108
 97
        0
 92
        7
 72
     0
 73
     1
 93
        4
 10
9.95401579383556
 20
23.35141796545082
 10
9.212944393835559
 20
23.35141796545082
 10
9.212944393835535
 20
17.40689237827109
 10
9.954015793835537
 20
17.40689237827109
 97
        0
 75
     0
 76
     1
 47
0.0623256596993043
 98
        4
 10
13.9738691856549
 20
21.11754833914001
 10
12.47601493235793
 20
21.11754833914001
 10
11.04057123306631
 20
20.86824573488667
 10
9.542716873417319
 20
20.61894307624187
450
        0
451
        0
460
0.0
461
0.0
452
        1
462
1.0
453
        2
463
0.0
 63
     5
421
      255
463
1.0
 63
     7
421
 16777215
470
LINEAR
  0
LINE
  5
15047
330
18
100
AcDbEntity
  8
gravure latéral
100
AcDbLine
 10
14.2129443938355
 20
24.57970837088998
 30
0.0
 11
14.2129443938355
 21
23.35141796545082
 31
0.0
  0
ARC
  5
15049
330
18
100
AcDbEntity
  8
gravure latéral
100
AcDbCircle
 10
14.38790396186592
 20
24.59224880285954
 30
0.0
 40
0.1754084173561088
100
AcDbArc
 50
85.90026905306658
 51
184.0997309469299
  0
LINE
  5
15054
330
18
100
AcDbEntity
  8
gravure latéral
100
AcDbLine
 10
9.400444393835561
 20
24.57970837088998
 30
0.0
 11
9.400444393835561
 21
23.35141796545082
 31
0.0
  0
ARC
  5
15055
330
18
100
AcDbEntity
  8
gravure latéral
100
AcDbCircle
 10
9.225484825805141
 20
24.59224880285954
 30
0.0
 40
0.1754084173561088
100
AcDbArc
 50
355.90026905307
 51
94.09973094693345
  0
LINE
  5
1505F
330
18
100
AcDbEntity
  8
gravure latéral
100
AcDbLine
 10
14.21294439383553
 20
17.22062246768263
 30
0.0
 11
14.21294439383553
 21
17.40689237827108
 31
0.0
  0
ARC
  5
15060
330
18
100
AcDbEntity
  8
gravure latéral
100
AcDbCircle
 10
14.38790396186595
 20
17.20808203571306
 30
0.0
 40
0.1754084173561088
100
AcDbArc
 50
175.90026905307
 51
274.0997309469335
  0
LINE
  5
15069
330
18
100
AcDbEntity
  8
gravure latéral
100
AcDbLine
 10
9.400444393835533
 20
17.22062246768263
 30
0.0
 11
9.400444393835533
 21
17.40689237827108
 31
0.0
  0
ARC
  5
1506B
330
18
100
AcDbEntity
  8
gravure latéral
100
AcDbCircle
 10
9.225484825805111
 20
17.20808203571306
 30
0.0
 40
0.1754084173561088
100
AcDbArc
 50
265.9002690530666
 51
4.099730946929989
  0
VIEWPORT
  5
15070
330
15
100
AcDbEntity
 67
     1
  8
0
100
AcDbViewport
 10
5.249999639556163
 20
3.999999883606677
 30
0.0
 40
17.58407771518677
 41
8.992999745766947
 68
     2
 69
     1
 12
5.249999639556163
 22
3.999999883606677
 13
0.0
 23
0.0
 14
10.0
 24
10.0
 15
10.0
 25
10.0
 16
0.0
 26
0.0
 36
1.0
 17
0.0
 27
0.0
 37
0.0
 42
50.0
 43
0.0
 44
0.0
 45
8.992999745766947
 50
0.0
 51
0.0
 72
   100
 90
    32800
  1

281
     0
 71
     1
 74
     0
110
0.0
120
0.0
130
0.0
111
1.0
121
0.0
131
0.0
112
0.0
122
1.0
132
0.0
 79
     0
146
0.0
170
     0
  0
VIEWPORT
  5
15072
330
15
100
AcDbEntity
 67
     1
  8
gravure latéral
100
AcDbViewport
 10
5.24999976158142
 20
3.99999976158142
 30
0.0
 40
8.399999618530271
 41
6.399999618530272
 68
     1
 69
     2
 12
23.32819856605188
 22
21.03755458796753
 13
0.0
 23
0.0
 14
0.5
 24
0.5
 15
0.5
 25
0.5
 16
0.0
 26
0.0
 36
1.0
 17
0.0
 27
0.0
 37
0.0
 42
50.0
 43
0.0
 44
0.0
 45
28.78014686866728
 50
0.0
 51
0.0
 72
   100
 90
    32800
  1

281
     0
 71
     1
 74
     0
110
0.0
120
0.0
130
0.0
111
1.0
121
0.0
131
0.0
112
0.0
122
1.0
132
0.0
 79
     0
146
0.0
170
     0
  0
ENDSEC
  0
SECTION
  2
OBJECTS
  0
DICTIONARY
  5
C
330
0
100
AcDbDictionary
281
     1
  3
ACAD_COLOR
350
14CBD
  3
ACAD_GROUP
350
D
  3
ACAD_IMAGE_DICT
350
21
  3
ACAD_IMAGE_VARS
350
20
  3
ACAD_LAYOUT
350
14CBE
  3
ACAD_MATERIAL
350
14CBC
  3
ACAD_MLINESTYLE
350
1B
  3
ACAD_PLOTSETTINGS
350
14CBF
  3
ACAD_PLOTSTYLENAME
350
14CBA
  0
DICTIONARY
  5
14CBD
102
{ACAD_REACTORS
330
C
102
}
330
C
100
AcDbDictionary
281
     1
  0
DICTIONARY
  5
D
102
{ACAD_REACTORS
330
C
102
}
330
C
100
AcDbDictionary
281
     1
  0
DICTIONARY
  5
21
102
{ACAD_REACTORS
330
C
102
}
330
C
100
AcDbDictionary
281
     1
  3
2212
350
1328F
  0
RASTERVARIABLES
  5
20
102
{ACAD_REACTORS
330
C
102
}
330
C
100
AcDbRasterVariables
 90
        0
 70
     1
 71
     1
 72
     0
  0
DICTIONARY
  5
14CBE
102
{ACAD_REACTORS
330
C
102
}
330
C
100
AcDbDictionary
281
     1
  3
Layout1
350
14CC1
  3
Model
350
14CC0
  0
DICTIONARY
  5
14CBC
102
{ACAD_REACTORS
330
C
102
}
330
C
100
AcDbDictionary
281
     1
  0
DICTIONARY
  5
1B
102
{ACAD_REACTORS
330
C
102
}
330
C
100
AcDbDictionary
281
     1
  3
STANDARD
350
1C
  0
DICTIONARY
  5
14CBF
102
{ACAD_REACTORS
330
C
102
}
330
C
100
AcDbDictionary
281
     1
  0
ACDBDICTIONARYWDFLT
  5
14CBA
102
{ACAD_REACTORS
330
C
102
}
330
C
100
AcDbDictionary
281
     1
  3
Normal
350
14CBB
100
AcDbDictionaryWithDefault
340
14CBB
  0
IMAGEDEF
  5
1328F
102
{ACAD_REACTORS
330
21
102
}
330
21
100
AcDbRasterImageDef
 90
        0
  1
U:\TPDWG\MichelQ\2212.tif
 10
3060.0
 20
3790.0
 11
0.0705555555555556
 21
0.0705555555555556
280
     1
281
     5
  0
LAYOUT
  5
14CC1
102
{ACAD_REACTORS
330
14CBE
102
}
330
14CBE
100
AcDbPlotSettings
  1

  2
none_device
  4
Letter_(8.50_x_11.00_Inches)
  6

 40
6.349999904632568
 41
6.349999904632568
 42
6.350006103515625
 43
6.350006103515625
 44
215.8999938964844
 45
279.3999938964844
 46
0.0
 47
0.0
 48
0.0
 49
0.0
140
0.0
141
0.0
142
1.0
143
1.0
 70
   688
 72
     0
 73
     1
 74
     5
  7

 75
    16
147
1.0
 76
     1
 77
     2
 78
   300
148
0.0
149
0.0
100
AcDbLayout
  1
Layout1
 70
     1
 71
     1
 10
-0.2500002402958907
 20
-0.2499999962453767
 11
10.74999951940821
 21
8.249999763458731
 12
0.0
 22
0.0
 32
0.0
 14
1.049743681505489
 24
0.7996673802841308
 34
-0.0015258207003583
 15
9.450622583565561
 25
7.200576801086516
 35
0.0000000349246037
146
0.0
 13
0.0
 23
0.0
 33
0.0
 16
1.0
 26
0.0
 36
0.0
 17
0.0
 27
1.0
 37
0.0
 76
     0
330
15
331
15072
  0
LAYOUT
  5
14CC0
102
{ACAD_REACTORS
330
14CBE
102
}
330
14CBE
100
AcDbPlotSettings
  1

  2
None
  4

  6

 40
0.0
 41
0.0
 42
0.0
 43
0.0
 44
0.0
 45
0.0
 46
0.0
 47
0.0
 48
0.0
 49
0.0
140
0.0
141
0.0
142
1.0
143
1.0
 70
  1712
 72
     0
 73
     0
 74
     0
  7

 75
     0
147
1.0
 76
     0
 77
     2
 78
   300
148
0.0
149
0.0
100
AcDbLayout
  1
Model
 70
     1
 71
     0
 10
0.0
 20
0.0
 11
12.0
 21
9.0
 12
0.0
 22
0.0
 32
0.0
 14
0.0
 24
0.0
 34
0.0
 15
0.0
 25
0.0
 35
0.0
146
0.0
 13
0.0
 23
0.0
 33
0.0
 16
1.0
 26
0.0
 36
0.0
 17
0.0
 27
1.0
 37
0.0
 76
     0
330
18
  0
MLINESTYLE
  5
1C
102
{ACAD_REACTORS
330
1B
102
}
330
1B
100
AcDbMlineStyle
  2
STANDARD
 70
     0
  3

 62
   256
 51
90.0
 52
90.0
 71
     2
 49
0.5
 62
   256
  6
BYLAYER
 49
-0.5
 62
   256
  6
BYLAYER
  0
ACDBPLACEHOLDER
  5
14CBB
102
{ACAD_REACTORS
330
14CBA
102
}
330
14CBA
  0
ENDSEC
  0
EOF
