  0
SECTION
  2
HEADER
  9
$ACADVER
  1
AC1018
  9
$ACADMAINTVER
 70
     0
  9
$DWGCODEPAGE
  3
ANSI_1252
  9
$INSBASE
 10
0.0
 20
0.0
 30
0.0
  9
$EXTMIN
 10
63.37403984521599
 20
-19.13042793777
 30
0.0
  9
$EXTMAX
 10
142.7974986531765
 20
33.05574021836822
 30
0.0
  9
$LIMMIN
 10
0.0
 20
0.0
  9
$LIMMAX
 10
12.0
 20
9.0
  9
$ORTHOMODE
 70
     0
  9
$REGENMODE
 70
     1
  9
$FILLMODE
 70
     1
  9
$QTEXTMODE
 70
     0
  9
$MIRRTEXT
 70
     1
  9
$LTSCALE
 40
1.0
  9
$ATTMODE
 70
     1
  9
$TEXTSIZE
 40
0.2
  9
$TRACEWID
 40
0.05
  9
$TEXTSTYLE
  7
STANDARD
  9
$CLAYER
  8
0
  9
$CELTYPE
  6
BYLAYER
  9
$CECOLOR
 62
   256
  9
$CELTSCALE
 40
1.0
  9
$DISPSILH
 70
     0
  9
$DIMSCALE
 40
1.0
  9
$DIMASZ
 40
0.18
  9
$DIMEXO
 40
0.0625
  9
$DIMDLI
 40
0.38
  9
$DIMRND
 40
0.0
  9
$DIMDLE
 40
0.0
  9
$DIMEXE
 40
0.18
  9
$DIMTP
 40
0.0
  9
$DIMTM
 40
0.0
  9
$DIMTXT
 40
0.75
  9
$DIMCEN
 40
0.09
  9
$DIMTSZ
 40
0.0
  9
$DIMTOL
 70
     0
  9
$DIMLIM
 70
     0
  9
$DIMTIH
 70
     1
  9
$DIMTOH
 70
     1
  9
$DIMSE1
 70
     0
  9
$DIMSE2
 70
     0
  9
$DIMTAD
 70
     0
  9
$DIMZIN
 70
     0
  9
$DIMBLK
  1

  9
$DIMASO
 70
     1
  9
$DIMSHO
 70
     1
  9
$DIMPOST
  1

  9
$DIMAPOST
  1

  9
$DIMALT
 70
     0
  9
$DIMALTD
 70
     2
  9
$DIMALTF
 40
25.4
  9
$DIMLFAC
 40
1.0
  9
$DIMTOFL
 70
     0
  9
$DIMTVP
 40
0.0
  9
$DIMTIX
 70
     0
  9
$DIMSOXD
 70
     0
  9
$DIMSAH
 70
     0
  9
$DIMBLK1
  1

  9
$DIMBLK2
  1

  9
$DIMSTYLE
  2
STANDARD
  9
$DIMCLRD
 70
     0
  9
$DIMCLRE
 70
     0
  9
$DIMCLRT
 70
     0
  9
$DIMTFAC
 40
1.0
  9
$DIMGAP
 40
0.09
  9
$DIMJUST
 70
     0
  9
$DIMSD1
 70
     0
  9
$DIMSD2
 70
     0
  9
$DIMTOLJ
 70
     1
  9
$DIMTZIN
 70
     0
  9
$DIMALTZ
 70
     0
  9
$DIMALTTZ
 70
     0
  9
$DIMUPT
 70
     0
  9
$DIMDEC
 70
     4
  9
$DIMTDEC
 70
     4
  9
$DIMALTU
 70
     2
  9
$DIMALTTD
 70
     2
  9
$DIMTXSTY
  7
STANDARD
  9
$DIMAUNIT
 70
     0
  9
$DIMADEC
 70
     0
  9
$DIMALTRND
 40
0.0
  9
$DIMAZIN
 70
     0
  9
$DIMDSEP
 70
    46
  9
$DIMATFIT
 70
     3
  9
$DIMFRAC
 70
     0
  9
$DIMLDRBLK
  1

  9
$DIMLUNIT
 70
     5
  9
$DIMLWD
 70
    -2
  9
$DIMLWE
 70
    -2
  9
$DIMTMOVE
 70
     0
  9
$LUNITS
 70
     2
  9
$LUPREC
 70
     4
  9
$SKETCHINC
 40
0.1
  9
$FILLETRAD
 40
1.199999999999999
  9
$AUNITS
 70
     0
  9
$AUPREC
 70
     0
  9
$MENU
  1
.
  9
$ELEVATION
 40
0.0
  9
$PELEVATION
 40
0.0
  9
$THICKNESS
 40
0.0
  9
$LIMCHECK
 70
     0
  9
$CHAMFERA
 40
0.5
  9
$CHAMFERB
 40
0.5
  9
$CHAMFERC
 40
1.0
  9
$CHAMFERD
 40
0.0
  9
$SKPOLY
 70
     0
  9
$TDCREATE
 40
2451160.318790972
  9
$TDUCREATE
 40
2451160.485457639
  9
$TDUPDATE
 40
2453531.436054097
  9
$TDUUPDATE
 40
2453531.602720764
  9
$TDINDWG
 40
0.8420586111
  9
$TDUSRTIMER
 40
0.8420586111
  9
$USRTIMER
 70
     1
  9
$ANGBASE
 50
0.0
  9
$ANGDIR
 70
     0
  9
$PDMODE
 70
     3
  9
$PDSIZE
 40
0.01
  9
$PLINEWID
 40
0.0
  9
$SPLFRAME
 70
     0
  9
$SPLINETYPE
 70
     6
  9
$SPLINESEGS
 70
     8
  9
$HANDSEED
  5
18319
  9
$SURFTAB1
 70
     6
  9
$SURFTAB2
 70
     6
  9
$SURFTYPE
 70
     6
  9
$SURFU
 70
     6
  9
$SURFV
 70
     6
  9
$UCSBASE
  2

  9
$UCSNAME
  2

  9
$UCSORG
 10
0.0
 20
0.0
 30
0.0
  9
$UCSXDIR
 10
1.0
 20
0.0
 30
0.0
  9
$UCSYDIR
 10
0.0
 20
1.0
 30
0.0
  9
$UCSORTHOREF
  2

  9
$UCSORTHOVIEW
 70
     0
  9
$UCSORGTOP
 10
0.0
 20
0.0
 30
0.0
  9
$UCSORGBOTTOM
 10
0.0
 20
0.0
 30
0.0
  9
$UCSORGLEFT
 10
0.0
 20
0.0
 30
0.0
  9
$UCSORGRIGHT
 10
0.0
 20
0.0
 30
0.0
  9
$UCSORGFRONT
 10
0.0
 20
0.0
 30
0.0
  9
$UCSORGBACK
 10
0.0
 20
0.0
 30
0.0
  9
$PUCSBASE
  2

  9
$PUCSNAME
  2

  9
$PUCSORG
 10
0.0
 20
0.0
 30
0.0
  9
$PUCSXDIR
 10
1.0
 20
0.0
 30
0.0
  9
$PUCSYDIR
 10
0.0
 20
1.0
 30
0.0
  9
$PUCSORTHOREF
  2

  9
$PUCSORTHOVIEW
 70
     0
  9
$PUCSORGTOP
 10
0.0
 20
0.0
 30
0.0
  9
$PUCSORGBOTTOM
 10
0.0
 20
0.0
 30
0.0
  9
$PUCSORGLEFT
 10
0.0
 20
0.0
 30
0.0
  9
$PUCSORGRIGHT
 10
0.0
 20
0.0
 30
0.0
  9
$PUCSORGFRONT
 10
0.0
 20
0.0
 30
0.0
  9
$PUCSORGBACK
 10
0.0
 20
0.0
 30
0.0
  9
$USERI1
 70
     0
  9
$USERI2
 70
     0
  9
$USERI3
 70
     0
  9
$USERI4
 70
     0
  9
$USERI5
 70
     0
  9
$USERR1
 40
0.0
  9
$USERR2
 40
0.0
  9
$USERR3
 40
0.0
  9
$USERR4
 40
0.0
  9
$USERR5
 40
0.0
  9
$WORLDVIEW
 70
     1
  9
$SHADEDGE
 70
     3
  9
$SHADEDIF
 70
    70
  9
$TILEMODE
 70
     1
  9
$MAXACTVP
 70
    48
  9
$PINSBASE
 10
0.0
 20
0.0
 30
0.0
  9
$PLIMCHECK
 70
     0
  9
$PEXTMIN
 10
1.049636599258096
 20
0.7996597240971113
 30
-0.0000000000000058
  9
$PEXTMAX
 10
9.450362731076971
 20
7.200340082697458
 30
0.0000000000000104
  9
$PLIMMIN
 10
-0.2500002402958907
 20
-0.2499999962453767
  9
$PLIMMAX
 10
10.74999951940821
 20
8.249999763458731
  9
$UNITMODE
 70
     0
  9
$VISRETAIN
 70
     1
  9
$PLINEGEN
 70
     0
  9
$PSLTSCALE
 70
     1
  9
$TREEDEPTH
 70
  3020
  9
$CMLSTYLE
  2
STANDARD
  9
$CMLJUST
 70
     0
  9
$CMLSCALE
 40
1.0
  9
$PROXYGRAPHICS
 70
     1
  9
$MEASUREMENT
 70
     0
  9
$CELWEIGHT
370
    -1
  9
$ENDCAPS
280
     0
  9
$JOINSTYLE
280
     0
  9
$LWDISPLAY
290
     0
  9
$INSUNITS
 70
     0
  9
$HYPERLINKBASE
  1

  9
$STYLESHEET
  1

  9
$XEDIT
290
     1
  9
$CEPSNTYPE
380
     0
  9
$PSTYLEMODE
290
     1
  9
$FINGERPRINTGUID
  2
{C667DFB6-41CF-4BAE-8BFD-D038ABE97765}
  9
$VERSIONGUID
  2
{060B50E4-274A-43D7-8EF5-0C820D0376EB}
  9
$EXTNAMES
290
     1
  9
$PSVPSCALE
 40
0.0
  9
$OLESTARTUP
290
     0
  9
$SORTENTS
280
   127
  9
$INDEXCTL
280
     0
  9
$HIDETEXT
280
     0
  9
$XCLIPFRAME
290
     0
  9
$HALOGAP
280
     0
  9
$OBSCOLOR
 70
   257
  9
$OBSLTYPE
280
     0
  9
$INTERSECTIONDISPLAY
280
     0
  9
$INTERSECTIONCOLOR
 70
   257
  9
$DIMASSOC
280
     1
  9
$PROJECTNAME
  1

  0
ENDSEC
  0
SECTION
  2
CLASSES
  0
CLASS
  1
RASTERVARIABLES
  2
AcDbRasterVariables
  3
ISM
 90
        0
 91
        1
280
     0
281
     0
  0
CLASS
  1
IMAGEDEF
  2
AcDbRasterImageDef
  3
ISM
 90
        0
 91
       14
280
     0
281
     0
  0
CLASS
  1
IMAGEDEF_REACTOR
  2
AcDbRasterImageDefReactor
  3
ISM
 90
        1
 91
        2
280
     0
281
     0
  0
CLASS
  1
IMAGE
  2
AcDbRasterImage
  3
ISM
 90
      127
 91
        2
280
     0
281
     1
  0
CLASS
  1
ACDBDICTIONARYWDFLT
  2
AcDbDictionaryWithDefault
  3
ObjectDBX Classes
 90
        0
 91
        1
280
     0
281
     0
  0
CLASS
  1
SORTENTSTABLE
  2
AcDbSortentsTable
  3
ObjectDBX Classes
 90
        0
 91
        6
280
     0
281
     0
  0
ENDSEC
  0
SECTION
  2
TABLES
  0
TABLE
  2
VPORT
  5
8
330
0
100
AcDbSymbolTable
 70
    25
  0
VPORT
  5
18318
330
8
100
AcDbSymbolTableRecord
100
AcDbViewportTableRecord
  2
*Active
 70
     0
 10
0.0
 20
0.0
 11
1.0
 21
1.0
 12
104.4497363343025
 22
24.34470119166986
 13
0.0
 23
0.0
 14
0.5
 24
0.5
 15
0.5
 25
0.5
 16
0.0
 26
0.0
 36
1.0
 17
0.0
 27
0.0
 37
0.0
 40
18.50217370739165
 41
1.955307262569832
 42
50.0
 43
0.0
 44
0.0
 50
0.0
 51
0.0
 71
     0
 72
   100
 73
     1
 74
     1
 75
     0
 76
     0
 77
     0
 78
     0
281
     0
 65
     1
110
0.0
120
0.0
130
0.0
111
1.0
121
0.0
131
0.0
112
0.0
122
1.0
132
0.0
 79
     0
146
0.0
  0
ENDTAB
  0
TABLE
  2
LTYPE
  5
5
330
0
100
AcDbSymbolTable
 70
     1
  0
LTYPE
  5
12
330
5
100
AcDbSymbolTableRecord
100
AcDbLinetypeTableRecord
  2
BYBLOCK
 70
     0
  3

 72
    65
 73
     0
 40
0.0
  0
LTYPE
  5
13
330
5
100
AcDbSymbolTableRecord
100
AcDbLinetypeTableRecord
  2
BYLAYER
 70
     0
  3

 72
    65
 73
     0
 40
0.0
  0
LTYPE
  5
14
330
5
100
AcDbSymbolTableRecord
100
AcDbLinetypeTableRecord
  2
CONTINUOUS
 70
     0
  3
Solid line
 72
    65
 73
     0
 40
0.0
  0
ENDTAB
  0
TABLE
  2
LAYER
  5
2
330
0
100
AcDbSymbolTable
 70
     3
  0
LAYER
  5
E
330
2
100
AcDbSymbolTableRecord
100
AcDbLayerTableRecord
  2
0
 70
     0
 62
     7
  6
CONTINUOUS
370
    -3
390
15449
  0
LAYER
  5
1755A
330
2
100
AcDbSymbolTableRecord
100
AcDbLayerTableRecord
  2
DIM
 70
     0
 62
    -3
  6
CONTINUOUS
370
    -3
390
15449
  0
LAYER
  5
1755C
330
2
100
AcDbSymbolTableRecord
100
AcDbLayerTableRecord
  2
Defpoints
 70
     0
 62
     7
  6
CONTINUOUS
290
     0
370
    -3
390
15449
  0
ENDTAB
  0
TABLE
  2
STYLE
  5
3
330
0
100
AcDbSymbolTable
 70
     1
  0
STYLE
  5
F
330
3
100
AcDbSymbolTableRecord
100
AcDbTextStyleTableRecord
  2
STANDARD
 70
     0
 40
0.0
 41
1.0
 50
0.0
 71
     0
 42
0.2
  3
txt
  4

  0
ENDTAB
  0
TABLE
  2
VIEW
  5
6
330
0
100
AcDbSymbolTable
 70
     0
  0
ENDTAB
  0
TABLE
  2
UCS
  5
7
330
0
100
AcDbSymbolTable
 70
     0
  0
ENDTAB
  0
TABLE
  2
APPID
  5
9
330
0
100
AcDbSymbolTable
 70
     2
  0
APPID
  5
10
330
9
100
AcDbSymbolTableRecord
100
AcDbRegAppTableRecord
  2
ACAD
 70
     0
  0
APPID
  5
1733B
330
9
100
AcDbSymbolTableRecord
100
AcDbRegAppTableRecord
  2
CONTENTBLOCKICON
 70
     0
  0
ENDTAB
  0
TABLE
  2
DIMSTYLE
  5
A
330
0
100
AcDbSymbolTable
 70
     1
100
AcDbDimStyleTable
 71
     1
340
1D
  0
DIMSTYLE
105
1D
102
{ACAD_REACTORS
330
18112
330
1812A
330
182F2
102
}
330
A
100
AcDbSymbolTableRecord
100
AcDbDimStyleTableRecord
  2
STANDARD
 70
     0
140
0.75
277
     5
340
F
  0
ENDTAB
  0
TABLE
  2
BLOCK_RECORD
  5
1
330
0
100
AcDbSymbolTable
 70
    17
  0
BLOCK_RECORD
  5
18
102
{ACAD_XDICTIONARY
360
15481
102
}
330
1
100
AcDbSymbolTableRecord
100
AcDbBlockTableRecord
  2
*MODEL_SPACE
340
1544C
  0
BLOCK_RECORD
  5
15
102
{ACAD_XDICTIONARY
360
1547F
102
}
330
1
100
AcDbSymbolTableRecord
100
AcDbBlockTableRecord
  2
*PAPER_SPACE
340
1544D
  0
BLOCK_RECORD
  5
16B91
330
1
100
AcDbSymbolTableRecord
100
AcDbBlockTableRecord
  2
2219e
340
0
310
2800000020000000200000000100080000000000000400000000000000000000000000000000000000000000000080000080000000808000800000008000800080800000C0C0C000C0DCC000F0CAA6000020400000206000002080000020A0000020C0000020E00000400000004020000040400000406000004080000040A0
310
000040C0000040E00000600000006020000060400000606000006080000060A0000060C0000060E00000800000008020000080400000806000008080000080A0000080C0000080E00000A0000000A0200000A0400000A0600000A0800000A0A00000A0C00000A0E00000C0000000C0200000C0400000C0600000C0800000C0
310
A00000C0C00000C0E00000E0000000E0200000E0400000E0600000E0800000E0A00000E0C00000E0E00040000000400020004000400040006000400080004000A0004000C0004000E00040200000402020004020400040206000402080004020A0004020C0004020E000404000004040200040404000404060004040800040
310
40A0004040C0004040E00040600000406020004060400040606000406080004060A0004060C0004060E00040800000408020004080400040806000408080004080A0004080C0004080E00040A0000040A0200040A0400040A0600040A0800040A0A00040A0C00040A0E00040C0000040C0200040C0400040C0600040C08000
310
40C0A00040C0C00040C0E00040E0000040E0200040E0400040E0600040E0800040E0A00040E0C00040E0E00080000000800020008000400080006000800080008000A0008000C0008000E00080200000802020008020400080206000802080008020A0008020C0008020E00080400000804020008040400080406000804080
310
008040A0008040C0008040E00080600000806020008060400080606000806080008060A0008060C0008060E00080800000808020008080400080806000808080008080A0008080C0008080E00080A0000080A0200080A0400080A0600080A0800080A0A00080A0C00080A0E00080C0000080C0200080C0400080C0600080C0
310
800080C0A00080C0C00080C0E00080E0000080E0200080E0400080E0600080E0800080E0A00080E0C00080E0E000C0000000C0002000C0004000C0006000C0008000C000A000C000C000C000E000C0200000C0202000C0204000C0206000C0208000C020A000C020C000C020E000C0400000C0402000C0404000C0406000C0
310
408000C040A000C040C000C040E000C0600000C0602000C0604000C0606000C0608000C060A000C060C000C060E000C0800000C0802000C0804000C0806000C0808000C080A000C080C000C080E000C0A00000C0A02000C0A04000C0A06000C0A08000C0A0A000C0A0C000C0A0E000C0C00000C0C02000C0C04000C0C06000
310
C0C08000C0C0A000F0FBFF00A4A0A000808080000000FF0000FF000000FFFF00FF000000FF00FF00FFFF0000FFFFFF0000000000000000000000000000000000000000000000000000000000000000000000000000000000000000000000000000000000000000000000000000000000000000000000000000000000000000
310
00000000000000000000000000000000000000000000000000000000000000000000000000000000000000000000000000000000000000000000000000000000000000000000000000000000000000000000000000000000000000000000000000000000000000000000000000000000000000000000000000000000000000
310
00000000000000000000000000000000000000FFFFFFFFFFFFFFFFFFFFFF000000000000000000000000000000000000000000FF000000FFFFFF00000000FFFF00000000000000000000000000000000000000FF0000FFFF0000000000000000FFFF0000000000000000000000000000000000FF00FF000000000000000000
310
0000FFFF00000000000000000000000000000000FFFFFF000000FFFFFFFFFF00000000FF00000000000000000000000000000000FFFF0000FFFFFFFFFFFFFFFFFF0000FFFF000000000000000000000000000000FFFF0000FFFFFF000000FFFFFFFF0000FF000000000000000000000000000000FF000000FFFF0000000000
310
FFFFFFFF0000FF0000000000000000000000000000FF0000FFFF000000FFFF0000FFFFFF0000FFFF00000000000000000000000000FF0000FFFFFF000000FF0000FFFFFFFF0000FFFF000000000000000000000000FFFF0000FFFF0000FFFF0000FFFFFFFFFF0000FFFF00000000FFFFFF00000000FFFF0000FFFFFFFFFFFF
310
0000FF00FFFFFFFF0000FFFFFF00FFFFFFFFFF000000FFFFFF0000FFFFFFFF000000FF00FFFFFFFF00000000FFFFFF00FFFFFF000000FF00FF0000000000000000FF00FFFFFFFFFFFFFF00000000FFFFFFFF00FF0000FF0000FFFF00000000FFFFFF00FFFFFFFFFFFFFFFFFF0000FFFFFFFFFFFF0000FF000000FFFFFFFFFF
310
FF000000FFFF00FFFFFFFFFFFFFFFFFFFFFFFFFF000000FFFFFFFFFFFFFFFFFFFFFFFFFFFFFFFFFFFFFFFFFFFFFFFFFFFFFFFFFFFF0000FFFFFFFFFFFFFFFFFFFFFFFFFFFFFFFFFFFFFFFFFFFFFFFFFFFFFFFFFFFF000000000000000000000000000000000000000000000000000000000000000000000000000000000000
310
00000000000000000000000000000000000000000000000000000000000000000000000000000000000000000000000000000000000000000000000000000000000000000000000000000000000000000000000000000000000000000000000000000000000000000000000000000000000000000000000000000000000000
310
0000000000000000000000000000000000000000000000000000000000000000000000000000000000000000000000000000000000000000
  0
BLOCK_RECORD
  5
172D3
330
1
100
AcDbSymbolTableRecord
100
AcDbBlockTableRecord
  2
2219f
340
0
310
2800000020000000200000000100080000000000000400000000000000000000000000000000000000000000000080000080000000808000800000008000800080800000C0C0C000C0DCC000F0CAA6000020400000206000002080000020A0000020C0000020E00000400000004020000040400000406000004080000040A0
310
000040C0000040E00000600000006020000060400000606000006080000060A0000060C0000060E00000800000008020000080400000806000008080000080A0000080C0000080E00000A0000000A0200000A0400000A0600000A0800000A0A00000A0C00000A0E00000C0000000C0200000C0400000C0600000C0800000C0
310
A00000C0C00000C0E00000E0000000E0200000E0400000E0600000E0800000E0A00000E0C00000E0E00040000000400020004000400040006000400080004000A0004000C0004000E00040200000402020004020400040206000402080004020A0004020C0004020E000404000004040200040404000404060004040800040
310
40A0004040C0004040E00040600000406020004060400040606000406080004060A0004060C0004060E00040800000408020004080400040806000408080004080A0004080C0004080E00040A0000040A0200040A0400040A0600040A0800040A0A00040A0C00040A0E00040C0000040C0200040C0400040C0600040C08000
310
40C0A00040C0C00040C0E00040E0000040E0200040E0400040E0600040E0800040E0A00040E0C00040E0E00080000000800020008000400080006000800080008000A0008000C0008000E00080200000802020008020400080206000802080008020A0008020C0008020E00080400000804020008040400080406000804080
310
008040A0008040C0008040E00080600000806020008060400080606000806080008060A0008060C0008060E00080800000808020008080400080806000808080008080A0008080C0008080E00080A0000080A0200080A0400080A0600080A0800080A0A00080A0C00080A0E00080C0000080C0200080C0400080C0600080C0
310
800080C0A00080C0C00080C0E00080E0000080E0200080E0400080E0600080E0800080E0A00080E0C00080E0E000C0000000C0002000C0004000C0006000C0008000C000A000C000C000C000E000C0200000C0202000C0204000C0206000C0208000C020A000C020C000C020E000C0400000C0402000C0404000C0406000C0
310
408000C040A000C040C000C040E000C0600000C0602000C0604000C0606000C0608000C060A000C060C000C060E000C0800000C0802000C0804000C0806000C0808000C080A000C080C000C080E000C0A00000C0A02000C0A04000C0A06000C0A08000C0A0A000C0A0C000C0A0E000C0C00000C0C02000C0C04000C0C06000
310
C0C08000C0C0A000F0FBFF00A4A0A000808080000000FF0000FF000000FFFF00FF000000FF00FF00FFFF0000FFFFFF00000000000000000000000000000000000000000000000000000000000000000000000000000000000000FFFFFFFFFFFFFFFFFFFFFFFF0000000000000000000000000000000000000000FF00FF0000
310
FFFFFF00FF00FF0000000000000000000000000000000000000000FF00FFFFFFFFFFFFFFFF00FF0000000000000000000000000000000000000000FF00FFFFFFFFFFFFFFFF00FF0000000000000000000000000000000000000000FF00FFFFFFFFFFFFFFFF00FF0000000000000000000000000000000000000000FF00FFFF
310
FFFFFFFFFFFF00FF0000000000000000000000000000000000000000FF00FFFFFFFFFFFFFFFF00FF0000000000000000000000000000000000000000FF00FFFFFFFFFFFFFFFF00FF0000000000000000000000000000000000000000FF00FFFFFFFFFFFFFFFF00FF0000000000000000000000000000000000000000FF00FF
310
FFFFFFFFFFFFFF00FF0000000000000000000000000000000000000000FF00FFFFFFFF00FFFFFF00FF0000000000000000000000000000000000000000FF00FFFFFFFFFF00FFFF00FF0000000000000000000000000000000000000000FF00FF0000FF00FF00FF00FF0000000000000000000000000000000000000000FF00
310
FFFFFFFFFF00FFFF00FF0000000000000000000000000000000000000000FF00FF0000FF00FF00FF00FF0000000000000000000000000000000000000000FF00FFFFFFFF0000FFFF00FF0000000000000000000000000000000000000000FF00FF0000FFFF0000FF00FF0000000000000000000000000000000000000000FF
310
00FF00FFFF00FFFFFF00FF0000000000000000000000000000000000000000FFFFFFFFFFFFFFFFFFFFFFFF0000000000000000000000000000000000000000FF00FF0000FFFF0000FF00FF0000000000000000000000000000000000000000FF00FF0000FFFF0000FF00FF0000000000000000000000000000000000000000
310
FF00FF0000FFFF0000FF00FF0000000000000000000000000000000000000000FF00FF0000FFFF0000FF00FF0000000000000000000000000000000000000000FF00FF0000FFFF0000FF00FF0000000000000000000000000000000000000000FF00FF0000FFFF0000FF00FF00000000000000000000000000000000000000
310
00FF00FF0000FFFF0000FF00FF0000000000000000000000000000000000000000FFFFFFFFFFFFFFFFFFFFFFFF0000000000000000000000000000000000000000FFFFFFFFFFFFFFFFFFFFFFFF0000000000000000000000000000000000000000FF00000000000000000000FF000000000000000000000000000000000000
310
0000FFFFFFFFFFFFFFFFFFFFFFFF000000000000000000000000000000000000000000000000000000000000000000000000000000000000
  0
BLOCK_RECORD
  5
17F60
330
1
100
AcDbSymbolTableRecord
100
AcDbBlockTableRecord
  2
*D2
340
0
  0
BLOCK_RECORD
  5
17F6E
330
1
100
AcDbSymbolTableRecord
100
AcDbBlockTableRecord
  2
*D3
340
0
  0
BLOCK_RECORD
  5
18025
330
1
100
AcDbSymbolTableRecord
100
AcDbBlockTableRecord
  2
*D4
340
0
  0
BLOCK_RECORD
  5
18113
330
1
100
AcDbSymbolTableRecord
100
AcDbBlockTableRecord
  2
*D7
340
0
  0
BLOCK_RECORD
  5
1812B
330
1
100
AcDbSymbolTableRecord
100
AcDbBlockTableRecord
  2
*D8
340
0
  0
BLOCK_RECORD
  5
18197
330
1
100
AcDbSymbolTableRecord
100
AcDbBlockTableRecord
  2
*D10
340
0
  0
BLOCK_RECORD
  5
181A4
330
1
100
AcDbSymbolTableRecord
100
AcDbBlockTableRecord
  2
*D11
340
0
  0
BLOCK_RECORD
  5
18235
330
1
100
AcDbSymbolTableRecord
100
AcDbBlockTableRecord
  2
*D13
340
0
  0
BLOCK_RECORD
  5
18242
330
1
100
AcDbSymbolTableRecord
100
AcDbBlockTableRecord
  2
*D14
340
0
  0
BLOCK_RECORD
  5
182F3
330
1
100
AcDbSymbolTableRecord
100
AcDbBlockTableRecord
  2
*D16
340
0
  0
ENDTAB
  0
ENDSEC
  0
SECTION
  2
BLOCKS
  0
BLOCK
  5
19
330
18
100
AcDbEntity
  8
0
100
AcDbBlockBegin
  2
*MODEL_SPACE
 70
     0
 10
0.0
 20
0.0
 30
0.0
  3
*MODEL_SPACE
  1

  0
ENDBLK
  5
1A
330
18
100
AcDbEntity
  8
0
100
AcDbBlockEnd
  0
BLOCK
  5
16
330
15
100
AcDbEntity
 67
     1
  8
0
100
AcDbBlockBegin
  2
*PAPER_SPACE
 70
     0
 10
0.0
 20
0.0
 30
0.0
  3
*PAPER_SPACE
  1

  0
ENDBLK
  5
17
330
15
100
AcDbEntity
 67
     1
  8
0
100
AcDbBlockEnd
  0
BLOCK
  5
16B92
330
16B91
100
AcDbEntity
  8
0
100
AcDbBlockBegin
  2
2219e
 70
     0
 10
0.0
 20
0.0
 30
0.0
  3
2219e
  1

  0
LWPOLYLINE
  5
16B94
330
16B91
100
AcDbEntity
  8
0
100
AcDbPolyline
 90
      613
 70
     0
 43
0.0
 10
4.18615704358626
 20
-5.215176762836158
 10
4.213329578250447
 20
-5.216748434301165
 10
4.240386238550979
 20
-5.21663479719644
 10
4.267211150124214
 20
-5.215003096062297
 10
4.293688438606507
 20
-5.212020575439045
 10
4.319702229634205
 20
-5.207854479866997
 10
4.345136648843663
 20
-5.202672053886465
 10
4.369875821871233
 20
-5.196640542037763
 10
4.393803874353283
 20
-5.189927188861204
 10
4.41685643163391
 20
-5.18264992324988
 10
4.439175117888336
 20
-5.174729411508035
 10
4.460953056999553
 20
-5.166037004292691
 10
4.482383372850549
 20
-5.156444052260871
 10
4.503659189324305
 20
-5.145821906069597
 10
4.524973630303821
 20
-5.134041916375893
 10
4.546519819672073
 20
-5.120975433836785
 10
4.568490881312051
 20
-5.106493809109293
 10
4.591017710313164
 20
-5.090517708408382
 10
4.613982286590532
 20
-5.073165060180759
 10
4.637204361265704
 20
-5.054603108431078
 10
4.660503685460206
 20
-5.034999097163986
 10
4.683700010295593
 20
-5.014520270384131
 10
4.706613086893404
 20
-4.993333872096163
 10
4.729062666375176
 20
-4.971607146304731
 10
4.750868499862463
 20
-4.949507337014487
 10
4.771884671596504
 20
-4.927163093487247
 10
4.792102598297371
 20
-4.904548686013484
 10
4.811548029804851
 20
-4.881599790140853
 10
4.830246715958715
 20
-4.858252081416994
 10
4.848224406598748
 20
-4.834441235389558
 10
4.865506851564735
 20
-4.810102927606192
 10
4.882119800696436
 20
-4.785172833614537
 10
4.898089003833654
 20
-4.759586628962246
 10
4.913438064982075
 20
-4.733297142358285
 10
4.928182004811023
 20
-4.706325815156914
 10
4.942333698155771
 20
-4.678711241873719
 10
4.955906019851549
 20
-4.650492017024277
 10
4.968911844733622
 20
-4.621706735124176
 10
4.981364047637233
 20
-4.592393990688997
 10
4.993275503397634
 20
-4.562592378234325
 10
5.004659086850075
 20
-4.532340492275737
 10
5.015504068795902
 20
-4.501664062474059
 10
5.025705303900846
 20
-4.470537359071078
 10
5.035134042796724
 20
-4.438921787453817
 10
5.043661536115354
 20
-4.406778753009294
 10
5.051159034488573
 20
-4.374069661124541
 10
5.057497788548195
 20
-4.340755917186576
 10
5.062549048926051
 20
-4.306798926582426
 10
5.066184066253943
 20
-4.272160094699113
 10
5.068312716036239
 20
-4.236811547665723
 10
5.06899937326736
 20
-4.20076829457957
 10
5.068347037814268
 20
-4.164056065280034
 10
5.066458709543913
 20
-4.126700589606491
 10
5.063437388323252
 20
-4.08872759739832
 10
5.059386074019235
 20
-4.050162818494896
 10
5.054407766498822
 20
-4.011031982735599
 10
5.048605465628973
 20
-3.971360819959805
 10
5.042062858713416
 20
-3.931215798976055
 10
5.034786382803002
 20
-3.890826344469516
 10
5.026763162385377
 20
-3.850462620094543
 10
5.017980321948164
 20
-3.810394789505459
 10
5.008424985979007
 20
-3.770893016356613
 10
4.998084278965539
 20
-3.732227464302337
 10
4.986945325395385
 20
-3.694668296996973
 10
4.974995249756182
 20
-3.658485678094852
 10
4.962210447590836
 20
-3.623868293295771
 10
4.948524398663302
 20
-3.590678916481302
 10
4.933859853792789
 20
-3.558698843578463
 10
4.918139563798526
 20
-3.527709370514278
 10
4.90128627949972
 20
-3.497491793215778
 10
4.883222751715601
 20
-3.467827407609975
 10
4.863871731265378
 20
-3.438497509623902
 10
4.843155968968271
 20
-3.409283395184577
 10
4.820998215587083
 20
-3.380000666768918
 10
4.797321221658887
 20
-3.350602153053432
 10
4.772047737664346
 20
-3.321074989264518
 10
4.745100514084128
 20
-3.29140631062858
 10
4.716402301398894
 20
-3.261583252372023
 10
4.685875850089301
 20
-3.231592949721239
 10
4.653443910636008
 20
-3.201422537902637
 10
4.619029233519678
 20
-3.171059152142612
 10
4.582576027364362
 20
-3.140541387378788
 10
4.544114333367674
 20
-3.110113677393665
 10
4.503695650870612
 20
-3.080071915680952
 10
4.46137147921418
 20
-3.050711995734369
 10
4.41719331773938
 20
-3.022329811047626
 10
4.371212665787215
 20
-2.995221255114444
 10
4.323481022698688
 20
-2.969682221428543
 10
4.274049887814789
 20
-2.946008603483628
 10
4.223002947903218
 20
-2.924431970077583
 10
4.170552639438386
 20
-2.904926591224942
 10
4.116943586321409
 20
-2.8874024122444
 10
4.062420412453375
 20
-2.871769378454655
 10
4.007227741735403
 20
-2.857937435174402
 10
3.951610198068584
 20
-2.845816527722335
 10
3.895812405354035
 20
-2.835316601417149
 10
3.840078987492841
 20
-2.826347601577548
 10
3.784598776981966
 20
-2.818825906022649
 10
3.729337440701696
 20
-2.81269362257327
 10
3.67420485412815
 20
-2.807899291550658
 10
3.619110892737479
 20
-2.804391453276058
 10
3.563965432005808
 20
-2.802118648070719
 10
3.508678347409262
 20
-2.801029416255878
 10
3.453159514423981
 20
-2.801072298152786
 10
3.397318808526099
 20
-2.80219583408269
 10
3.34112189656768
 20
-2.804372150077277
 10
3.284757610904618
 20
-2.807667715010015
 10
3.228470575268727
 20
-2.812172583464811
 10
3.172505413391841
 20
-2.817976810025582
 10
3.11710674900578
 20
-2.825170449276227
 10
3.062519205842365
 20
-2.83384355580067
 10
3.008987407633429
 20
-2.844086184182811
 10
2.956755978110797
 20
-2.855988389006571
 10
2.905987999734138
 20
-2.86963808069445
 10
2.8565203898745
 20
-2.885114593023382
 10
2.808108524630782
 20
-2.902495115608886
 10
2.760507780101876
 20
-2.92185683806649
 10
2.713473532386679
 20
-2.94327695001172
 10
2.666761157584093
 20
-2.966832641060097
 10
2.620126031793019
 20
-2.992601100827153
 10
2.573323531112323
 20
-3.020659518928408
 10
2.526194864553048
 20
-3.051044345993992
 10
2.47892457277468
 20
-3.083629076712477
 10
2.431783029348811
 20
-3.118246466787029
 10
2.385040607847054
 20
-3.154729271920819
 10
2.338967681841012
 20
-3.192910247817017
 10
2.293834624902282
 20
-3.232622150178793
 10
2.249911810602483
 20
-3.273697734709324
 10
2.207469612513217
 20
-3.315969757111774
 10
2.166726904498313
 20
-3.359316000413738
 10
2.127696561590512
 20
-3.403794356940486
 10
2.090339959114779
 20
-3.4495077463417
 10
2.054618472396093
 20
-3.496559088267079
 10
2.020493476759423
 20
-3.545051302366306
 10
1.987926347529736
 20
-3.595087308289069
 10
1.956878460032008
 20
-3.646770025685061
 10
1.927311189591194
 20
-3.700202374203972
 10
1.899215952983806
 20
-3.755414372170294
 10
1.872704332792463
 20
-3.812144432607744
 10
1.847917953051309
 20
-3.870058067214843
 10
1.824998437794499
 20
-3.928820787690114
 10
1.804087411056175
 20
-3.988098105732077
 10
1.785326496870488
 20
-4.047555533039254
 10
1.768857319271596
 20
-4.106858581310168
 10
1.754821502293633
 20
-4.165672762243334
 10
1.743292003759554
 20
-4.223738632991416
 10
1.734067116647515
 20
-4.281096932523555
 10
1.726876467724468
 20
-4.337863445263057
 10
1.721449683757361
 20
-4.394153955633202
 10
1.71751639151315
 20
-4.450084248057272
 10
1.714806217758788
 20
-4.505770106958566
 10
1.713048789261221
 20
-4.561327316760365
 10
1.711973732787407
 20
-4.616871661885959
 10
1.711375049647328
 20
-4.672531791662093
 10
1.711304239323039
 20
-4.728487815029334
 10
1.711877175839639
 20
-4.784932705831711
 10
1.713209733222214
 20
-4.842059437913253
 10
1.715417785495859
 20
-4.900060985117981
 10
1.718617206685662
 20
-4.959130321289924
 10
1.722923870816714
 20
-5.01946042027311
 10
1.728453651914097
 20
-5.081244255911563
 10
1.735311934672278
 20
-5.14457501638499
 10
1.743562146463135
 20
-5.209146747215821
 10
1.753257225327926
 20
-5.274553708262157
 10
1.764450109307889
 20
-5.340390159382107
 10
1.777193736444289
 20
-5.406250360433775
 10
1.791541044778363
 20
-5.471728571275269
 10
1.807544972351375
 20
-5.536419051764694
 10
1.825258457204558
 20
-5.599916061760155
 10
1.844735864088853
 20
-5.661909523461703
 10
1.866037264593839
 20
-5.72247200843718
 10
1.889224157018784
 20
-5.781771750596361
 10
1.914358039662959
 20
-5.839976983849032
 10
1.941500410825616
 20
-5.897255942104971
 10
1.970712768806032
 20
-5.953776859273965
 10
2.00205661190347
 20
-6.00970796926579
 10
2.035593438417179
 20
-6.065217505990232
 10
2.071357570096993
 20
-6.120425212419781
 10
2.109274622494923
 20
-6.17525686777777
 10
2.149243034613543
 20
-6.229589760350243
 10
2.191161245455436
 20
-6.283301178423242
 10
2.23492769402315
 20
-6.336268410282809
 10
2.280440819319283
 20
-6.388368744214991
 10
2.327599060346385
 20
-6.439479468505829
 10
2.376300856107047
 20
-6.489477871441367
 10
2.426431530872351
 20
-6.538255260775779
 10
2.477823949987484
 20
-6.585759022135779
 10
2.530297864066157
 20
-6.631950560616209
 10
2.583673023722063
 20
-6.676791281311913
 10
2.63776917956892
 20
-6.720242589317735
 10
2.69240608222043
 20
-6.762265889728521
 10
2.747403482290295
 20
-6.802822587639114
 10
2.802581130392229
 20
-6.841874088144356
 10
2.857833880994462
 20
-6.879396805468878
 10
2.913357003983344
 20
-6.915427190356436
 10
2.96942087309977
 20
-6.950016702680571
 10
3.026295862084608
 20
-6.983216802314824
 10
3.084252344678757
 20
-7.015078949132738
 10
3.143560694623097
 20
-7.045654603007854
 10
3.2044912856585
 20
-7.074995223813711
 10
3.267314491525867
 20
-7.103152271423851
 10
3.332249186201876
 20
-7.130127890097064
 10
3.399308244606409
 20
-7.155726961633143
 10
3.468453041895169
 20
-7.179705052217124
 10
3.539644953223838
 20
-7.201817728034045
 10
3.612845353748119
 20
-7.221820555268946
 10
3.688015618623684
 20
-7.23946910010687
 10
3.765117123006247
 20
-7.254518928732849
 10
3.844111242051483
 20
-7.266725607331927
 10
3.924935746852964
 20
-7.275894017671425
 10
4.007433992255805
 20
-7.282026303847817
 10
4.091425729042984
 20
-7.285173925539853
 10
4.176730707997478
 20
-7.28538834242629
 10
4.263168679902284
 20
-7.28272101418588
 10
4.350559395540384
 20
-7.277223400497383
 10
4.438722605694751
 20
-7.268946961039547
 10
4.527478061148384
 20
-7.257943155491132
 10
4.616621908763208
 20
-7.244274164337875
 10
4.705855879716953
 20
-7.228045051293477
 10
4.794858101266285
 20
-7.209371600878613
 10
4.883306700667877
 20
-7.188369597613966
 10
4.970879805178404
 20
-7.165154826020216
 10
5.057255542054534
 20
-7.139843070618048
 10
5.142112038552943
 20
-7.112550115928137
 10
5.225127421930295
 20
-7.08339174647117
 10
5.306037756484028
 20
-7.052496611671279
 10
5.384810854674602
 20
-7.020044820566434
 10
5.461472466003253
 20
-6.986229347098051
 10
5.536048339971179
 20
-6.951243165207548
 10
5.608564226079613
 20
-6.915279248836347
 10
5.67904587382978
 20
-6.878530571925868
 10
5.747519032722903
 20
-6.841190108417534
 10
5.814009452260198
 20
-6.803450832252758
 10
5.878628714855012
 20
-6.765392077127308
 10
5.94183173456915
 20
-6.726638615754309
 10
6.004159258376551
 20
-6.686701580601233
 10
6.066152033251147
 20
-6.645092104135555
 10
6.128350806166868
 20
-6.60132131882474
 10
6.19129632409763
 20
-6.554900357136264
 10
6.255529334017388
 20
-6.505340351537595
 10
6.321590582900056
 20
-6.452152434496209
 10
6.389823402196626
 20
-6.395017126791711
 10
6.459781461266269
 20
-6.33429250245225
 10
6.530821013945214
 20
-6.270506023818129
 10
6.602298314069702
 20
-6.20418515322963
 10
6.673569615475944
 20
-6.135857353027048
 10
6.743991172000177
 20
-6.066050085550677
 10
6.81291923747863
 20
-5.995290813140802
 10
6.879710065747537
 20
-5.924106998137719
 10
6.94385901358036
 20
-5.852924145542402
 10
7.00541784949957
 20
-5.781759930998573
 10
7.064577444964854
 20
-5.710530072810632
 10
7.121528671435926
 20
-5.639150289282986
 10
7.176462400372475
 20
-5.567536298720036
 10
7.229569503234205
 20
-5.495603819426185
 10
7.281040851480827
 20
-5.423268569705839
 10
7.331067316572037
 20
-5.350446267863398
 10
7.379860208516691
 20
-5.277049745775345
 10
7.427712591520283
 20
-5.202980289606454
 10
7.474937968337465
 20
-5.128136299093586
 10
7.52184984172288
 20
-5.052416173973591
 10
7.568761714431174
 20
-4.975718313983325
 10
7.615987089217008
 20
-4.897941118859643
 10
7.663839468835027
 20
-4.818982988339398
 10
7.712632356039878
 20
-4.738742322159447
 10
7.762637356921873
 20
-4.657163289598893
 10
7.81395849091399
 20
-4.574373138105842
 10
7.866657880784869
 20
-4.490544884670653
 10
7.920797649303136
 20
-4.405851546283681
 10
7.976439919237455
 20
-4.320466139935279
 10
8.033646813356448
 20
-4.234561682615814
 10
8.092480454428754
 20
-4.14831119131563
 10
8.153002965223008
 20
-4.061887683025092
 10
8.215225344034697
 20
-3.975463212602734
 10
8.278954091266594
 20
-3.889205986379809
 10
8.343944582848317
 20
-3.803283248555759
 10
8.409952194709497
 20
-3.717862243330012
 10
8.47673230277973
 20
-3.633110214902016
 10
8.544040282988651
 20
-3.549194407471192
 10
8.611631511265864
 20
-3.466282065236984
 10
8.679261363541002
 20
-3.384540432398829
 10
8.746723840616191
 20
-3.304126032349171
 10
8.81396744278366
 20
-3.225152505252506
 10
8.880979295208158
 20
-3.147722770466352
 10
8.947746523054437
 20
-3.071939747348205
 10
9.014256251487246
 20
-2.997906355255585
 10
9.080495605671336
 20
-2.925725513545998
 10
9.146451710771456
 20
-2.855500141576952
 10
9.212111691952356
 20
-2.787333158705959
 10
9.277466966018742
 20
-2.721314619370835
 10
9.342526116335195
 20
-2.65748311833065
 10
9.407302017906232
 20
-2.595864385424782
 10
9.471807545736382
 20
-2.53648415049261
 10
9.536055574830175
 20
-2.479368143373501
 10
9.600058980192143
 20
-2.424542093906843
 10
9.663830636826817
 20
-2.372031731932009
 10
9.72738341973873
 20
-2.321862787288379
 10
9.790703560864994
 20
-2.274020871354882
 10
9.853670719873067
 20
-2.228331121668672
 10
9.916137913363034
 20
-2.184578557306457
 10
9.977958157934933
 20
-2.142548197344954
 10
10.03898447018884
 20
-2.10202506086086
 10
10.09906986672479
 20
-2.062794166930892
 10
10.15806736414287
 20
-2.024640534631756
 10
10.21582997904313
 20
-1.987349183040155
 10
10.27233357362749
 20
-1.950718278868912
 10
10.32804539250535
 20
-1.914598579375228
 10
10.38355552588798
 20
-1.878853989452426
 10
10.43945406398664
 20
-1.843348413993814
 10
10.49633109701261
 20
-1.807945757892715
 10
10.55477671517714
 20
-1.772509926042441
 10
10.61538100869151
 20
-1.736904823336304
 10
10.67873406776697
 20
-1.700994354667624
 10
10.74524305396881
 20
-1.664700034424942
 10
10.81458341427832
 20
-1.628173814977738
 10
10.88624766703081
 20
-1.591625258190706
 10
10.95972833056159
 20
-1.555263925928562
 10
11.03451792320597
 20
-1.519299380056
 10
11.11010896329925
 20
-1.483941182437734
 10
11.18599396917673
 20
-1.44939889493846
 10
11.26166545917374
 20
-1.415882079422886
 10
11.33688078095075
 20
-1.383537496745029
 10
11.41245659946901
 20
-1.352260703716134
 10
11.48947440901493
 20
-1.321884456136775
 10
11.56901570387493
 20
-1.292241509807514
 10
11.65216197833544
 20
-1.263164620528913
 10
11.73999472668286
 20
-1.234486544101534
 10
11.83359544320364
 20
-1.206040036325946
 10
11.93404562218417
 20
-1.177657853002715
 10
12.04194394803413
 20
-1.149277813564928
 10
12.15595786565623
 20
-1.121257991975821
 10
12.27427201007639
 20
-1.094061525831147
 10
12.39507101632055
 20
-1.068151552726664
 10
12.51653951941465
 20
-1.043991210258129
 10
12.63686215438464
 20
-1.022043636021309
 10
12.75422355625646
 20
-1.002771967611953
 10
12.86680836005604
 20
-0.9866393426258182
 10
12.97326469823571
 20
-0.9739566636214844
 10
13.0740946929533
 20
-0.9644258930087557
 10
13.17026396379302
 20
-0.957596758160267
 10
13.2627381303391
 20
-0.9530189864486422
 10
13.35248281217573
 20
-0.9502423052465108
 10
13.44046362888715
 20
-0.9488164419264965
 10
13.52764620005756
 20
-0.948291123861229
 10
13.61499614527118
 20
-0.948216078423332
 10
13.7033117100408
 20
-0.9482482407469001
 10
13.79272164359353
 20
-0.9484733770118921
 10
13.88318732108506
 20
-0.9490844611597218
 10
13.9746701176711
 20
-0.9502744671318076
 10
14.06713140850731
 20
-0.9522363688695792
 10
14.16053256874941
 20
-0.9551631403144444
 10
14.25483497355308
 20
-0.9592477554078326
 10
14.349999998074
 20
-0.9646831880911575
 10
14.44580662269889
 20
-0.9715766461096565
 10
14.5413042487386
 20
-0.9796922724238092
 10
14.63535988273497
 20
-0.988708443797925
 10
14.72684053122986
 20
-0.9983035369963022
 10
14.81461320076514
 20
-1.008155928783234
 10
14.89754489788265
 20
-1.01794399592303
 10
14.97450262912424
 20
-1.027346115179988
 10
15.04435340103179
 20
-1.036040663318403
 10
15.10629038492542
 20
-1.043838954719652
 10
15.16081141123835
 20
-1.051084054233416
 10
15.20874047518212
 20
-1.058251964326442
 10
15.25090157196821
 20
-1.06581868746548
 10
15.28811869680814
 20
-1.074260226117278
 10
15.32121584491341
 20
-1.08405258274859
 10
15.35101701149554
 20
-1.09567175982616
 10
15.37834619176603
 20
-1.109593759816748
 10
15.40392652735493
 20
-1.12621739560403
 10
15.42807774556647
 20
-1.145632721739464
 10
15.45101872012341
 20
-1.167852603191434
 10
15.47296832474852
 20
-1.19288990492832
 10
15.49414543316457
 20
-1.220757491918507
 10
15.51476891909432
 20
-1.251468229130386
 10
15.53505765626055
 20
-1.28503498153234
 10
15.55523051838601
 20
-1.321470614092756
 10
15.57542912967413
 20
-1.360740820342891
 10
15.59548611625099
 20
-1.402622608065534
 10
15.61515685472331
 20
-1.446845813606351
 10
15.63419672169784
 20
-1.493140273310992
 10
15.6523610937813
 20
-1.541235823525126
 10
15.66940534758042
 20
-1.590862300594417
 10
15.68508485970194
 20
-1.641749540864517
 10
15.6991550067526
 20
-1.693627380681099
 10
15.71140764423648
 20
-1.74626853950414
 10
15.72178054324716
 20
-1.799617269250936
 10
15.73024795377559
 20
-1.853660704953097
 10
15.73678412581271
 20
-1.908385981642244
 10
15.74136330934945
 20
-1.963780234349985
 10
15.74395975437676
 20
-2.019830598107942
 10
15.74454771088558
 20
-2.076524207947719
 10
15.74310142886686
 20
-2.133848198900941
 10
15.73961876237364
 20
-2.191740390465631
 10
15.73419198170747
 20
-2.249941340005457
 10
15.726936961232
 20
-2.308142289350493
 10
15.71796957531085
 20
-2.366034480330822
 10
15.7074056983077
 20
-2.423309154776523
 10
15.69536120458617
 20
-2.479657554517671
 10
15.68195196850993
 20
-2.534770921384353
 10
15.66729386444263
 20
-2.588340497206639
 10
15.65148790426956
 20
-2.640120544609433
 10
15.63457564996275
 20
-2.690117409396923
 10
15.61658380101584
 20
-2.738400458168123
 10
15.59753905692252
 20
-2.785039057522034
 10
15.57746811717645
 20
-2.830102574057671
 10
15.55639768127128
 20
-2.873660374374044
 10
15.53435444870071
 20
-2.915781825070162
 10
15.51136511895839
 20
-2.956536292745031
 10
15.4874366043171
 20
-2.995997055440996
 10
15.46249666816609
 20
-3.034253036973712
 10
15.43645328667371
 20
-3.071397072602155
 10
15.40921443600831
 20
-3.107521997585316
 10
15.38068809233826
 20
-3.142720647182167
 10
15.3507822318319
 20
-3.177085856651703
 10
15.31940483065761
 20
-3.210710461252902
 10
15.28646386498371
 20
-3.24368729624475
 10
15.25188495242182
 20
-3.276068834845222
 10
15.21566427635638
 20
-3.30774610210833
 10
15.1778156616151
 20
-3.338569761047065
 10
15.13835293302566
 20
-3.368390474674423
 10
15.09728991541579
 20
-3.397058906003408
 10
15.05464043361316
 20
-3.424425718047025
 10
15.01041831244546
 20
-3.450341573818257
 10
14.96463737674041
 20
-3.47465713633012
 10
14.91735635519912
 20
-3.497247958077204
 10
14.86881359201646
 20
-3.51808914948052
 10
14.81929233526073
 20
-3.537180710442671
 10
14.76907583300023
 20
-3.554522640866261
 10
14.71844733330325
 20
-3.570114940653904
 10
14.6676900842381
 20
-3.583957609708206
 10
14.61708733387307
 20
-3.596050647931766
 10
14.56692233027645
 20
-3.606394055227198
 10
14.5173924887455
 20
-3.61498139904538
 10
14.46835189349325
 20
-3.621780517030272
 10
14.41956879596167
 20
-3.626752814374118
 10
14.37081144759278
 20
-3.629859696269148
 10
14.32184809982851
 20
-3.63106256790761
 10
14.27244700411088
 20
-3.63032283448173
 10
14.22237641188187
 20
-3.627601901183751
 10
14.17140457458345
 20
-3.622861173205915
 10
14.11941347215895
 20
-3.616089929773693
 10
14.06673999855709
 20
-3.607388946245515
 10
14.01383477622794
 20
-3.596886872013064
 10
13.96114842762156
 20
-3.584712356468006
 10
13.90913157518801
 20
-3.570994049002015
 10
13.85823484137735
 20
-3.555860599006765
 10
13.80890884863963
 20
-3.539440655873931
 10
13.76160421942495
 20
-3.521862868995188
 10
13.71663853525985
 20
-3.503191563082597
 10
13.67379721397687
 20
-3.483233764129814
 10
13.6327326324851
 20
-3.461732173450886
 10
13.59309716769358
 20
-3.438429492359862
 10
13.55454319651135
 20
-3.413068422170785
 10
13.51672309584749
 20
-3.385391664197703
 10
13.47928924261104
 20
-3.355141919754663
 10
13.44189401371107
 20
-3.322061890155714
 10
13.40430995208844
 20
-3.286052944236285
 10
13.36679026481136
 20
-3.247651120917323
 10
13.3297083249798
 20
-3.207551126641165
 10
13.29343750569379
 20
-3.166447667850145
 10
13.25835118005331
 20
-3.125035450986597
 10
13.22482272115837
 20
-3.084009182492856
 10
13.19322550210898
 20
-3.044063568811257
 10
13.16393289600513
 20
-3.005893316384129
 10
13.13723888048055
 20
-2.970066626439763
 10
13.11311985130385
 20
-2.936645679350282
 10
13.09147280877734
 20
-2.905566150273758
 10
13.07219475320334
 20
-2.876763714368259
 10
13.05518268488419
 20
-2.850174046791861
 10
13.04033360412222
 20
-2.825732822702639
 10
13.02754451121973
 20
-2.803375717258668
 10
13.01671240647906
 20
-2.783038405618017
 10
13.00770854041917
 20
-2.764654418826058
 10
13.00030116442562
 20
-2.748148711477366
 10
12.99423278010062
 20
-2.733444094053811
 10
12.98924588904636
 20
-2.720463377037248
 10
12.98508299286505
 20
-2.709129370909558
 10
12.9814865931589
 20
-2.699364886152602
 10
12.9781991915301
 20
-2.691092733248256
 10
12.97496328958086
 20
-2.684235722678373
 10
12.97154499294729
 20
-2.678712376618276
 10
12.96780482340112
 20
-2.674424064017002
 10
12.96362690674796
 20
-2.671267865517053
 10
12.95889536879347
 20
-2.669140861760918
 10
12.95349433534326
 20
-2.667940133391088
 10
12.94730793220296
 20
-2.667562761050045
 10
12.94022028517821
 20
-2.667905825380294
 10
12.93211552007464
 20
-2.668866407024314
 10
12.92279192975755
 20
-2.670393046319584
 10
12.9117044753309
 20
-2.672640122383537
 10
12.89822228495835
 20
-2.675813474028573
 10
12.88171448680354
 20
-2.680118940067116
 10
12.86155020903011
 20
-2.685762359311567
 10
12.83709857980171
 20
-2.692949570574348
 10
12.80772872728196
 20
-2.70188641266786
 10
12.77280977963452
 20
-2.712778724404527
 10
12.7318803850414
 20
-2.7257808848693
 10
12.68515727175804
 20
-2.740841434237337
 10
12.63302668805826
 20
-2.757857452956347
 10
12.57587488221586
 20
-2.77672602147403
 10
12.51408810250465
 20
-2.797344220238088
 10
12.44805259719845
 20
-2.819609129696224
 10
12.37815461457105
 20
-2.843417830296149
 10
12.30478040289629
 20
-2.868667402485566
 10
12.22835054345482
 20
-2.895276368309916
 10
12.14942294955471
 20
-2.92324901620563
 10
12.06858986751091
 20
-2.952611076206862
 10
11.98644354363834
 20
-2.98338827834778
 10
11.90357622425194
 20
-3.015606352662547
 10
11.82058015566665
 20
-3.049291029185328
 10
11.73804758419738
 20
-3.084468037950286
 10
11.65657075615909
 20
-3.121163108991588
 10
11.57666955700532
 20
-3.159339006380979
 10
11.49857442874413
 20
-3.198706630340552
 10
11.42244345252222
 20
-3.238913915129984
 10
11.34843470948627
 20
-3.279608795008956
 10
11.27670628078297
 20
-3.320439204237141
 10
11.20741624755898
 20
-3.361053077074225
 10
11.14072269096102
 20
-3.40109834777988
 10
11.07678369213575
 20
-3.440222950613781
 10
11.01565897931902
 20
-3.478207969575211
 10
10.95701486910322
 20
-3.515367087621868
 10
10.90041932516987
 20
-3.552147137451049
 10
10.84544031120052
 20
-3.588994951760053
 10
10.79164579087672
 20
-3.626357363246172
 10
10.73860372788
 20
-3.664681204606714
 10
10.68588208589188
 20
-3.704413308538966
 10
10.63304882859392
 20
-3.746000507740238
 10
10.57970589789442
 20
-3.789867981268707
 10
10.52559114860877
 20
-3.836354293626126
 10
10.47047641377911
 20
-3.885776355675123
 10
10.4141335264476
 20
-3.938451078278335
 10
10.3563343196564
 20
-3.994695372298397
 10
10.29685062644766
 20
-4.054826148597947
 10
10.23545427986353
 20
-4.119160318039612
 10
10.17191711294618
 20
-4.18801479148603
 10
10.10613481941974
 20
-4.261555030174392
 10
10.03849853573638
 20
-4.339340696840099
 10
9.969523259030248
 20
-4.420780004593119
 10
9.899723986435486
 20
-4.505281166543411
 10
9.829615715086259
 20
-4.592252395800938
 10
9.759713442116709
 20
-4.681101905475661
 10
9.690532164660991
 20
-4.771237908677546
 10
9.622586879853251
 20
-4.862068618516549
 10
9.556253106458308
 20
-4.953163059736716
 10
9.491348449763618
 20
-5.044733503618421
 10
9.427551036687297
 20
-5.137153033076115
 10
9.364538994147441
 20
-5.230794731024259
 10
9.30199044906219
 20
-5.326031680377299
 10
9.239583528349641
 20
-5.423236964049693
 10
9.176996358927908
 20
-5.522783664955898
 10
9.113907067715112
 20
-5.625044866010367
 10
9.050099890075188
 20
-5.730187599160149
 10
8.985783495155368
 20
-5.837554692482674
 10
8.921272660548694
 20
-5.946282923087967
 10
8.856882163848222
 20
-6.055509068086059
 10
8.792926782647001
 20
-6.164369904586971
 10
8.729721294538082
 20
-6.272002209700733
 10
8.667580477114508
 20
-6.377542760537371
 10
8.606819107969338
 20
-6.48012833420691
 10
8.547624617378836
 20
-6.579132201145311
 10
8.489675046352141
 20
-6.674873605092291
 10
8.432521088581617
 20
-6.767908283113499
 10
8.375713437759612
 20
-6.858791972274585
 10
8.318802787578491
 20
-6.948080409641195
 10
8.261339831730605
 20
-7.036329332278985
 10
8.202875263908319
 20
-7.124094477253599
 10
8.142959777803989
 20
-7.211931581630689
 10
8.0811941648792
 20
-7.300258520314543
 10
8.017379607672458
 20
-7.388941719563979
 10
7.951367386491498
 20
-7.477709743476455
 10
7.88300878164406
 20
-7.566291156149436
 10
7.812155073437883
 20
-7.65441452168037
 10
7.738657542180695
 20
-7.741808404166719
 10
7.662367468180247
 20
-7.82820136770594
 10
7.583136131744265
 20
-7.913321976395488
 10
7.500871787081484
 20
-7.996918303745613
 10
7.41571058400462
 20
-8.078816460917684
 10
7.327845646227376
 20
-8.15886206848587
 10
7.237470097463468
 20
-8.23690074702433
 10
7.144777061426593
 20
-8.312778117107232
 10
7.049959661830468
 20
-8.386339799308737
 10
6.953211022388803
 20
-8.457431414203005
 10
6.854724266815296
 20
-8.525898582364202
 10
6.754713977108121
 20
-8.5916062218353
 10
6.653480568403261
 20
-8.654496440534515
 10
6.551345914121158
 20
-8.714530643848865
 10
6.448631887682265
 20
-8.771670237165384
 10
6.345660362507011
 20
-8.825876625871089
 10
6.242753212015842
 20
-8.877111215352998
 10
6.140232309629213
 20
-8.925335410998147
 10
6.038419528767562
 20
-8.970510618193557
 10
5.937585243087122
 20
-9.012617539681432
 10
5.837793827187353
 20
-9.05171406762472
 10
5.739058155903505
 20
-9.087877391541557
 10
5.641391104070827
 20
-9.121184700950067
 10
5.544805546524561
 20
-9.151713185368391
 10
5.449314358099976
 20
-9.179540034314655
 10
5.354930413632306
 20
-9.204742437307
 10
5.261666587956807
 20
-9.227397583863545
 10
5.169518589348876
 20
-9.247591240131789
 10
5.078413459844506
 20
-9.265443478776649
 10
4.988261074919812
 20
-9.281082949092407
 10
4.898971310050943
 20
-9.294638300373346
 10
4.810454040714016
 20
-9.306238181913737
 10
4.722619142385169
 20
-9.316011243007871
 10
4.635376490540537
 20
-9.324086132950021
 10
4.548635960656247
 20
-9.330591501034469
 10
4.462376094504269
 20
-9.335638843313009
 10
4.376850099039939
 20
-9.339271042867505
 10
4.292379847514404
 20
-9.341513829537333
 10
4.209287213178839
 20
-9.342392933161875
  0
POLYLINE
  5
16DFB
330
16B91
100
AcDbEntity
  8
0
100
AcDb2dPolyline
 66
     1
 10
0.0
 20
0.0
 30
0.0
 70
     5
 75
     6
  0
VERTEX
  5
16DFC
330
16DFB
100
AcDbEntity
  8
0
100
AcDbVertex
100
AcDb2dVertex
 10
6.516423709719513
 20
-5.796489971164321
 30
0.0
 70
    16
  0
VERTEX
  5
16DFD
330
16DFB
100
AcDbEntity
  8
0
100
AcDbVertex
100
AcDb2dVertex
 10
6.481567198119289
 20
-5.792589071240574
 30
0.0
 70
     8
  0
VERTEX
  5
16DFE
330
16DFB
100
AcDbEntity
  8
0
100
AcDbVertex
100
AcDb2dVertex
 10
6.479336873640667
 20
-5.78988103373595
 30
0.0
 70
     8
  0
VERTEX
  5
16DFF
330
16DFB
100
AcDbEntity
  8
0
100
AcDbVertex
100
AcDb2dVertex
 10
6.478102913325353
 20
-5.786075575850592
 30
0.0
 70
     8
  0
VERTEX
  5
16E00
330
16DFB
100
AcDbEntity
  8
0
100
AcDbVertex
100
AcDb2dVertex
 10
6.478208121744178
 20
-5.78075445107621
 30
0.0
 70
     8
  0
VERTEX
  5
16E01
330
16DFB
100
AcDbEntity
  8
0
100
AcDbVertex
100
AcDb2dVertex
 10
6.47999530346796
 20
-5.773499412904526
 30
0.0
 70
     8
  0
VERTEX
  5
16E02
330
16DFB
100
AcDbEntity
  8
0
100
AcDbVertex
100
AcDb2dVertex
 10
6.483807263067497
 20
-5.76389221482726
 30
0.0
 70
     8
  0
VERTEX
  5
16E03
330
16DFB
100
AcDbEntity
  8
0
100
AcDbVertex
100
AcDb2dVertex
 10
6.489986805113633
 20
-5.751514610336128
 30
0.0
 70
     8
  0
VERTEX
  5
16E04
330
16DFB
100
AcDbEntity
  8
0
100
AcDbVertex
100
AcDb2dVertex
 10
6.498876734177155
 20
-5.735948352922846
 30
0.0
 70
     8
  0
VERTEX
  5
16E05
330
16DFB
100
AcDbEntity
  8
0
100
AcDbVertex
100
AcDb2dVertex
 10
6.510819854828904
 20
-5.716775196079131
 30
0.0
 70
     8
  0
VERTEX
  5
16E06
330
16DFB
100
AcDbEntity
  8
0
100
AcDbVertex
100
AcDb2dVertex
 10
6.526040545370389
 20
-5.693693800826648
 30
0.0
 70
     8
  0
VERTEX
  5
16E07
330
16DFB
100
AcDbEntity
  8
0
100
AcDbVertex
100
AcDb2dVertex
 10
6.544289479025988
 20
-5.666870458306812
 30
0.0
 70
     8
  0
VERTEX
  5
16E08
330
16DFB
100
AcDbEntity
  8
0
100
AcDbVertex
100
AcDb2dVertex
 10
6.565198902750806
 20
-5.636588367190984
 30
0.0
 70
     8
  0
VERTEX
  5
16E09
330
16DFB
100
AcDbEntity
  8
0
100
AcDbVertex
100
AcDb2dVertex
 10
6.588401063499936
 20
-5.603130726150532
 30
0.0
 70
     8
  0
VERTEX
  5
16E0A
330
16DFB
100
AcDbEntity
  8
0
100
AcDbVertex
100
AcDb2dVertex
 10
6.613528208228452
 20
-5.566780733856814
 30
0.0
 70
     8
  0
VERTEX
  5
16E0B
330
16DFB
100
AcDbEntity
  8
0
100
AcDbVertex
100
AcDb2dVertex
 10
6.64021258389146
 20
-5.527821588981196
 30
0.0
 70
     8
  0
VERTEX
  5
16E0C
330
16DFB
100
AcDbEntity
  8
0
100
AcDbVertex
100
AcDb2dVertex
 10
6.668086437444054
 20
-5.486536490195036
 30
0.0
 70
     8
  0
VERTEX
  5
16E0D
330
16DFB
100
AcDbEntity
  8
0
100
AcDbVertex
100
AcDb2dVertex
 10
6.69678201584132
 20
-5.443208636169697
 30
0.0
 70
     8
  0
VERTEX
  5
16E0E
330
16DFB
100
AcDbEntity
  8
0
100
AcDbVertex
100
AcDb2dVertex
 10
6.725987219903506
 20
-5.39806870229842
 30
0.0
 70
     8
  0
VERTEX
  5
16E0F
330
16DFB
100
AcDbEntity
  8
0
100
AcDbVertex
100
AcDb2dVertex
 10
6.755612565911531
 20
-5.351137270861946
 30
0.0
 70
     8
  0
VERTEX
  5
16E10
330
16DFB
100
AcDbEntity
  8
0
100
AcDbVertex
100
AcDb2dVertex
 10
6.785624224011469
 20
-5.302382400862901
 30
0.0
 70
     8
  0
VERTEX
  5
16E11
330
16DFB
100
AcDbEntity
  8
0
100
AcDbVertex
100
AcDb2dVertex
 10
6.815988364349376
 20
-5.251772151303905
 30
0.0
 70
     8
  0
VERTEX
  5
16E12
330
16DFB
100
AcDbEntity
  8
0
100
AcDbVertex
100
AcDb2dVertex
 10
6.846671157071337
 20
-5.19927458118758
 30
0.0
 70
     8
  0
VERTEX
  5
16E13
330
16DFB
100
AcDbEntity
  8
0
100
AcDbVertex
100
AcDb2dVertex
 10
6.877638772323405
 20
-5.144857749516547
 30
0.0
 70
     8
  0
VERTEX
  5
16E14
330
16DFB
100
AcDbEntity
  8
0
100
AcDbVertex
100
AcDb2dVertex
 10
6.908857380251674
 20
-5.08848971529343
 30
0.0
 70
     8
  0
VERTEX
  5
16E15
330
16DFB
100
AcDbEntity
  8
0
100
AcDbVertex
100
AcDb2dVertex
 10
6.940293151002192
 20
-5.030138537520851
 30
0.0
 70
     8
  0
VERTEX
  5
16E16
330
16DFB
100
AcDbEntity
  8
0
100
AcDbVertex
100
AcDb2dVertex
 10
6.971868240605029
 20
-4.96981576319285
 30
0.0
 70
     8
  0
VERTEX
  5
16E17
330
16DFB
100
AcDbEntity
  8
0
100
AcDbVertex
100
AcDb2dVertex
 10
7.003328748626171
 20
-4.907706891269162
 30
0.0
 70
     8
  0
VERTEX
  5
16E18
330
16DFB
100
AcDbEntity
  8
0
100
AcDbVertex
100
AcDb2dVertex
 10
7.034376760515583
 20
-4.844040908700941
 30
0.0
 70
     8
  0
VERTEX
  5
16E19
330
16DFB
100
AcDbEntity
  8
0
100
AcDbVertex
100
AcDb2dVertex
 10
7.064714361723244
 20
-4.779046802439344
 30
0.0
 70
     8
  0
VERTEX
  5
16E1A
330
16DFB
100
AcDbEntity
  8
0
100
AcDbVertex
100
AcDb2dVertex
 10
7.09404363769913
 20
-4.712953559435524
 30
0.0
 70
     8
  0
VERTEX
  5
16E1B
330
16DFB
100
AcDbEntity
  8
0
100
AcDbVertex
100
AcDb2dVertex
 10
7.122066673893195
 20
-4.645990166640632
 30
0.0
 70
     8
  0
VERTEX
  5
16E1C
330
16DFB
100
AcDbEntity
  8
0
100
AcDbVertex
100
AcDb2dVertex
 10
7.14848555575543
 20
-4.578385611005824
 30
0.0
 70
     8
  0
VERTEX
  5
16E1D
330
16DFB
100
AcDbEntity
  8
0
100
AcDbVertex
100
AcDb2dVertex
 10
7.1730023687358
 20
-4.510368879482254
 30
0.0
 70
     8
  0
VERTEX
  5
16E1E
330
16DFB
100
AcDbEntity
  8
0
100
AcDbVertex
100
AcDb2dVertex
 10
7.195414683725656
 20
-4.442084997132496
 30
0.0
 70
     8
  0
VERTEX
  5
16E1F
330
16DFB
100
AcDbEntity
  8
0
100
AcDbVertex
100
AcDb2dVertex
 10
7.21590201338189
 20
-4.373343141464788
 30
0.0
 70
     8
  0
VERTEX
  5
16E20
330
16DFB
100
AcDbEntity
  8
0
100
AcDbVertex
100
AcDb2dVertex
 10
7.234739355802761
 20
-4.303868528098787
 30
0.0
 70
     8
  0
VERTEX
  5
16E21
330
16DFB
100
AcDbEntity
  8
0
100
AcDbVertex
100
AcDb2dVertex
 10
7.252201709086531
 20
-4.233386372654156
 30
0.0
 70
     8
  0
VERTEX
  5
16E22
330
16DFB
100
AcDbEntity
  8
0
100
AcDbVertex
100
AcDb2dVertex
 10
7.268564071331475
 20
-4.161621890750544
 30
0.0
 70
     8
  0
VERTEX
  5
16E23
330
16DFB
100
AcDbEntity
  8
0
100
AcDbVertex
100
AcDb2dVertex
 10
7.284101440635847
 20
-4.088300298007618
 30
0.0
 70
     8
  0
VERTEX
  5
16E24
330
16DFB
100
AcDbEntity
  8
0
100
AcDbVertex
100
AcDb2dVertex
 10
7.299088815097919
 20
-4.013146810045024
 30
0.0
 70
     8
  0
VERTEX
  5
16E25
330
16DFB
100
AcDbEntity
  8
0
100
AcDbVertex
100
AcDb2dVertex
 10
7.313801192815958
 20
-3.935886642482429
 30
0.0
 70
     8
  0
VERTEX
  5
16E26
330
16DFB
100
AcDbEntity
  8
0
100
AcDbVertex
100
AcDb2dVertex
 10
7.328425725264096
 20
-3.856271726106511
 30
0.0
 70
     8
  0
VERTEX
  5
16E27
330
16DFB
100
AcDbEntity
  8
0
100
AcDbVertex
100
AcDb2dVertex
 10
7.342798177419963
 20
-3.774160852372067
 30
0.0
 70
     8
  0
VERTEX
  5
16E28
330
16DFB
100
AcDbEntity
  8
0
100
AcDbVertex
100
AcDb2dVertex
 10
7.356666467637055
 20
-3.689439527900903
 30
0.0
 70
     8
  0
VERTEX
  5
16E29
330
16DFB
100
AcDbEntity
  8
0
100
AcDbVertex
100
AcDb2dVertex
 10
7.369778514268875
 20
-3.601993259314843
 30
0.0
 70
     8
  0
VERTEX
  5
16E2A
330
16DFB
100
AcDbEntity
  8
0
100
AcDbVertex
100
AcDb2dVertex
 10
7.381882235668909
 20
-3.511707553235698
 30
0.0
 70
     8
  0
VERTEX
  5
16E2B
330
16DFB
100
AcDbEntity
  8
0
100
AcDbVertex
100
AcDb2dVertex
 10
7.392725550190661
 20
-3.418467916285293
 30
0.0
 70
     8
  0
VERTEX
  5
16E2C
330
16DFB
100
AcDbEntity
  8
0
100
AcDbVertex
100
AcDb2dVertex
 10
7.402056376187625
 20
-3.322159855085432
 30
0.0
 70
     8
  0
VERTEX
  5
16E2D
330
16DFB
100
AcDbEntity
  8
0
100
AcDbVertex
100
AcDb2dVertex
 10
7.409622632013291
 20
-3.222668876257935
 30
0.0
 70
     8
  0
VERTEX
  5
16E2E
330
16DFB
100
AcDbEntity
  8
0
100
AcDbVertex
100
AcDb2dVertex
 10
7.415187513824961
 20
-3.119991163415305
 30
0.0
 70
     8
  0
VERTEX
  5
16E2F
330
16DFB
100
AcDbEntity
  8
0
100
AcDbVertex
100
AcDb2dVertex
 10
7.418575328995056
 20
-3.014565608132752
 30
0.0
 70
     8
  0
VERTEX
  5
16E30
330
16DFB
100
AcDbEntity
  8
0
100
AcDbVertex
100
AcDb2dVertex
 10
7.419625662699796
 20
-2.906941778976177
 30
0.0
 70
     8
  0
VERTEX
  5
16E31
330
16DFB
100
AcDbEntity
  8
0
100
AcDbVertex
100
AcDb2dVertex
 10
7.418178100115405
 20
-2.79766924451148
 30
0.0
 70
     8
  0
VERTEX
  5
16E32
330
16DFB
100
AcDbEntity
  8
0
100
AcDbVertex
100
AcDb2dVertex
 10
7.414072226418105
 20
-2.687297573304561
 30
0.0
 70
     8
  0
VERTEX
  5
16E33
330
16DFB
100
AcDbEntity
  8
0
100
AcDbVertex
100
AcDb2dVertex
 10
7.407147626784104
 20
-2.576376333921316
 30
0.0
 70
     8
  0
VERTEX
  5
16E34
330
16DFB
100
AcDbEntity
  8
0
100
AcDbVertex
100
AcDb2dVertex
 10
7.397243886389639
 20
-2.465455094927644
 30
0.0
 70
     8
  0
VERTEX
  5
16E35
330
16DFB
100
AcDbEntity
  8
0
100
AcDbVertex
100
AcDb2dVertex
 10
7.384200590410912
 20
-2.355083424889442
 30
0.0
 70
     8
  0
VERTEX
  5
16E36
330
16DFB
100
AcDbEntity
  8
0
100
AcDbVertex
100
AcDb2dVertex
 10
7.367970655877139
 20
-2.245841841711775
 30
0.0
 70
     8
  0
VERTEX
  5
16E37
330
16DFB
100
AcDbEntity
  8
0
100
AcDbVertex
100
AcDb2dVertex
 10
7.348960327229433
 20
-2.138434660656383
 30
0.0
 70
     8
  0
VERTEX
  5
16E38
330
16DFB
100
AcDbEntity
  8
0
100
AcDbVertex
100
AcDb2dVertex
 10
7.327689180761891
 20
-2.033597146324161
 30
0.0
 70
     8
  0
VERTEX
  5
16E39
330
16DFB
100
AcDbEntity
  8
0
100
AcDbVertex
100
AcDb2dVertex
 10
7.304676792768625
 20
-1.932064563316007
 30
0.0
 70
     8
  0
VERTEX
  5
16E3A
330
16DFB
100
AcDbEntity
  8
0
100
AcDbVertex
100
AcDb2dVertex
 10
7.280442739543732
 20
-1.834572176232822
 30
0.0
 70
     8
  0
VERTEX
  5
16E3B
330
16DFB
100
AcDbEntity
  8
0
100
AcDbVertex
100
AcDb2dVertex
 10
7.25550659738132
 20
-1.741855249675507
 30
0.0
 70
     8
  0
VERTEX
  5
16E3C
330
16DFB
100
AcDbEntity
  8
0
100
AcDbVertex
100
AcDb2dVertex
 10
7.230387942575486
 20
-1.654649048244964
 30
0.0
 70
     8
  0
VERTEX
  5
16E3D
330
16DFB
100
AcDbEntity
  8
0
100
AcDbVertex
100
AcDb2dVertex
 10
7.205606351420337
 20
-1.573688836542095
 30
0.0
 70
     8
  0
VERTEX
  5
16E3E
330
16DFB
100
AcDbEntity
  8
0
100
AcDbVertex
100
AcDb2dVertex
 10
7.181581327708959
 20
-1.499490083965617
 30
0.0
 70
     8
  0
VERTEX
  5
16E3F
330
16DFB
100
AcDbEntity
  8
0
100
AcDbVertex
100
AcDb2dVertex
 10
7.158332085230413
 20
-1.43168907910556
 30
0.0
 70
     8
  0
VERTEX
  5
16E40
330
16DFB
100
AcDbEntity
  8
0
100
AcDbVertex
100
AcDb2dVertex
 10
7.135777765272749
 20
-1.369702315349775
 30
0.0
 70
     8
  0
VERTEX
  5
16E41
330
16DFB
100
AcDbEntity
  8
0
100
AcDbVertex
100
AcDb2dVertex
 10
7.113837509124023
 20
-1.312946286086108
 30
0.0
 70
     8
  0
VERTEX
  5
16E42
330
16DFB
100
AcDbEntity
  8
0
100
AcDbVertex
100
AcDb2dVertex
 10
7.092430458072284
 20
-1.260837484702419
 30
0.0
 70
     8
  0
VERTEX
  5
16E43
330
16DFB
100
AcDbEntity
  8
0
100
AcDbVertex
100
AcDb2dVertex
 10
7.071475753405572
 20
-1.212792404586551
 30
0.0
 70
     8
  0
VERTEX
  5
16E44
330
16DFB
100
AcDbEntity
  8
0
100
AcDbVertex
100
AcDb2dVertex
 10
7.050892536411955
 20
-1.168227539126358
 30
0.0
 70
     8
  0
VERTEX
  5
16E45
330
16DFB
100
AcDbEntity
  8
0
100
AcDbVertex
100
AcDb2dVertex
 10
7.030599948379463
 20
-1.126559381709687
 30
0.0
 70
     8
  0
VERTEX
  5
16E46
330
16DFB
100
AcDbEntity
  8
0
100
AcDbVertex
100
AcDb2dVertex
 10
7.010569279629083
 20
-1.087316781937263
 30
0.0
 70
     8
  0
VERTEX
  5
16E47
330
16DFB
100
AcDbEntity
  8
0
100
AcDbVertex
100
AcDb2dVertex
 10
6.990980416613409
 20
-1.050478014261274
 30
0.0
 70
     8
  0
VERTEX
  5
16E48
330
16DFB
100
AcDbEntity
  8
0
100
AcDbVertex
100
AcDb2dVertex
 10
6.972065394817978
 20
-1.016133709346797
 30
0.0
 70
     8
  0
VERTEX
  5
16E49
330
16DFB
100
AcDbEntity
  8
0
100
AcDbVertex
100
AcDb2dVertex
 10
6.95405624972833
 20
-0.9843744978588896
 30
0.0
 70
     8
  0
VERTEX
  5
16E4A
330
16DFB
100
AcDbEntity
  8
0
100
AcDbVertex
100
AcDb2dVertex
 10
6.937185016829983
 20
-0.955291010462618
 30
0.0
 70
     8
  0
VERTEX
  5
16E4B
330
16DFB
100
AcDbEntity
  8
0
100
AcDbVertex
100
AcDb2dVertex
 10
6.921683731608458
 20
-0.9289738778230447
 30
0.0
 70
     8
  0
VERTEX
  5
16E4C
330
16DFB
100
AcDbEntity
  8
0
100
AcDbVertex
100
AcDb2dVertex
 10
6.907784429549296
 20
-0.9055137306052417
 30
0.0
 70
     8
  0
VERTEX
  5
16E4D
330
16DFB
100
AcDbEntity
  8
0
100
AcDbVertex
100
AcDb2dVertex
 10
6.895719146138036
 20
-0.8850011994742768
 30
0.0
 70
     8
  0
VERTEX
  5
16E4E
330
16DFB
100
AcDbEntity
  8
0
100
AcDbVertex
100
AcDb2dVertex
 10
6.885652819778517
 20
-0.8674574396267594
 30
0.0
 70
     8
  0
VERTEX
  5
16E4F
330
16DFB
100
AcDbEntity
  8
0
100
AcDbVertex
100
AcDb2dVertex
 10
6.877482000547994
 20
-0.8526257043855283
 30
0.0
 70
     8
  0
VERTEX
  5
16E50
330
16DFB
100
AcDbEntity
  8
0
100
AcDbVertex
100
AcDb2dVertex
 10
6.871036141442012
 20
-0.8401797716049699
 30
0.0
 70
     8
  0
VERTEX
  5
16E51
330
16DFB
100
AcDbEntity
  8
0
100
AcDbVertex
100
AcDb2dVertex
 10
6.866144695456156
 20
-0.8297934191394706
 30
0.0
 70
     8
  0
VERTEX
  5
16E52
330
16DFB
100
AcDbEntity
  8
0
100
AcDbVertex
100
AcDb2dVertex
 10
6.862637115585981
 20
-0.8211404248434224
 30
0.0
 70
     8
  0
VERTEX
  5
16E53
330
16DFB
100
AcDbEntity
  8
0
100
AcDbVertex
100
AcDb2dVertex
 10
6.860342854827059
 20
-0.8138945665712009
 30
0.0
 70
     8
  0
VERTEX
  5
16E54
330
16DFB
100
AcDbEntity
  8
0
100
AcDbVertex
100
AcDb2dVertex
 10
6.859091366174958
 20
-0.8077296221772087
 30
0.0
 70
     8
  0
VERTEX
  5
16E55
330
16DFB
100
AcDbEntity
  8
0
100
AcDbVertex
100
AcDb2dVertex
 10
6.858712102625234
 20
-0.8023193695158216
 30
0.0
 70
     8
  0
VERTEX
  5
16E56
330
16DFB
100
AcDbEntity
  8
0
100
AcDbVertex
100
AcDb2dVertex
 10
6.859064565960415
 20
-0.7973887108438767
 30
0.0
 70
     8
  0
VERTEX
  5
16E57
330
16DFB
100
AcDbEntity
  8
0
100
AcDbVertex
100
AcDb2dVertex
 10
6.860128453110779
 20
-0.7928670460279795
 30
0.0
 70
     8
  0
VERTEX
  5
16E58
330
16DFB
100
AcDbEntity
  8
0
100
AcDbVertex
100
AcDb2dVertex
 10
6.861913509793534
 20
-0.7887348993371816
 30
0.0
 70
     8
  0
VERTEX
  5
16E59
330
16DFB
100
AcDbEntity
  8
0
100
AcDbVertex
100
AcDb2dVertex
 10
6.864429481725936
 20
-0.7849727950405391
 30
0.0
 70
     8
  0
VERTEX
  5
16E5A
330
16DFB
100
AcDbEntity
  8
0
100
AcDbVertex
100
AcDb2dVertex
 10
6.867686114625185
 20
-0.7815612574071033
 30
0.0
 70
     8
  0
VERTEX
  5
16E5B
330
16DFB
100
AcDbEntity
  8
0
100
AcDbVertex
100
AcDb2dVertex
 10
6.871693154208517
 20
-0.7784808107059252
 30
0.0
 70
     8
  0
VERTEX
  5
16E5C
330
16DFB
100
AcDbEntity
  8
0
100
AcDbVertex
100
AcDb2dVertex
 10
6.876460346193165
 20
-0.7757119792060612
 30
0.0
 70
     8
  0
VERTEX
  5
16E5D
330
16DFB
100
AcDbEntity
  8
0
100
AcDbVertex
100
AcDb2dVertex
 10
6.881997436296346
 20
-0.7732352871765677
 30
0.0
 70
     8
  0
VERTEX
  5
16E5E
330
16DFB
100
AcDbEntity
  8
0
100
AcDbVertex
100
AcDb2dVertex
 10
6.888340970365176
 20
-0.771053169270474
 30
0.0
 70
     8
  0
VERTEX
  5
16E5F
330
16DFB
100
AcDbEntity
  8
0
100
AcDbVertex
100
AcDb2dVertex
 10
6.89563469476637
 20
-0.7692557016767639
 30
0.0
 70
     8
  0
VERTEX
  5
16E60
330
16DFB
100
AcDbEntity
  8
0
100
AcDbVertex
100
AcDb2dVertex
 10
6.904049155996506
 20
-0.7679548709684152
 30
0.0
 70
     8
  0
VERTEX
  5
16E61
330
16DFB
100
AcDbEntity
  8
0
100
AcDbVertex
100
AcDb2dVertex
 10
6.913754900552195
 20
-0.7672626637183902
 30
0.0
 70
     8
  0
VERTEX
  5
16E62
330
16DFB
100
AcDbEntity
  8
0
100
AcDbVertex
100
AcDb2dVertex
 10
6.924922474930029
 20
-0.7672910664996559
 30
0.0
 70
     8
  0
VERTEX
  5
16E63
330
16DFB
100
AcDbEntity
  8
0
100
AcDbVertex
100
AcDb2dVertex
 10
6.937722425626613
 20
-0.7681520658851852
 30
0.0
 70
     8
  0
VERTEX
  5
16E64
330
16DFB
100
AcDbEntity
  8
0
100
AcDbVertex
100
AcDb2dVertex
 10
6.952325299138535
 20
-0.7699576484479506
 30
0.0
 70
     8
  0
VERTEX
  5
16E65
330
16DFB
100
AcDbEntity
  8
0
100
AcDbVertex
100
AcDb2dVertex
 10
6.968901641962383
 20
-0.7728198007609141
 30
0.0
 70
     8
  0
VERTEX
  5
16E66
330
16DFB
100
AcDbEntity
  8
0
100
AcDbVertex
100
AcDb2dVertex
 10
6.987569212393442
 20
-0.7768391484403656
 30
0.0
 70
     8
  0
VERTEX
  5
16E67
330
16DFB
100
AcDbEntity
  8
0
100
AcDbVertex
100
AcDb2dVertex
 10
7.00823461592167
 20
-0.7820708732758913
 30
0.0
 70
     8
  0
VERTEX
  5
16E68
330
16DFB
100
AcDbEntity
  8
0
100
AcDbVertex
100
AcDb2dVertex
 10
7.030751669835698
 20
-0.7885587961003841
 30
0.0
 70
     8
  0
VERTEX
  5
16E69
330
16DFB
100
AcDbEntity
  8
0
100
AcDbVertex
100
AcDb2dVertex
 10
7.054974191424143
 20
-0.7963467377467526
 30
0.0
 70
     8
  0
VERTEX
  5
16E6A
330
16DFB
100
AcDbEntity
  8
0
100
AcDbVertex
100
AcDb2dVertex
 10
7.08075599797565
 20
-0.8054785190478952
 30
0.0
 70
     8
  0
VERTEX
  5
16E6B
330
16DFB
100
AcDbEntity
  8
0
100
AcDbVertex
100
AcDb2dVertex
 10
7.107950906778853
 20
-0.8159979608367045
 30
0.0
 70
     8
  0
VERTEX
  5
16E6C
330
16DFB
100
AcDbEntity
  8
0
100
AcDbVertex
100
AcDb2dVertex
 10
7.136412735122374
 20
-0.8279488839460951
 30
0.0
 70
     8
  0
VERTEX
  5
16E6D
330
16DFB
100
AcDbEntity
  8
0
100
AcDbVertex
100
AcDb2dVertex
 10
7.165995300294841
 20
-0.8413751092089594
 30
0.0
 70
     8
  0
VERTEX
  5
16E6E
330
16DFB
100
AcDbEntity
  8
0
100
AcDbVertex
100
AcDb2dVertex
 10
7.196564601449301
 20
-0.8563374989094445
 30
0.0
 70
     8
  0
VERTEX
  5
16E6F
330
16DFB
100
AcDbEntity
  8
0
100
AcDbVertex
100
AcDb2dVertex
 10
7.228035365196381
 20
-0.8729650811367084
 30
0.0
 70
     8
  0
VERTEX
  5
16E70
330
16DFB
100
AcDbEntity
  8
0
100
AcDbVertex
100
AcDb2dVertex
 10
7.260334500011118
 20
-0.8914039254311372
 30
0.0
 70
     8
  0
VERTEX
  5
16E71
330
16DFB
100
AcDbEntity
  8
0
100
AcDbVertex
100
AcDb2dVertex
 10
7.293388914368556
 20
-0.9118001013331324
 30
0.0
 70
     8
  0
VERTEX
  5
16E72
330
16DFB
100
AcDbEntity
  8
0
100
AcDbVertex
100
AcDb2dVertex
 10
7.327125516743725
 20
-0.9342996783830848
 30
0.0
 70
     8
  0
VERTEX
  5
16E73
330
16DFB
100
AcDbEntity
  8
0
100
AcDbVertex
100
AcDb2dVertex
 10
7.361471215611657
 20
-0.9590487261213963
 30
0.0
 70
     8
  0
VERTEX
  5
16E74
330
16DFB
100
AcDbEntity
  8
0
100
AcDbVertex
100
AcDb2dVertex
 10
7.396352919447397
 20
-0.986193314088463
 30
0.0
 70
     8
  0
VERTEX
  5
16E75
330
16DFB
100
AcDbEntity
  8
0
100
AcDbVertex
100
AcDb2dVertex
 10
7.431697536725979
 20
-1.015879511824681
 30
0.0
 70
     8
  0
VERTEX
  5
16E76
330
16DFB
100
AcDbEntity
  8
0
100
AcDbVertex
100
AcDb2dVertex
 10
7.46739299375887
 20
-1.048199018545301
 30
0.0
 70
     8
  0
VERTEX
  5
16E77
330
16DFB
100
AcDbEntity
  8
0
100
AcDbVertex
100
AcDb2dVertex
 10
7.50317128820322
 20
-1.083026052165041
 30
0.0
 70
     8
  0
VERTEX
  5
16E78
330
16DFB
100
AcDbEntity
  8
0
100
AcDbVertex
100
AcDb2dVertex
 10
7.538725435552642
 20
-1.120180460273467
 30
0.0
 70
     8
  0
VERTEX
  5
16E79
330
16DFB
100
AcDbEntity
  8
0
100
AcDbVertex
100
AcDb2dVertex
 10
7.573748451300689
 20
-1.159482090460146
 30
0.0
 70
     8
  0
VERTEX
  5
16E7A
330
16DFB
100
AcDbEntity
  8
0
100
AcDbVertex
100
AcDb2dVertex
 10
7.607933350940978
 20
-1.20075079031465
 30
0.0
 70
     8
  0
VERTEX
  5
16E7B
330
16DFB
100
AcDbEntity
  8
0
100
AcDbVertex
100
AcDb2dVertex
 10
7.640973149967084
 20
-1.243806407426549
 30
0.0
 70
     8
  0
VERTEX
  5
16E7C
330
16DFB
100
AcDbEntity
  8
0
100
AcDbVertex
100
AcDb2dVertex
 10
7.672560863872597
 20
-1.288468789385411
 30
0.0
 70
     8
  0
VERTEX
  5
16E7D
330
16DFB
100
AcDbEntity
  8
0
100
AcDbVertex
100
AcDb2dVertex
 10
7.702389508151103
 20
-1.334557783780807
 30
0.0
 70
     8
  0
VERTEX
  5
16E7E
330
16DFB
100
AcDbEntity
  8
0
100
AcDbVertex
100
AcDb2dVertex
 10
7.730219324057932
 20
-1.381972041786537
 30
0.0
 70
     8
  0
VERTEX
  5
16E7F
330
16DFB
100
AcDbEntity
  8
0
100
AcDbVertex
100
AcDb2dVertex
 10
7.756079455895346
 20
-1.430925428913305
 30
0.0
 70
     8
  0
VERTEX
  5
16E80
330
16DFB
100
AcDbEntity
  8
0
100
AcDbVertex
100
AcDb2dVertex
 10
7.780066273727372
 20
-1.481710614256039
 30
0.0
 70
     8
  0
VERTEX
  5
16E81
330
16DFB
100
AcDbEntity
  8
0
100
AcDbVertex
100
AcDb2dVertex
 10
7.802276147618004
 20
-1.534620266909683
 30
0.0
 70
     8
  0
VERTEX
  5
16E82
330
16DFB
100
AcDbEntity
  8
0
100
AcDbVertex
100
AcDb2dVertex
 10
7.82280544763126
 20
-1.589947055969164
 30
0.0
 70
     8
  0
VERTEX
  5
16E83
330
16DFB
100
AcDbEntity
  8
0
100
AcDbVertex
100
AcDb2dVertex
 10
7.84175054383115
 20
-1.647983650529415
 30
0.0
 70
     8
  0
VERTEX
  5
16E84
330
16DFB
100
AcDbEntity
  8
0
100
AcDbVertex
100
AcDb2dVertex
 10
7.859207806281675
 20
-1.709022719685373
 30
0.0
 70
     8
  0
VERTEX
  5
16E85
330
16DFB
100
AcDbEntity
  8
0
100
AcDbVertex
100
AcDb2dVertex
 10
7.875273605046865
 20
-1.773356932531972
 30
0.0
 70
     8
  0
VERTEX
  5
16E86
330
16DFB
100
AcDbEntity
  8
0
100
AcDbVertex
100
AcDb2dVertex
 10
7.890024790909911
 20
-1.841190231878257
 30
0.0
 70
     8
  0
VERTEX
  5
16E87
330
16DFB
100
AcDbEntity
  8
0
100
AcDbVertex
100
AcDb2dVertex
 10
7.903460137530766
 20
-1.912371655389747
 30
0.0
 70
     8
  0
VERTEX
  5
16E88
330
16DFB
100
AcDbEntity
  8
0
100
AcDbVertex
100
AcDb2dVertex
 10
7.915558899288603
 20
-1.98666151444608
 30
0.0
 70
     8
  0
VERTEX
  5
16E89
330
16DFB
100
AcDbEntity
  8
0
100
AcDbVertex
100
AcDb2dVertex
 10
7.926300330562579
 20
-2.06382012042689
 30
0.0
 70
     8
  0
VERTEX
  5
16E8A
330
16DFB
100
AcDbEntity
  8
0
100
AcDbVertex
100
AcDb2dVertex
 10
7.935663685731845
 20
-2.143607784711807
 30
0.0
 70
     8
  0
VERTEX
  5
16E8B
330
16DFB
100
AcDbEntity
  8
0
100
AcDbVertex
100
AcDb2dVertex
 10
7.943628219175558
 20
-2.22578481868047
 30
0.0
 70
     8
  0
VERTEX
  5
16E8C
330
16DFB
100
AcDbEntity
  8
0
100
AcDbVertex
100
AcDb2dVertex
 10
7.950173185272879
 20
-2.310111533712506
 30
0.0
 70
     8
  0
VERTEX
  5
16E8D
330
16DFB
100
AcDbEntity
  8
0
100
AcDbVertex
100
AcDb2dVertex
 10
7.955277838402965
 20
-2.396348241187558
 30
0.0
 70
     8
  0
VERTEX
  5
16E8E
330
16DFB
100
AcDbEntity
  8
0
100
AcDbVertex
100
AcDb2dVertex
 10
7.958886579829104
 20
-2.484271851933407
 30
0.0
 70
     8
  0
VERTEX
  5
16E8F
330
16DFB
100
AcDbEntity
  8
0
100
AcDbVertex
100
AcDb2dVertex
 10
7.960804398351106
 20
-2.573725674570462
 30
0.0
 70
     8
  0
VERTEX
  5
16E90
330
16DFB
100
AcDbEntity
  8
0
100
AcDbVertex
100
AcDb2dVertex
 10
7.960801429652929
 20
-2.664569617167278
 30
0.0
 70
     8
  0
VERTEX
  5
16E91
330
16DFB
100
AcDbEntity
  8
0
100
AcDbVertex
100
AcDb2dVertex
 10
7.958647809418513
 20
-2.756663587792414
 30
0.0
 70
     8
  0
VERTEX
  5
16E92
330
16DFB
100
AcDbEntity
  8
0
100
AcDbVertex
100
AcDb2dVertex
 10
7.954113673331817
 20
-2.849867494514431
 30
0.0
 70
     8
  0
VERTEX
  5
16E93
330
16DFB
100
AcDbEntity
  8
0
100
AcDbVertex
100
AcDb2dVertex
 10
7.946969157076782
 20
-2.944041245401886
 30
0.0
 70
     8
  0
VERTEX
  5
16E94
330
16DFB
100
AcDbEntity
  8
0
100
AcDbVertex
100
AcDb2dVertex
 10
7.936984396337354
 20
-3.039044748523335
 30
0.0
 70
     8
  0
VERTEX
  5
16E95
330
16DFB
100
AcDbEntity
  8
0
100
AcDbVertex
100
AcDb2dVertex
 10
7.92392952679747
 20
-3.134737911947337
 30
0.0
 70
     8
  0
VERTEX
  5
16E96
330
16DFB
100
AcDbEntity
  8
0
100
AcDbVertex
100
AcDb2dVertex
 10
7.90760917545182
 20
-3.231015441738759
 30
0.0
 70
     8
  0
VERTEX
  5
16E97
330
16DFB
100
AcDbEntity
  8
0
100
AcDbVertex
100
AcDb2dVertex
 10
7.887965934537912
 20
-3.327911235947681
 30
0.0
 70
     8
  0
VERTEX
  5
16E98
330
16DFB
100
AcDbEntity
  8
0
100
AcDbVertex
100
AcDb2dVertex
 10
7.864976887603987
 20
-3.42549399062049
 30
0.0
 70
     8
  0
VERTEX
  5
16E99
330
16DFB
100
AcDbEntity
  8
0
100
AcDbVertex
100
AcDb2dVertex
 10
7.83861911819828
 20
-3.523832401803578
 30
0.0
 70
     8
  0
VERTEX
  5
16E9A
330
16DFB
100
AcDbEntity
  8
0
100
AcDbVertex
100
AcDb2dVertex
 10
7.808869709869029
 20
-3.62299516554334
 30
0.0
 70
     8
  0
VERTEX
  5
16E9B
330
16DFB
100
AcDbEntity
  8
0
100
AcDbVertex
100
AcDb2dVertex
 10
7.775705746164465
 20
-3.723050977886156
 30
0.0
 70
     8
  0
VERTEX
  5
16E9C
330
16DFB
100
AcDbEntity
  8
0
100
AcDbVertex
100
AcDb2dVertex
 10
7.739104310632841
 20
-3.824068534878419
 30
0.0
 70
     8
  0
VERTEX
  5
16E9D
330
16DFB
100
AcDbEntity
  8
0
100
AcDbVertex
100
AcDb2dVertex
 10
7.699042486822381
 20
-3.926116532566516
 30
0.0
 70
     8
  0
VERTEX
  5
16E9E
330
16DFB
100
AcDbEntity
  8
0
100
AcDbVertex
100
AcDb2dVertex
 10
7.655573746538503
 20
-4.029152990022388
 30
0.0
 70
     8
  0
VERTEX
  5
16E9F
330
16DFB
100
AcDbEntity
  8
0
100
AcDbVertex
100
AcDb2dVertex
 10
7.609057114615365
 20
-4.132693218420184
 30
0.0
 70
     8
  0
VERTEX
  5
16EA0
330
16DFB
100
AcDbEntity
  8
0
100
AcDbVertex
100
AcDb2dVertex
 10
7.559928004144281
 20
-4.236141851959602
 30
0.0
 70
     8
  0
VERTEX
  5
16EA1
330
16DFB
100
AcDbEntity
  8
0
100
AcDbVertex
100
AcDb2dVertex
 10
7.508621828216573
 20
-4.338903524840348
 30
0.0
 70
     8
  0
VERTEX
  5
16EA2
330
16DFB
100
AcDbEntity
  8
0
100
AcDbVertex
100
AcDb2dVertex
 10
7.455573999923561
 20
-4.440382871262114
 30
0.0
 70
     8
  0
VERTEX
  5
16EA3
330
16DFB
100
AcDbEntity
  8
0
100
AcDbVertex
100
AcDb2dVertex
 10
7.401219932356586
 20
-4.539984525424604
 30
0.0
 70
     8
  0
VERTEX
  5
16EA4
330
16DFB
100
AcDbEntity
  8
0
100
AcDbVertex
100
AcDb2dVertex
 10
7.34599503860696
 20
-4.637113121527516
 30
0.0
 70
     8
  0
VERTEX
  5
16EA5
330
16DFB
100
AcDbEntity
  8
0
100
AcDbVertex
100
AcDb2dVertex
 10
7.290334731766018
 20
-4.731173293770551
 30
0.0
 70
     8
  0
VERTEX
  5
16EA6
330
16DFB
100
AcDbEntity
  8
0
100
AcDbVertex
100
AcDb2dVertex
 10
7.234676736116296
 20
-4.821634821084295
 30
0.0
 70
     8
  0
VERTEX
  5
16EA7
330
16DFB
100
AcDbEntity
  8
0
100
AcDbVertex
100
AcDb2dVertex
 10
7.179468020705291
 20
-4.908228061322867
 30
0.0
 70
     8
  0
VERTEX
  5
16EA8
330
16DFB
100
AcDbEntity
  8
0
100
AcDbVertex
100
AcDb2dVertex
 10
7.125157865771702
 20
-4.990748517071283
 30
0.0
 70
     8
  0
VERTEX
  5
16EA9
330
16DFB
100
AcDbEntity
  8
0
100
AcDbVertex
100
AcDb2dVertex
 10
7.072195551554259
 20
-5.068991690914549
 30
0.0
 70
     8
  0
VERTEX
  5
16EAA
330
16DFB
100
AcDbEntity
  8
0
100
AcDbVertex
100
AcDb2dVertex
 10
7.021030358291663
 20
-5.142753085437674
 30
0.0
 70
     8
  0
VERTEX
  5
16EAB
330
16DFB
100
AcDbEntity
  8
0
100
AcDbVertex
100
AcDb2dVertex
 10
6.972111566222628
 20
-5.211828203225668
 30
0.0
 70
     8
  0
VERTEX
  5
16EAC
330
16DFB
100
AcDbEntity
  8
0
100
AcDbVertex
100
AcDb2dVertex
 10
6.925888455585856
 20
-5.276012546863543
 30
0.0
 70
     8
  0
VERTEX
  5
16EAD
330
16DFB
100
AcDbEntity
  8
0
100
AcDbVertex
100
AcDb2dVertex
 10
6.882810306620083
 20
-5.335101618936307
 30
0.0
 70
     8
  0
VERTEX
  5
16EAE
330
16DFB
100
AcDbEntity
  8
0
100
AcDbVertex
100
AcDb2dVertex
 10
6.843210368335358
 20
-5.388983486567139
 30
0.0
 70
     8
  0
VERTEX
  5
16EAF
330
16DFB
100
AcDbEntity
  8
0
100
AcDbVertex
100
AcDb2dVertex
 10
6.806957764827213
 20
-5.437916475031929
 30
0.0
 70
     8
  0
VERTEX
  5
16EB0
330
16DFB
100
AcDbEntity
  8
0
100
AcDbVertex
100
AcDb2dVertex
 10
6.773805588962513
 20
-5.482251474144725
 30
0.0
 70
     8
  0
VERTEX
  5
16EB1
330
16DFB
100
AcDbEntity
  8
0
100
AcDbVertex
100
AcDb2dVertex
 10
6.743506933608127
 20
-5.522339373719587
 30
0.0
 70
     8
  0
VERTEX
  5
16EB2
330
16DFB
100
AcDbEntity
  8
0
100
AcDbVertex
100
AcDb2dVertex
 10
6.71581489163094
 20
-5.558531063570575
 30
0.0
 70
     8
  0
VERTEX
  5
16EB3
330
16DFB
100
AcDbEntity
  8
0
100
AcDbVertex
100
AcDb2dVertex
 10
6.690482555897827
 20
-5.591177433511735
 30
0.0
 70
     8
  0
VERTEX
  5
16EB4
330
16DFB
100
AcDbEntity
  8
0
100
AcDbVertex
100
AcDb2dVertex
 10
6.667263019275651
 20
-5.620629373357131
 30
0.0
 70
     8
  0
VERTEX
  5
16EB5
330
16DFB
100
AcDbEntity
  8
0
100
AcDbVertex
100
AcDb2dVertex
 10
6.645909374631294
 20
-5.647237772920818
 30
0.0
 70
     8
  0
VERTEX
  5
16EB6
330
16DFB
100
AcDbEntity
  8
0
100
AcDbVertex
100
AcDb2dVertex
 10
6.626205050151106
 20
-5.671308129354064
 30
0.0
 70
     8
  0
VERTEX
  5
16EB7
330
16DFB
100
AcDbEntity
  8
0
100
AcDbVertex
100
AcDb2dVertex
 10
6.608054815299311
 20
-5.692964369157009
 30
0.0
 70
     8
  0
VERTEX
  5
16EB8
330
16DFB
100
AcDbEntity
  8
0
100
AcDbVertex
100
AcDb2dVertex
 10
6.591393774859603
 20
-5.712285026167004
 30
0.0
 70
     8
  0
VERTEX
  5
16EB9
330
16DFB
100
AcDbEntity
  8
0
100
AcDbVertex
100
AcDb2dVertex
 10
6.576157033615691
 20
-5.729348634221393
 30
0.0
 70
     8
  0
VERTEX
  5
16EBA
330
16DFB
100
AcDbEntity
  8
0
100
AcDbVertex
100
AcDb2dVertex
 10
6.562279696351277
 20
-5.744233727157537
 30
0.0
 70
     8
  0
VERTEX
  5
16EBB
330
16DFB
100
AcDbEntity
  8
0
100
AcDbVertex
100
AcDb2dVertex
 10
6.549696867850053
 20
-5.757018838812777
 30
0.0
 70
     8
  0
VERTEX
  5
16EBC
330
16DFB
100
AcDbEntity
  8
0
100
AcDbVertex
100
AcDb2dVertex
 10
6.538343652895719
 20
-5.767782503024474
 30
0.0
 70
     8
  0
VERTEX
  5
16EBD
330
16DFB
100
AcDbEntity
  8
0
100
AcDbVertex
100
AcDb2dVertex
 10
6.528155156271976
 20
-5.776603253629974
 30
0.0
 70
     8
  0
VERTEX
  5
16EBE
330
16DFB
100
AcDbEntity
  8
0
100
AcDbVertex
100
AcDb2dVertex
 10
6.519068001475209
 20
-5.783571227283244
 30
0.0
 70
     8
  0
VERTEX
  5
16EBF
330
16DFB
100
AcDbEntity
  8
0
100
AcDbVertex
100
AcDb2dVertex
 10
6.511024886852517
 20
-5.788822971904719
 30
0.0
 70
     8
  0
VERTEX
  5
16EC0
330
16DFB
100
AcDbEntity
  8
0
100
AcDbVertex
100
AcDb2dVertex
 10
6.503970029463672
 20
-5.792506638231448
 30
0.0
 70
     8
  0
VERTEX
  5
16EC1
330
16DFB
100
AcDbEntity
  8
0
100
AcDbVertex
100
AcDb2dVertex
 10
6.497847646368439
 20
-5.794770377000475
 30
0.0
 70
     8
  0
VERTEX
  5
16EC2
330
16DFB
100
AcDbEntity
  8
0
100
AcDbVertex
100
AcDb2dVertex
 10
6.492601954626615
 20
-5.795762338948854
 30
0.0
 70
     8
  0
VERTEX
  5
16EC3
330
16DFB
100
AcDbEntity
  8
0
100
AcDbVertex
100
AcDb2dVertex
 10
6.48817717129796
 20
-5.795630674813629
 30
0.0
 70
     8
  0
VERTEX
  5
16EC4
330
16DFB
100
AcDbEntity
  8
0
100
AcDbVertex
100
AcDb2dVertex
 10
6.484517513442265
 20
-5.794523535331856
 30
0.0
 70
     8
  0
VERTEX
  5
16EC5
330
16DFB
100
AcDbEntity
  8
0
100
AcDbVertex
100
AcDb2dVertex
 10
6.474595895799248
 20
-5.799833592546764
 30
0.0
 70
    16
  0
VERTEX
  5
16EC6
330
16DFB
100
AcDbEntity
  8
0
100
AcDbVertex
100
AcDb2dVertex
 10
6.474595895799248
 20
-5.759710086092073
 30
0.0
 70
    16
  0
VERTEX
  5
16EC7
330
16DFB
100
AcDbEntity
  8
0
100
AcDbVertex
100
AcDb2dVertex
 10
6.691939649977158
 20
-5.461977239559739
 30
0.0
 70
    16
  0
VERTEX
  5
16EC8
330
16DFB
100
AcDbEntity
  8
0
100
AcDbVertex
100
AcDb2dVertex
 10
6.938337599340004
 20
-5.05163277268716
 30
0.0
 70
    16
  0
VERTEX
  5
16EC9
330
16DFB
100
AcDbEntity
  8
0
100
AcDbVertex
100
AcDb2dVertex
 10
7.196468858675983
 20
-4.512322894816724
 30
0.0
 70
    16
  0
VERTEX
  5
16ECA
330
16DFB
100
AcDbEntity
  8
0
100
AcDbVertex
100
AcDb2dVertex
 10
7.313801178370838
 20
-3.961288924939464
 30
0.0
 70
    16
  0
VERTEX
  5
16ECB
330
16DFB
100
AcDbEntity
  8
0
100
AcDbVertex
100
AcDb2dVertex
 10
7.431133584736411
 20
-3.257841260319997
 30
0.0
 70
    16
  0
VERTEX
  5
16ECC
330
16DFB
100
AcDbEntity
  8
0
100
AcDbVertex
100
AcDb2dVertex
 10
7.419400274763275
 20
-2.343359291328159
 30
0.0
 70
    16
  0
VERTEX
  5
16ECD
330
16DFB
100
AcDbEntity
  8
0
100
AcDbVertex
100
AcDb2dVertex
 10
7.196468858675983
 20
-1.499222123704011
 30
0.0
 70
    16
  0
VERTEX
  5
16ECE
330
16DFB
100
AcDbEntity
  8
0
100
AcDbVertex
100
AcDb2dVertex
 10
7.028362399054812
 20
-1.101885233108355
 30
0.0
 70
    16
  0
VERTEX
  5
16ECF
330
16DFB
100
AcDbEntity
  8
0
100
AcDbVertex
100
AcDb2dVertex
 10
6.873681235381575
 20
-0.8525932341206903
 30
0.0
 70
    16
  0
VERTEX
  5
16ED0
330
16DFB
100
AcDbEntity
  8
0
100
AcDbVertex
100
AcDb2dVertex
 10
6.851227536247068
 20
-0.7977490272545336
 30
0.0
 70
    16
  0
VERTEX
  5
16ED1
330
16DFB
100
AcDbEntity
  8
0
100
AcDbVertex
100
AcDb2dVertex
 10
6.873681235381575
 20
-0.7703268739561058
 30
0.0
 70
    16
  0
VERTEX
  5
16ED2
330
16DFB
100
AcDbEntity
  8
0
100
AcDbVertex
100
AcDb2dVertex
 10
6.946032140004698
 20
-0.760355199980439
 30
0.0
 70
    16
  0
VERTEX
  5
16ED3
330
16DFB
100
AcDbEntity
  8
0
100
AcDbVertex
100
AcDb2dVertex
 10
7.155600056373942
 20
-0.8251711306876119
 30
0.0
 70
    16
  0
VERTEX
  5
16ED4
330
16DFB
100
AcDbEntity
  8
0
100
AcDbVertex
100
AcDb2dVertex
 10
7.4275394362686
 20
-0.987210932522859
 30
0.0
 70
    16
  0
VERTEX
  5
16ED5
330
16DFB
100
AcDbEntity
  8
0
100
AcDbVertex
100
AcDb2dVertex
 10
7.724427418907558
 20
-1.32126221016903
 30
0.0
 70
    16
  0
VERTEX
  5
16ED6
330
16DFB
100
AcDbEntity
  8
0
100
AcDbVertex
100
AcDb2dVertex
 10
7.889087937007788
 20
-1.735086929485865
 30
0.0
 70
    16
  0
VERTEX
  5
16ED7
330
16DFB
100
AcDbEntity
  8
0
100
AcDbVertex
100
AcDb2dVertex
 10
7.97086246334248
 20
-2.378531667079335
 30
0.0
 70
    16
  0
VERTEX
  5
16ED8
330
16DFB
100
AcDbEntity
  8
0
100
AcDbVertex
100
AcDb2dVertex
 10
7.959129240040072
 20
-3.128875849322141
 30
0.0
 70
    16
  0
VERTEX
  5
16ED9
330
16DFB
100
AcDbEntity
  8
0
100
AcDbVertex
100
AcDb2dVertex
 10
7.736197737282052
 20
-3.914392407316124
 30
0.0
 70
    16
  0
VERTEX
  5
16EDA
330
16DFB
100
AcDbEntity
  8
0
100
AcDbVertex
100
AcDb2dVertex
 10
7.290334731766013
 20
-4.770253716812447
 30
0.0
 70
    16
  0
VERTEX
  5
16EDB
330
16DFB
100
AcDbEntity
  8
0
100
AcDbVertex
100
AcDb2dVertex
 10
6.844471726249974
 20
-5.391632488057398
 30
0.0
 70
    16
  0
VERTEX
  5
16EDC
330
16DFB
100
AcDbEntity
  8
0
100
AcDbVertex
100
AcDb2dVertex
 10
6.628640202954569
 20
-5.673826044575797
 30
0.0
 70
    16
  0
SEQEND
  5
16EDD
330
16DFB
100
AcDbEntity
  8
0
  0
LINE
  5
16EDE
330
16B91
100
AcDbEntity
  8
0
100
AcDbLine
 10
0.0
 20
-0.4717392797747106
 30
0.0
 11
15.75
 21
-0.471739279774708
 31
0.0
  0
LINE
  5
16EDF
330
16B91
100
AcDbEntity
  8
0
100
AcDbLine
 10
0.0
 20
-0.7577735710270396
 30
0.0
 11
15.43973245090151
 21
-0.7577735710270396
 31
0.0
  0
LINE
  5
16EE0
330
16B91
100
AcDbEntity
  8
0
100
AcDbLine
 10
0.0
 20
0.0
 30
0.0
 11
15.75
 21
0.0
 31
0.0
  0
LINE
  5
16EE1
330
16B91
100
AcDbEntity
  8
0
100
AcDbLine
 10
0.0
 20
0.0
 30
0.0
 11
0.0
 21
-9.340715222776307
 31
0.0
  0
LWPOLYLINE
  5
16EE2
330
16B91
100
AcDbEntity
  8
0
100
AcDbPolyline
 90
       75
 70
     0
 43
0.0
 10
4.127894069284412
 20
-9.341934083580497
 10
4.048522289082278
 20
-9.340163010632586
 10
3.971493745823607
 20
-9.337105444157518
 10
3.897130312759555
 20
-9.332787113994669
 10
3.825595072349808
 20
-9.327203731837471
 10
3.756415943888046
 20
-9.320230936795613
 10
3.688962055876484
 20
-9.311714349832818
 10
3.622602536817304
 20
-9.301499591912829
 10
3.55670651521272
 20
-9.289432283999378
 10
3.490643119564929
 20
-9.275358047056204
 10
3.42378147837613
 20
-9.259122502047045
 10
3.35549072014852
 20
-9.240571269935628
 10
3.285357045049953
 20
-9.219663120988148
 10
3.213834939910839
 20
-9.196809422680573
 10
3.141595963227238
 20
-9.17253469179133
 10
3.069311673495203
 20
-9.147363445098843
 10
2.9976536292108
 20
-9.121820199381531
 10
2.92729338887009
 20
-9.096429471417822
 10
2.858902510969121
 20
-9.071715777986135
 10
2.793152554003969
 20
-9.048203635864897
 10
2.730499463198049
 20
-9.026253934542962
 10
2.670536730684269
 20
-9.005573054350907
 10
2.612642235322887
 20
-8.985703748329751
 10
2.556193855974194
 20
-8.966188769520501
 10
2.500569471498446
 20
-8.946570870964166
 10
2.445146960755923
 20
-8.926392805701761
 10
2.389304202606894
 20
-8.905197326774295
 10
2.332419075911627
 20
-8.882527187222788
 10
2.273988510889743
 20
-8.857975127180846
 10
2.213985643198266
 20
-8.831333835152527
 10
2.152502659853582
 20
-8.802445986734477
 10
2.089631747872062
 20
-8.771154257523358
 10
2.025465094270079
 20
-8.737301323115822
 10
1.960094886064016
 20
-8.700729859108518
 10
1.893613310270241
 20
-8.661282541098106
 10
1.826112553905136
 20
-8.61880204468124
 10
1.75774025155585
 20
-8.573208725915918
 10
1.688865828092621
 20
-8.524733662705502
 10
1.619914155956433
 20
-8.473685613414708
 10
1.551310107588317
 20
-8.420373336408232
 10
1.483478555429261
 20
-8.365105590050786
 10
1.416844371920265
 20
-8.308191132707079
 10
1.351832429502354
 20
-8.24993872274182
 10
1.28886760061651
 20
-8.190657118519713
 10
1.228267466648242
 20
-8.130597186193826
 10
1.169920444761009
 20
-8.069778223070644
 10
1.113607661062768
 20
-8.008161634245011
 10
1.059110241661467
 20
-7.945708824811773
 10
1.006209312665073
 20
-7.882381199865775
 10
0.9546860001815238
 20
-7.818140164501856
 10
0.9043214303187859
 20
-7.752947123814867
 10
0.8548967291848068
 20
-7.686763482899644
 10
0.8062595434057282
 20
-7.619597818304391
 10
0.7585236016803745
 20
-7.551647392390718
 10
0.7118691532257698
 20
-7.483156638973578
 10
0.6664764472589332
 20
-7.414369991867934
 10
0.6225257329968677
 20
-7.345531884888753
 10
0.5801972596565977
 20
-7.276886751850991
 10
0.5396712764551368
 20
-7.208679026569606
 10
0.5011280326095042
 20
-7.141153142859567
 10
0.4646383404188966
 20
-7.074282298865721
 10
0.4298352645112904
 20
-7.006954750052489
 10
0.3962424325968401
 20
-6.937787516214184
 10
0.3633834723857001
 20
-6.865397617145116
 10
0.3307820115880298
 20
-6.788402072639595
 10
0.2979616779139833
 20
-6.705417902491932
 10
0.2644460990737207
 20
-6.615062126496441
 10
0.2297589027774121
 20
-6.51595176444743
 10
0.1935907490892075
 20
-6.406652070126183
 10
0.156300427489342
 20
-6.285521233261837
 10
0.1184137598120682
 20
-6.150865677570504
 10
0.0804565678916274
 20
-6.000991826768297
 10
0.042954673562261
 20
-5.834206104571325
 10
0.0064338986582162
 20
-5.648814934695697
 10
-0.0000000000000053
 20
-5.611018734611452
  0
LINE
  5
16F2F
330
16B91
100
AcDbEntity
  8
0
100
AcDbLine
 10
0.0
 20
-9.340715222776307
 30
0.0
 11
4.322457837044786
 21
-9.340715222776307
 31
0.0
  0
LWPOLYLINE
  5
16F30
330
16B91
100
AcDbEntity
  8
0
100
AcDbPolyline
 90
      312
 70
     0
 43
0.0
 10
0.0
 20
-4.119308393752256
 10
0.0526794815874614
 20
-3.951855463864726
 10
0.1063886252195298
 20
-3.780402077970275
 10
0.1577348397937088
 20
-3.616953789729241
 10
0.2066514784816456
 20
-3.462943931956836
 10
0.2530718944549877
 20
-3.319805837468276
 10
0.2969294408853766
 20
-3.188972839078779
 10
0.3381574709444925
 20
-3.071878269603552
 10
0.3768632125468285
 20
-2.969296687702439
 10
0.4138493925784366
 20
-2.87936755541373
 10
0.4500926126682417
 20
-2.79957156062035
 10
0.4865694744451627
 20
-2.727389391205207
 10
0.5242565795381307
 20
-2.660301735051233
 10
0.5641305295760542
 20
-2.595789280041333
 10
0.6071679261878633
 20
-2.531332714058424
 10
0.6543453710024774
 20
-2.464412724985434
 10
0.7064001433471212
 20
-2.393119459254026
 10
0.7631122333422687
 20
-2.317980897490854
 10
0.824022308806677
 20
-2.240134478871329
 10
0.8886710375591302
 20
-2.160717642570864
 10
0.9565990874183862
 20
-2.080867827764866
 10
1.027347126203223
 20
-2.001722473628743
 10
1.100455821732415
 20
-1.924419019337905
 10
1.175465841824731
 20
-1.850094904067762
 10
1.251977243074409
 20
-1.779667975635646
 10
1.32982763717759
 20
-1.713177716426597
 10
1.408914024605859
 20
-1.650444017467583
 10
1.489133405830834
 20
-1.591286769785569
 10
1.570382781324114
 20
-1.535525864407516
 10
1.652559151557291
 20
-1.482981192360395
 10
1.735559517001982
 20
-1.433472644671174
 10
1.819280878129783
 20
-1.386820112366807
 10
1.903757568003972
 20
-1.342871360475046
 10
1.989573250054539
 20
-1.301585650026727
 10
2.07744892030316
 20
-1.262950116053463
 10
2.168105574771499
 20
-1.226951893586865
 10
2.262264209481215
 20
-1.193578117658559
 10
2.360645820453993
 20
-1.162815923300149
 10
2.463971403711478
 20
-1.134652445543254
 10
2.572961955275363
 20
-1.109074819419491
 10
2.688005868858544
 20
-1.086100198122646
 10
2.808161128938937
 20
-1.06586580749519
 10
2.932153117685679
 20
-1.048538891541777
 10
3.058707217267932
 20
-1.034286694267057
 10
3.186548809854846
 20
-1.023276459675679
 10
3.314403277615561
 20
-1.01567543177229
 10
3.44099600271924
 20
-1.01165085456154
 10
3.565052367335019
 20
-1.011369972048077
 10
3.685619626798596
 20
-1.014978586703744
 10
3.803032529111719
 20
-1.022536734869105
 10
3.917947695442713
 20
-1.034083011351933
 10
4.031021746959869
 20
-1.049656010959982
 10
4.142911304831479
 20
-1.069294328501025
 10
4.25427299022585
 20
-1.093036558782815
 10
4.365763424311289
 20
-1.120921296613126
 10
4.478039228256093
 20
-1.152987136799704
 10
4.591490941437977
 20
-1.189214781987378
 10
4.705444776072376
 20
-1.229353366169174
 10
4.818960862584117
 20
-1.273094131175163
 10
4.931099331398059
 20
-1.320128318835424
 10
5.040920312939038
 20
-1.370147170980045
 10
5.147483937631903
 20
-1.4228419294391
 10
5.24985033590149
 20
-1.477903836042664
 10
5.347079638172655
 20
-1.535024132620819
 10
5.438465869375193
 20
-1.593958385602087
 10
5.524238632458734
 20
-1.654719459808764
 10
5.604861424877881
 20
-1.717384544661586
 10
5.680797744087207
 20
-1.782030829581298
 10
5.752511087541334
 20
-1.848735503988635
 10
5.820464952694831
 20
-1.917575757304329
 10
5.885122837002289
 20
-1.988628778949131
 10
5.946948237918315
 20
-2.06197175834377
 10
6.006306290986646
 20
-2.137616774850108
 10
6.063168684107647
 20
-2.215315467594462
 10
6.117408743270839
 20
-2.294754365644275
 10
6.168899794465732
 20
-2.375619998066995
 10
6.21751516368184
 20
-2.457598893930049
 10
6.263128176908693
 20
-2.540377582300888
 10
6.305612160135807
 20
-2.623642592246946
 10
6.34484043935269
 20
-2.707080452835669
 10
6.38072607349199
 20
-2.790420788371348
 10
6.413341053258835
 20
-2.87356560410569
 10
6.442797102301489
 20
-2.956460000527266
 10
6.469205944268217
 20
-3.039049078124639
 10
6.492679302807267
 20
-3.121277937386367
 10
6.513328901566901
 20
-3.203091678801011
 10
6.531266464195382
 20
-3.284435402857147
 10
6.546603714340965
 20
-3.365254210043331
 10
6.559446975856706
 20
-3.445542304307886
 10
6.569880973414846
 20
-3.525490303438164
 10
6.577985031892412
 20
-3.605337928681271
 10
6.583838476166438
 20
-3.68532490128432
 10
6.587520631113974
 20
-3.765690942494422
 10
6.589110821612027
 20
-3.846675773558679
 10
6.588688372537652
 20
-3.928519115724208
 10
6.586332608767879
 20
-4.011460690238109
 10
6.58207744705306
 20
-4.095693832322122
 10
6.575775171636884
 20
-4.181226333096459
 10
6.567232658636377
 20
-4.268019597655976
 10
6.556256784168531
 20
-4.35603503109551
 10
6.542654424350367
 20
-4.445234038509906
 10
6.526232455298897
 20
-4.535578024994011
 10
6.506797753131142
 20
-4.627028395642666
 10
6.484157193964105
 20
-4.719546555550715
 10
6.458130528834697
 20
-4.813014576084779
 10
6.42858900845937
 20
-4.906997193698568
 10
6.395416758474477
 20
-5.000979811117572
 10
6.358497904516386
 20
-5.094447831067276
 10
6.317716572221429
 20
-5.186886656273168
 10
6.272956887225969
 20
-5.277781689460735
 10
6.224102975166359
 20
-5.366618333355462
 10
6.171038961678936
 20
-5.45288199068284
 10
6.113811975693712
 20
-5.536116203758886
 10
6.053121159315178
 20
-5.616097073261761
 10
5.989828657941501
 20
-5.69265883946015
 10
5.924796616970827
 20
-5.765635742622746
 10
5.858887181801321
 20
-5.834862023018239
 10
5.792962497831115
 20
-5.900171920915319
 10
5.727884710458368
 20
-5.961399676582673
 10
5.664515965081242
 20
-6.018379530288991
 10
5.603459000110174
 20
-6.071024313878291
 10
5.544278926004884
 20
-6.119561225495885
 10
5.486281446237343
 20
-6.164296054862405
 10
5.428772264279567
 20
-6.20553459169849
 10
5.371057083603556
 20
-6.243582625724775
 10
5.31244160768131
 20
-6.278745946661893
 10
5.252231539984822
 20
-6.311330344230489
 10
5.189732583986092
 20
-6.341641608151189
 10
5.124447621323032
 20
-6.36993052224729
 10
5.056668246297165
 20
-6.396227846752702
 10
4.986883231375911
 20
-6.420509336003999
 10
4.915581349026708
 20
-6.442750744337744
 10
4.843251371716974
 20
-6.462927826090507
 10
4.77038207191414
 20
-6.48101633559886
 10
4.697462222085635
 20
-6.496992027199367
 10
4.624980594698887
 20
-6.510830655228599
 10
4.553333771029405
 20
-6.522518447451224
 10
4.482549567585017
 20
-6.532083525344295
 10
4.412563609681627
 20
-6.539564483812973
 10
4.34331152263517
 20
-6.54499991776241
 10
4.274728931761539
 20
-6.548428422097764
 10
4.206751462376641
 20
-6.549888591724192
 10
4.139314739796402
 20
-6.549419021546847
 10
4.072354389336725
 20
-6.547058306470888
 10
4.005818911261628
 20
-6.5428471855304
 10
3.939708305627529
 20
-6.536834974275207
 10
3.874035447438975
 20
-6.529073132384067
 10
3.808813211700476
 20
-6.51961311953573
 10
3.744054473416574
 20
-6.508506395408952
 10
3.67977210759179
 20
-6.495804419682484
 10
3.615978989230659
 20
-6.481558652035089
 10
3.552687993337699
 20
-6.465820552145514
 10
3.48992272400326
 20
-6.448605129062385
 10
3.427749701660862
 20
-6.429781589313789
 10
3.366246175829858
 20
-6.409182688797687
 10
3.305489396029578
 20
-6.386641183412034
 10
3.245556611779363
 20
-6.361989829054792
 10
3.18652507259855
 20
-6.335061381623912
 10
3.128472028006487
 20
-6.305688597017355
 10
3.071474727522497
 20
-6.273704231133075
 10
3.015623295585821
 20
-6.239020373613494
 10
2.961059356315248
 20
-6.201866449078855
 10
2.907937408749458
 20
-6.162551215893872
 10
2.856411951927116
 20
-6.121383432423247
 10
2.806637484886912
 20
-6.078671857031691
 10
2.758768506667522
 20
-6.034725248083911
 10
2.71295951630762
 20
-5.989852363944614
 10
2.669365012845894
 20
-5.944361962978509
 10
2.62809228728142
 20
-5.89848775812864
 10
2.589059798454884
 20
-5.852163280651399
 10
2.552138797167403
 20
-5.805247016381513
 10
2.517200534220079
 20
-5.757597451153709
 10
2.484116260413997
 20
-5.709073070802715
 10
2.452757226550278
 20
-5.659532361163263
 10
2.422994683430013
 20
-5.608833808070079
 10
2.394699881854315
 20
-5.556835897357887
 10
2.36778269741215
 20
-5.503416412216606
 10
2.342307504844045
 20
-5.448530325256885
 10
2.318377303678389
 20
-5.392151906444557
 10
2.296095093443592
 20
-5.334255425745463
 10
2.275563873668041
 20
-5.274815153125439
 10
2.256886643880146
 20
-5.213805358550317
 10
2.240166403608284
 20
-5.151200311985935
 10
2.225506152380865
 20
-5.086974283398133
 10
2.213015327143914
 20
-5.02114657007716
 10
2.202829114513953
 20
-4.953916578610953
 10
2.195089138525132
 20
-4.885528742911872
 10
2.18993702321159
 20
-4.816227496892262
 10
2.18751439260749
 20
-4.746257274464483
 10
2.187962870746978
 20
-4.675862509540889
 10
2.191424081664191
 20
-4.605287636033835
 10
2.198039649393299
 20
-4.534777087855671
 10
2.20790184412296
 20
-4.464577443015222
 10
2.220905520659972
 20
-4.394943855907188
 10
2.236896179965658
 20
-4.326133625022735
 10
2.255719323001344
 20
-4.258404048853029
 10
2.277220450728353
 20
-4.192012425889234
 10
2.301245064107998
 20
-4.127216054622519
 10
2.327638664101605
 20
-4.064272233544049
 10
2.356246751670491
 20
-4.003438261144998
 10
2.386972764929597
 20
-3.944911399592174
 10
2.419951890608305
 20
-3.888648765755031
 10
2.455377252589586
 20
-3.83454744017866
 10
2.493441974756434
 20
-3.782504503408168
 10
2.53433918099184
 20
-3.732417035988638
 10
2.578261995178789
 20
-3.684182118465177
 10
2.625403541200262
 20
-3.637696831382875
 10
2.675956942939259
 20
-3.592858255286838
 10
2.730018762337264
 20
-3.549634227853493
 10
2.787299313569792
 20
-3.508275615284602
 10
2.847412348870873
 20
-3.469104040913253
 10
2.909971620474537
 20
-3.432441128072544
 10
2.974590880614813
 20
-3.398608500095564
 10
3.04088388152571
 20
-3.367927780315405
 10
3.108464375441268
 20
-3.340720592065166
 10
3.176946114595507
 20
-3.317308558677936
 10
3.245992205067933
 20
-3.297953267146237
 10
3.315463168319919
 20
-3.282676159100263
 10
3.385268879658318
 20
-3.271438639829657
 10
3.455319214389982
 20
-3.264202114624051
 10
3.52552404782177
 20
-3.260927988773065
 10
3.595793255260536
 20
-3.261577667566335
 10
3.666036712013119
 20
-3.266112556293493
 10
3.736164293386398
 20
-3.274494060244165
 10
3.806021500144177
 20
-3.286666431416809
 10
3.875196334878197
 20
-3.302505308645144
 10
3.943212425637187
 20
-3.321869177471728
 10
4.009593400469853
 20
-3.344616523439104
 10
4.073862887424906
 20
-3.370605832089822
 10
4.135544514551074
 20
-3.399695588966424
 10
4.194161909897053
 20
-3.43174427961147
 10
4.249238701511576
 20
-3.466610389567498
 10
4.300403662580135
 20
-3.504118097957023
 10
4.347706146835339
 20
-3.543954358222396
 10
4.391300653146596
 20
-3.58577181738594
 10
4.431341680383305
 20
-3.629223122469963
 10
4.467983727414854
 20
-3.673960920496785
 10
4.501381293110659
 20
-3.719637858488725
 10
4.531688876340118
 20
-3.765906583468096
 10
4.559060975972621
 20
-3.812419742457215
 10
4.583645653459941
 20
-3.858842847381851
 10
4.605565220583362
 20
-3.904892869781609
 10
4.624935551706529
 20
-3.950299646099535
 10
4.641872521193078
 20
-3.994793012778692
 10
4.656492003406671
 20
-4.038102806262133
 10
4.66890987271095
 20
-4.079958862992914
 10
4.679242003469565
 20
-4.12009101941409
 10
4.68760427004617
 20
-4.158229111968709
 10
4.694121130084322
 20
-4.194180166650428
 10
4.698951374347319
 20
-4.228059967655286
 10
4.702262376878362
 20
-4.260061488729914
 10
4.704221511720663
 20
-4.290377703620946
 10
4.704996152917417
 20
-4.31920158607501
 10
4.704753674511842
 20
-4.346726109838745
 10
4.703661450547149
 20
-4.373144248658785
 10
4.701886855066528
 20
-4.39864897628176
 10
4.699560783159418
 20
-4.423422545760943
 10
4.696668214100029
 20
-4.447604327376154
 10
4.693157648208814
 20
-4.471322970713855
 10
4.688977585806218
 20
-4.494707125360506
 10
4.684076527212664
 20
-4.517885440902562
 10
4.678402972748613
 20
-4.540986566926489
 10
4.671905422734491
 20
-4.564139153018741
 10
4.664532377490751
 20
-4.587471848765781
 10
4.65624521228593
 20
-4.61105541149373
 10
4.647056802180974
 20
-4.634729029487338
 10
4.636992897184957
 20
-4.658273998771028
 10
4.626079247306932
 20
-4.681471615369217
 10
4.614341602555952
 20
-4.704103175306316
 10
4.601805712941081
 20
-4.725949974606742
 10
4.588497328471381
 20
-4.746793309294916
 10
4.574442199155901
 20
-4.766414475395246
 10
4.559694227558107
 20
-4.784654881742679
 10
4.54441992645904
 20
-4.801596388414231
 10
4.528813961194153
 20
-4.817380968297451
 10
4.513070997098898
 20
-4.83215059427988
 10
4.497385699508708
 20
-4.846047239249062
 10
4.481952733759047
 20
-4.859212876092541
 10
4.466966765185348
 20
-4.871789477697866
 10
4.452622459123073
 20
-4.883919016952573
 10
4.439059589925472
 20
-4.895722332909181
 10
4.426198368017097
 20
-4.907235729280085
 10
4.413904112840291
 20
-4.91847437594265
 10
4.402042143837406
 20
-4.929453442774236
 10
4.390477780450797
 20
-4.940188099652211
 10
4.379076342122825
 20
-4.950693516453942
 10
4.367703148295824
 20
-4.960984863056786
 10
4.356223518412167
 20
-4.971077309338115
 10
4.344535212243361
 20
-4.980992291003379
 10
4.332665750877569
 20
-4.99077630707037
 10
4.320675095732135
 20
-5.000482122384969
 10
4.30862320822437
 20
-5.010162501793065
 10
4.296570049771624
 20
-5.019870210140532
 10
4.284575581791217
 20
-5.029658012273258
 10
4.272699765700477
 20
-5.039578673037119
 10
4.261002562916748
 20
-5.049684957278003
 10
4.249553467494922
 20
-5.06001338608195
 10
4.238460104040223
 20
-5.070535505495644
 10
4.227839629795434
 20
-5.081206617805942
 10
4.217809202003354
 20
-5.091982025299688
 10
4.208485977906771
 20
-5.102817030263734
 10
4.199987114748468
 20
-5.113666934984927
 10
4.192429769771241
 20
-5.124487041750116
 10
4.185931100217886
 20
-5.135232652846152
 10
4.180608349494081
 20
-5.145863025229589
 10
4.176579105657078
 20
-5.156353234535804
 10
4.173961042927034
 20
-5.166682311069882
 10
4.172871835524079
 20
-5.17682928513691
 10
4.173429157668381
 20
-5.186773187041967
 10
4.175750683580079
 20
-5.196493047090136
 10
4.179954087479325
 20
-5.205967895586509
 10
4.186157043586255
 20
-5.215176762836158
  0
LWPOLYLINE
  5
1706A
330
16B91
100
AcDbEntity
  8
0
100
AcDbPolyline
 90
      279
 70
     0
 43
0.0
 10
12.95349433534326
 20
-2.667940133391085
 10
12.95808998645261
 20
-2.620193652735891
 10
12.9641629090201
 20
-2.572293747270912
 10
12.97163185813253
 20
-2.52455663806871
 10
12.98041558887671
 20
-2.477298546201846
 10
12.99043285633945
 20
-2.430835692742884
 10
13.00160241560754
 20
-2.38548429876438
 10
13.0138430217678
 20
-2.341560585338902
 10
13.02707342990706
 20
-2.299380773539008
 10
13.04125214426227
 20
-2.259158187253331
 10
13.05649666567121
 20
-2.220694561634784
 10
13.0729642441218
 20
-2.183688734652357
 10
13.09081212960198
 20
-2.147839544275036
 10
13.11019757209969
 20
-2.112845828471807
 10
13.13127782160285
 20
-2.078406425211655
 10
13.15421012809942
 20
-2.044220172463566
 10
13.17915174157732
 20
-2.009985908196531
 10
13.20620167124119
 20
-1.9755021302848
 10
13.23522596316249
 20
-1.940965976223703
 10
13.26603242262941
 20
-1.906674243413837
 10
13.29842885493011
 20
-1.872923729255795
 10
13.33222306535274
 20
-1.840011231150177
 10
13.36722285918549
 20
-1.808233546497578
 10
13.40323604171653
 20
-1.777887472698593
 10
13.44007041823404
 20
-1.749269807153823
 10
13.47760077097633
 20
-1.722613332132511
 10
13.51596978998238
 20
-1.697894769378514
 10
13.55538714224133
 20
-1.675026825504347
 10
13.59606249474232
 20
-1.653922207122516
 10
13.6382055144745
 20
-1.634493620845526
 10
13.68202586842699
 20
-1.616653773285895
 10
13.72773322358893
 20
-1.600315371056128
 10
13.77553724694947
 20
-1.585391120768731
 10
13.82553986001338
 20
-1.57181700727613
 10
13.87741200234799
 20
-1.559622128390383
 10
13.93071686803629
 20
-1.548858860163466
 10
13.98501765116123
 20
-1.539579578647348
 10
14.0398775458058
 20
-1.531836659894009
 10
14.09485974605296
 20
-1.525682479955417
 10
14.1495274459857
 20
-1.521169414883543
 10
14.20344383968698
 20
-1.518349840730366
 10
14.2562522023415
 20
-1.517306686204259
 10
14.30791613354081
 20
-1.518245090639213
 10
14.35847931397817
 20
-1.521400746025627
 10
14.40798542434686
 20
-1.527009344353896
 10
14.45647814534015
 20
-1.535306577614413
 10
14.50400115765131
 20
-1.546528137797574
 10
14.55059814197361
 20
-1.560909716893777
 10
14.59631277900031
 20
-1.578687006893414
 10
14.64113924472363
 20
-1.599988037994255
 10
14.6848736963315
 20
-1.62451019322355
 10
14.72726278631078
 20
-1.651843193815922
 10
14.76805316714835
 20
-1.681576761005995
 10
14.80699149133108
 20
-1.713300616028393
 10
14.84382441134585
 20
-1.746604480117738
 10
14.87829857967952
 20
-1.781078074508652
 10
14.91016064881895
 20
-1.81631112043576
 10
14.93922570422431
 20
-1.851957354281263
 10
14.9655825632488
 20
-1.887926573017691
 10
14.98938847621893
 20
-1.924192588765138
 10
15.01080069346118
 20
-1.960729213643712
 10
15.02997646530205
 20
-1.997510259773516
 10
15.04707304206801
 20
-2.034509539274654
 10
15.06224767408559
 20
-2.071700864267228
 10
15.07565761168126
 20
-2.109058046871342
 10
15.08743826480666
 20
-2.146569448056319
 10
15.09763768191406
 20
-2.184281624188354
 10
15.10628207108086
 20
-2.222255680482859
 10
15.11339764038445
 20
-2.260552722155251
 10
15.11901059790226
 20
-2.299233854420944
 10
15.12314715171166
 20
-2.33836018249535
 10
15.12583350989009
 20
-2.377992811593887
 10
15.12709588051493
 20
-2.418192846931966
 10
15.12693717543491
 20
-2.458960288428427
 10
15.12526712158406
 20
-2.50005071481581
 10
15.1219721496677
 20
-2.541158599530072
 10
15.11693869039117
 20
-2.581978416007184
 10
15.11005317445979
 20
-2.622204637683099
 10
15.10120203257891
 20
-2.661531737993785
 10
15.09027169545387
 20
-2.699654190375205
 10
15.07714859378998
 20
-2.736266468263318
 10
15.06178904714791
 20
-2.771108146632175
 10
15.04442893050956
 20
-2.804099206608173
 10
15.02537400771213
 20
-2.835204730855793
 10
15.00493004259286
 20
-2.864389802039517
 10
14.98340279898896
 20
-2.891619502823827
 10
14.96109804073763
 20
-2.916858915873207
 10
14.93832153167611
 20
-2.940073123852138
 10
14.9153790356416
 20
-2.961227209425104
 10
14.89254805591708
 20
-2.980308061299921
 10
14.86999305356849
 20
-2.997389792357755
 10
14.84785022910754
 20
-3.012568321523104
 10
14.82625578304595
 20
-3.025939567720467
 10
14.8053459158954
 20
-3.037599449874343
 10
14.7852568281676
 20
-3.047643886909231
 10
14.76612472037426
 20
-3.056168797749633
 10
14.74808579302709
 20
-3.063270101320045
 10
14.73123412319632
 20
-3.069050439082532
 10
14.71549529418638
 20
-3.073639342649415
 10
14.70075276586021
 20
-3.077173066170575
 10
14.68688999808079
 20
-3.079787863795901
 10
14.67379045071107
 20
-3.081619989675278
 10
14.66133758361399
 20
-3.082805697958587
 10
14.64941485665254
 20
-3.083481242795715
 10
14.63790572968966
 20
-3.083782878336544
 10
14.62671616834156
 20
-3.08382464042194
 10
14.6158421612375
 20
-3.083631691656679
 10
14.60530220275999
 20
-3.083206976336517
 10
14.59511478729153
 20
-3.082553438757209
 10
14.58529840921463
 20
-3.08167402321451
 10
14.57587156291181
 20
-3.080571674004179
 10
14.56685274276556
 20
-3.07924933542197
 10
14.55826044315841
 20
-3.077709951763635
 10
14.55010252181325
 20
-3.075960093941665
 10
14.54234428981463
 20
-3.074020839335457
 10
14.53494042158751
 20
-3.071916891941144
 10
14.5278455915568
 20
-3.069672955754854
 10
14.52101447414746
 20
-3.067313734772722
 10
14.51440174378443
 20
-3.064863932990873
 10
14.50796207489265
 20
-3.06234825440544
 10
14.50165014189705
 20
-3.059791403012557
 10
14.49543881812903
 20
-3.057210877492377
 10
14.48937377254559
 20
-3.054595355261168
 10
14.4835188730102
 20
-3.051926308419229
 10
14.47793798738632
 20
-3.049185209066853
 10
14.47269498353741
 20
-3.046353529304334
 10
14.46785372932692
 20
-3.043412741231971
 10
14.46347809261831
 20
-3.040344316950057
 10
14.45963194127504
 20
-3.037129728558887
 10
14.45636678163497
 20
-3.033760398309083
 10
14.45368467393355
 20
-3.030267549052556
 10
14.45157531688065
 20
-3.026692353791552
 10
14.45002840918611
 20
-3.023075985528306
 10
14.4490336495598
 20
-3.019459617265061
 10
14.44858073671159
 20
-3.015884422004055
 10
14.44865936935131
 20
-3.012391572747529
 10
14.44925924618885
 20
-3.009022242497723
 10
14.45037281296167
 20
-3.005807311006317
 10
14.45200350351781
 20
-3.002736485022751
 10
14.4541574987329
 20
-2.999789178045904
 10
14.45684097948262
 20
-2.996944803574658
 10
14.4600601266426
 20
-2.994182775107889
 10
14.46382112108851
 20
-2.991482506144482
 10
14.468130143696
 20
-2.988823410183316
 10
14.47299337534071
 20
-2.986184900723269
 10
14.47840841243342
 20
-2.983544675713347
 10
14.4843385135254
 20
-2.980873570903046
 10
14.49073835270302
 20
-2.978140706491993
 10
14.49756260405269
 20
-2.97531520267981
 10
14.50476594166077
 20
-2.972366179666122
 10
14.51230303961365
 20
-2.969262757650549
 10
14.52012857199773
 20
-2.965974056832719
 10
14.52819721289938
 20
-2.96246919741225
 10
14.53647325104402
 20
-2.958721073772527
 10
14.5449594337132
 20
-2.954717677031947
 10
14.5536681228275
 20
-2.950450772492675
 10
14.56261168030753
 20
-2.945912125456865
 10
14.57180246807384
 20
-2.941093501226678
 10
14.58125284804703
 20
-2.93598666510427
 10
14.59097518214768
 20
-2.930583382391803
 10
14.60098183229638
 20
-2.924875418391432
 10
14.61128035306597
 20
-2.918847333138044
 10
14.6218590696384
 20
-2.912454865597416
 10
14.63270149984786
 20
-2.90564654946805
 10
14.64379116152857
 20
-2.898370918448454
 10
14.65511157251473
 20
-2.890576506237127
 10
14.66664625064054
 20
-2.882211846532576
 10
14.67837871374022
 20
-2.873225473033301
 10
14.69029247964797
 20
-2.863565919437807
 10
14.70237052854041
 20
-2.853185526904386
 10
14.71459368996385
 20
-2.842051866430479
 10
14.726942255807
 20
-2.830136316473316
 10
14.73939651795862
 20
-2.817410255490123
 10
14.7519367683074
 20
-2.803845061938135
 10
14.76454329874209
 20
-2.789412114274577
 10
14.77719640115139
 20
-2.774082790956679
 10
14.78987636742405
 20
-2.757828470441674
 10
14.80254807207465
 20
-2.740628825586698
 10
14.81511472012127
 20
-2.722496706848545
 10
14.82746409920785
 20
-2.703453259083911
 10
14.83948399697831
 20
-2.683519627149501
 10
14.8510622010766
 20
-2.662716955902014
 10
14.86208649914666
 20
-2.641066390198151
 10
14.87244467883243
 20
-2.618589074894611
 10
14.88202452777783
 20
-2.5953061548481
 10
14.89071614422557
 20
-2.571251593686829
 10
14.89841886881337
 20
-2.546510630125068
 10
14.90503435277771
 20
-2.521181321648604
 10
14.91046424735501
 20
-2.495361725743217
 10
14.91461020378181
 20
-2.469149899894696
 10
14.91737387329454
 20
-2.442643901588819
 10
14.91865690712968
 20
-2.415941788311377
 10
14.91836095652371
 20
-2.389141617548149
 10
14.91640843221479
 20
-2.362330923426544
 10
14.91280478294791
 20
-2.335555146640456
 10
14.90757621696975
 20
-2.308849204525403
 10
14.900748942527
 20
-2.282248014416902
 10
14.89234916786633
 20
-2.255786493650474
 10
14.88240310123444
 20
-2.229499559561632
 10
14.87093695087801
 20
-2.203422129485896
 10
14.85797692504371
 20
-2.177589120758784
 10
14.84352884771114
 20
-2.152039815394926
 10
14.82751700579146
 20
-2.12683095412541
 10
14.80984530192878
 20
-2.102023642360439
 10
14.79041763876718
 20
-2.077678985510209
 10
14.76913791895073
 20
-2.053858088984924
 10
14.74591004512353
 20
-2.030622058194782
 10
14.72063791992967
 20
-2.008031998549986
 10
14.69322544601321
 20
-1.986149015460737
 10
14.66362894273734
 20
-1.96504439852357
 10
14.63201439634147
 20
-1.944830174080372
 10
14.59860020978414
 20
-1.925628552659368
 10
14.56360478602384
 20
-1.907561744788772
 10
14.5272465280191
 20
-1.890751960996811
 10
14.48974383872842
 20
-1.875321411811706
 10
14.45131512111032
 20
-1.861392307761678
 10
14.41217877812333
 20
-1.849086859374951
 10
14.37252118030217
 20
-1.838506908758374
 10
14.33240056848658
 20
-1.829672824333318
 10
14.29184315109253
 20
-1.822584606099782
 10
14.25087513653597
 20
-1.817242254057767
 10
14.20952273323287
 20
-1.813645768207272
 10
14.16781214959918
 20
-1.8117951485483
 10
14.12576959405087
 20
-1.81169039508085
 10
14.08342127500391
 20
-1.81333150780492
 10
14.04081232909001
 20
-1.816724306308893
 10
13.99806360580405
 20
-1.821897888534693
 10
13.95531488285665
 20
-1.828887172012622
 10
13.91270593795844
 20
-1.837727074272986
 10
13.87037654882004
 20
-1.848452512846083
 10
13.82846649315207
 20
-1.861098405262224
 10
13.78711554866518
 20
-1.875699669051714
 10
13.74646349306998
 20
-1.892291221744849
 10
13.70664136796666
 20
-1.910878883027413
 10
13.66774527051365
 20
-1.931352081207073
 10
13.62986256175892
 20
-1.953571146746972
 10
13.59308060275046
 20
-1.977396410110257
 10
13.55748675453625
 20
-2.002688201760066
 10
13.52316837816428
 20
-2.029306852159544
 10
13.49021283468253
 20
-2.057112691771835
 10
13.45870748513896
 20
-2.085966051060082
 10
13.42873241057889
 20
-2.115731625199006
 10
13.40033857203683
 20
-2.146291568209639
 10
13.37356965054459
 20
-2.177532398824596
 10
13.34846932713403
 20
-2.20934063577649
 10
13.32508128283696
 20
-2.241602797797932
 10
13.30344919868521
 20
-2.274205403621539
 10
13.28361675571058
 20
-2.307034971979919
 10
13.26562763494495
 20
-2.339978021605685
 10
13.2495167811686
 20
-2.372951623887857
 10
13.23528419415584
 20
-2.405995060841064
 10
13.22292113742946
 20
-2.43917816713634
 10
13.21241887451225
 20
-2.472570777444723
 10
13.20376866892698
 20
-2.506242726437247
 10
13.19696178419647
 20
-2.540263848784947
 10
13.19198948384348
 20
-2.574703979158859
 10
13.18884303139082
 20
-2.609632952230015
 10
13.18747508461723
 20
-2.645048976644118
 10
13.18768387832542
 20
-2.68066375694553
 10
13.18922904157403
 20
-2.716117371653274
 10
13.19187020342174
 20
-2.751049899286377
 10
13.1953669929272
 20
-2.785101418363865
 10
13.19947903914907
 20
-2.817912007404761
 10
13.20396597114602
 20
-2.849121744928094
 10
13.2085874179767
 20
-2.87837070945289
 10
13.21316738899826
 20
-2.905417813629191
 10
13.2177874147619
 20
-2.930497306631122
 10
13.22259340611726
 20
-2.953962271763822
 10
13.22773127391402
 20
-2.976165792332435
 10
13.23334692900183
 20
-2.997460951642101
 10
13.23958628223039
 20
-3.018200832997964
 10
13.24659524444933
 20
-3.038738519705164
 10
13.25451972650835
 20
-3.059427095068839
 10
13.26358363735536
 20
-3.080765975772885
 10
13.27432287833135
 20
-3.103839912016179
 10
13.28735134887558
 20
-3.129879987376347
 10
13.3032829484273
 20
-3.160117285431014
 10
13.32273157642575
 20
-3.195782889757816
 10
13.328567506968
 20
-3.20625830869385
  0
POLYLINE
  5
17183
330
16B91
100
AcDbEntity
  8
0
100
AcDb2dPolyline
 66
     1
 10
0.0
 20
0.0
 30
0.0
 70
     5
 75
     6
  0
VERTEX
  5
17184
330
17183
100
AcDbEntity
  8
0
100
AcDbVertex
100
AcDb2dVertex
 10
8.296440710774596
 20
-3.090224018972323
 30
0.0
 70
    16
  0
VERTEX
  5
17185
330
17183
100
AcDbEntity
  8
0
100
AcDbVertex
100
AcDb2dVertex
 10
8.287149695278651
 20
-3.061732345314167
 30
0.0
 70
     8
  0
VERTEX
  5
17186
330
17183
100
AcDbEntity
  8
0
100
AcDbVertex
100
AcDb2dVertex
 10
8.286372522122938
 20
-3.055973733099484
 30
0.0
 70
     8
  0
VERTEX
  5
17187
330
17183
100
AcDbEntity
  8
0
100
AcDbVertex
100
AcDb2dVertex
 10
8.285738017789926
 20
-3.049457309743349
 30
0.0
 70
     8
  0
VERTEX
  5
17188
330
17183
100
AcDbEntity
  8
0
100
AcDbVertex
100
AcDb2dVertex
 10
8.285268709220938
 20
-3.042115547821145
 30
0.0
 70
     8
  0
VERTEX
  5
17189
330
17183
100
AcDbEntity
  8
0
100
AcDbVertex
100
AcDb2dVertex
 10
8.284987123357293
 20
-3.033880919908248
 30
0.0
 70
     8
  0
VERTEX
  5
1718A
330
17183
100
AcDbEntity
  8
0
100
AcDbVertex
100
AcDb2dVertex
 10
8.284915787140294
 20
-3.024685898580051
 30
0.0
 70
     8
  0
VERTEX
  5
1718B
330
17183
100
AcDbEntity
  8
0
100
AcDbVertex
100
AcDb2dVertex
 10
8.285077227511276
 20
-3.014462956411934
 30
0.0
 70
     8
  0
VERTEX
  5
1718C
330
17183
100
AcDbEntity
  8
0
100
AcDbVertex
100
AcDb2dVertex
 10
8.285493971411561
 20
-3.003144565979269
 30
0.0
 70
     8
  0
VERTEX
  5
1718D
330
17183
100
AcDbEntity
  8
0
100
AcDbVertex
100
AcDb2dVertex
 10
8.286188545782431
 20
-2.990663199857454
 30
0.0
 70
     8
  0
VERTEX
  5
1718E
330
17183
100
AcDbEntity
  8
0
100
AcDbVertex
100
AcDb2dVertex
 10
8.28716908539976
 20
-2.977001038423049
 30
0.0
 70
     8
  0
VERTEX
  5
1718F
330
17183
100
AcDbEntity
  8
0
100
AcDbVertex
100
AcDb2dVertex
 10
8.288386156377406
 20
-2.962339093257397
 30
0.0
 70
     8
  0
VERTEX
  5
17190
330
17183
100
AcDbEntity
  8
0
100
AcDbVertex
100
AcDb2dVertex
 10
8.289775932663786
 20
-2.946908083743032
 30
0.0
 70
     8
  0
VERTEX
  5
17191
330
17183
100
AcDbEntity
  8
0
100
AcDbVertex
100
AcDb2dVertex
 10
8.291274588207281
 20
-2.930938729262481
 30
0.0
 70
     8
  0
VERTEX
  5
17192
330
17183
100
AcDbEntity
  8
0
100
AcDbVertex
100
AcDb2dVertex
 10
8.292818296956294
 20
-2.914661749198272
 30
0.0
 70
     8
  0
VERTEX
  5
17193
330
17183
100
AcDbEntity
  8
0
100
AcDbVertex
100
AcDb2dVertex
 10
8.294343232859226
 20
-2.898307862932931
 30
0.0
 70
     8
  0
VERTEX
  5
17194
330
17183
100
AcDbEntity
  8
0
100
AcDbVertex
100
AcDb2dVertex
 10
8.295785569864484
 20
-2.882107789848998
 30
0.0
 70
     8
  0
VERTEX
  5
17195
330
17183
100
AcDbEntity
  8
0
100
AcDbVertex
100
AcDb2dVertex
 10
8.297081481920454
 20
-2.866292249328994
 30
0.0
 70
     8
  0
VERTEX
  5
17196
330
17183
100
AcDbEntity
  8
0
100
AcDbVertex
100
AcDb2dVertex
 10
8.298185169415104
 20
-2.85102110115017
 30
0.0
 70
     8
  0
VERTEX
  5
17197
330
17183
100
AcDbEntity
  8
0
100
AcDbVertex
100
AcDb2dVertex
 10
8.299122938494663
 20
-2.836170766668669
 30
0.0
 70
     8
  0
VERTEX
  5
17198
330
17183
100
AcDbEntity
  8
0
100
AcDbVertex
100
AcDb2dVertex
 10
8.299939121744957
 20
-2.821546807635347
 30
0.0
 70
     8
  0
VERTEX
  5
17199
330
17183
100
AcDbEntity
  8
0
100
AcDbVertex
100
AcDb2dVertex
 10
8.300678051751768
 20
-2.806954785801067
 30
0.0
 70
     8
  0
VERTEX
  5
1719A
330
17183
100
AcDbEntity
  8
0
100
AcDbVertex
100
AcDb2dVertex
 10
8.301384061100918
 20
-2.792200262916687
 30
0.0
 70
     8
  0
VERTEX
  5
1719B
330
17183
100
AcDbEntity
  8
0
100
AcDbVertex
100
AcDb2dVertex
 10
8.302101482378205
 20
-2.777088800733072
 30
0.0
 70
     8
  0
VERTEX
  5
1719C
330
17183
100
AcDbEntity
  8
0
100
AcDbVertex
100
AcDb2dVertex
 10
8.302874648169437
 20
-2.761425961001076
 30
0.0
 70
     8
  0
VERTEX
  5
1719D
330
17183
100
AcDbEntity
  8
0
100
AcDbVertex
100
AcDb2dVertex
 10
8.30374789106041
 20
-2.745017305471561
 30
0.0
 70
     8
  0
VERTEX
  5
1719E
330
17183
100
AcDbEntity
  8
0
100
AcDbVertex
100
AcDb2dVertex
 10
8.304749397715204
 20
-2.72768945223784
 30
0.0
 70
     8
  0
VERTEX
  5
1719F
330
17183
100
AcDbEntity
  8
0
100
AcDbVertex
100
AcDb2dVertex
 10
8.305842771110953
 20
-2.70935324476306
 30
0.0
 70
     8
  0
VERTEX
  5
171A0
330
17183
100
AcDbEntity
  8
0
100
AcDbVertex
100
AcDb2dVertex
 10
8.306975468303038
 20
-2.689940582852822
 30
0.0
 70
     8
  0
VERTEX
  5
171A1
330
17183
100
AcDbEntity
  8
0
100
AcDbVertex
100
AcDb2dVertex
 10
8.308094946346862
 20
-2.669383366312715
 30
0.0
 70
     8
  0
VERTEX
  5
171A2
330
17183
100
AcDbEntity
  8
0
100
AcDbVertex
100
AcDb2dVertex
 10
8.309148662297813
 20
-2.647613494948347
 30
0.0
 70
     8
  0
VERTEX
  5
171A3
330
17183
100
AcDbEntity
  8
0
100
AcDbVertex
100
AcDb2dVertex
 10
8.310084073211291
 20
-2.624562868565311
 30
0.0
 70
     8
  0
VERTEX
  5
171A4
330
17183
100
AcDbEntity
  8
0
100
AcDbVertex
100
AcDb2dVertex
 10
8.310848636142679
 20
-2.600163386969208
 30
0.0
 70
     8
  0
VERTEX
  5
171A5
330
17183
100
AcDbEntity
  8
0
100
AcDbVertex
100
AcDb2dVertex
 10
8.31138980814739
 20
-2.574346949965638
 30
0.0
 70
     8
  0
VERTEX
  5
171A6
330
17183
100
AcDbEntity
  8
0
100
AcDbVertex
100
AcDb2dVertex
 10
8.311691169833821
 20
-2.547071545347064
 30
0.0
 70
     8
  0
VERTEX
  5
171A7
330
17183
100
AcDbEntity
  8
0
100
AcDbVertex
100
AcDb2dVertex
 10
8.311880796022478
 20
-2.518399512853453
 30
0.0
 70
     8
  0
VERTEX
  5
171A8
330
17183
100
AcDbEntity
  8
0
100
AcDbVertex
100
AcDb2dVertex
 10
8.312122885086887
 20
-2.488419280211641
 30
0.0
 70
     8
  0
VERTEX
  5
171A9
330
17183
100
AcDbEntity
  8
0
100
AcDbVertex
100
AcDb2dVertex
 10
8.312581635400563
 20
-2.457219275148454
 30
0.0
 70
     8
  0
VERTEX
  5
171AA
330
17183
100
AcDbEntity
  8
0
100
AcDbVertex
100
AcDb2dVertex
 10
8.313421245337032
 20
-2.424887925390731
 30
0.0
 70
     8
  0
VERTEX
  5
171AB
330
17183
100
AcDbEntity
  8
0
100
AcDbVertex
100
AcDb2dVertex
 10
8.314805913269816
 20
-2.391513658665302
 30
0.0
 70
     8
  0
VERTEX
  5
171AC
330
17183
100
AcDbEntity
  8
0
100
AcDbVertex
100
AcDb2dVertex
 10
8.316899837572435
 20
-2.357184902699002
 30
0.0
 70
     8
  0
VERTEX
  5
171AD
330
17183
100
AcDbEntity
  8
0
100
AcDbVertex
100
AcDb2dVertex
 10
8.319867216618401
 20
-2.321990085218662
 30
0.0
 70
     8
  0
VERTEX
  5
171AE
330
17183
100
AcDbEntity
  8
0
100
AcDbVertex
100
AcDb2dVertex
 10
8.323848485286751
 20
-2.286006496122408
 30
0.0
 70
     8
  0
VERTEX
  5
171AF
330
17183
100
AcDbEntity
  8
0
100
AcDbVertex
100
AcDb2dVertex
 10
8.328889024478474
 20
-2.249266873993514
 30
0.0
 70
     8
  0
VERTEX
  5
171B0
330
17183
100
AcDbEntity
  8
0
100
AcDbVertex
100
AcDb2dVertex
 10
8.335010451600069
 20
-2.211792819586557
 30
0.0
 70
     8
  0
VERTEX
  5
171B1
330
17183
100
AcDbEntity
  8
0
100
AcDbVertex
100
AcDb2dVertex
 10
8.342234384058039
 20
-2.173605933656097
 30
0.0
 70
     8
  0
VERTEX
  5
171B2
330
17183
100
AcDbEntity
  8
0
100
AcDbVertex
100
AcDb2dVertex
 10
8.350582439258872
 20
-2.134727816956706
 30
0.0
 70
     8
  0
VERTEX
  5
171B3
330
17183
100
AcDbEntity
  8
0
100
AcDbVertex
100
AcDb2dVertex
 10
8.360076234609076
 20
-2.095180070242954
 30
0.0
 70
     8
  0
VERTEX
  5
171B4
330
17183
100
AcDbEntity
  8
0
100
AcDbVertex
100
AcDb2dVertex
 10
8.370737387515138
 20
-2.054984294269401
 30
0.0
 70
     8
  0
VERTEX
  5
171B5
330
17183
100
AcDbEntity
  8
0
100
AcDbVertex
100
AcDb2dVertex
 10
8.382587515383576
 20
-2.01416208979063
 30
0.0
 70
     8
  0
VERTEX
  5
171B6
330
17183
100
AcDbEntity
  8
0
100
AcDbVertex
100
AcDb2dVertex
 10
8.395650037170153
 20
-1.972774659382842
 30
0.0
 70
     8
  0
VERTEX
  5
171B7
330
17183
100
AcDbEntity
  8
0
100
AcDbVertex
100
AcDb2dVertex
 10
8.409955578027808
 20
-1.931041612908833
 30
0.0
 70
     8
  0
VERTEX
  5
171B8
330
17183
100
AcDbEntity
  8
0
100
AcDbVertex
100
AcDb2dVertex
 10
8.425536564658768
 20
-1.88922216205305
 30
0.0
 70
     8
  0
VERTEX
  5
171B9
330
17183
100
AcDbEntity
  8
0
100
AcDbVertex
100
AcDb2dVertex
 10
8.442425423765254
 20
-1.847575518499922
 30
0.0
 70
     8
  0
VERTEX
  5
171BA
330
17183
100
AcDbEntity
  8
0
100
AcDbVertex
100
AcDb2dVertex
 10
8.460654582049484
 20
-1.806360893933893
 30
0.0
 70
     8
  0
VERTEX
  5
171BB
330
17183
100
AcDbEntity
  8
0
100
AcDbVertex
100
AcDb2dVertex
 10
8.48025646621369
 20
-1.76583750003941
 30
0.0
 70
     8
  0
VERTEX
  5
171BC
330
17183
100
AcDbEntity
  8
0
100
AcDbVertex
100
AcDb2dVertex
 10
8.501263502960082
 20
-1.726264548500897
 30
0.0
 70
     8
  0
VERTEX
  5
171BD
330
17183
100
AcDbEntity
  8
0
100
AcDbVertex
100
AcDb2dVertex
 10
8.52370811899089
 20
-1.687901251002802
 30
0.0
 70
     8
  0
VERTEX
  5
171BE
330
17183
100
AcDbEntity
  8
0
100
AcDbVertex
100
AcDb2dVertex
 10
8.547626343937634
 20
-1.650931215825657
 30
0.0
 70
     8
  0
VERTEX
  5
171BF
330
17183
100
AcDbEntity
  8
0
100
AcDbVertex
100
AcDb2dVertex
 10
8.573068619149005
 20
-1.615235637634391
 30
0.0
 70
     8
  0
VERTEX
  5
171C0
330
17183
100
AcDbEntity
  8
0
100
AcDbVertex
100
AcDb2dVertex
 10
8.600088988903012
 20
-1.580620107690013
 30
0.0
 70
     8
  0
VERTEX
  5
171C1
330
17183
100
AcDbEntity
  8
0
100
AcDbVertex
100
AcDb2dVertex
 10
8.628741497477653
 20
-1.546890217253553
 30
0.0
 70
     8
  0
VERTEX
  5
171C2
330
17183
100
AcDbEntity
  8
0
100
AcDbVertex
100
AcDb2dVertex
 10
8.659080189150925
 20
-1.513851557586024
 30
0.0
 70
     8
  0
VERTEX
  5
171C3
330
17183
100
AcDbEntity
  8
0
100
AcDbVertex
100
AcDb2dVertex
 10
8.691159108200828
 20
-1.481309719948441
 30
0.0
 70
     8
  0
VERTEX
  5
171C4
330
17183
100
AcDbEntity
  8
0
100
AcDbVertex
100
AcDb2dVertex
 10
8.725032298905347
 20
-1.449070295601834
 30
0.0
 70
     8
  0
VERTEX
  5
171C5
330
17183
100
AcDbEntity
  8
0
100
AcDbVertex
100
AcDb2dVertex
 10
8.760753805542504
 20
-1.416938875807211
 30
0.0
 70
     8
  0
VERTEX
  5
171C6
330
17183
100
AcDbEntity
  8
0
100
AcDbVertex
100
AcDb2dVertex
 10
8.798368665067043
 20
-1.384787654793351
 30
0.0
 70
     8
  0
VERTEX
  5
171C7
330
17183
100
AcDbEntity
  8
0
100
AcDbVertex
100
AcDb2dVertex
 10
8.837885885140762
 20
-1.352755238660072
 30
0.0
 70
     8
  0
VERTEX
  5
171C8
330
17183
100
AcDbEntity
  8
0
100
AcDbVertex
100
AcDb2dVertex
 10
8.879305466102218
 20
-1.321046836474933
 30
0.0
 70
     8
  0
VERTEX
  5
171C9
330
17183
100
AcDbEntity
  8
0
100
AcDbVertex
100
AcDb2dVertex
 10
8.922627408289972
 20
-1.289867657305511
 30
0.0
 70
     8
  0
VERTEX
  5
171CA
330
17183
100
AcDbEntity
  8
0
100
AcDbVertex
100
AcDb2dVertex
 10
8.967851712042589
 20
-1.259422910219368
 30
0.0
 70
     8
  0
VERTEX
  5
171CB
330
17183
100
AcDbEntity
  8
0
100
AcDbVertex
100
AcDb2dVertex
 10
9.014978377698602
 20
-1.229917804284078
 30
0.0
 70
     8
  0
VERTEX
  5
171CC
330
17183
100
AcDbEntity
  8
0
100
AcDbVertex
100
AcDb2dVertex
 10
9.064007405596603
 20
-1.201557548567202
 30
0.0
 70
     8
  0
VERTEX
  5
171CD
330
17183
100
AcDbEntity
  8
0
100
AcDbVertex
100
AcDb2dVertex
 10
9.114938796075113
 20
-1.17454735213632
 30
0.0
 70
     8
  0
VERTEX
  5
171CE
330
17183
100
AcDbEntity
  8
0
100
AcDbVertex
100
AcDb2dVertex
 10
9.167745527164438
 20
-1.149063622809415
 30
0.0
 70
     8
  0
VERTEX
  5
171CF
330
17183
100
AcDbEntity
  8
0
100
AcDbVertex
100
AcDb2dVertex
 10
9.222292487661741
 20
-1.125167563406188
 30
0.0
 70
     8
  0
VERTEX
  5
171D0
330
17183
100
AcDbEntity
  8
0
100
AcDbVertex
100
AcDb2dVertex
 10
9.278417544055901
 20
-1.102891575496767
 30
0.0
 70
     8
  0
VERTEX
  5
171D1
330
17183
100
AcDbEntity
  8
0
100
AcDbVertex
100
AcDb2dVertex
 10
9.335958562835811
 20
-1.082268060651263
 30
0.0
 70
     8
  0
VERTEX
  5
171D2
330
17183
100
AcDbEntity
  8
0
100
AcDbVertex
100
AcDb2dVertex
 10
9.394753410490373
 20
-1.063329420439809
 30
0.0
 70
     8
  0
VERTEX
  5
171D3
330
17183
100
AcDbEntity
  8
0
100
AcDbVertex
100
AcDb2dVertex
 10
9.454639953508458
 20
-1.046108056432523
 30
0.0
 70
     8
  0
VERTEX
  5
171D4
330
17183
100
AcDbEntity
  8
0
100
AcDbVertex
100
AcDb2dVertex
 10
9.515456058378969
 20
-1.03063637019952
 30
0.0
 70
     8
  0
VERTEX
  5
171D5
330
17183
100
AcDbEntity
  8
0
100
AcDbVertex
100
AcDb2dVertex
 10
9.5770395915908
 20
-1.016946763310935
 30
0.0
 70
     8
  0
VERTEX
  5
171D6
330
17183
100
AcDbEntity
  8
0
100
AcDbVertex
100
AcDb2dVertex
 10
9.639242831603919
 20
-1.005050036338837
 30
0.0
 70
     8
  0
VERTEX
  5
171D7
330
17183
100
AcDbEntity
  8
0
100
AcDbVertex
100
AcDb2dVertex
 10
9.70197570476275
 20
-0.9948705858630814
 30
0.0
 70
     8
  0
VERTEX
  5
171D8
330
17183
100
AcDbEntity
  8
0
100
AcDbVertex
100
AcDb2dVertex
 10
9.765162549382774
 20
-0.9863112074654873
 30
0.0
 70
     8
  0
VERTEX
  5
171D9
330
17183
100
AcDbEntity
  8
0
100
AcDbVertex
100
AcDb2dVertex
 10
9.82872770377952
 20
-0.9792746967278635
 30
0.0
 70
     8
  0
VERTEX
  5
171DA
330
17183
100
AcDbEntity
  8
0
100
AcDbVertex
100
AcDb2dVertex
 10
9.892595506268484
 20
-0.9736638492320288
 30
0.0
 70
     8
  0
VERTEX
  5
171DB
330
17183
100
AcDbEntity
  8
0
100
AcDbVertex
100
AcDb2dVertex
 10
9.956690295165156
 20
-0.9693814605597971
 30
0.0
 70
     8
  0
VERTEX
  5
171DC
330
17183
100
AcDbEntity
  8
0
100
AcDbVertex
100
AcDb2dVertex
 10
10.02093640878506
 20
-0.9663303262929716
 30
0.0
 70
     8
  0
VERTEX
  5
171DD
330
17183
100
AcDbEntity
  8
0
100
AcDbVertex
100
AcDb2dVertex
 10
10.08525818544368
 20
-0.9644132420133711
 30
0.0
 70
     8
  0
VERTEX
  5
171DE
330
17183
100
AcDbEntity
  8
0
100
AcDbVertex
100
AcDb2dVertex
 10
10.14956375004899
 20
-0.9635438038099524
 30
0.0
 70
     8
  0
VERTEX
  5
171DF
330
17183
100
AcDbEntity
  8
0
100
AcDbVertex
100
AcDb2dVertex
 10
10.21369637387882
 20
-0.9636788098002339
 30
0.0
 70
     8
  0
VERTEX
  5
171E0
330
17183
100
AcDbEntity
  8
0
100
AcDbVertex
100
AcDb2dVertex
 10
10.27748311480344
 20
-0.9647858586088769
 30
0.0
 70
     8
  0
VERTEX
  5
171E1
330
17183
100
AcDbEntity
  8
0
100
AcDbVertex
100
AcDb2dVertex
 10
10.34075103069313
 20
-0.9668325488605532
 30
0.0
 70
     8
  0
VERTEX
  5
171E2
330
17183
100
AcDbEntity
  8
0
100
AcDbVertex
100
AcDb2dVertex
 10
10.40332717941816
 20
-0.9697864791799293
 30
0.0
 70
     8
  0
VERTEX
  5
171E3
330
17183
100
AcDbEntity
  8
0
100
AcDbVertex
100
AcDb2dVertex
 10
10.46503861884883
 20
-0.973615248191656
 30
0.0
 70
     8
  0
VERTEX
  5
171E4
330
17183
100
AcDbEntity
  8
0
100
AcDbVertex
100
AcDb2dVertex
 10
10.52571240685541
 20
-0.9782864545204105
 30
0.0
 70
     8
  0
VERTEX
  5
171E5
330
17183
100
AcDbEntity
  8
0
100
AcDbVertex
100
AcDb2dVertex
 10
10.58517560130818
 20
-0.9837676967908489
 30
0.0
 70
     8
  0
VERTEX
  5
171E6
330
17183
100
AcDbEntity
  8
0
100
AcDbVertex
100
AcDb2dVertex
 10
10.64323451939387
 20
-0.9900016434681203
 30
0.0
 70
     8
  0
VERTEX
  5
171E7
330
17183
100
AcDbEntity
  8
0
100
AcDbVertex
100
AcDb2dVertex
 10
10.69961251556504
 20
-0.9968312423792793
 30
0.0
 70
     8
  0
VERTEX
  5
171E8
330
17183
100
AcDbEntity
  8
0
100
AcDbVertex
100
AcDb2dVertex
 10
10.75401220359069
 20
-1.004074511191863
 30
0.0
 70
     8
  0
VERTEX
  5
171E9
330
17183
100
AcDbEntity
  8
0
100
AcDbVertex
100
AcDb2dVertex
 10
10.80613619723982
 20
-1.011549467573409
 30
0.0
 70
     8
  0
VERTEX
  5
171EA
330
17183
100
AcDbEntity
  8
0
100
AcDbVertex
100
AcDb2dVertex
 10
10.85568711028146
 20
-1.01907412919146
 30
0.0
 70
     8
  0
VERTEX
  5
171EB
330
17183
100
AcDbEntity
  8
0
100
AcDbVertex
100
AcDb2dVertex
 10
10.9023675564846
 20
-1.026466513713552
 30
0.0
 70
     8
  0
VERTEX
  5
171EC
330
17183
100
AcDbEntity
  8
0
100
AcDbVertex
100
AcDb2dVertex
 10
10.94588014961825
 20
-1.033544638807218
 30
0.0
 70
     8
  0
VERTEX
  5
171ED
330
17183
100
AcDbEntity
  8
0
100
AcDbVertex
100
AcDb2dVertex
 10
10.98592750345142
 20
-1.04012652214
 30
0.0
 70
     8
  0
VERTEX
  5
171EE
330
17183
100
AcDbEntity
  8
0
100
AcDbVertex
100
AcDb2dVertex
 10
11.02228972288967
 20
-1.046072488899574
 30
0.0
 70
     8
  0
VERTEX
  5
171EF
330
17183
100
AcDbEntity
  8
0
100
AcDbVertex
100
AcDb2dVertex
 10
11.05505687738486
 20
-1.051412094354157
 30
0.0
 70
     8
  0
VERTEX
  5
171F0
330
17183
100
AcDbEntity
  8
0
100
AcDbVertex
100
AcDb2dVertex
 10
11.08439652752539
 20
-1.056217201292111
 30
0.0
 70
     8
  0
VERTEX
  5
171F1
330
17183
100
AcDbEntity
  8
0
100
AcDbVertex
100
AcDb2dVertex
 10
11.11047623389968
 20
-1.060559672501797
 30
0.0
 70
     8
  0
VERTEX
  5
171F2
330
17183
100
AcDbEntity
  8
0
100
AcDbVertex
100
AcDb2dVertex
 10
11.13346355709612
 20
-1.064511370771571
 30
0.0
 70
     8
  0
VERTEX
  5
171F3
330
17183
100
AcDbEntity
  8
0
100
AcDbVertex
100
AcDb2dVertex
 10
11.15352605770314
 20
-1.068144158889789
 30
0.0
 70
     8
  0
VERTEX
  5
171F4
330
17183
100
AcDbEntity
  8
0
100
AcDbVertex
100
AcDb2dVertex
 10
11.17083129630914
 20
-1.071529899644819
 30
0.0
 70
     8
  0
VERTEX
  5
171F5
330
17183
100
AcDbEntity
  8
0
100
AcDbVertex
100
AcDb2dVertex
 10
11.18554683350252
 20
-1.074740455825015
 30
0.0
 70
     8
  0
VERTEX
  5
171F6
330
17183
100
AcDbEntity
  8
0
100
AcDbVertex
100
AcDb2dVertex
 10
11.19784139123691
 20
-1.07783896084427
 30
0.0
 70
     8
  0
VERTEX
  5
171F7
330
17183
100
AcDbEntity
  8
0
100
AcDbVertex
100
AcDb2dVertex
 10
11.20788833692671
 20
-1.080853630618657
 30
0.0
 70
     8
  0
VERTEX
  5
171F8
330
17183
100
AcDbEntity
  8
0
100
AcDbVertex
100
AcDb2dVertex
 10
11.21586219935154
 20
-1.083803951689766
 30
0.0
 70
     8
  0
VERTEX
  5
171F9
330
17183
100
AcDbEntity
  8
0
100
AcDbVertex
100
AcDb2dVertex
 10
11.221937507291
 20
-1.086709410599194
 30
0.0
 70
     8
  0
VERTEX
  5
171FA
330
17183
100
AcDbEntity
  8
0
100
AcDbVertex
100
AcDb2dVertex
 10
11.22628878952471
 20
-1.089589493888552
 30
0.0
 70
     8
  0
VERTEX
  5
171FB
330
17183
100
AcDbEntity
  8
0
100
AcDbVertex
100
AcDb2dVertex
 10
11.22909057483229
 20
-1.092463688099427
 30
0.0
 70
     8
  0
VERTEX
  5
171FC
330
17183
100
AcDbEntity
  8
0
100
AcDbVertex
100
AcDb2dVertex
 10
11.23051739199332
 20
-1.095351479773424
 30
0.0
 70
     8
  0
VERTEX
  5
171FD
330
17183
100
AcDbEntity
  8
0
100
AcDbVertex
100
AcDb2dVertex
 10
11.23074376978745
 20
-1.098272355452148
 30
0.0
 70
     8
  0
VERTEX
  5
171FE
330
17183
100
AcDbEntity
  8
0
100
AcDbVertex
100
AcDb2dVertex
 10
11.22985760590454
 20
-1.101250767954491
 30
0.0
 70
     8
  0
VERTEX
  5
171FF
330
17183
100
AcDbEntity
  8
0
100
AcDbVertex
100
AcDb2dVertex
 10
11.22760027367561
 20
-1.104331035208577
 30
0.0
 70
     8
  0
VERTEX
  5
17200
330
17183
100
AcDbEntity
  8
0
100
AcDbVertex
100
AcDb2dVertex
 10
11.22362651534193
 20
-1.10756244141983
 30
0.0
 70
     8
  0
VERTEX
  5
17201
330
17183
100
AcDbEntity
  8
0
100
AcDbVertex
100
AcDb2dVertex
 10
11.21759107314478
 20
-1.110994270793673
 30
0.0
 70
     8
  0
VERTEX
  5
17202
330
17183
100
AcDbEntity
  8
0
100
AcDbVertex
100
AcDb2dVertex
 10
11.20914868932545
 20
-1.114675807535529
 30
0.0
 70
     8
  0
VERTEX
  5
17203
330
17183
100
AcDbEntity
  8
0
100
AcDbVertex
100
AcDb2dVertex
 10
11.19795410612521
 20
-1.118656335850822
 30
0.0
 70
     8
  0
VERTEX
  5
17204
330
17183
100
AcDbEntity
  8
0
100
AcDbVertex
100
AcDb2dVertex
 10
11.18366206578534
 20
-1.122985139944969
 30
0.0
 70
     8
  0
VERTEX
  5
17205
330
17183
100
AcDbEntity
  8
0
100
AcDbVertex
100
AcDb2dVertex
 10
11.16592731054713
 20
-1.127711504023394
 30
0.0
 70
     8
  0
VERTEX
  5
17206
330
17183
100
AcDbEntity
  8
0
100
AcDbVertex
100
AcDb2dVertex
 10
11.14453062914594
 20
-1.132875403053805
 30
0.0
 70
     8
  0
VERTEX
  5
17207
330
17183
100
AcDbEntity
  8
0
100
AcDbVertex
100
AcDb2dVertex
 10
11.1197569962935
 20
-1.138479575053022
 30
0.0
 70
     8
  0
VERTEX
  5
17208
330
17183
100
AcDbEntity
  8
0
100
AcDbVertex
100
AcDb2dVertex
 10
11.09201743319563
 20
-1.144517448800151
 30
0.0
 70
     8
  0
VERTEX
  5
17209
330
17183
100
AcDbEntity
  8
0
100
AcDbVertex
100
AcDb2dVertex
 10
11.06172296105816
 20
-1.150982453074286
 30
0.0
 70
     8
  0
VERTEX
  5
1720A
330
17183
100
AcDbEntity
  8
0
100
AcDbVertex
100
AcDb2dVertex
 10
11.02928460108692
 20
-1.157868016654542
 30
0.0
 70
     8
  0
VERTEX
  5
1720B
330
17183
100
AcDbEntity
  8
0
100
AcDbVertex
100
AcDb2dVertex
 10
10.99511337448769
 20
-1.16516756832002
 30
0.0
 70
     8
  0
VERTEX
  5
1720C
330
17183
100
AcDbEntity
  8
0
100
AcDbVertex
100
AcDb2dVertex
 10
10.95962030246633
 20
-1.172874536849814
 30
0.0
 70
     8
  0
VERTEX
  5
1720D
330
17183
100
AcDbEntity
  8
0
100
AcDbVertex
100
AcDb2dVertex
 10
10.92321640622866
 20
-1.180982351023035
 30
0.0
 70
     8
  0
VERTEX
  5
1720E
330
17183
100
AcDbEntity
  8
0
100
AcDbVertex
100
AcDb2dVertex
 10
10.88618718671765
 20
-1.189504323849548
 30
0.0
 70
     8
  0
VERTEX
  5
1720F
330
17183
100
AcDbEntity
  8
0
100
AcDbVertex
100
AcDb2dVertex
 10
10.84831606382499
 20
-1.198533305262246
 30
0.0
 70
     8
  0
VERTEX
  5
17210
330
17183
100
AcDbEntity
  8
0
100
AcDbVertex
100
AcDb2dVertex
 10
10.80926093717955
 20
-1.208182029424801
 30
0.0
 70
     8
  0
VERTEX
  5
17211
330
17183
100
AcDbEntity
  8
0
100
AcDbVertex
100
AcDb2dVertex
 10
10.76867970641018
 20
-1.218563230500861
 30
0.0
 70
     8
  0
VERTEX
  5
17212
330
17183
100
AcDbEntity
  8
0
100
AcDbVertex
100
AcDb2dVertex
 10
10.72623027114574
 20
-1.229789642654099
 30
0.0
 70
     8
  0
VERTEX
  5
17213
330
17183
100
AcDbEntity
  8
0
100
AcDbVertex
100
AcDb2dVertex
 10
10.6815705310151
 20
-1.241974000048173
 30
0.0
 70
     8
  0
VERTEX
  5
17214
330
17183
100
AcDbEntity
  8
0
100
AcDbVertex
100
AcDb2dVertex
 10
10.63435838564711
 20
-1.255229036846741
 30
0.0
 70
     8
  0
VERTEX
  5
17215
330
17183
100
AcDbEntity
  8
0
100
AcDbVertex
100
AcDb2dVertex
 10
10.58425173467062
 20
-1.269667487213465
 30
0.0
 70
     8
  0
VERTEX
  5
17216
330
17183
100
AcDbEntity
  8
0
100
AcDbVertex
100
AcDb2dVertex
 10
10.53105166760547
 20
-1.285388156517005
 30
0.0
 70
     8
  0
VERTEX
  5
17217
330
17183
100
AcDbEntity
  8
0
100
AcDbVertex
100
AcDb2dVertex
 10
10.47513203353535
 20
-1.302434134945999
 30
0.0
 70
     8
  0
VERTEX
  5
17218
330
17183
100
AcDbEntity
  8
0
100
AcDbVertex
100
AcDb2dVertex
 10
10.41700987143488
 20
-1.320834583894067
 30
0.0
 70
     8
  0
VERTEX
  5
17219
330
17183
100
AcDbEntity
  8
0
100
AcDbVertex
100
AcDb2dVertex
 10
10.35720222027874
 20
-1.34061866475485
 30
0.0
 70
     8
  0
VERTEX
  5
1721A
330
17183
100
AcDbEntity
  8
0
100
AcDbVertex
100
AcDb2dVertex
 10
10.29622611904156
 20
-1.361815538921981
 30
0.0
 70
     8
  0
VERTEX
  5
1721B
330
17183
100
AcDbEntity
  8
0
100
AcDbVertex
100
AcDb2dVertex
 10
10.23459860669801
 20
-1.384454367789087
 30
0.0
 70
     8
  0
VERTEX
  5
1721C
330
17183
100
AcDbEntity
  8
0
100
AcDbVertex
100
AcDb2dVertex
 10
10.17283672222271
 20
-1.408564312749797
 30
0.0
 70
     8
  0
VERTEX
  5
1721D
330
17183
100
AcDbEntity
  8
0
100
AcDbVertex
100
AcDb2dVertex
 10
10.11145750459035
 20
-1.434174535197749
 30
0.0
 70
     8
  0
VERTEX
  5
1721E
330
17183
100
AcDbEntity
  8
0
100
AcDbVertex
100
AcDb2dVertex
 10
10.0508730757419
 20
-1.461304474179089
 30
0.0
 70
     8
  0
VERTEX
  5
1721F
330
17183
100
AcDbEntity
  8
0
100
AcDbVertex
100
AcDb2dVertex
 10
9.99107588948383
 20
-1.489934679350047
 30
0.0
 70
     8
  0
VERTEX
  5
17220
330
17183
100
AcDbEntity
  8
0
100
AcDbVertex
100
AcDb2dVertex
 10
9.931953482588932
 20
-1.520035978019379
 30
0.0
 70
     8
  0
VERTEX
  5
17221
330
17183
100
AcDbEntity
  8
0
100
AcDbVertex
100
AcDb2dVertex
 10
9.873393391830024
 20
-1.551579197495833
 30
0.0
 70
     8
  0
VERTEX
  5
17222
330
17183
100
AcDbEntity
  8
0
100
AcDbVertex
100
AcDb2dVertex
 10
9.815283153979885
 20
-1.58453516508815
 30
0.0
 70
     8
  0
VERTEX
  5
17223
330
17183
100
AcDbEntity
  8
0
100
AcDbVertex
100
AcDb2dVertex
 10
9.757510305811344
 20
-1.618874708105093
 30
0.0
 70
     8
  0
VERTEX
  5
17224
330
17183
100
AcDbEntity
  8
0
100
AcDbVertex
100
AcDb2dVertex
 10
9.699962384097192
 20
-1.654568653855405
 30
0.0
 70
     8
  0
VERTEX
  5
17225
330
17183
100
AcDbEntity
  8
0
100
AcDbVertex
100
AcDb2dVertex
 10
9.642526925610237
 20
-1.691587829647831
 30
0.0
 70
     8
  0
VERTEX
  5
17226
330
17183
100
AcDbEntity
  8
0
100
AcDbVertex
100
AcDb2dVertex
 10
9.585124622824514
 20
-1.729900724573658
 30
0.0
 70
     8
  0
VERTEX
  5
17227
330
17183
100
AcDbEntity
  8
0
100
AcDbVertex
100
AcDb2dVertex
 10
9.527808791019012
 20
-1.769466474854251
 30
0.0
 70
     8
  0
VERTEX
  5
17228
330
17183
100
AcDbEntity
  8
0
100
AcDbVertex
100
AcDb2dVertex
 10
9.470665901173957
 20
-1.810241878493503
 30
0.0
 70
     8
  0
VERTEX
  5
17229
330
17183
100
AcDbEntity
  8
0
100
AcDbVertex
100
AcDb2dVertex
 10
9.413782424269557
 20
-1.85218373349532
 30
0.0
 70
     8
  0
VERTEX
  5
1722A
330
17183
100
AcDbEntity
  8
0
100
AcDbVertex
100
AcDb2dVertex
 10
9.357244831286051
 20
-1.895248837863593
 30
0.0
 70
     8
  0
VERTEX
  5
1722B
330
17183
100
AcDbEntity
  8
0
100
AcDbVertex
100
AcDb2dVertex
 10
9.301139593203638
 20
-1.939393989602218
 30
0.0
 70
     8
  0
VERTEX
  5
1722C
330
17183
100
AcDbEntity
  8
0
100
AcDbVertex
100
AcDb2dVertex
 10
9.245553181002547
 20
-1.984575986715093
 30
0.0
 70
     8
  0
VERTEX
  5
1722D
330
17183
100
AcDbEntity
  8
0
100
AcDbVertex
100
AcDb2dVertex
 10
9.190572065663006
 20
-2.030751627206122
 30
0.0
 70
     8
  0
VERTEX
  5
1722E
330
17183
100
AcDbEntity
  8
0
100
AcDbVertex
100
AcDb2dVertex
 10
9.136295328502399
 20
-2.077852508004073
 30
0.0
 70
     8
  0
VERTEX
  5
1722F
330
17183
100
AcDbEntity
  8
0
100
AcDbVertex
100
AcDb2dVertex
 10
9.08287249218684
 20
-2.125709421737272
 30
0.0
 70
     8
  0
VERTEX
  5
17230
330
17183
100
AcDbEntity
  8
0
100
AcDbVertex
100
AcDb2dVertex
 10
9.030465689719598
 20
-2.174127959958908
 30
0.0
 70
     8
  0
VERTEX
  5
17231
330
17183
100
AcDbEntity
  8
0
100
AcDbVertex
100
AcDb2dVertex
 10
8.979237054103938
 20
-2.222913714222186
 30
0.0
 70
     8
  0
VERTEX
  5
17232
330
17183
100
AcDbEntity
  8
0
100
AcDbVertex
100
AcDb2dVertex
 10
8.929348718343138
 20
-2.271872276080307
 30
0.0
 70
     8
  0
VERTEX
  5
17233
330
17183
100
AcDbEntity
  8
0
100
AcDbVertex
100
AcDb2dVertex
 10
8.880962815440478
 20
-2.320809237086466
 30
0.0
 70
     8
  0
VERTEX
  5
17234
330
17183
100
AcDbEntity
  8
0
100
AcDbVertex
100
AcDb2dVertex
 10
8.834241478399233
 20
-2.369530188793855
 30
0.0
 70
     8
  0
VERTEX
  5
17235
330
17183
100
AcDbEntity
  8
0
100
AcDbVertex
100
AcDb2dVertex
 10
8.789346840222666
 20
-2.417840722755688
 30
0.0
 70
     8
  0
VERTEX
  5
17236
330
17183
100
AcDbEntity
  8
0
100
AcDbVertex
100
AcDb2dVertex
 10
8.746436126804713
 20
-2.465517820085217
 30
0.0
 70
     8
  0
VERTEX
  5
17237
330
17183
100
AcDbEntity
  8
0
100
AcDbVertex
100
AcDb2dVertex
 10
8.705646935601896
 20
-2.512224020135941
 30
0.0
 70
     8
  0
VERTEX
  5
17238
330
17183
100
AcDbEntity
  8
0
100
AcDbVertex
100
AcDb2dVertex
 10
8.667111956961383
 20
-2.557593251821441
 30
0.0
 70
     8
  0
VERTEX
  5
17239
330
17183
100
AcDbEntity
  8
0
100
AcDbVertex
100
AcDb2dVertex
 10
8.63096388123035
 20
-2.601259444055275
 30
0.0
 70
     8
  0
VERTEX
  5
1723A
330
17183
100
AcDbEntity
  8
0
100
AcDbVertex
100
AcDb2dVertex
 10
8.597335398755964
 20
-2.642856525751013
 30
0.0
 70
     8
  0
VERTEX
  5
1723B
330
17183
100
AcDbEntity
  8
0
100
AcDbVertex
100
AcDb2dVertex
 10
8.566359199885404
 20
-2.682018425822224
 30
0.0
 70
     8
  0
VERTEX
  5
1723C
330
17183
100
AcDbEntity
  8
0
100
AcDbVertex
100
AcDb2dVertex
 10
8.538167974965846
 20
-2.718379073182477
 30
0.0
 70
     8
  0
VERTEX
  5
1723D
330
17183
100
AcDbEntity
  8
0
100
AcDbVertex
100
AcDb2dVertex
 10
8.512894414344451
 20
-2.751572396745335
 30
0.0
 70
     8
  0
VERTEX
  5
1723E
330
17183
100
AcDbEntity
  8
0
100
AcDbVertex
100
AcDb2dVertex
 10
8.490585931198475
 20
-2.781374533370556
 30
0.0
 70
     8
  0
VERTEX
  5
1723F
330
17183
100
AcDbEntity
  8
0
100
AcDbVertex
100
AcDb2dVertex
 10
8.470948830025481
 20
-2.808130451702636
 30
0.0
 70
     8
  0
VERTEX
  5
17240
330
17183
100
AcDbEntity
  8
0
100
AcDbVertex
100
AcDb2dVertex
 10
8.453604138153094
 20
-2.832327328332258
 30
0.0
 70
     8
  0
VERTEX
  5
17241
330
17183
100
AcDbEntity
  8
0
100
AcDbVertex
100
AcDb2dVertex
 10
8.438172882908958
 20
-2.854452339850101
 30
0.0
 70
     8
  0
VERTEX
  5
17242
330
17183
100
AcDbEntity
  8
0
100
AcDbVertex
100
AcDb2dVertex
 10
8.424276091620697
 20
-2.874992662846865
 30
0.0
 70
     8
  0
VERTEX
  5
17243
330
17183
100
AcDbEntity
  8
0
100
AcDbVertex
100
AcDb2dVertex
 10
8.411534791615947
 20
-2.894435473913216
 30
0.0
 70
     8
  0
VERTEX
  5
17244
330
17183
100
AcDbEntity
  8
0
100
AcDbVertex
100
AcDb2dVertex
 10
8.399570010222348
 20
-2.913267949639844
 30
0.0
 70
     8
  0
VERTEX
  5
17245
330
17183
100
AcDbEntity
  8
0
100
AcDbVertex
100
AcDb2dVertex
 10
8.388002774767526
 20
-2.931977266617439
 30
0.0
 70
     8
  0
VERTEX
  5
17246
330
17183
100
AcDbEntity
  8
0
100
AcDbVertex
100
AcDb2dVertex
 10
8.37654318703858
 20
-2.95090216725277
 30
0.0
 70
     8
  0
VERTEX
  5
17247
330
17183
100
AcDbEntity
  8
0
100
AcDbVertex
100
AcDb2dVertex
 10
8.365257646660428
 20
-2.969787657216965
 30
0.0
 70
     8
  0
VERTEX
  5
17248
330
17183
100
AcDbEntity
  8
0
100
AcDbVertex
100
AcDb2dVertex
 10
8.354301627717445
 20
-2.988230307997249
 30
0.0
 70
     8
  0
VERTEX
  5
17249
330
17183
100
AcDbEntity
  8
0
100
AcDbVertex
100
AcDb2dVertex
 10
8.343830604294023
 20
-3.005826691080846
 30
0.0
 70
     8
  0
VERTEX
  5
1724A
330
17183
100
AcDbEntity
  8
0
100
AcDbVertex
100
AcDb2dVertex
 10
8.33400005047455
 20
-3.022173377954965
 30
0.0
 70
     8
  0
VERTEX
  5
1724B
330
17183
100
AcDbEntity
  8
0
100
AcDbVertex
100
AcDb2dVertex
 10
8.324965440343394
 20
-3.036866940106837
 30
0.0
 70
     8
  0
VERTEX
  5
1724C
330
17183
100
AcDbEntity
  8
0
100
AcDbVertex
100
AcDb2dVertex
 10
8.316882247984938
 20
-3.049503949023674
 30
0.0
 70
     8
  0
VERTEX
  5
1724D
330
17183
100
AcDbEntity
  8
0
100
AcDbVertex
100
AcDb2dVertex
 10
8.309905947483558
 20
-3.059680976192709
 30
0.0
 70
     8
  0
VERTEX
  5
1724E
330
17183
100
AcDbEntity
  8
0
100
AcDbVertex
100
AcDb2dVertex
 10
8.304142304241668
 20
-3.067107104656273
 30
0.0
 70
     8
  0
VERTEX
  5
1724F
330
17183
100
AcDbEntity
  8
0
100
AcDbVertex
100
AcDb2dVertex
 10
8.299498248933739
 20
-3.071941463677221
 30
0.0
 70
     8
  0
VERTEX
  5
17250
330
17183
100
AcDbEntity
  8
0
100
AcDbVertex
100
AcDb2dVertex
 10
8.295831003552249
 20
-3.074455694073515
 30
0.0
 70
     8
  0
VERTEX
  5
17251
330
17183
100
AcDbEntity
  8
0
100
AcDbVertex
100
AcDb2dVertex
 10
8.292997790089696
 20
-3.074921436663132
 30
0.0
 70
     8
  0
VERTEX
  5
17252
330
17183
100
AcDbEntity
  8
0
100
AcDbVertex
100
AcDb2dVertex
 10
8.290855830538573
 20
-3.073610332264036
 30
0.0
 70
     8
  0
VERTEX
  5
17253
330
17183
100
AcDbEntity
  8
0
100
AcDbVertex
100
AcDb2dVertex
 10
8.289262346891362
 20
-3.070794021694194
 30
0.0
 70
     8
  0
VERTEX
  5
17254
330
17183
100
AcDbEntity
  8
0
100
AcDbVertex
100
AcDb2dVertex
 10
8.288074561140559
 20
-3.066744145771583
 30
0.0
 70
     8
  0
VERTEX
  5
17255
330
17183
100
AcDbEntity
  8
0
100
AcDbVertex
100
AcDb2dVertex
 10
8.285868181877193
 20
-3.069095371627072
 30
0.0
 70
    16
  0
VERTEX
  5
17256
330
17183
100
AcDbEntity
  8
0
100
AcDbVertex
100
AcDb2dVertex
 10
8.28298473338854
 20
-3.003788566404391
 30
0.0
 70
    16
  0
VERTEX
  5
17257
330
17183
100
AcDbEntity
  8
0
100
AcDbVertex
100
AcDb2dVertex
 10
8.299324159263251
 20
-2.859729561900077
 30
0.0
 70
    16
  0
VERTEX
  5
17258
330
17183
100
AcDbEntity
  8
0
100
AcDbVertex
100
AcDb2dVertex
 10
8.302207521081168
 20
-2.755046681969254
 30
0.0
 70
    16
  0
VERTEX
  5
17259
330
17183
100
AcDbEntity
  8
0
100
AcDbVertex
100
AcDb2dVertex
 10
8.314333102774527
 20
-2.590187543052262
 30
0.0
 70
    16
  0
VERTEX
  5
1725A
330
17183
100
AcDbEntity
  8
0
100
AcDbVertex
100
AcDb2dVertex
 10
8.308798916705034
 20
-2.330284845615516
 30
0.0
 70
    16
  0
VERTEX
  5
1725B
330
17183
100
AcDbEntity
  8
0
100
AcDbVertex
100
AcDb2dVertex
 10
8.369674530115744
 20
-2.020613585797644
 30
0.0
 70
    16
  0
VERTEX
  5
1725C
330
17183
100
AcDbEntity
  8
0
100
AcDbVertex
100
AcDb2dVertex
 10
8.508028055133438
 20
-1.672233349937673
 30
0.0
 70
    16
  0
VERTEX
  5
1725D
330
17183
100
AcDbEntity
  8
0
100
AcDbVertex
100
AcDb2dVertex
 10
8.740461963295844
 20
-1.417860520468466
 30
0.0
 70
    16
  0
VERTEX
  5
1725E
330
17183
100
AcDbEntity
  8
0
100
AcDbVertex
100
AcDb2dVertex
 10
9.094646924938214
 20
-1.15795782303172
 30
0.0
 70
    16
  0
VERTEX
  5
1725F
330
17183
100
AcDbEntity
  8
0
100
AcDbVertex
100
AcDb2dVertex
 10
9.570583113402003
 20
-0.9975923002225664
 30
0.0
 70
    16
  0
VERTEX
  5
17260
330
17183
100
AcDbEntity
  8
0
100
AcDbVertex
100
AcDb2dVertex
 10
10.08525817099856
 20
-0.9533535559436392
 30
0.0
 70
    16
  0
VERTEX
  5
17261
330
17183
100
AcDbEntity
  8
0
100
AcDbVertex
100
AcDb2dVertex
 10
10.59993331526583
 20
-0.9754729280831028
 30
0.0
 70
    16
  0
VERTEX
  5
17262
330
17183
100
AcDbEntity
  8
0
100
AcDbVertex
100
AcDb2dVertex
 10
11.02606217578716
 20
-1.047360912469042
 30
0.0
 70
    16
  0
VERTEX
  5
17263
330
17183
100
AcDbEntity
  8
0
100
AcDbVertex
100
AcDb2dVertex
 10
11.21138300229398
 20
-1.075842554880744
 30
0.0
 70
    16
  0
VERTEX
  5
17264
330
17183
100
AcDbEntity
  8
0
100
AcDbVertex
100
AcDb2dVertex
 10
11.24168681605205
 20
-1.09771160295806
 30
0.0
 70
    16
  0
VERTEX
  5
17265
330
17183
100
AcDbEntity
  8
0
100
AcDbVertex
100
AcDb2dVertex
 10
11.20633235222252
 20
-1.122945165999894
 30
0.0
 70
    16
  0
VERTEX
  5
17266
330
17183
100
AcDbEntity
  8
0
100
AcDbVertex
100
AcDb2dVertex
 10
10.92854763834067
 20
-1.176776757182731
 30
0.0
 70
    16
  0
VERTEX
  5
17267
330
17183
100
AcDbEntity
  8
0
100
AcDbVertex
100
AcDb2dVertex
 10
10.6187755317867
 20
-1.255841911407402
 30
0.0
 70
    16
  0
VERTEX
  5
17268
330
17183
100
AcDbEntity
  8
0
100
AcDbVertex
100
AcDb2dVertex
 10
10.10186064253629
 20
-1.417860520468466
 30
0.0
 70
    16
  0
VERTEX
  5
17269
330
17183
100
AcDbEntity
  8
0
100
AcDbVertex
100
AcDb2dVertex
 10
9.642526925610232
 20
-1.677763217905222
 30
0.0
 70
    16
  0
VERTEX
  5
1726A
330
17183
100
AcDbEntity
  8
0
100
AcDbVertex
100
AcDb2dVertex
 10
9.183193208684173
 20
-2.020613585797644
 30
0.0
 70
    16
  0
VERTEX
  5
1726B
330
17183
100
AcDbEntity
  8
0
100
AcDbVertex
100
AcDb2dVertex
 10
8.768132633631093
 20
-2.424292202140919
 30
0.0
 70
    16
  0
VERTEX
  5
1726C
330
17183
100
AcDbEntity
  8
0
100
AcDbVertex
100
AcDb2dVertex
 10
8.48035729812746
 20
-2.789261942172805
 30
0.0
 70
    16
  0
VERTEX
  5
1726D
330
17183
100
AcDbEntity
  8
0
100
AcDbVertex
100
AcDb2dVertex
 10
8.387804659925775
 20
-2.928094409639879
 30
0.0
 70
    16
  0
SEQEND
  5
1726E
330
17183
100
AcDbEntity
  8
0
  0
LWPOLYLINE
  5
1726F
330
16B91
100
AcDbEntity
  8
0
100
AcDbPolyline
 90
       95
 70
     0
 43
0.0
 10
15.75
 20
-0.4717392797747106
 10
15.74541838652299
 20
-0.4834454450113411
 10
15.73885562774597
 20
-0.4980227998259104
 10
15.73262889180913
 20
-0.5099043084188014
 10
15.72672032242627
 20
-0.5194889951794153
 10
15.7211120633112
 20
-0.527175884497137
 10
15.71578625817773
 20
-0.5333640007613676
 10
15.71072505073967
 20
-0.5384523683614923
 10
15.70590571481458
 20
-0.542789187401815
 10
15.70128604463511
 20
-0.5465193608462098
 10
15.69681896453764
 20
-0.5497369673734588
 10
15.69245739885859
 20
-0.5525360856623499
 10
15.68815427193436
 20
-0.5550107943916542
 10
15.68386250810134
 20
-0.5572551722401653
 10
15.67953503169594
 20
-0.5593632978866491
 10
15.67512476705454
 20
-0.5614292500098986
 10
15.67059356665666
 20
-0.5635341309186476
 10
15.66593899555417
 20
-0.5657071374414351
 10
15.66116754694206
 20
-0.5679644900367677
 10
15.65628571401529
 20
-0.5703224091631469
 10
15.65129998996886
 20
-0.5727971152790682
 10
15.64621686799774
 20
-0.5754048288430331
 10
15.64104284129691
 20
-0.5781617703135426
 10
15.63578440306136
 20
-0.5810841601491036
 10
15.63045345751007
 20
-0.5841806492901239
 10
15.6250835529582
 20
-0.587429610604703
 10
15.61971364874487
 20
-0.5908018474428417
 10
15.61438270420927
 20
-0.5942681631545464
 10
15.60912967869053
 20
-0.5977993610898231
 10
15.6039935315278
 20
-0.6013662445986835
 10
15.59901322206026
 20
-0.6049396170311339
 10
15.59422770962703
 20
-0.6084902817371804
 10
15.58965485054256
 20
-0.6120041811029943
 10
15.58522808902222
 20
-0.6155278136594068
 10
15.5808597662567
 20
-0.6191228169734088
 10
15.57646222343666
 20
-0.6228508286119913
 10
15.57194780175276
 20
-0.6267734861421556
 10
15.56722884239568
 20
-0.6309524271308929
 10
15.56221768655606
 20
-0.6354492891451939
 10
15.55682667542458
 20
-0.6403257097520548
 10
15.55099682872365
 20
-0.6456222399678686
 10
15.54478388030265
 20
-0.6512950846066256
 10
15.53827224254269
 20
-0.6572793619317232
 10
15.5315463278249
 20
-0.663510190206543
 10
15.52469054853043
 20
-0.6699226876944877
 10
15.51778931704037
 20
-0.6764519726589393
 10
15.51092704573587
 20
-0.6830331633632949
 10
15.50418814699803
 20
-0.6896013780709416
 10
15.49764080002305
 20
-0.6961020079731123
 10
15.49128825126735
 20
-0.7025215359723493
 10
15.48511751400242
 20
-0.7088567178990413
 10
15.47911560149973
 20
-0.7151043095835819
 10
15.47326952703078
 20
-0.7212610668563436
 10
15.46756630386705
 20
-0.7273237455477146
 10
15.46199294528001
 20
-0.7332891014880891
 10
15.45653646454116
 20
-0.7391538905078445
 10
15.45118982710201
 20
-0.744925141430131
 10
15.44596980713424
 20
-0.7506509750491336
 10
15.44089913098955
 20
-0.7563897851518094
 10
15.43600052501964
 20
-0.7621999655251104
 10
15.43129671557623
 20
-0.7681399099559884
 10
15.42681042901101
 20
-0.7742680122313953
 10
15.42256439167571
 20
-0.7806426661382831
 10
15.41858132992201
 20
-0.7873222654636036
 10
15.41487910020539
 20
-0.7943527682704993
 10
15.41145607939639
 20
-0.8017303897268865
 10
15.40830577446931
 20
-0.8094389092768723
 10
15.40542169239844
 20
-0.8174621063645638
 10
15.4027973401581
 20
-0.8257837604340673
 10
15.40042622472256
 20
-0.8343876509294853
 10
15.39830185306614
 20
-0.8432575572949241
 10
15.39641773216313
 20
-0.8523772589744909
 10
15.3947641222775
 20
-0.8617251285927977
 10
15.39331829683182
 20
-0.8712579114964441
 10
15.39205428253836
 20
-0.8809269462125344
 10
15.39094610610934
 20
-0.8906835712681786
 10
15.38996779425703
 20
-0.900479125190481
 10
15.38909337369367
 20
-0.9102649465065411
 10
15.3882968711315
 20
-0.9199923737434739
 10
15.38755231328276
 20
-0.9296127454283785
 10
15.38683589139911
 20
-0.9391003791442829
 10
15.38613245488974
 20
-0.9485215086978916
 10
15.38542901770326
 20
-0.9579653469518436
 10
15.38471259378826
 20
-0.9675211067687563
 10
15.38397019709334
 20
-0.9772780010112628
 10
15.3831888415671
 20
-0.9873252425419915
 10
15.38235554115815
 20
-0.9977520442235757
 10
15.38145730981509
 20
-1.008647618918637
 10
15.3804687159422
 20
-1.020134701699287
 10
15.37931454576661
 20
-1.032470116475553
 10
15.37790713997116
 20
-1.045944209366934
 10
15.37615883923869
 20
-1.060847326492935
 10
15.373981984252
 20
-1.07746981397306
 10
15.37128891569394
 20
-1.096102017926819
 10
15.36984592439344
 20
-1.10526356326091
  0
LINE
  5
172D0
330
16B91
100
AcDbEntity
  8
0
100
AcDbLine
 10
15.75
 20
0.0
 30
0.0
 11
15.75
 21
-0.471739279774708
 31
0.0
  0
ENDBLK
  5
16B93
330
16B91
100
AcDbEntity
  8
0
100
AcDbBlockEnd
  0
BLOCK
  5
172D4
330
172D3
100
AcDbEntity
  8
0
100
AcDbBlockBegin
  2
2219f
 70
     0
 10
0.0
 20
0.0
 30
0.0
  3
2219f
  1

  0
LINE
  5
172D6
330
172D3
100
AcDbEntity
  8
0
100
AcDbLine
 10
-0.0000000000000036
 20
-9.340715222776307
 30
0.0
 11
-0.0000000000000036
 21
-3.448303349577709
 31
0.0
  0
ARC
  5
172D7
330
172D3
100
AcDbEntity
  8
0
100
AcDbCircle
 10
1.805664365745776
 20
-9.164902535796258
 30
0.0
 40
2.10102408010406
100
AcDbArc
 50
105.3356470717284
 51
149.2516428243024
  0
ARC
  5
172D8
330
172D3
100
AcDbEntity
  8
0
100
AcDbCircle
 10
-1.805664365745775
 20
-9.164902535796258
 30
0.0
 40
2.10102408010406
100
AcDbArc
 50
30.74835717569758
 51
74.66435292827156
  0
ARC
  5
172D9
330
172D3
100
AcDbEntity
  8
0
100
AcDbCircle
 10
1.805664365745776
 20
-9.414902535796258
 30
0.0
 40
2.10102408010406
100
AcDbArc
 50
105.3356470717284
 51
149.2516428243024
  0
ARC
  5
172DA
330
172D3
100
AcDbEntity
  8
0
100
AcDbCircle
 10
-1.805664365745775
 20
-9.414902535796258
 30
0.0
 40
2.10102408010406
100
AcDbArc
 50
30.74835717569758
 51
74.66435292827156
  0
ARC
  5
172DB
330
172D3
100
AcDbEntity
  8
0
100
AcDbCircle
 10
1.805664365745776
 20
-9.664902535796258
 30
0.0
 40
2.10102408010406
100
AcDbArc
 50
105.3356470717284
 51
149.2516428243024
  0
ARC
  5
172DC
330
172D3
100
AcDbEntity
  8
0
100
AcDbCircle
 10
-1.805664365745775
 20
-9.664902535796258
 30
0.0
 40
2.10102408010406
100
AcDbArc
 50
30.74835717569758
 51
74.66435292827156
  0
ARC
  5
172DD
330
172D3
100
AcDbEntity
  8
0
100
AcDbCircle
 10
1.805664365745776
 20
-9.914902535796258
 30
0.0
 40
2.10102408010406
100
AcDbArc
 50
105.3356470717284
 51
149.2516428243024
  0
ARC
  5
172DE
330
172D3
100
AcDbEntity
  8
0
100
AcDbCircle
 10
-1.805664365745775
 20
-9.914902535796258
 30
0.0
 40
2.10102408010406
100
AcDbArc
 50
30.74835717569758
 51
74.66435292827156
  0
LINE
  5
172DF
330
172D3
100
AcDbEntity
  8
0
100
AcDbLine
 10
1.25
 20
-0.7577735710270401
 30
0.0
 11
1.25
 21
-9.340715222776307
 31
0.0
  0
LINE
  5
172E0
330
172D3
100
AcDbEntity
  8
0
100
AcDbLine
 10
-1.249999999999998
 20
-0.7577735710270401
 30
0.0
 11
-1.250000000000001
 21
-9.340715222776307
 31
0.0
  0
LINE
  5
172E1
330
172D3
100
AcDbEntity
  8
0
100
AcDbLine
 10
-1.875000000000001
 20
-0.7577735710270395
 30
0.0
 11
-1.875000000000003
 21
-9.340715222776307
 31
0.0
  0
LINE
  5
172E2
330
172D3
100
AcDbEntity
  8
0
100
AcDbLine
 10
1.875000000000003
 20
-0.7577735710270424
 30
0.0
 11
1.874999999999996
 21
-9.340715222776307
 31
0.0
  0
LINE
  5
172E3
330
172D3
100
AcDbEntity
  8
0
100
AcDbLine
 10
-1.875000000000003
 20
-9.340715222776307
 30
0.0
 11
1.874999999999996
 21
-9.340715222776307
 31
0.0
  0
ARC
  5
172E4
330
172D3
100
AcDbEntity
  8
0
100
AcDbCircle
 10
1.805664365745776
 20
-10.41490253579626
 30
0.0
 40
2.10102408010406
100
AcDbArc
 50
105.3356470717284
 51
149.2516428243024
  0
ARC
  5
172E5
330
172D3
100
AcDbEntity
  8
0
100
AcDbCircle
 10
-1.805664365745775
 20
-10.41490253579626
 30
0.0
 40
2.10102408010406
100
AcDbArc
 50
30.74835717569758
 51
74.66435292827156
  0
ARC
  5
172E6
330
172D3
100
AcDbEntity
  8
0
100
AcDbCircle
 10
1.805664365745776
 20
-10.16490253579626
 30
0.0
 40
2.10102408010406
100
AcDbArc
 50
105.3356470717284
 51
149.2516428243024
  0
ARC
  5
172E7
330
172D3
100
AcDbEntity
  8
0
100
AcDbCircle
 10
-1.805664365745775
 20
-10.16490253579626
 30
0.0
 40
2.10102408010406
100
AcDbArc
 50
30.74835717569758
 51
74.66435292827156
  0
LINE
  5
172E8
330
172D3
100
AcDbEntity
  8
0
100
AcDbLine
 10
-1.5625
 20
-0.7577735710270398
 30
0.0
 11
1.562499999999996
 21
-0.7577735710270421
 31
0.0
  0
LINE
  5
172E9
330
172D3
100
AcDbEntity
  8
0
100
AcDbLine
 10
-1.750000000000001
 20
-3.63106256790761
 30
0.0
 11
-1.375
 21
-3.63106256790761
 31
0.0
  0
LINE
  5
172EA
330
172D3
100
AcDbEntity
  8
0
100
AcDbLine
 10
-1.874999999999998
 20
-0.471739279774708
 30
0.0
 11
1.875000000000003
 21
-0.4717392797747109
 31
0.0
  0
LINE
  5
172EB
330
172D3
100
AcDbEntity
  8
0
100
AcDbLine
 10
-1.875
 20
0.0
 30
0.0
 11
1.875000000000003
 21
0.0
 31
0.0
  0
ARC
  5
172EC
330
172D3
100
AcDbEntity
  8
0
100
AcDbCircle
 10
-1.750000000000001
 20
-3.50606256790761
 30
0.0
 40
0.125
100
AcDbArc
 50
180.0
 51
270.0
  0
LINE
  5
172ED
330
172D3
100
AcDbEntity
  8
0
100
AcDbLine
 10
-1.875
 20
0.0
 30
0.0
 11
-1.875000000000001
 21
-0.471739279774708
 31
0.0
  0
ARC
  5
172EE
330
172D3
100
AcDbEntity
  8
0
100
AcDbCircle
 10
-2.008606097580484
 20
-0.9314318495163444
 30
0.0
 40
0.4787147877247547
100
AcDbArc
 50
21.2697558707232
 51
73.79390155663613
  0
ARC
  5
172EF
330
172D3
100
AcDbEntity
  8
0
100
AcDbCircle
 10
-1.428893902419515
 20
-0.9314318495163444
 30
0.0
 40
0.4787147877247547
100
AcDbArc
 50
127.2639719101909
 51
158.7302441292768
  0
LINE
  5
172F0
330
172D3
100
AcDbEntity
  8
0
100
AcDbLine
 10
0.1249999999999964
 20
-0.7577735710270411
 30
0.0
 11
0.1249999999999929
 21
-3.506062567907608
 31
0.0
  0
LINE
  5
172F1
330
172D3
100
AcDbEntity
  8
0
100
AcDbLine
 10
1.875
 20
-0.7577735710270395
 30
0.0
 11
1.875
 21
-3.50606256790761
 31
0.0
  0
LINE
  5
172F2
330
172D3
100
AcDbEntity
  8
0
100
AcDbLine
 10
-0.1249999999999964
 20
-0.7577735710270411
 30
0.0
 11
-0.1249999999999929
 21
-3.506062567907608
 31
0.0
  0
ARC
  5
172F3
330
172D3
100
AcDbEntity
  8
0
100
AcDbCircle
 10
-1.805664365745775
 20
-6.212978252399953
 30
0.0
 40
2.10102408010406
100
AcDbArc
 50
30.74835717569758
 51
74.66435292827156
  0
ARC
  5
172F4
330
172D3
100
AcDbEntity
  8
0
100
AcDbCircle
 10
1.805664365745776
 20
-6.212978252399953
 30
0.0
 40
2.10102408010406
100
AcDbArc
 50
105.3356470717284
 51
149.2516428243024
  0
ARC
  5
172F5
330
172D3
100
AcDbEntity
  8
0
100
AcDbCircle
 10
-1.805664365745775
 20
-6.967967837072079
 30
0.0
 40
2.10102408010406
100
AcDbArc
 50
30.74835717569758
 51
74.66435292827156
  0
ARC
  5
172F6
330
172D3
100
AcDbEntity
  8
0
100
AcDbCircle
 10
1.805664365745776
 20
-6.967967837072079
 30
0.0
 40
2.10102408010406
100
AcDbArc
 50
105.3356470717284
 51
149.2516428243024
  0
ARC
  5
172F7
330
172D3
100
AcDbEntity
  8
0
100
AcDbCircle
 10
1.805664365745776
 20
-7.815029323471692
 30
0.0
 40
2.10102408010406
100
AcDbArc
 50
105.3356470717284
 51
149.2516428243024
  0
ARC
  5
172F8
330
172D3
100
AcDbEntity
  8
0
100
AcDbCircle
 10
-1.805664365745775
 20
-7.815029323471692
 30
0.0
 40
2.10102408010406
100
AcDbArc
 50
30.74835717569758
 51
74.66435292827156
  0
ARC
  5
172F9
330
172D3
100
AcDbEntity
  8
0
100
AcDbCircle
 10
1.805664365745776
 20
-8.164902535796258
 30
0.0
 40
2.10102408010406
100
AcDbArc
 50
105.3356470717284
 51
149.2516428243024
  0
ARC
  5
172FA
330
172D3
100
AcDbEntity
  8
0
100
AcDbCircle
 10
-1.805664365745775
 20
-8.164902535796258
 30
0.0
 40
2.10102408010406
100
AcDbArc
 50
30.74835717569758
 51
74.66435292827156
  0
ARC
  5
172FB
330
172D3
100
AcDbEntity
  8
0
100
AcDbCircle
 10
1.805664365745776
 20
-8.414902535796258
 30
0.0
 40
2.10102408010406
100
AcDbArc
 50
105.3356470717284
 51
149.2516428243024
  0
ARC
  5
172FC
330
172D3
100
AcDbEntity
  8
0
100
AcDbCircle
 10
-1.805664365745775
 20
-8.414902535796258
 30
0.0
 40
2.10102408010406
100
AcDbArc
 50
30.74835717569758
 51
74.66435292827156
  0
ARC
  5
172FD
330
172D3
100
AcDbEntity
  8
0
100
AcDbCircle
 10
1.805664365745776
 20
-8.664902535796258
 30
0.0
 40
2.10102408010406
100
AcDbArc
 50
105.3356470717284
 51
149.2516428243024
  0
ARC
  5
172FE
330
172D3
100
AcDbEntity
  8
0
100
AcDbCircle
 10
-1.805664365745775
 20
-8.664902535796258
 30
0.0
 40
2.10102408010406
100
AcDbArc
 50
30.74835717569758
 51
74.66435292827156
  0
ARC
  5
172FF
330
172D3
100
AcDbEntity
  8
0
100
AcDbCircle
 10
1.805664365745776
 20
-8.914902535796258
 30
0.0
 40
2.10102408010406
100
AcDbArc
 50
105.3356470717284
 51
149.2516428243024
  0
ARC
  5
17300
330
172D3
100
AcDbEntity
  8
0
100
AcDbCircle
 10
-1.805664365745775
 20
-8.914902535796258
 30
0.0
 40
2.10102408010406
100
AcDbArc
 50
30.74835717569758
 51
74.66435292827156
  0
ARC
  5
17301
330
172D3
100
AcDbEntity
  8
0
100
AcDbCircle
 10
-1.805664365745775
 20
-7.501984852851616
 30
0.0
 40
2.10102408010406
100
AcDbArc
 50
30.74835717569758
 51
74.66435292827156
  0
ARC
  5
17302
330
172D3
100
AcDbEntity
  8
0
100
AcDbCircle
 10
1.805664365745776
 20
-7.501984852851616
 30
0.0
 40
2.10102408010406
100
AcDbArc
 50
105.3356470717284
 51
149.2516428243024
  0
ARC
  5
17303
330
172D3
100
AcDbEntity
  8
0
100
AcDbCircle
 10
1.375
 20
-3.50606256790761
 30
0.0
 40
0.125
100
AcDbArc
 50
180.0
 51
270.0
  0
ARC
  5
17304
330
172D3
100
AcDbEntity
  8
0
100
AcDbCircle
 10
-1.805664365745775
 20
-5.38433118431885
 30
0.0
 40
2.10102408010406
100
AcDbArc
 50
30.74835717569758
 51
71.29127808424418
  0
ARC
  5
17305
330
172D3
100
AcDbEntity
  8
0
100
AcDbCircle
 10
1.805664365745776
 20
-5.38433118431885
 30
0.0
 40
2.10102408010406
100
AcDbArc
 50
108.7087219157558
 51
149.2516428243024
  0
ARC
  5
17306
330
172D3
100
AcDbEntity
  8
0
100
AcDbCircle
 10
0.0000000000000036
 20
-3.612442753211781
 30
0.0
 40
0.1641394036340724
100
AcDbArc
 50
40.39916176224932
 51
139.6008382377537
  0
ARC
  5
17307
330
172D3
100
AcDbEntity
  8
0
100
AcDbCircle
 10
-0.6874999999999965
 20
-3.982908748387405
 30
0.0
 40
0.7374201854019004
100
AcDbArc
 50
40.28882933916245
 51
139.7111706608376
  0
ARC
  5
17308
330
172D3
100
AcDbEntity
  8
0
100
AcDbCircle
 10
-1.375
 20
-3.50606256790761
 30
0.0
 40
0.125
100
AcDbArc
 50
270.0
 51
0.0
  0
ARC
  5
17309
330
172D3
100
AcDbEntity
  8
0
100
AcDbCircle
 10
0.6874999999999965
 20
-3.982908748387405
 30
0.0
 40
0.7374201854019004
100
AcDbArc
 50
40.28882933916235
 51
139.7111706608375
  0
LINE
  5
1730A
330
172D3
100
AcDbEntity
  8
0
100
AcDbLine
 10
1.75
 20
-3.63106256790761
 30
0.0
 11
1.375
 21
-3.63106256790761
 31
0.0
  0
ARC
  5
1730B
330
172D3
100
AcDbEntity
  8
0
100
AcDbCircle
 10
1.75
 20
-3.50606256790761
 30
0.0
 40
0.125
100
AcDbArc
 50
270.0
 51
0.0000000000000127
  0
LINE
  5
1730C
330
172D3
100
AcDbEntity
  8
0
100
AcDbLine
 10
1.875000000000003
 20
0.0
 30
0.0
 11
1.875000000000003
 21
-0.4717392797747109
 31
0.0
  0
ARC
  5
1730D
330
172D3
100
AcDbEntity
  8
0
100
AcDbCircle
 10
2.008606097580482
 20
-0.9314318495163444
 30
0.0
 40
0.4787147877247547
100
AcDbArc
 50
106.2060984433639
 51
158.7302441292768
  0
ARC
  5
1730E
330
172D3
100
AcDbEntity
  8
0
100
AcDbCircle
 10
1.428893902419517
 20
-0.9314318495163444
 30
0.0
 40
0.4787147877247547
100
AcDbArc
 50
21.26975587072321
 51
52.73602808980905
  0
ENDBLK
  5
172D5
330
172D3
100
AcDbEntity
  8
0
100
AcDbBlockEnd
  0
BLOCK
  5
17F6B
330
17F60
100
AcDbEntity
  8
0
100
AcDbBlockBegin
  2
*D2
 70
     1
 10
0.0
 20
0.0
 30
0.0
  3
*D2
  1

  0
LINE
  5
17F99
330
17F60
100
AcDbEntity
  8
DIM
 62
     0
370
    -2
100
AcDbLine
 10
82.51777447867262
 20
20.24908076408137
 30
0.0
 11
78.29510810615755
 21
20.24908076408137
 31
0.0
  0
LINE
  5
17F9A
330
17F60
100
AcDbEntity
  8
DIM
 62
     0
370
    -2
100
AcDbLine
 10
82.5177744786726
 20
31.24908076408137
 30
0.0
 11
78.29510810615755
 21
31.24908076408137
 31
0.0
  0
LINE
  5
17F9B
330
17F60
100
AcDbEntity
  8
DIM
 62
     0
370
    -2
100
AcDbLine
 10
78.47510810615756
 20
20.42908076408137
 30
0.0
 11
78.47510810615756
 21
25.28408076408136
 31
0.0
  0
LINE
  5
17F9C
330
17F60
100
AcDbEntity
  8
DIM
 62
     0
370
    -2
100
AcDbLine
 10
78.47510810615756
 20
31.06908076408137
 30
0.0
 11
78.47510810615756
 21
26.21408076408136
 31
0.0
  0
SOLID
  5
17F9D
330
17F60
100
AcDbEntity
  8
DIM
 62
     0
100
AcDbTrace
 10
78.44510810615756
 20
20.42908076408137
 30
0.0
 11
78.50510810615756
 21
20.42908076408137
 31
0.0
 12
78.47510810615756
 22
20.24908076408137
 32
0.0
 13
78.47510810615756
 23
20.24908076408137
 33
0.0
  0
SOLID
  5
17F9E
330
17F60
100
AcDbEntity
  8
DIM
 62
     0
100
AcDbTrace
 10
78.44510810615756
 20
31.06908076408137
 30
0.0
 11
78.50510810615756
 21
31.06908076408137
 31
0.0
 12
78.47510810615756
 22
31.24908076408137
 32
0.0
 13
78.47510810615756
 23
31.24908076408137
 33
0.0
  0
MTEXT
  5
17F9F
330
17F60
100
AcDbEntity
  8
DIM
 62
     0
100
AcDbMText
 10
78.47510810615756
 20
25.74908076408138
 30
0.0
 40
0.75
 41
0.0
 71
     5
 72
     1
  1
\A1;11
 73
     1
 44
1.0
  0
POINT
  5
17FA0
330
17F60
100
AcDbEntity
  8
Defpoints
 62
     0
100
AcDbPoint
 10
82.58027447867261
 20
20.24908076408137
 30
0.0
  0
POINT
  5
17FA1
330
17F60
100
AcDbEntity
  8
Defpoints
 62
     0
100
AcDbPoint
 10
82.58027447867261
 20
31.24908076408137
 30
0.0
  0
POINT
  5
17FA2
330
17F60
100
AcDbEntity
  8
Defpoints
 62
     0
100
AcDbPoint
 10
78.47510810615756
 20
31.24908076408137
 30
0.0
  0
ENDBLK
  5
17F6C
330
17F60
100
AcDbEntity
  8
0
100
AcDbBlockEnd
  0
BLOCK
  5
17F79
330
17F6E
100
AcDbEntity
  8
0
100
AcDbBlockBegin
  2
*D3
 70
     1
 10
0.0
 20
0.0
 30
0.0
  3
*D3
  1

  0
LINE
  5
17FA3
330
17F6E
100
AcDbEntity
  8
DIM
 62
     0
370
    -2
100
AcDbLine
 10
84.16982762166844
 20
29.41274537256177
 30
0.0
 11
84.16982762166844
 21
34.35857444623621
 31
0.0
  0
LINE
  5
17FA4
330
17F6E
100
AcDbEntity
  8
DIM
 62
     0
370
    -2
100
AcDbLine
 10
81.04482762166844
 20
29.41274537256177
 30
0.0
 11
81.04482762166844
 21
34.35857444623621
 31
0.0
  0
LINE
  5
17FA5
330
17F6E
100
AcDbEntity
  8
DIM
 62
     0
370
    -2
100
AcDbLine
 10
83.98982762166843
 20
34.17857444623621
 30
0.0
 11
83.32232762166844
 21
34.17857444623621
 31
0.0
  0
LINE
  5
17FA6
330
17F6E
100
AcDbEntity
  8
DIM
 62
     0
370
    -2
100
AcDbLine
 10
81.22482762166844
 20
34.17857444623621
 30
0.0
 11
81.89232762166843
 21
34.17857444623621
 31
0.0
  0
SOLID
  5
17FA7
330
17F6E
100
AcDbEntity
  8
DIM
 62
     0
100
AcDbTrace
 10
83.98982762166843
 20
34.20857444623621
 30
0.0
 11
83.98982762166843
 21
34.14857444623621
 31
0.0
 12
84.16982762166844
 22
34.17857444623621
 32
0.0
 13
84.16982762166844
 23
34.17857444623621
 33
0.0
  0
SOLID
  5
17FA8
330
17F6E
100
AcDbEntity
  8
DIM
 62
     0
100
AcDbTrace
 10
81.22482762166844
 20
34.20857444623621
 30
0.0
 11
81.22482762166844
 21
34.14857444623621
 31
0.0
 12
81.04482762166844
 22
34.17857444623621
 32
0.0
 13
81.04482762166844
 23
34.17857444623621
 33
0.0
  0
MTEXT
  5
17FA9
330
17F6E
100
AcDbEntity
  8
DIM
 62
     0
100
AcDbMText
 10
82.60732762166844
 20
34.17857444623621
 30
0.0
 40
0.75
 41
0.0
 71
     5
 72
     1
  1
\A1;3{\H1.000000x;\S1/8;}
 73
     1
 44
1.0
  0
POINT
  5
17FAA
330
17F6E
100
AcDbEntity
  8
Defpoints
 62
     0
100
AcDbPoint
 10
84.16982762166844
 20
29.35024537256177
 30
0.0
  0
POINT
  5
17FAB
330
17F6E
100
AcDbEntity
  8
Defpoints
 62
     0
100
AcDbPoint
 10
81.04482762166844
 20
29.35024537256177
 30
0.0
  0
POINT
  5
17FAC
330
17F6E
100
AcDbEntity
  8
Defpoints
 62
     0
100
AcDbPoint
 10
81.04482762166844
 20
34.17857444623621
 30
0.0
  0
ENDBLK
  5
17F7A
330
17F6E
100
AcDbEntity
  8
0
100
AcDbBlockEnd
  0
BLOCK
  5
18030
330
18025
100
AcDbEntity
  8
0
100
AcDbBlockBegin
  2
*D4
 70
     1
 10
0.0
 20
0.0
 30
0.0
  3
*D4
  1

  0
LINE
  5
18034
330
18025
100
AcDbEntity
  8
DIM
 62
     0
370
    -2
100
AcDbLine
 10
92.37041483053047
 20
31.31158076408137
 30
0.0
 11
92.37041483053047
 21
34.00760739747759
 31
0.0
  0
LINE
  5
18035
330
18025
100
AcDbEntity
  8
DIM
 62
     0
370
    -2
100
AcDbLine
 10
88.99541483053047
 20
28.62200567445626
 30
0.0
 11
88.99541483053047
 21
34.00760739747759
 31
0.0
  0
LINE
  5
18036
330
18025
100
AcDbEntity
  8
DIM
 62
     0
370
    -2
100
AcDbLine
 10
92.19041483053047
 20
33.82760739747759
 30
0.0
 11
91.39791483053048
 21
33.82760739747759
 31
0.0
  0
LINE
  5
18037
330
18025
100
AcDbEntity
  8
DIM
 62
     0
370
    -2
100
AcDbLine
 10
89.17541483053048
 20
33.82760739747759
 30
0.0
 11
89.96791483053048
 21
33.82760739747759
 31
0.0
  0
SOLID
  5
18038
330
18025
100
AcDbEntity
  8
DIM
 62
     0
100
AcDbTrace
 10
92.19041483053047
 20
33.85760739747759
 30
0.0
 11
92.19041483053047
 21
33.79760739747759
 31
0.0
 12
92.37041483053047
 22
33.82760739747759
 32
0.0
 13
92.37041483053047
 23
33.82760739747759
 33
0.0
  0
SOLID
  5
18039
330
18025
100
AcDbEntity
  8
DIM
 62
     0
100
AcDbTrace
 10
89.17541483053048
 20
33.85760739747759
 30
0.0
 11
89.17541483053048
 21
33.79760739747759
 31
0.0
 12
88.99541483053047
 22
33.82760739747759
 32
0.0
 13
88.99541483053047
 23
33.82760739747759
 33
0.0
  0
MTEXT
  5
1803A
330
18025
100
AcDbEntity
  8
DIM
 62
     0
100
AcDbMText
 10
90.68291483053048
 20
33.82760739747759
 30
0.0
 40
0.75
 41
0.0
 71
     5
 72
     1
  1
\A1;3{\H1.000000x;\S3/8;}
 73
     1
 44
1.0
  0
POINT
  5
1803B
330
18025
100
AcDbEntity
  8
Defpoints
 62
     0
100
AcDbPoint
 10
92.37041483053047
 20
31.24908076408137
 30
0.0
  0
POINT
  5
1803C
330
18025
100
AcDbEntity
  8
Defpoints
 62
     0
100
AcDbPoint
 10
88.99541483053047
 20
28.55950567445626
 30
0.0
  0
POINT
  5
1803D
330
18025
100
AcDbEntity
  8
Defpoints
 62
     0
100
AcDbPoint
 10
88.99541483053047
 20
33.82760739747759
 30
0.0
  0
ENDBLK
  5
18031
330
18025
100
AcDbEntity
  8
0
100
AcDbBlockEnd
  0
BLOCK
  5
1811E
330
18113
100
AcDbEntity
  8
0
 62
     4
100
AcDbBlockBegin
  2
*D7
 70
     1
 10
0.0
 20
0.0
 30
0.0
  3
*D7
  1

  0
LINE
  5
18120
330
18113
100
AcDbEntity
  8
DIM
 62
     0
370
    -2
100
AcDbLine
 10
96.18968722479326
 20
29.90463055293037
 30
0.0
 11
96.18968722479326
 21
31.94165188579142
 31
0.0
  0
LINE
  5
18121
330
18113
100
AcDbEntity
  8
DIM
 62
     0
370
    -2
100
AcDbLine
 10
101.4396872247932
 20
29.90463055293037
 30
0.0
 11
101.4396872247932
 21
31.94165188579142
 31
0.0
  0
LINE
  5
18122
330
18113
100
AcDbEntity
  8
DIM
 62
     0
370
    -2
100
AcDbLine
 10
96.36968722479327
 20
31.76165188579141
 30
0.0
 11
98.09968722479325
 21
31.76165188579141
 31
0.0
  0
LINE
  5
18123
330
18113
100
AcDbEntity
  8
DIM
 62
     0
370
    -2
100
AcDbLine
 10
101.2596872247932
 20
31.76165188579141
 30
0.0
 11
99.52968722479326
 21
31.76165188579141
 31
0.0
  0
SOLID
  5
18124
330
18113
100
AcDbEntity
  8
DIM
 62
     0
100
AcDbTrace
 10
96.36968722479327
 20
31.79165188579141
 30
0.0
 11
96.36968722479327
 21
31.73165188579141
 31
0.0
 12
96.18968722479326
 22
31.76165188579141
 32
0.0
 13
96.18968722479326
 23
31.76165188579141
 33
0.0
  0
SOLID
  5
18125
330
18113
100
AcDbEntity
  8
DIM
 62
     0
100
AcDbTrace
 10
101.2596872247932
 20
31.79165188579141
 30
0.0
 11
101.2596872247932
 21
31.73165188579141
 31
0.0
 12
101.4396872247932
 22
31.76165188579141
 32
0.0
 13
101.4396872247932
 23
31.76165188579141
 33
0.0
  0
MTEXT
  5
18126
330
18113
100
AcDbEntity
  8
DIM
 62
     0
100
AcDbMText
 10
98.81468722479326
 20
31.76165188579141
 30
0.0
 40
0.75
 41
0.0
 71
     5
 72
     1
  1
\A1;5{\H1.000000x;\S1/4;}
 73
     1
 44
1.0
  0
POINT
  5
18127
330
18113
100
AcDbEntity
  8
Defpoints
 62
     0
100
AcDbPoint
 10
96.18968722479326
 20
29.84213055293037
 30
0.0
  0
POINT
  5
18128
330
18113
100
AcDbEntity
  8
Defpoints
 62
     0
100
AcDbPoint
 10
101.4396872247932
 20
29.84213055293037
 30
0.0
  0
POINT
  5
18129
330
18113
100
AcDbEntity
  8
Defpoints
 62
     0
100
AcDbPoint
 10
101.4396872247932
 20
31.76165188579141
 30
0.0
  0
ENDBLK
  5
1811F
330
18113
100
AcDbEntity
  8
0
 62
     4
100
AcDbBlockEnd
  0
BLOCK
  5
18136
330
1812B
100
AcDbEntity
  8
0
100
AcDbBlockBegin
  2
*D8
 70
     1
 10
0.0
 20
0.0
 30
0.0
  3
*D8
  1

  0
LINE
  5
1812C
330
1812B
100
AcDbEntity
  8
DIM
 62
     0
370
    -2
100
AcDbLine
 10
96.12718722479327
 20
29.84213055293037
 30
0.0
 11
93.32537728301895
 21
29.84213055293037
 31
0.0
  0
LINE
  5
1812D
330
1812B
100
AcDbEntity
  8
DIM
 62
     0
370
    -2
100
AcDbLine
 10
97.00218722479327
 20
17.09213055293037
 30
0.0
 11
93.32537728301895
 21
17.09213055293037
 31
0.0
  0
LINE
  5
1812E
330
1812B
100
AcDbEntity
  8
DIM
 62
     0
370
    -2
100
AcDbLine
 10
93.50537728301896
 20
29.66213055293037
 30
0.0
 11
93.50537728301896
 21
24.43213055293037
 31
0.0
  0
LINE
  5
1812F
330
1812B
100
AcDbEntity
  8
DIM
 62
     0
370
    -2
100
AcDbLine
 10
93.50537728301896
 20
17.27213055293036
 30
0.0
 11
93.50537728301896
 21
22.50213055293037
 31
0.0
  0
SOLID
  5
18130
330
1812B
100
AcDbEntity
  8
DIM
 62
     0
100
AcDbTrace
 10
93.47537728301896
 20
29.66213055293037
 30
0.0
 11
93.53537728301896
 21
29.66213055293037
 31
0.0
 12
93.50537728301896
 22
29.84213055293037
 32
0.0
 13
93.50537728301896
 23
29.84213055293037
 33
0.0
  0
SOLID
  5
18131
330
1812B
100
AcDbEntity
  8
DIM
 62
     0
100
AcDbTrace
 10
93.47537728301896
 20
17.27213055293036
 30
0.0
 11
93.53537728301896
 21
17.27213055293036
 31
0.0
 12
93.50537728301896
 22
17.09213055293037
 32
0.0
 13
93.50537728301896
 23
17.09213055293037
 33
0.0
  0
MTEXT
  5
18132
330
1812B
100
AcDbEntity
  8
DIM
 62
     0
100
AcDbMText
 10
93.50537728301896
 20
23.46713055293038
 30
0.0
 40
0.75
 41
0.0
 71
     5
 72
     1
  1
\A1;12{\H1.000000x;\S3/4;}
 73
     1
 44
1.0
  0
POINT
  5
18133
330
1812B
100
AcDbEntity
  8
Defpoints
 62
     0
100
AcDbPoint
 10
96.18968722479326
 20
29.84213055293037
 30
0.0
  0
POINT
  5
18134
330
1812B
100
AcDbEntity
  8
Defpoints
 62
     0
100
AcDbPoint
 10
97.06468722479327
 20
17.09213055293037
 30
0.0
  0
POINT
  5
18135
330
1812B
100
AcDbEntity
  8
Defpoints
 62
     0
100
AcDbPoint
 10
93.50537728301896
 20
17.09213055293037
 30
0.0
  0
ENDBLK
  5
18137
330
1812B
100
AcDbEntity
  8
0
100
AcDbBlockEnd
  0
BLOCK
  5
18198
330
18197
100
AcDbEntity
  8
0
 62
     4
100
AcDbBlockBegin
  2
*D10
 70
     1
 10
0.0
 20
0.0
 30
0.0
  3
*D10
  1

  0
LINE
  5
18199
330
18197
100
AcDbEntity
  8
DIM
 62
     0
370
    -2
100
AcDbLine
 10
96.18968722479326
 20
29.90463055293037
 30
0.0
 11
96.18968722479326
 21
31.94165188579142
 31
0.0
  0
LINE
  5
1819A
330
18197
100
AcDbEntity
  8
DIM
 62
     0
370
    -2
100
AcDbLine
 10
101.4396872247932
 20
29.90463055293037
 30
0.0
 11
101.4396872247932
 21
31.94165188579142
 31
0.0
  0
LINE
  5
1819B
330
18197
100
AcDbEntity
  8
DIM
 62
     0
370
    -2
100
AcDbLine
 10
96.36968722479327
 20
31.76165188579141
 30
0.0
 11
98.09968722479325
 21
31.76165188579141
 31
0.0
  0
LINE
  5
1819C
330
18197
100
AcDbEntity
  8
DIM
 62
     0
370
    -2
100
AcDbLine
 10
101.2596872247932
 20
31.76165188579141
 30
0.0
 11
99.52968722479326
 21
31.76165188579141
 31
0.0
  0
SOLID
  5
1819D
330
18197
100
AcDbEntity
  8
DIM
 62
     0
100
AcDbTrace
 10
96.36968722479327
 20
31.79165188579141
 30
0.0
 11
96.36968722479327
 21
31.73165188579141
 31
0.0
 12
96.18968722479326
 22
31.76165188579141
 32
0.0
 13
96.18968722479326
 23
31.76165188579141
 33
0.0
  0
SOLID
  5
1819E
330
18197
100
AcDbEntity
  8
DIM
 62
     0
100
AcDbTrace
 10
101.2596872247932
 20
31.79165188579141
 30
0.0
 11
101.2596872247932
 21
31.73165188579141
 31
0.0
 12
101.4396872247932
 22
31.76165188579141
 32
0.0
 13
101.4396872247932
 23
31.76165188579141
 33
0.0
  0
MTEXT
  5
1819F
330
18197
100
AcDbEntity
  8
DIM
 62
     0
100
AcDbMText
 10
98.81468722479326
 20
31.76165188579141
 30
0.0
 40
0.75
 41
0.0
 71
     5
 72
     1
  1
\A1;5{\H1.000000x;\S1/4;}
 73
     1
 44
1.0
  0
POINT
  5
181A0
330
18197
100
AcDbEntity
  8
Defpoints
 62
     0
100
AcDbPoint
 10
96.18968722479326
 20
29.84213055293037
 30
0.0
  0
POINT
  5
181A1
330
18197
100
AcDbEntity
  8
Defpoints
 62
     0
100
AcDbPoint
 10
101.4396872247932
 20
29.84213055293037
 30
0.0
  0
POINT
  5
181A2
330
18197
100
AcDbEntity
  8
Defpoints
 62
     0
100
AcDbPoint
 10
101.4396872247932
 20
31.76165188579141
 30
0.0
  0
ENDBLK
  5
181A3
330
18197
100
AcDbEntity
  8
0
 62
     4
100
AcDbBlockEnd
  0
BLOCK
  5
181A5
330
181A4
100
AcDbEntity
  8
0
100
AcDbBlockBegin
  2
*D11
 70
     1
 10
0.0
 20
0.0
 30
0.0
  3
*D11
  1

  0
LINE
  5
181A6
330
181A4
100
AcDbEntity
  8
DIM
 62
     0
370
    -2
100
AcDbLine
 10
96.12718722479327
 20
29.84213055293037
 30
0.0
 11
93.32537728301895
 21
29.84213055293037
 31
0.0
  0
LINE
  5
181A7
330
181A4
100
AcDbEntity
  8
DIM
 62
     0
370
    -2
100
AcDbLine
 10
97.00218722479327
 20
17.09213055293037
 30
0.0
 11
93.32537728301895
 21
17.09213055293037
 31
0.0
  0
LINE
  5
181A8
330
181A4
100
AcDbEntity
  8
DIM
 62
     0
370
    -2
100
AcDbLine
 10
93.50537728301896
 20
29.66213055293037
 30
0.0
 11
93.50537728301896
 21
24.43213055293037
 31
0.0
  0
LINE
  5
181A9
330
181A4
100
AcDbEntity
  8
DIM
 62
     0
370
    -2
100
AcDbLine
 10
93.50537728301896
 20
17.27213055293036
 30
0.0
 11
93.50537728301896
 21
22.50213055293037
 31
0.0
  0
SOLID
  5
181AA
330
181A4
100
AcDbEntity
  8
DIM
 62
     0
100
AcDbTrace
 10
93.47537728301896
 20
29.66213055293037
 30
0.0
 11
93.53537728301896
 21
29.66213055293037
 31
0.0
 12
93.50537728301896
 22
29.84213055293037
 32
0.0
 13
93.50537728301896
 23
29.84213055293037
 33
0.0
  0
SOLID
  5
181AB
330
181A4
100
AcDbEntity
  8
DIM
 62
     0
100
AcDbTrace
 10
93.47537728301896
 20
17.27213055293036
 30
0.0
 11
93.53537728301896
 21
17.27213055293036
 31
0.0
 12
93.50537728301896
 22
17.09213055293037
 32
0.0
 13
93.50537728301896
 23
17.09213055293037
 33
0.0
  0
MTEXT
  5
181AC
330
181A4
100
AcDbEntity
  8
DIM
 62
     0
100
AcDbMText
 10
93.50537728301896
 20
23.46713055293038
 30
0.0
 40
0.75
 41
0.0
 71
     5
 72
     1
  1
\A1;12{\H1.000000x;\S3/4;}
 73
     1
 44
1.0
  0
POINT
  5
181AD
330
181A4
100
AcDbEntity
  8
Defpoints
 62
     0
100
AcDbPoint
 10
96.18968722479326
 20
29.84213055293037
 30
0.0
  0
POINT
  5
181AE
330
181A4
100
AcDbEntity
  8
Defpoints
 62
     0
100
AcDbPoint
 10
97.06468722479327
 20
17.09213055293037
 30
0.0
  0
POINT
  5
181AF
330
181A4
100
AcDbEntity
  8
Defpoints
 62
     0
100
AcDbPoint
 10
93.50537728301896
 20
17.09213055293037
 30
0.0
  0
ENDBLK
  5
181B0
330
181A4
100
AcDbEntity
  8
0
100
AcDbBlockEnd
  0
BLOCK
  5
18240
330
18235
100
AcDbEntity
  8
0
 62
     4
100
AcDbBlockBegin
  2
*D13
 70
     1
 10
0.0
 20
0.0
 30
0.0
  3
*D13
  1

  0
LINE
  5
1824F
330
18235
100
AcDbEntity
  8
DIM
 62
     0
370
    -2
100
AcDbLine
 10
134.1992475525286
 20
37.81393108001805
 30
0.0
 11
134.1992475525286
 21
39.85095241287909
 31
0.0
  0
LINE
  5
18250
330
18235
100
AcDbEntity
  8
DIM
 62
     0
370
    -2
100
AcDbLine
 10
139.4492475525286
 20
37.81393108001805
 30
0.0
 11
139.4492475525286
 21
39.85095241287909
 31
0.0
  0
LINE
  5
18251
330
18235
100
AcDbEntity
  8
DIM
 62
     0
370
    -2
100
AcDbLine
 10
134.3792475525287
 20
39.67095241287909
 30
0.0
 11
136.1092475525286
 21
39.67095241287909
 31
0.0
  0
LINE
  5
18252
330
18235
100
AcDbEntity
  8
DIM
 62
     0
370
    -2
100
AcDbLine
 10
139.2692475525286
 20
39.67095241287909
 30
0.0
 11
137.5392475525287
 21
39.67095241287909
 31
0.0
  0
SOLID
  5
18253
330
18235
100
AcDbEntity
  8
DIM
 62
     0
100
AcDbTrace
 10
134.3792475525287
 20
39.70095241287909
 30
0.0
 11
134.3792475525287
 21
39.64095241287909
 31
0.0
 12
134.1992475525286
 22
39.67095241287909
 32
0.0
 13
134.1992475525286
 23
39.67095241287909
 33
0.0
  0
SOLID
  5
18254
330
18235
100
AcDbEntity
  8
DIM
 62
     0
100
AcDbTrace
 10
139.2692475525286
 20
39.70095241287909
 30
0.0
 11
139.2692475525286
 21
39.64095241287909
 31
0.0
 12
139.4492475525286
 22
39.67095241287909
 32
0.0
 13
139.4492475525286
 23
39.67095241287909
 33
0.0
  0
MTEXT
  5
18255
330
18235
100
AcDbEntity
  8
DIM
 62
     0
100
AcDbMText
 10
136.8242475525287
 20
39.67095241287909
 30
0.0
 40
0.75
 41
0.0
 71
     5
 72
     1
  1
\A1;5{\H1.000000x;\S1/4;}
 73
     1
 44
1.0
  0
POINT
  5
18256
330
18235
100
AcDbEntity
  8
Defpoints
 62
     0
100
AcDbPoint
 10
134.1992475525286
 20
37.75143108001805
 30
0.0
  0
POINT
  5
18257
330
18235
100
AcDbEntity
  8
Defpoints
 62
     0
100
AcDbPoint
 10
139.4492475525286
 20
37.75143108001805
 30
0.0
  0
POINT
  5
18258
330
18235
100
AcDbEntity
  8
Defpoints
 62
     0
100
AcDbPoint
 10
139.4492475525286
 20
39.67095241287909
 30
0.0
  0
ENDBLK
  5
18241
330
18235
100
AcDbEntity
  8
0
 62
     4
100
AcDbBlockEnd
  0
BLOCK
  5
1824D
330
18242
100
AcDbEntity
  8
0
 62
     4
100
AcDbBlockBegin
  2
*D14
 70
     1
 10
0.0
 20
0.0
 30
0.0
  3
*D14
  1

  0
LINE
  5
18259
330
18242
100
AcDbEntity
  8
DIM
 62
     0
370
    -2
100
AcDbLine
 10
134.1367475525286
 20
37.75143108001805
 30
0.0
 11
131.3349376107543
 21
37.75143108001805
 31
0.0
  0
LINE
  5
1825A
330
18242
100
AcDbEntity
  8
DIM
 62
     0
370
    -2
100
AcDbLine
 10
135.0117475525286
 20
25.00143108001805
 30
0.0
 11
131.3349376107543
 21
25.00143108001805
 31
0.0
  0
LINE
  5
1825B
330
18242
100
AcDbEntity
  8
DIM
 62
     0
370
    -2
100
AcDbLine
 10
131.5149376107543
 20
37.57143108001805
 30
0.0
 11
131.5149376107543
 21
32.34143108001806
 31
0.0
  0
LINE
  5
1825C
330
18242
100
AcDbEntity
  8
DIM
 62
     0
370
    -2
100
AcDbLine
 10
131.5149376107543
 20
25.18143108001805
 30
0.0
 11
131.5149376107543
 21
30.41143108001805
 31
0.0
  0
SOLID
  5
1825D
330
18242
100
AcDbEntity
  8
DIM
 62
     0
100
AcDbTrace
 10
131.4849376107543
 20
37.57143108001805
 30
0.0
 11
131.5449376107544
 21
37.57143108001805
 31
0.0
 12
131.5149376107543
 22
37.75143108001805
 32
0.0
 13
131.5149376107543
 23
37.75143108001805
 33
0.0
  0
SOLID
  5
1825E
330
18242
100
AcDbEntity
  8
DIM
 62
     0
100
AcDbTrace
 10
131.4849376107543
 20
25.18143108001805
 30
0.0
 11
131.5449376107544
 21
25.18143108001805
 31
0.0
 12
131.5149376107543
 22
25.00143108001805
 32
0.0
 13
131.5149376107543
 23
25.00143108001805
 33
0.0
  0
MTEXT
  5
1825F
330
18242
100
AcDbEntity
  8
DIM
 62
     0
100
AcDbMText
 10
131.5149376107543
 20
31.37643108001807
 30
0.0
 40
0.75
 41
0.0
 71
     5
 72
     1
  1
\A1;12{\H1.000000x;\S3/4;}
 73
     1
 44
1.0
  0
POINT
  5
18260
330
18242
100
AcDbEntity
  8
Defpoints
 62
     0
100
AcDbPoint
 10
134.1992475525286
 20
37.75143108001805
 30
0.0
  0
POINT
  5
18261
330
18242
100
AcDbEntity
  8
Defpoints
 62
     0
100
AcDbPoint
 10
135.0742475525287
 20
25.00143108001805
 30
0.0
  0
POINT
  5
18262
330
18242
100
AcDbEntity
  8
Defpoints
 62
     0
100
AcDbPoint
 10
131.5149376107543
 20
25.00143108001805
 30
0.0
  0
ENDBLK
  5
1824E
330
18242
100
AcDbEntity
  8
0
 62
     4
100
AcDbBlockEnd
  0
BLOCK
  5
182FE
330
182F3
100
AcDbEntity
  8
0
100
AcDbBlockBegin
  2
*D16
 70
     1
 10
0.0
 20
0.0
 30
0.0
  3
*D16
  1

  0
LINE
  5
18300
330
182F3
100
AcDbEntity
  8
DIM
 62
     0
370
    -2
100
AcDbLine
 10
108.3174126541613
 20
29.90463055293037
 30
0.0
 11
108.3174126541613
 21
32.36074021836822
 31
0.0
  0
LINE
  5
18301
330
182F3
100
AcDbEntity
  8
DIM
 62
     0
370
    -2
100
AcDbLine
 10
113.5674126541613
 20
29.90463055293037
 30
0.0
 11
113.5674126541613
 21
32.36074021836822
 31
0.0
  0
LINE
  5
18302
330
182F3
100
AcDbEntity
  8
DIM
 62
     0
370
    -2
100
AcDbLine
 10
108.4974126541613
 20
32.18074021836822
 30
0.0
 11
110.2274126541613
 21
32.18074021836822
 31
0.0
  0
LINE
  5
18303
330
182F3
100
AcDbEntity
  8
DIM
 62
     0
370
    -2
100
AcDbLine
 10
113.3874126541613
 20
32.18074021836822
 30
0.0
 11
111.6574126541613
 21
32.18074021836822
 31
0.0
  0
SOLID
  5
18304
330
182F3
100
AcDbEntity
  8
DIM
 62
     0
100
AcDbTrace
 10
108.4974126541613
 20
32.21074021836822
 30
0.0
 11
108.4974126541613
 21
32.15074021836822
 31
0.0
 12
108.3174126541613
 22
32.18074021836822
 32
0.0
 13
108.3174126541613
 23
32.18074021836822
 33
0.0
  0
SOLID
  5
18305
330
182F3
100
AcDbEntity
  8
DIM
 62
     0
100
AcDbTrace
 10
113.3874126541613
 20
32.21074021836822
 30
0.0
 11
113.3874126541613
 21
32.15074021836822
 31
0.0
 12
113.5674126541613
 22
32.18074021836822
 32
0.0
 13
113.5674126541613
 23
32.18074021836822
 33
0.0
  0
MTEXT
  5
18306
330
182F3
100
AcDbEntity
  8
DIM
 62
     0
100
AcDbMText
 10
110.9424126541613
 20
32.18074021836822
 30
0.0
 40
0.75
 41
0.0
 71
     5
 72
     1
  1
\A1;5{\H1.000000x;\S1/4;}
 73
     1
 44
1.0
  0
POINT
  5
18307
330
182F3
100
AcDbEntity
  8
Defpoints
 62
     0
100
AcDbPoint
 10
108.3174126541613
 20
29.84213055293037
 30
0.0
  0
POINT
  5
18308
330
182F3
100
AcDbEntity
  8
Defpoints
 62
     0
100
AcDbPoint
 10
113.5674126541613
 20
29.84213055293037
 30
0.0
  0
POINT
  5
18309
330
182F3
100
AcDbEntity
  8
Defpoints
 62
     0
100
AcDbPoint
 10
113.5674126541613
 20
32.18074021836822
 30
0.0
  0
ENDBLK
  5
182FF
330
182F3
100
AcDbEntity
  8
0
100
AcDbBlockEnd
  0
ENDSEC
  0
SECTION
  2
ENTITIES
  0
LINE
  5
18059
330
18
100
AcDbEntity
  8
0
100
AcDbLine
 10
108.3174126541613
 20
29.84213055293037
 30
0.0
 11
113.5674126541613
 21
29.84213055293037
 31
0.0
  0
LINE
  5
1805A
330
18
100
AcDbEntity
  8
0
100
AcDbLine
 10
113.5674126541613
 20
29.84213055293037
 30
0.0
 11
113.5674126541613
 21
17.09213055293037
 31
0.0
  0
LINE
  5
1805B
330
18
100
AcDbEntity
  8
0
100
AcDbLine
 10
108.3174126541613
 20
29.84213055293037
 30
0.0
 11
108.3174126541613
 21
27.09213055293037
 31
0.0
  0
LINE
  5
1805C
330
18
100
AcDbEntity
  8
0
100
AcDbLine
 10
110.5174126541613
 20
17.09213055293037
 30
0.0
 11
113.5674126541613
 21
17.09213055293037
 31
0.0
  0
LINE
  5
18068
330
18
100
AcDbEntity
  8
0
100
AcDbLine
 10
96.18968722479326
 20
29.84213055293037
 30
0.0
 11
101.4396872247932
 21
29.84213055293037
 31
0.0
  0
LINE
  5
1806A
330
18
100
AcDbEntity
  8
0
100
AcDbLine
 10
96.18968722479326
 20
19.34213055293037
 30
0.0
 11
96.18968722479326
 21
17.46713055293036
 31
0.0
  0
LINE
  5
1806B
330
18
100
AcDbEntity
  8
0
100
AcDbLine
 10
96.81468722479326
 20
17.09213055293037
 30
0.0
 11
97.31468722479327
 21
17.09213055293037
 31
0.0
  0
LINE
  5
18070
330
18
100
AcDbEntity
  8
0
100
AcDbLine
 10
96.18968722479326
 20
27.09213055293037
 30
0.0
 11
101.4396872247932
 21
27.09213055293037
 31
0.0
  0
CIRCLE
  5
18072
330
18
100
AcDbEntity
  8
0
100
AcDbCircle
 10
98.81903014742235
 20
28.38556254950413
 30
0.0
 40
0.1478416379447169
  0
SPLINE
  5
18073
330
18
100
AcDbEntity
  8
0
100
AcDbSpline
210
0.0
220
0.0
230
1.0
 70
     8
 71
     3
 72
    10
 73
     6
 74
     4
 42
0.0000000001
 43
0.0000000001
 44
0.0000000001
 40
0.0
 40
0.0
 40
0.0
 40
0.0
 40
0.1124111513884303
 40
0.2337797411427293
 40
0.3496892119005668
 40
0.3496892119005668
 40
0.3496892119005668
 40
0.3496892119005668
 10
98.7763494308275
 20
28.16853482425412
 30
0.0
 10
98.74619488252811
 20
28.14455398675079
 30
0.0
 10
98.68348293261355
 20
28.09468140814389
 30
0.0
 10
98.68806599567349
 20
27.94528722696016
 30
0.0
 10
98.77265556259565
 20
27.92416634398552
 30
0.0
 10
98.81397725880479
 20
27.91384886936419
 30
0.0
 11
98.7763494308275
 21
28.16853482425412
 31
0.0
 11
98.70109377487295
 21
28.08503121233629
 31
0.0
 11
98.70945558333936
 21
27.96395101272413
 31
0.0
 11
98.81397725880479
 21
27.91384886936419
 31
0.0
  0
SPLINE
  5
18074
330
18
100
AcDbEntity
  8
0
100
AcDbSpline
210
0.0
220
0.0
230
1.0
 70
     8
 71
     3
 72
    15
 73
    11
 74
     9
 42
0.0000000001
 43
0.0000000001
 44
0.0000000001
 40
0.0
 40
0.0
 40
0.0
 40
0.0
 40
0.1450442837362184
 40
0.4229520897185711
 40
0.7115529080069971
 40
0.8741889906272282
 40
0.9437055562684182
 40
0.9925825553571467
 40
1.114082681554175
 40
1.318252088283674
 40
1.318252088283674
 40
1.318252088283674
 40
1.318252088283674
 10
98.7763494308275
 20
28.16853482425412
 30
0.0
 10
98.74157046689957
 20
28.13450300402163
 30
0.0
 10
98.64015429872909
 20
28.03526552210588
 30
0.0
 10
98.40708443829669
 20
27.95509421472532
 30
0.0
 10
98.15673212611084
 20
27.95852685793066
 30
0.0
 10
97.99618716710158
 20
28.02172520682898
 30
0.0
 10
97.92470077217503
 20
28.10171784224588
 30
0.0
 10
97.96091083722251
 20
28.18463341139927
 30
0.0
 10
98.09141815239641
 20
28.21998095471429
 30
0.0
 10
98.19633056867358
 20
28.23711901197659
 30
0.0
 10
98.26210247431482
 20
28.24786323773298
 30
0.0
 11
98.7763494308275
 21
28.16853482425412
 31
0.0
 11
98.66764685112887
 21
28.07250569632193
 31
0.0
 11
98.40843295952112
 21
27.97230136995079
 31
0.0
 11
98.11995297087211
 21
27.98065172717745
 31
0.0
 11
97.9736224856658
 21
28.05162978342966
 31
0.0
 11
97.93599465768853
 21
28.11008232366752
 31
0.0
 11
97.95271819709094
 21
28.1560092685885
 31
0.0
 11
98.06142077678959
 21
28.2102866103874
 31
0.0
 11
98.26210247431482
 21
28.24786323773298
 31
0.0
  0
SPLINE
  5
18075
330
18
100
AcDbEntity
  8
0
100
AcDbSpline
210
0.0
220
0.0
230
1.0
 70
     8
 71
     3
 72
    16
 73
    12
 74
    10
 42
0.0000000001
 43
0.0000000001
 44
0.0000000001
 40
0.0
 40
0.0
 40
0.0
 40
0.0
 40
0.2075676782455289
 40
0.4542742672028745
 40
0.7107395898426685
 40
0.9352671660625356
 40
0.9909748632842145
 40
1.047188474018601
 40
1.236587568362337
 40
1.56310033482357
 40
1.861815352757391
 40
1.861815352757391
 40
1.861815352757391
 40
1.861815352757391
 10
98.26210247431482
 20
28.24786323773298
 30
0.0
 10
98.1940939714723
 20
28.23550051150346
 30
0.0
 10
98.04525329910227
 20
28.20844394640616
 30
0.0
 10
97.80610994566302
 20
28.19374052907321
 30
0.0
 10
97.5683296940817
 20
28.27701275086091
 30
0.0
 10
97.43293064134498
 20
28.38993230532265
 30
0.0
 10
97.38333264885936
 20
28.51120887141087
 30
0.0
 10
97.48295869544678
 20
28.57307174959209
 30
0.0
 10
97.65201580880711
 20
28.62707519681214
 30
0.0
 10
97.9228114684844
 20
28.71739652610595
 30
0.0
 10
98.12977473215308
 20
28.67654736197799
 30
0.0
 10
98.22865555057074
 20
28.65703086079295
 30
0.0
 11
98.26210247431482
 21
28.24786323773298
 31
0.0
 11
98.05723987255639
 21
28.21446180882636
 31
0.0
 11
97.81056861611785
 21
28.2102866103874
 31
0.0
 11
97.56807818638215
 21
28.29379022230523
 31
0.0
 11
97.40920514353701
 21
28.45244704926297
 31
0.0
 11
97.39666250836778
 21
28.50672439106186
 31
0.0
 11
97.43847124057827
 21
28.54430097875619
 31
0.0
 11
97.61406774529543
 21
28.6152790350084
 31
0.0
 11
97.9318138309857
 21
28.69043228969958
 31
0.0
 11
98.22865555057074
 21
28.65703086079295
 31
0.0
  0
SPLINE
  5
18076
330
18
100
AcDbEntity
  8
0
100
AcDbSpline
210
0.0
220
0.0
230
1.0
 70
     8
 71
     3
 72
    15
 73
    11
 74
     9
 42
0.0000000001
 43
0.0000000001
 44
0.0000000001
 40
0.0
 40
0.0
 40
0.0
 40
0.0
 40
0.149384696808602
 40
0.2681625137898689
 40
0.3473917547874462
 40
0.4531459962681736
 40
0.6916017763894491
 40
0.8859162675773418
 40
1.071987530208728
 40
1.200339521130087
 40
1.200339521130087
 40
1.200339521130087
 40
1.200339521130087
 10
98.22865555057072
 20
28.65703086079295
 30
0.0
 10
98.18308271093547
 20
28.66958354095934
 30
0.0
 10
98.10127428277503
 20
28.69211702892787
 30
0.0
 10
97.97262334843157
 20
28.75582670072534
 30
0.0
 10
98.01595126213632
 20
28.87561754920492
 30
0.0
 10
98.16924096811076
 20
28.89420186244986
 30
0.0
 10
98.34349872966317
 20
28.88946232073538
 30
0.0
 10
98.54600828943564
 20
28.83334340615338
 30
0.0
 10
98.69060729458905
 20
28.7362954833522
 30
0.0
 10
98.75149444168933
 20
28.65035936588284
 30
0.0
 10
98.7763494308275
 20
28.6152790350084
 30
0.0
 11
98.22865555057072
 21
28.65703086079295
 31
0.0
 11
98.08650596959765
 21
28.70295780571393
 31
0.0
 11
97.99452685177104
 21
28.7781110604051
 31
0.0
 11
98.0196120445791
 21
28.85326427544501
 31
0.0
 11
98.11995297087211
 21
28.8866657440029
 31
0.0
 11
98.35826249637461
 21
28.87831534712498
 31
0.0
 11
98.54443662832808
 21
28.82266182902434
 31
0.0
 11
98.69703831482341
 21
28.71619474464602
 31
0.0
 11
98.7763494308275
 21
28.6152790350084
 31
0.0
  0
SPLINE
  5
18077
330
18
100
AcDbEntity
  8
0
100
AcDbSpline
210
0.0
220
0.0
230
1.0
 70
     8
 71
     3
 72
    11
 73
     7
 74
     5
 42
0.0000000001
 43
0.0000000001
 44
0.0000000001
 40
0.0
 40
0.0
 40
0.0
 40
0.0
 40
0.1438478831645104
 40
0.2702147653683912
 40
0.3563589876769077
 40
0.381789261940461
 40
0.381789261940461
 40
0.381789261940461
 40
0.381789261940461
 10
98.7763494308275
 20
28.6152790350084
 30
0.0
 10
98.7465846969826
 20
28.65451588055952
 30
0.0
 10
98.69067236518304
 20
28.72822134483989
 30
0.0
 10
98.70244373271937
 20
28.86004644708288
 30
0.0
 10
98.76850759749295
 20
28.91880478973852
 30
0.0
 10
98.80566376855298
 20
28.92314756182737
 30
0.0
 10
98.81413247466122
 20
28.92413737481041
 30
0.0
 11
98.7763494308275
 21
28.6152790350084
 31
0.0
 11
98.70542989496259
 21
28.7404294761727
 31
0.0
 11
98.72215335683463
 21
28.86568487422382
 31
0.0
 11
98.78904728185318
 21
28.91996221602271
 31
0.0
 11
98.81413247466122
 21
28.92413737481041
 31
0.0
  0
SPLINE
  5
18078
330
18
100
AcDbEntity
  8
0
100
AcDbSpline
210
0.0
220
0.0
230
1.0
 70
     8
 71
     3
 72
    10
 73
     6
 74
     4
 42
0.0000000001
 43
0.0000000001
 44
0.0000000001
 40
0.0
 40
0.0
 40
0.0
 40
0.0
 40
0.30032241080581
 40
0.6550712777779765
 40
1.068375974375651
 40
1.068375974375651
 40
1.068375974375651
 40
1.068375974375651
 10
98.64689770088007
 20
28.2769845509651
 30
0.0
 10
98.55144987336984
 20
28.30811201617418
 30
0.0
 10
98.34325651823364
 20
28.3760080761245
 30
0.0
 10
97.98712919576482
 20
28.41008651794792
 30
0.0
 10
97.73381359545281
 20
28.44570216783468
 30
0.0
 10
97.59749949927986
 20
28.46486764804176
 30
0.0
 11
98.64689770088007
 21
28.2769845509651
 31
0.0
 11
98.35841771223106
 21
28.36048812323167
 31
0.0
 11
98.00722470279673
 21
28.41059030624287
 31
0.0
 11
97.59749949927986
 21
28.46486764804176
 31
0.0
  0
SPLINE
  5
18079
330
18
100
AcDbEntity
  8
0
100
AcDbSpline
210
0.0
220
0.0
230
1.0
 70
     8
 71
     3
 72
    10
 73
     6
 74
     4
 42
0.0000000001
 43
0.0000000001
 44
0.0000000001
 40
0.0
 40
0.0
 40
0.0
 40
0.0
 40
0.3390620037169435
 40
0.7539985945348209
 40
1.104036796558544
 40
1.104036796558544
 40
1.104036796558544
 40
1.104036796558544
 10
97.59749949927986
 20
28.46486764804176
 30
0.0
 10
97.71037196844389
 20
28.4703055313464
 30
0.0
 10
97.96137527220066
 20
28.48239817612522
 30
0.0
 10
98.32914425267196
 20
28.50290745753287
 30
0.0
 10
98.58156509365414
 20
28.53982760598868
 30
0.0
 10
98.69706816402658
 20
28.55672157753499
 30
0.0
 11
97.59749949927986
 21
28.46486764804176
 31
0.0
 11
97.93614995107537
 21
28.48156836249508
 31
0.0
 11
98.35005598129505
 21
28.51079459296275
 31
0.0
 11
98.69706816402658
 21
28.55672157753499
 31
0.0
  0
SPLINE
  5
1807A
330
18
100
AcDbEntity
  8
0
100
AcDbSpline
210
0.0
220
0.0
230
1.0
 70
     8
 71
     3
 72
     9
 73
     5
 74
     3
 42
0.0000000001
 43
0.0000000001
 44
0.0000000001
 40
0.0
 40
0.0
 40
0.0
 40
0.0
 40
0.1591906425359314
 40
0.3182829811593967
 40
0.3182829811593967
 40
0.3182829811593967
 40
0.3182829811593967
 10
98.66780206698532
 20
28.48574352128278
 30
0.0
 10
98.61659472030327
 20
28.47078213420619
 30
0.0
 10
98.51421164866295
 20
28.44086859905642
 30
0.0
 10
98.40755082559413
 20
28.44016715194356
 30
0.0
 10
98.35423688552825
 20
28.43981653671054
 30
0.0
 11
98.66780206698532
 21
28.48574352128278
 31
0.0
 11
98.51310992837339
 21
28.4481668939372
 31
0.0
 11
98.35423688552825
 21
28.43981653671054
 31
0.0
  0
SPLINE
  5
1807D
330
18
100
AcDbEntity
  8
0
100
AcDbSpline
210
0.0
220
0.0
230
1.0
 70
     8
 71
     3
 72
     9
 73
     5
 74
     3
 42
0.0000000001
 43
0.0000000001
 44
0.0000000001
 40
0.0
 40
0.0
 40
0.0
 40
0.0
 40
0.1443400830093359
 40
0.3032248393528932
 40
0.3032248393528932
 40
0.3032248393528932
 40
0.3032248393528932
 10
98.35423688552825
 20
28.43981653671054
 30
0.0
 10
98.40265246160369
 20
28.43459436210756
 30
0.0
 10
98.5043622914137
 20
28.42362379161843
 30
0.0
 10
98.59240372681483
 20
28.37123714008241
 30
0.0
 10
98.63853596994406
 20
28.34378740877835
 30
0.0
 11
98.35423688552825
 21
28.43981653671054
 31
0.0
 11
98.49638646650134
 21
28.41476546503057
 31
0.0
 11
98.63853596994406
 21
28.34378740877835
 31
0.0
  0
SPLINE
  5
1807E
330
18
100
AcDbEntity
  8
0
100
AcDbSpline
210
0.0
220
0.0
230
1.0
 70
     8
 71
     3
 72
     9
 73
     5
 74
     3
 42
0.0000000001
 43
0.0000000001
 44
0.0000000001
 40
0.0
 40
0.0
 40
0.0
 40
0.0
 40
0.2779293426583873
 40
0.5629939269588613
 40
0.5629939269588613
 40
0.5629939269588613
 40
0.5629939269588613
 10
98.62181250807203
 20
28.20600649471288
 30
0.0
 10
98.53341110839302
 20
28.1764466469799
 30
0.0
 10
98.35433879210604
 20
28.11656806562422
 30
0.0
 10
98.16553569388368
 20
28.11219275027268
 30
0.0
 10
98.06993772358204
 20
28.1099773667807
 30
0.0
 11
98.62181250807203
 21
28.20600649471288
 31
0.0
 11
98.35423688552825
 21
28.13085327967297
 31
0.0
 11
98.06993772358204
 21
28.1099773667807
 31
0.0
  0
SPLINE
  5
1807F
330
18
100
AcDbEntity
  8
0
100
AcDbSpline
210
0.0
220
0.0
230
1.0
 70
     8
 71
     3
 72
     9
 73
     5
 74
     3
 42
0.0000000001
 43
0.0000000001
 44
0.0000000001
 40
0.0
 40
0.0
 40
0.0
 40
0.0
 40
0.2476149023657367
 40
0.5365856917974067
 40
0.5365856917974067
 40
0.5365856917974067
 40
0.5365856917974067
 10
98.63017423900805
 20
28.63604999101386
 30
0.0
 10
98.55430034887547
 20
28.66905482024875
 30
0.0
 10
98.38988034249787
 20
28.74057684480564
 30
0.0
 10
98.21453694429012
 20
28.77847334283581
 30
0.0
 10
98.12010818672856
 20
28.7988819767593
 30
0.0
 11
98.63017423900805
 21
28.63604999101386
 31
0.0
 11
98.40022644444154
 21
28.72790396015835
 31
0.0
 11
98.12010818672856
 21
28.7988819767593
 31
0.0
  0
LINE
  5
18081
330
18
100
AcDbEntity
  8
0
100
AcDbLine
 10
97.51468722479327
 20
29.46713055293037
 30
0.0
 11
100.1146872247932
 21
29.46713055293037
 31
0.0
  0
LINE
  5
18083
330
18
100
AcDbEntity
  8
0
100
AcDbLine
 10
97.51468722479327
 20
29.21713055293036
 30
0.0
 11
100.1146872247932
 21
29.21713055293036
 31
0.0
  0
LINE
  5
18085
330
18
100
AcDbEntity
  8
0
100
AcDbLine
 10
97.51468722479327
 20
27.46713055293037
 30
0.0
 11
100.1146872247932
 21
27.46713055293037
 31
0.0
  0
LINE
  5
18087
330
18
100
AcDbEntity
  8
0
100
AcDbLine
 10
100.1146872247932
 20
27.71713055293036
 30
0.0
 11
97.51468722479327
 21
27.71713055293037
 31
0.0
  0
LINE
  5
18089
330
18
100
AcDbEntity
  8
0
100
AcDbLine
 10
96.56468722479326
 20
28.41713055293037
 30
0.0
 11
96.56468722479326
 21
28.51713055293036
 31
0.0
  0
LINE
  5
1808B
330
18
100
AcDbEntity
  8
0
100
AcDbLine
 10
96.81468722479326
 20
28.41713055293037
 30
0.0
 11
96.81468722479326
 21
28.51713055293036
 31
0.0
  0
LINE
  5
1808D
330
18
100
AcDbEntity
  8
0
100
AcDbLine
 10
101.0646872247932
 20
28.41713055293038
 30
0.0
 11
101.0646872247932
 21
28.51713055293038
 31
0.0
  0
LINE
  5
1808F
330
18
100
AcDbEntity
  8
0
100
AcDbLine
 10
100.8146872247932
 20
28.41713055293038
 30
0.0
 11
100.8146872247932
 21
28.51713055293036
 31
0.0
  0
ARC
  5
18093
330
18
100
AcDbEntity
  8
0
100
AcDbCircle
 10
100.1146872247932
 20
28.51713055293036
 30
0.0
 40
0.7
100
AcDbArc
 50
0.0
 51
90.0
  0
ARC
  5
18094
330
18
100
AcDbEntity
  8
0
100
AcDbCircle
 10
100.1146872247932
 20
28.41713055293036
 30
0.0
 40
0.7
100
AcDbArc
 50
270.0
 51
0.0000000000010178
  0
ARC
  5
18095
330
18
100
AcDbEntity
  8
0
100
AcDbCircle
 10
97.51468722479327
 20
28.41713055293037
 30
0.0
 40
0.7
100
AcDbArc
 50
180.0
 51
269.9999999999999
  0
ARC
  5
18096
330
18
100
AcDbEntity
  8
0
100
AcDbCircle
 10
97.51468722479327
 20
28.51713055293036
 30
0.0
 40
0.7
100
AcDbArc
 50
89.99999999999992
 51
180.0
  0
ARC
  5
18098
330
18
100
AcDbEntity
  8
0
100
AcDbCircle
 10
100.1146872247932
 20
28.51713055293036
 30
0.0
 40
0.95
100
AcDbArc
 50
0.0
 51
90.0
  0
ARC
  5
18099
330
18
100
AcDbEntity
  8
0
100
AcDbCircle
 10
100.1146872247932
 20
28.41713055293036
 30
0.0
 40
0.95
100
AcDbArc
 50
270.0
 51
0.0000000000010178
  0
ARC
  5
1809A
330
18
100
AcDbEntity
  8
0
100
AcDbCircle
 10
97.51468722479327
 20
28.41713055293037
 30
0.0
 40
0.95
100
AcDbArc
 50
180.0
 51
269.9999999999999
  0
ARC
  5
1809B
330
18
100
AcDbEntity
  8
0
100
AcDbCircle
 10
97.51468722479327
 20
28.51713055293036
 30
0.0
 40
0.95
100
AcDbArc
 50
89.99999999999992
 51
180.0
  0
SPLINE
  5
1809D
330
18
100
AcDbEntity
  8
0
100
AcDbSpline
210
0.0
220
0.0
230
1.0
 70
     8
 71
     3
 72
    10
 73
     6
 74
     4
 42
0.0000000001
 43
0.0000000001
 44
0.0000000001
 40
0.0
 40
0.0
 40
0.0
 40
0.0
 40
0.1124111513884303
 40
0.2337797411427293
 40
0.3496892119005668
 40
0.3496892119005668
 40
0.3496892119005668
 40
0.3496892119005668
 10
98.85302501875903
 20
28.16853482425412
 30
0.0
 10
98.8831795670584
 20
28.14455398675079
 30
0.0
 10
98.94589151697298
 20
28.09468140814389
 30
0.0
 10
98.94130845391304
 20
27.94528722696016
 30
0.0
 10
98.85671888699087
 20
27.92416634398552
 30
0.0
 10
98.81539719078174
 20
27.91384886936419
 30
0.0
 11
98.85302501875903
 21
28.16853482425412
 31
0.0
 11
98.92828067471358
 21
28.08503121233629
 31
0.0
 11
98.91991886624717
 21
27.96395101272413
 31
0.0
 11
98.81539719078174
 21
27.91384886936419
 31
0.0
  0
SPLINE
  5
1809E
330
18
100
AcDbEntity
  8
0
100
AcDbSpline
210
0.0
220
0.0
230
1.0
 70
     8
 71
     3
 72
    15
 73
    11
 74
     9
 42
0.0000000001
 43
0.0000000001
 44
0.0000000001
 40
0.0
 40
0.0
 40
0.0
 40
0.0
 40
0.1450442837362184
 40
0.4229520897185711
 40
0.7115529080069971
 40
0.8741889906272282
 40
0.9437055562684182
 40
0.9925825553571467
 40
1.114082681554175
 40
1.318252088283674
 40
1.318252088283674
 40
1.318252088283674
 40
1.318252088283674
 10
98.85302501875903
 20
28.16853482425412
 30
0.0
 10
98.88780398268696
 20
28.13450300402163
 30
0.0
 10
98.98922015085744
 20
28.03526552210588
 30
0.0
 10
99.22229001128984
 20
27.95509421472532
 30
0.0
 10
99.47264232347569
 20
27.95852685793066
 30
0.0
 10
99.63318728248495
 20
28.02172520682898
 30
0.0
 10
99.7046736774115
 20
28.10171784224588
 30
0.0
 10
99.66846361236402
 20
28.18463341139927
 30
0.0
 10
99.5379562971901
 20
28.21998095471429
 30
0.0
 10
99.43304388091295
 20
28.23711901197659
 30
0.0
 10
99.3672719752717
 20
28.24786323773298
 30
0.0
 11
98.85302501875903
 21
28.16853482425412
 31
0.0
 11
98.96172759845766
 21
28.07250569632193
 31
0.0
 11
99.22094149006539
 21
27.97230136995079
 31
0.0
 11
99.50942147871442
 21
27.98065172717745
 31
0.0
 11
99.65575196392073
 21
28.05162978342966
 31
0.0
 11
99.693379791898
 21
28.11008232366752
 31
0.0
 11
99.67665625249559
 21
28.1560092685885
 31
0.0
 11
99.56795367279694
 21
28.2102866103874
 31
0.0
 11
99.3672719752717
 21
28.24786323773298
 31
0.0
  0
SPLINE
  5
1809F
330
18
100
AcDbEntity
  8
0
100
AcDbSpline
210
0.0
220
0.0
230
1.0
 70
     8
 71
     3
 72
    16
 73
    12
 74
    10
 42
0.0000000001
 43
0.0000000001
 44
0.0000000001
 40
0.0
 40
0.0
 40
0.0
 40
0.0
 40
0.2075676782455289
 40
0.4542742672028745
 40
0.7107395898426685
 40
0.9352671660625356
 40
0.9909748632842145
 40
1.047188474018601
 40
1.236587568362337
 40
1.56310033482357
 40
1.861815352757391
 40
1.861815352757391
 40
1.861815352757391
 40
1.861815352757391
 10
99.3672719752717
 20
28.24786323773298
 30
0.0
 10
99.43528047811422
 20
28.23550051150346
 30
0.0
 10
99.58412115048425
 20
28.20844394640616
 30
0.0
 10
99.82326450392351
 20
28.19374052907321
 30
0.0
 10
100.0610447555048
 20
28.27701275086091
 30
0.0
 10
100.1964438082415
 20
28.38993230532265
 30
0.0
 10
100.2460418007272
 20
28.51120887141087
 30
0.0
 10
100.1464157541397
 20
28.57307174959209
 30
0.0
 10
99.97735864077942
 20
28.62707519681214
 30
0.0
 10
99.70656298110213
 20
28.71739652610595
 30
0.0
 10
99.49959971743345
 20
28.67654736197799
 30
0.0
 10
99.40071889901579
 20
28.65703086079295
 30
0.0
 11
99.3672719752717
 21
28.24786323773298
 31
0.0
 11
99.57213457703014
 21
28.21446180882636
 31
0.0
 11
99.81880583346868
 21
28.2102866103874
 31
0.0
 11
100.0612962632044
 21
28.29379022230523
 31
0.0
 11
100.2201693060495
 21
28.45244704926297
 31
0.0
 11
100.2327119412187
 21
28.50672439106186
 31
0.0
 11
100.1909032090082
 21
28.54430097875619
 31
0.0
 11
100.0153067042911
 21
28.6152790350084
 31
0.0
 11
99.69756061860081
 21
28.69043228969958
 31
0.0
 11
99.40071889901579
 21
28.65703086079295
 31
0.0
  0
SPLINE
  5
180A0
330
18
100
AcDbEntity
  8
0
100
AcDbSpline
210
0.0
220
0.0
230
1.0
 70
     8
 71
     3
 72
    15
 73
    11
 74
     9
 42
0.0000000001
 43
0.0000000001
 44
0.0000000001
 40
0.0
 40
0.0
 40
0.0
 40
0.0
 40
0.149384696808602
 40
0.2681625137898689
 40
0.3473917547874462
 40
0.4531459962681736
 40
0.6916017763894491
 40
0.8859162675773418
 40
1.071987530208728
 40
1.200339521130087
 40
1.200339521130087
 40
1.200339521130087
 40
1.200339521130087
 10
99.40071889901581
 20
28.65703086079295
 30
0.0
 10
99.44629173865106
 20
28.66958354095934
 30
0.0
 10
99.5281001668115
 20
28.69211702892787
 30
0.0
 10
99.65675110115496
 20
28.75582670072534
 30
0.0
 10
99.61342318745021
 20
28.87561754920492
 30
0.0
 10
99.46013348147577
 20
28.89420186244986
 30
0.0
 10
99.28587571992336
 20
28.88946232073538
 30
0.0
 10
99.08336616015089
 20
28.83334340615338
 30
0.0
 10
98.93876715499748
 20
28.7362954833522
 30
0.0
 10
98.8778800078972
 20
28.65035936588284
 30
0.0
 10
98.85302501875903
 20
28.6152790350084
 30
0.0
 11
99.40071889901581
 21
28.65703086079295
 31
0.0
 11
99.54286847998888
 21
28.70295780571393
 31
0.0
 11
99.63484759781549
 21
28.7781110604051
 31
0.0
 11
99.60976240500743
 21
28.85326427544501
 31
0.0
 11
99.50942147871442
 21
28.8866657440029
 31
0.0
 11
99.27111195321192
 21
28.87831534712498
 31
0.0
 11
99.08493782125844
 21
28.82266182902434
 31
0.0
 11
98.93233613476311
 21
28.71619474464602
 31
0.0
 11
98.85302501875903
 21
28.6152790350084
 31
0.0
  0
SPLINE
  5
180A1
330
18
100
AcDbEntity
  8
0
100
AcDbSpline
210
0.0
220
0.0
230
1.0
 70
     8
 71
     3
 72
    11
 73
     7
 74
     5
 42
0.0000000001
 43
0.0000000001
 44
0.0000000001
 40
0.0
 40
0.0
 40
0.0
 40
0.0
 40
0.1438478831645104
 40
0.2702147653683912
 40
0.3563589876769077
 40
0.381789261940461
 40
0.381789261940461
 40
0.381789261940461
 40
0.381789261940461
 10
98.85302501875903
 20
28.6152790350084
 30
0.0
 10
98.88278975260393
 20
28.65451588055952
 30
0.0
 10
98.93870208440349
 20
28.72822134483989
 30
0.0
 10
98.92693071686714
 20
28.86004644708288
 30
0.0
 10
98.86086685209356
 20
28.91880478973852
 30
0.0
 10
98.82371068103353
 20
28.92314756182737
 30
0.0
 10
98.81524197492531
 20
28.92413737481041
 30
0.0
 11
98.85302501875903
 21
28.6152790350084
 31
0.0
 11
98.92394455462394
 21
28.7404294761727
 31
0.0
 11
98.90722109275188
 21
28.86568487422382
 31
0.0
 11
98.84032716773335
 21
28.91996221602271
 31
0.0
 11
98.81524197492531
 21
28.92413737481041
 31
0.0
  0
SPLINE
  5
180A2
330
18
100
AcDbEntity
  8
0
100
AcDbSpline
210
0.0
220
0.0
230
1.0
 70
     8
 71
     3
 72
    10
 73
     6
 74
     4
 42
0.0000000001
 43
0.0000000001
 44
0.0000000001
 40
0.0
 40
0.0
 40
0.0
 40
0.0
 40
0.30032241080581
 40
0.6550712777779765
 40
1.068375974375651
 40
1.068375974375651
 40
1.068375974375651
 40
1.068375974375651
 10
98.98247674870646
 20
28.2769845509651
 30
0.0
 10
99.07792457621667
 20
28.30811201617418
 30
0.0
 10
99.28611793135289
 20
28.3760080761245
 30
0.0
 10
99.64224525382171
 20
28.41008651794792
 30
0.0
 10
99.89556085413372
 20
28.44570216783468
 30
0.0
 10
100.0318749503066
 20
28.46486764804176
 30
0.0
 11
98.98247674870646
 21
28.2769845509651
 31
0.0
 11
99.27095673735546
 21
28.36048812323167
 31
0.0
 11
99.6221497467898
 21
28.41059030624287
 31
0.0
 11
100.0318749503066
 21
28.46486764804176
 31
0.0
  0
SPLINE
  5
180A3
330
18
100
AcDbEntity
  8
0
100
AcDbSpline
210
0.0
220
0.0
230
1.0
 70
     8
 71
     3
 72
    10
 73
     6
 74
     4
 42
0.0000000001
 43
0.0000000001
 44
0.0000000001
 40
0.0
 40
0.0
 40
0.0
 40
0.0
 40
0.3390620037169435
 40
0.7539985945348209
 40
1.104036796558544
 40
1.104036796558544
 40
1.104036796558544
 40
1.104036796558544
 10
100.0318749503066
 20
28.46486764804176
 30
0.0
 10
99.91900248114264
 20
28.4703055313464
 30
0.0
 10
99.66799917738587
 20
28.48239817612522
 30
0.0
 10
99.30023019691457
 20
28.50290745753287
 30
0.0
 10
99.04780935593237
 20
28.53982760598868
 30
0.0
 10
98.93230628555995
 20
28.55672157753499
 30
0.0
 11
100.0318749503066
 21
28.46486764804176
 31
0.0
 11
99.69322449851116
 21
28.48156836249508
 31
0.0
 11
99.27931846829148
 21
28.51079459296275
 31
0.0
 11
98.93230628555995
 21
28.55672157753499
 31
0.0
  0
SPLINE
  5
180A4
330
18
100
AcDbEntity
  8
0
100
AcDbSpline
210
0.0
220
0.0
230
1.0
 70
     8
 71
     3
 72
     9
 73
     5
 74
     3
 42
0.0000000001
 43
0.0000000001
 44
0.0000000001
 40
0.0
 40
0.0
 40
0.0
 40
0.0
 40
0.1591906425359314
 40
0.3182829811593967
 40
0.3182829811593967
 40
0.3182829811593967
 40
0.3182829811593967
 10
98.96157238260121
 20
28.48574352128278
 30
0.0
 10
99.01277972928326
 20
28.47078213420619
 30
0.0
 10
99.11516280092358
 20
28.44086859905642
 30
0.0
 10
99.2218236239924
 20
28.44016715194356
 30
0.0
 10
99.27513756405828
 20
28.43981653671054
 30
0.0
 11
98.96157238260121
 21
28.48574352128278
 31
0.0
 11
99.11626452121314
 21
28.4481668939372
 31
0.0
 11
99.27513756405828
 21
28.43981653671054
 31
0.0
  0
SPLINE
  5
180A5
330
18
100
AcDbEntity
  8
0
100
AcDbSpline
210
0.0
220
0.0
230
1.0
 70
     8
 71
     3
 72
     9
 73
     5
 74
     3
 42
0.0000000001
 43
0.0000000001
 44
0.0000000001
 40
0.0
 40
0.0
 40
0.0
 40
0.0
 40
0.1443400830093359
 40
0.3032248393528932
 40
0.3032248393528932
 40
0.3032248393528932
 40
0.3032248393528932
 10
99.27513756405828
 20
28.43981653671054
 30
0.0
 10
99.22672198798284
 20
28.43459436210756
 30
0.0
 10
99.12501215817282
 20
28.42362379161843
 30
0.0
 10
99.0369707227717
 20
28.37123714008241
 30
0.0
 10
98.99083847964247
 20
28.34378740877835
 30
0.0
 11
99.27513756405828
 21
28.43981653671054
 31
0.0
 11
99.13298798308517
 21
28.41476546503057
 31
0.0
 11
98.99083847964247
 21
28.34378740877835
 31
0.0
  0
SPLINE
  5
180A6
330
18
100
AcDbEntity
  8
0
100
AcDbSpline
210
0.0
220
0.0
230
1.0
 70
     8
 71
     3
 72
     9
 73
     5
 74
     3
 42
0.0000000001
 43
0.0000000001
 44
0.0000000001
 40
0.0
 40
0.0
 40
0.0
 40
0.0
 40
0.2779293426583873
 40
0.5629939269588613
 40
0.5629939269588613
 40
0.5629939269588613
 40
0.5629939269588613
 10
99.00756194151449
 20
28.20600649471288
 30
0.0
 10
99.09596334119351
 20
28.1764466469799
 30
0.0
 10
99.27503565748047
 20
28.11656806562422
 30
0.0
 10
99.46383875570285
 20
28.11219275027268
 30
0.0
 10
99.55943672600447
 20
28.1099773667807
 30
0.0
 11
99.00756194151449
 21
28.20600649471288
 31
0.0
 11
99.27513756405828
 21
28.13085327967297
 31
0.0
 11
99.55943672600447
 21
28.1099773667807
 31
0.0
  0
SPLINE
  5
180A7
330
18
100
AcDbEntity
  8
0
100
AcDbSpline
210
0.0
220
0.0
230
1.0
 70
     8
 71
     3
 72
     9
 73
     5
 74
     3
 42
0.0000000001
 43
0.0000000001
 44
0.0000000001
 40
0.0
 40
0.0
 40
0.0
 40
0.0
 40
0.2476149023657367
 40
0.5365856917974067
 40
0.5365856917974067
 40
0.5365856917974067
 40
0.5365856917974067
 10
98.99920021057848
 20
28.63604999101386
 30
0.0
 10
99.07507410071106
 20
28.66905482024875
 30
0.0
 10
99.23949410708864
 20
28.74057684480564
 30
0.0
 10
99.41483750529641
 20
28.77847334283581
 30
0.0
 10
99.50926626285797
 20
28.7988819767593
 30
0.0
 11
98.99920021057848
 21
28.63604999101386
 31
0.0
 11
99.22914800514497
 21
28.72790396015835
 31
0.0
 11
99.50926626285797
 21
28.7988819767593
 31
0.0
  0
LINE
  5
180AB
330
18
100
AcDbEntity
  8
0
100
AcDbLine
 10
96.68968722479327
 20
27.09213055293037
 30
0.0
 11
96.68968722479327
 21
19.70125347120629
 31
0.0
  0
LINE
  5
180B0
330
18
100
AcDbEntity
  8
0
100
AcDbLine
 10
96.31468722479326
 20
19.21713055293037
 30
0.0
 11
96.31468722479326
 21
17.59213055293036
 31
0.0
  0
LINE
  5
180B4
330
18
100
AcDbEntity
  8
0
100
AcDbLine
 10
96.18968722479326
 20
17.46713055293036
 30
0.0
 11
96.33056430651734
 21
17.46713055293036
 31
0.0
  0
LINE
  5
180B6
330
18
100
AcDbEntity
  8
0
100
AcDbLine
 10
96.18968722479326
 20
19.34213055293037
 30
0.0
 11
96.33056430651734
 21
19.34213055293037
 31
0.0
  0
ARC
  5
180C9
330
18
100
AcDbEntity
  8
0
100
AcDbCircle
 10
96.81468722479326
 20
17.59213055293036
 30
0.0
 40
0.5
100
AcDbArc
 50
180.0
 51
270.0
  0
ARC
  5
180CB
330
18
100
AcDbEntity
  8
0
100
AcDbCircle
 10
96.81468722479326
 20
19.21713055293037
 30
0.0
 40
0.5
100
AcDbArc
 50
90.00000000000003
 51
180.0
  0
SPLINE
  5
180CF
330
18
100
AcDbEntity
  8
0
100
AcDbSpline
210
0.0
220
0.0
230
1.0
 70
     8
 71
     3
 72
    19
 73
    15
 74
    13
 42
0.0000000001
 43
0.0000000001
 44
0.0000000001
 40
0.0
 40
0.0
 40
0.0
 40
0.0
 40
0.1519220265218697
 40
0.2914225358809178
 40
0.4255667156264084
 40
0.5873552910236845
 40
0.7295073237296244
 40
0.9033848655151913
 40
1.020801846943498
 40
1.175582893293838
 40
1.285051321847707
 40
1.420118059571115
 40
1.583096643273526
 40
1.691955534695686
 40
1.691955534695686
 40
1.691955534695686
 40
1.691955534695686
 10
97.31468722479327
 20
17.09213055293037
 30
0.0
 10
97.33231732064988
 20
17.13908157587196
 30
0.0
 10
97.36613603252457
 20
17.22914479106921
 30
0.0
 10
97.45503746534588
 20
17.3532148315795
 30
0.0
 10
97.62844494612096
 20
17.35318442619281
 30
0.0
 10
97.70442054865378
 20
17.21520101863426
 30
0.0
 10
97.82285758298986
 20
17.1025466729953
 30
0.0
 10
97.9831625729523
 20
17.09548690520954
 30
0.0
 10
98.11524639452079
 20
17.17264415216186
 30
0.0
 10
98.18899010272392
 20
17.27754002605895
 30
0.0
 10
98.30029059440015
 20
17.35926796814322
 30
0.0
 10
98.45548128991074
 20
17.34196643279981
 30
0.0
 10
98.52701715085006
 20
17.21172353943893
 30
0.0
 10
98.55391558931261
 20
17.12632777958446
 30
0.0
 10
98.56468722479327
 20
17.09213055293037
 30
0.0
 11
97.31468722479327
 21
17.09213055293037
 31
0.0
 11
97.37493145576609
 21
17.23159716103784
 31
0.0
 11
97.4696214239527
 21
17.33403837362463
 31
0.0
 11
97.6037656036982
 21
17.33403837362463
 31
0.0
 11
97.71423719448405
 21
17.21583697448602
 31
0.0
 11
97.8227924664268
 21
17.12406032529972
 31
0.0
 11
97.99639078020078
 21
17.11421019879202
 31
0.0
 11
98.09897163721741
 21
17.17134088495516
 31
0.0
 11
98.20549786111865
 21
17.28363218439839
 31
0.0
 11
98.29815878126373
 21
17.34191846690054
 31
0.0
 11
98.43230288347882
 21
17.32615828034872
 31
0.0
 11
98.52902197723736
 21
17.19498116478288
 31
0.0
 11
98.56468722479327
 21
17.09213055293037
 31
0.0
  0
LINE
  5
180D1
330
18
100
AcDbEntity
  8
0
100
AcDbLine
 10
98.56468722479327
 20
17.09213055293037
 30
0.0
 11
98.81468722479326
 21
17.09213055293037
 31
0.0
  0
LINE
  5
180D3
330
18
100
AcDbEntity
  8
0
100
AcDbLine
 10
97.31468722479327
 20
17.09213055293037
 30
0.0
 11
97.31468722479327
 21
19.71713055293037
 31
0.0
  0
LINE
  5
180D7
330
18
100
AcDbEntity
  8
0
100
AcDbLine
 10
97.68968722479328
 20
17.24897244040492
 30
0.0
 11
97.68968722479328
 21
19.56028866545549
 31
0.0
  0
LINE
  5
180D9
330
18
100
AcDbEntity
  8
0
100
AcDbLine
 10
98.18968722479327
 20
17.26768050995028
 30
0.0
 11
98.18968722479327
 21
19.54158059591014
 31
0.0
  0
LINE
  5
180DA
330
18
100
AcDbEntity
  8
0
100
AcDbLine
 10
98.56468722479327
 20
17.09213055293037
 30
0.0
 11
98.56468722479327
 21
19.71713055293037
 31
0.0
  0
LINE
  5
180DF
330
18
100
AcDbEntity
  8
0
100
AcDbLine
 10
98.62718722479327
 20
19.71713055293037
 30
0.0
 11
98.62718722479327
 21
27.09213055293037
 31
0.0
  0
LINE
  5
180E1
330
18
100
AcDbEntity
  8
0
100
AcDbLine
 10
97.37718722479327
 20
19.57359062435456
 30
0.0
 11
97.37718722479327
 21
27.09213055293037
 31
0.0
  0
LINE
  5
180E2
330
18
100
AcDbEntity
  8
0
100
AcDbLine
 10
96.81468722479326
 20
27.09213055293037
 30
0.0
 11
96.81468722479326
 21
19.71713055293037
 31
0.0
  0
LINE
  5
180E4
330
18
100
AcDbEntity
  8
0
100
AcDbLine
 10
96.18968722479326
 20
29.84213055293037
 30
0.0
 11
96.18968722479326
 21
27.09213055293037
 31
0.0
  0
LINE
  5
180E6
330
18
100
AcDbEntity
  8
0
100
AcDbLine
 10
97.75218722479326
 20
19.63595942033423
 30
0.0
 11
97.75218722479326
 21
27.09213055293037
 31
0.0
  0
LINE
  5
180E8
330
18
100
AcDbEntity
  8
0
100
AcDbLine
 10
98.25218722479327
 20
19.48838484245379
 30
0.0
 11
98.25218722479327
 21
27.09213055293037
 31
0.0
  0
SPLINE
  5
180E9
330
18
100
AcDbEntity
  8
0
100
AcDbSpline
210
0.0
220
0.0
230
1.0
 70
     8
 71
     3
 72
    19
 73
    15
 74
    13
 42
0.0000000001
 43
0.0000000001
 44
0.0000000001
 40
0.0
 40
0.0
 40
0.0
 40
0.0
 40
0.1519220265218697
 40
0.2914225358809178
 40
0.4255667156264084
 40
0.5873552910236845
 40
0.7295073237296244
 40
0.9033848655151913
 40
1.020801846943498
 40
1.175582893293838
 40
1.285051321847707
 40
1.420118059571115
 40
1.583096643273526
 40
1.691955534695686
 40
1.691955534695686
 40
1.691955534695686
 40
1.691955534695686
 10
97.31468722479327
 20
19.71713055293005
 30
0.0
 10
97.33231732064988
 20
19.67017952998845
 30
0.0
 10
97.36613603252457
 20
19.5801163147912
 30
0.0
 10
97.45503746534588
 20
19.45604627428091
 30
0.0
 10
97.62844494612096
 20
19.4560766796676
 30
0.0
 10
97.70442054865378
 20
19.59406008722615
 30
0.0
 10
97.82285758298986
 20
19.70671443286511
 30
0.0
 10
97.9831625729523
 20
19.71377420065088
 30
0.0
 10
98.11524639452079
 20
19.63661695369855
 30
0.0
 10
98.18899010272392
 20
19.53172107980147
 30
0.0
 10
98.30029059440015
 20
19.44999313771719
 30
0.0
 10
98.45548128991074
 20
19.4672946730606
 30
0.0
 10
98.52701715085006
 20
19.59753756642149
 30
0.0
 10
98.55391558931261
 20
19.68293332627595
 30
0.0
 10
98.56468722479327
 20
19.71713055293005
 30
0.0
 11
97.31468722479327
 21
19.71713055293005
 31
0.0
 11
97.37493145576609
 21
19.57766394482257
 31
0.0
 11
97.4696214239527
 21
19.47522273223578
 31
0.0
 11
97.6037656036982
 21
19.47522273223578
 31
0.0
 11
97.71423719448405
 21
19.59342413137439
 31
0.0
 11
97.8227924664268
 21
19.68520078056069
 31
0.0
 11
97.99639078020078
 21
19.69505090706839
 31
0.0
 11
98.09897163721741
 21
19.63792022090525
 31
0.0
 11
98.20549786111865
 21
19.52562892146202
 31
0.0
 11
98.29815878126373
 21
19.46734263895987
 31
0.0
 11
98.43230288347882
 21
19.48310282551169
 31
0.0
 11
98.52902197723736
 21
19.61427994107753
 31
0.0
 11
98.56468722479327
 21
19.71713055293005
 31
0.0
  0
LINE
  5
180EE
330
18
100
AcDbEntity
  8
0
100
AcDbLine
 10
96.56468722479326
 20
26.24213055293036
 30
0.0
 11
96.56468722479328
 21
22.69213055293037
 31
0.0
  0
LINE
  5
180EF
330
18
100
AcDbEntity
  8
0
100
AcDbLine
 10
96.66468722479326
 20
26.34213055293037
 30
0.0
 11
96.68968722479327
 21
26.34213055293037
 31
0.0
  0
LINE
  5
180F0
330
18
100
AcDbEntity
  8
0
100
AcDbLine
 10
96.66468722479327
 20
22.59213055293037
 30
0.0
 11
96.68968722479327
 21
22.59213055293037
 31
0.0
  0
ARC
  5
180F1
330
18
100
AcDbEntity
  8
0
100
AcDbCircle
 10
96.66468722479327
 20
22.69213055293037
 30
0.0
 40
0.1
100
AcDbArc
 50
180.0
 51
270.0
  0
ARC
  5
180F2
330
18
100
AcDbEntity
  8
0
100
AcDbCircle
 10
96.66468722479326
 20
26.24213055293036
 30
0.0
 40
0.1
100
AcDbArc
 50
90.0
 51
180.0000000000002
  0
LINE
  5
180F3
330
18
100
AcDbEntity
  8
0
100
AcDbLine
 10
98.56468722479327
 20
19.71713055292972
 30
0.0
 11
98.81468722479326
 21
19.71713055292972
 31
0.0
  0
LINE
  5
180F4
330
18
100
AcDbEntity
  8
0
100
AcDbLine
 10
97.31468722479327
 20
19.71713055293
 30
0.0
 11
96.81468722479326
 21
19.71713055293
 31
0.0
  0
LINE
  5
180F5
330
18
100
AcDbEntity
  8
0
100
AcDbLine
 10
101.4396872247932
 20
29.84213055293037
 30
0.0
 11
101.4396872247932
 21
27.09213055293037
 31
0.0
  0
LINE
  5
180F6
330
18
100
AcDbEntity
  8
0
100
AcDbLine
 10
101.4396872247932
 20
19.34213055293037
 30
0.0
 11
101.4396872247932
 21
17.46713055293036
 31
0.0
  0
LINE
  5
180F7
330
18
100
AcDbEntity
  8
0
100
AcDbLine
 10
100.8146872247932
 20
17.09213055293037
 30
0.0
 11
100.3146872247932
 21
17.09213055293037
 31
0.0
  0
LINE
  5
180F9
330
18
100
AcDbEntity
  8
0
100
AcDbLine
 10
100.9396872247932
 20
27.09213055293037
 30
0.0
 11
100.9396872247932
 21
19.70125347120629
 31
0.0
  0
LINE
  5
180FA
330
18
100
AcDbEntity
  8
0
100
AcDbLine
 10
101.3146872247932
 20
19.21713055293037
 30
0.0
 11
101.3146872247932
 21
17.59213055293036
 31
0.0
  0
LINE
  5
180FB
330
18
100
AcDbEntity
  8
0
100
AcDbLine
 10
101.4396872247932
 20
17.46713055293036
 30
0.0
 11
101.2988101430692
 21
17.46713055293036
 31
0.0
  0
LINE
  5
180FC
330
18
100
AcDbEntity
  8
0
100
AcDbLine
 10
101.4396872247932
 20
19.34213055293037
 30
0.0
 11
101.2988101430692
 21
19.34213055293037
 31
0.0
  0
ARC
  5
180FD
330
18
100
AcDbEntity
  8
0
100
AcDbCircle
 10
100.8146872247932
 20
17.59213055293036
 30
0.0
 40
0.5
100
AcDbArc
 50
270.0
 51
0.000000000000007
  0
ARC
  5
180FE
330
18
100
AcDbEntity
  8
0
100
AcDbCircle
 10
100.8146872247932
 20
19.21713055293037
 30
0.0
 40
0.5
100
AcDbArc
 50
0.000000000000007
 51
89.99999999999998
  0
SPLINE
  5
180FF
330
18
100
AcDbEntity
  8
0
100
AcDbSpline
210
0.0
220
0.0
230
1.0
 70
     8
 71
     3
 72
    19
 73
    15
 74
    13
 42
0.0000000001
 43
0.0000000001
 44
0.0000000001
 40
0.0
 40
0.0
 40
0.0
 40
0.0
 40
0.1519220265218697
 40
0.2914225358809178
 40
0.4255667156264084
 40
0.5873552910236845
 40
0.7295073237296244
 40
0.9033848655151913
 40
1.020801846943498
 40
1.175582893293838
 40
1.285051321847707
 40
1.420118059571115
 40
1.583096643273526
 40
1.691955534695686
 40
1.691955534695686
 40
1.691955534695686
 40
1.691955534695686
 10
100.3146872247932
 20
17.09213055293037
 30
0.0
 10
100.2970571289366
 20
17.13908157587196
 30
0.0
 10
100.2632384170619
 20
17.22914479106921
 30
0.0
 10
100.1743369842406
 20
17.3532148315795
 30
0.0
 10
100.0009295034655
 20
17.35318442619281
 30
0.0
 10
99.92495390093274
 20
17.21520101863426
 30
0.0
 10
99.80651686659667
 20
17.1025466729953
 30
0.0
 10
99.64621187663423
 20
17.09548690520954
 30
0.0
 10
99.51412805506574
 20
17.17264415216186
 30
0.0
 10
99.44038434686261
 20
17.27754002605895
 30
0.0
 10
99.32908385518638
 20
17.35926796814322
 30
0.0
 10
99.17389315967579
 20
17.34196643279981
 30
0.0
 10
99.10235729873647
 20
17.21172353943893
 30
0.0
 10
99.07545886027392
 20
17.12632777958446
 30
0.0
 10
99.06468722479326
 20
17.09213055293037
 30
0.0
 11
100.3146872247932
 21
17.09213055293037
 31
0.0
 11
100.2544429938204
 21
17.23159716103784
 31
0.0
 11
100.1597530256338
 21
17.33403837362463
 31
0.0
 11
100.0256088458883
 21
17.33403837362463
 31
0.0
 11
99.91513725510248
 21
17.21583697448602
 31
0.0
 11
99.80658198315973
 21
17.12406032529972
 31
0.0
 11
99.63298366938573
 21
17.11421019879202
 31
0.0
 11
99.53040281236912
 21
17.17134088495516
 31
0.0
 11
99.42387658846788
 21
17.28363218439839
 31
0.0
 11
99.3312156683228
 21
17.34191846690054
 31
0.0
 11
99.19707156610769
 21
17.32615828034872
 31
0.0
 11
99.10035247234917
 21
17.19498116478288
 31
0.0
 11
99.06468722479326
 21
17.09213055293037
 31
0.0
  0
LINE
  5
18100
330
18
100
AcDbEntity
  8
0
100
AcDbLine
 10
99.06468722479326
 20
17.09213055293037
 30
0.0
 11
98.81468722479326
 21
17.09213055293037
 31
0.0
  0
LINE
  5
18101
330
18
100
AcDbEntity
  8
0
100
AcDbLine
 10
100.3146872247932
 20
17.09213055293037
 30
0.0
 11
100.3146872247932
 21
19.71713055293037
 31
0.0
  0
LINE
  5
18102
330
18
100
AcDbEntity
  8
0
100
AcDbLine
 10
99.93968722479324
 20
17.24897244040492
 30
0.0
 11
99.93968722479324
 21
19.56028866545549
 31
0.0
  0
LINE
  5
18103
330
18
100
AcDbEntity
  8
0
100
AcDbLine
 10
99.43968722479326
 20
17.26768050995028
 30
0.0
 11
99.43968722479326
 21
19.54158059591014
 31
0.0
  0
LINE
  5
18104
330
18
100
AcDbEntity
  8
0
100
AcDbLine
 10
99.06468722479326
 20
17.09213055293037
 30
0.0
 11
99.06468722479326
 21
19.71713055293037
 31
0.0
  0
LINE
  5
18105
330
18
100
AcDbEntity
  8
0
100
AcDbLine
 10
99.00218722479326
 20
19.71713055293037
 30
0.0
 11
99.00218722479326
 21
27.09213055293037
 31
0.0
  0
LINE
  5
18106
330
18
100
AcDbEntity
  8
0
100
AcDbLine
 10
100.2521872247932
 20
19.57359062435456
 30
0.0
 11
100.2521872247932
 21
27.09213055293037
 31
0.0
  0
LINE
  5
18107
330
18
100
AcDbEntity
  8
0
100
AcDbLine
 10
100.8146872247932
 20
27.09213055293037
 30
0.0
 11
100.8146872247932
 21
19.71713055293037
 31
0.0
  0
LINE
  5
18108
330
18
100
AcDbEntity
  8
0
100
AcDbLine
 10
99.87718722479327
 20
19.63595942033423
 30
0.0
 11
99.87718722479327
 21
27.09213055293037
 31
0.0
  0
LINE
  5
18109
330
18
100
AcDbEntity
  8
0
100
AcDbLine
 10
99.37718722479326
 20
19.48838484245379
 30
0.0
 11
99.37718722479326
 21
27.09213055293037
 31
0.0
  0
SPLINE
  5
1810A
330
18
100
AcDbEntity
  8
0
100
AcDbSpline
210
0.0
220
0.0
230
1.0
 70
     8
 71
     3
 72
    19
 73
    15
 74
    13
 42
0.0000000001
 43
0.0000000001
 44
0.0000000001
 40
0.0
 40
0.0
 40
0.0
 40
0.0
 40
0.1519220265218697
 40
0.2914225358809178
 40
0.4255667156264084
 40
0.5873552910236845
 40
0.7295073237296244
 40
0.9033848655151913
 40
1.020801846943498
 40
1.175582893293838
 40
1.285051321847707
 40
1.420118059571115
 40
1.583096643273526
 40
1.691955534695686
 40
1.691955534695686
 40
1.691955534695686
 40
1.691955534695686
 10
100.3146872247932
 20
19.71713055293005
 30
0.0
 10
100.2970571289366
 20
19.67017952998845
 30
0.0
 10
100.2632384170619
 20
19.5801163147912
 30
0.0
 10
100.1743369842406
 20
19.45604627428091
 30
0.0
 10
100.0009295034655
 20
19.45607667966759
 30
0.0
 10
99.92495390093274
 20
19.59406008722615
 30
0.0
 10
99.80651686659667
 20
19.70671443286512
 30
0.0
 10
99.64621187663423
 20
19.71377420065087
 30
0.0
 10
99.51412805506574
 20
19.63661695369855
 30
0.0
 10
99.44038434686261
 20
19.53172107980147
 30
0.0
 10
99.32908385518638
 20
19.44999313771718
 30
0.0
 10
99.17389315967579
 20
19.46729467306061
 30
0.0
 10
99.10235729873647
 20
19.59753756642148
 30
0.0
 10
99.07545886027392
 20
19.68293332627595
 30
0.0
 10
99.06468722479326
 20
19.71713055293005
 30
0.0
 11
100.3146872247932
 21
19.71713055293005
 31
0.0
 11
100.2544429938204
 21
19.57766394482257
 31
0.0
 11
100.1597530256338
 21
19.47522273223578
 31
0.0
 11
100.0256088458883
 21
19.47522273223578
 31
0.0
 11
99.91513725510248
 21
19.59342413137439
 31
0.0
 11
99.80658198315973
 21
19.68520078056069
 31
0.0
 11
99.63298366938573
 21
19.69505090706839
 31
0.0
 11
99.53040281236912
 21
19.63792022090525
 31
0.0
 11
99.42387658846788
 21
19.52562892146202
 31
0.0
 11
99.3312156683228
 21
19.46734263895987
 31
0.0
 11
99.19707156610769
 21
19.48310282551169
 31
0.0
 11
99.10035247234917
 21
19.61427994107753
 31
0.0
 11
99.06468722479326
 21
19.71713055293005
 31
0.0
  0
LINE
  5
1810B
330
18
100
AcDbEntity
  8
0
100
AcDbLine
 10
101.0646872247932
 20
26.24213055293036
 30
0.0
 11
101.0646872247932
 21
22.69213055293037
 31
0.0
  0
LINE
  5
1810C
330
18
100
AcDbEntity
  8
0
100
AcDbLine
 10
100.9646872247932
 20
26.34213055293037
 30
0.0
 11
100.9396872247932
 21
26.34213055293037
 31
0.0
  0
LINE
  5
1810D
330
18
100
AcDbEntity
  8
0
100
AcDbLine
 10
100.9646872247932
 20
22.59213055293037
 30
0.0
 11
100.9396872247932
 21
22.59213055293037
 31
0.0
  0
ARC
  5
1810E
330
18
100
AcDbEntity
  8
0
100
AcDbCircle
 10
100.9646872247932
 20
22.69213055293037
 30
0.0
 40
0.1
100
AcDbArc
 50
270.0
 51
0.000000000000007
  0
ARC
  5
1810F
330
18
100
AcDbEntity
  8
0
100
AcDbCircle
 10
100.9646872247932
 20
26.24213055293036
 30
0.0
 40
0.1
100
AcDbArc
 50
359.9999999999998
 51
90.0
  0
LINE
  5
18110
330
18
100
AcDbEntity
  8
0
100
AcDbLine
 10
99.06468722479326
 20
19.71713055292972
 30
0.0
 11
98.81468722479326
 21
19.71713055292972
 31
0.0
  0
LINE
  5
18111
330
18
100
AcDbEntity
  8
0
100
AcDbLine
 10
100.3146872247932
 20
19.71713055293
 30
0.0
 11
100.8146872247932
 21
19.71713055293
 31
0.0
  0
DIMENSION
  5
18112
330
18
100
AcDbEntity
  8
DIM
100
AcDbDimension
  2
*D7
 10
101.4396872247932
 20
31.76165188579141
 30
0.0
 11
98.81468722479326
 21
31.76165188579141
 31
0.0
 70
    32
 71
     5
 42
5.25
  3
STANDARD
100
AcDbAlignedDimension
 13
96.18968722479326
 23
29.84213055293037
 33
0.0
 14
101.4396872247932
 24
29.84213055293037
 34
0.0
100
AcDbRotatedDimension
  0
DIMENSION
  5
1812A
330
18
100
AcDbEntity
  8
DIM
100
AcDbDimension
  2
*D8
 10
93.50537728301896
 20
17.09213055293037
 30
0.0
 11
93.50537728301896
 21
23.46713055293038
 31
0.0
 70
    32
 71
     5
 42
12.75
  3
STANDARD
100
AcDbAlignedDimension
 13
96.18968722479326
 23
29.84213055293037
 33
0.0
 14
97.06468722479327
 24
17.09213055293037
 34
0.0
 50
90.0
100
AcDbRotatedDimension
  0
LINE
  5
1813C
330
18
100
AcDbEntity
  8
0
100
AcDbLine
 10
108.3174126541613
 20
29.84213055293037
 30
0.0
 11
113.5674126541613
 21
29.84213055293037
 31
0.0
  0
LINE
  5
1813D
330
18
100
AcDbEntity
  8
0
100
AcDbLine
 10
108.3174126541613
 20
27.09213055293037
 30
0.0
 11
113.5674126541613
 21
27.09213055293037
 31
0.0
  0
LINE
  5
1813E
330
18
100
AcDbEntity
  8
0
100
AcDbLine
 10
110.5174126541613
 20
19.71713055293
 30
0.0
 11
113.5674126541613
 21
19.71713055293
 31
0.0
  0
LINE
  5
1813F
330
18
100
AcDbEntity
  8
0
100
AcDbLine
 10
110.4924126541613
 20
19.34213055293037
 30
0.0
 11
113.5674126541613
 21
19.34213055293037
 31
0.0
  0
LINE
  5
18140
330
18
100
AcDbEntity
  8
0
100
AcDbLine
 10
110.4924126541613
 20
17.46713055293036
 30
0.0
 11
113.5674126541613
 21
17.46713055293036
 31
0.0
  0
CIRCLE
  5
181F8
330
18
100
AcDbEntity
  8
0
100
AcDbCircle
 10
110.9467555767904
 20
28.38556254950413
 30
0.0
 40
0.1478416379447169
  0
SPLINE
  5
181F9
330
18
100
AcDbEntity
  8
0
100
AcDbSpline
210
0.0
220
0.0
230
1.0
 70
     8
 71
     3
 72
    10
 73
     6
 74
     4
 42
0.0000000001
 43
0.0000000001
 44
0.0000000001
 40
0.0
 40
0.0
 40
0.0
 40
0.0
 40
0.1124111513884303
 40
0.2337797411427293
 40
0.3496892119005668
 40
0.3496892119005668
 40
0.3496892119005668
 40
0.3496892119005668
 10
110.9040748601956
 20
28.16853482425411
 30
0.0
 10
110.8739203118962
 20
28.14455398675079
 30
0.0
 10
110.8112083619816
 20
28.09468140814388
 30
0.0
 10
110.8157914250415
 20
27.94528722696016
 30
0.0
 10
110.9003809919637
 20
27.92416634398551
 30
0.0
 10
110.9417026881728
 20
27.91384886936418
 30
0.0
 11
110.9040748601956
 21
28.16853482425411
 31
0.0
 11
110.828819204241
 21
28.08503121233629
 31
0.0
 11
110.8371810127074
 21
27.96395101272413
 31
0.0
 11
110.9417026881728
 21
27.91384886936418
 31
0.0
  0
SPLINE
  5
181FA
330
18
100
AcDbEntity
  8
0
100
AcDbSpline
210
0.0
220
0.0
230
1.0
 70
     8
 71
     3
 72
    15
 73
    11
 74
     9
 42
0.0000000001
 43
0.0000000001
 44
0.0000000001
 40
0.0
 40
0.0
 40
0.0
 40
0.0
 40
0.1450442837362184
 40
0.4229520897185711
 40
0.7115529080069971
 40
0.8741889906272282
 40
0.9437055562684182
 40
0.9925825553571467
 40
1.114082681554175
 40
1.318252088283674
 40
1.318252088283674
 40
1.318252088283674
 40
1.318252088283674
 10
110.9040748601956
 20
28.16853482425411
 30
0.0
 10
110.8692958962676
 20
28.13450300402163
 30
0.0
 10
110.7678797280971
 20
28.03526552210588
 30
0.0
 10
110.5348098676647
 20
27.95509421472531
 30
0.0
 10
110.2844575554789
 20
27.95852685793066
 30
0.0
 10
110.1239125964696
 20
28.02172520682898
 30
0.0
 10
110.0524262015431
 20
28.10171784224587
 30
0.0
 10
110.0886362665905
 20
28.18463341139927
 30
0.0
 10
110.2191435817645
 20
28.21998095471429
 30
0.0
 10
110.3240559980416
 20
28.23711901197659
 30
0.0
 10
110.3898279036829
 20
28.24786323773298
 30
0.0
 11
110.9040748601956
 21
28.16853482425411
 31
0.0
 11
110.7953722804969
 21
28.07250569632192
 31
0.0
 11
110.5361583888892
 21
27.97230136995078
 31
0.0
 11
110.2476784002401
 21
27.98065172717744
 31
0.0
 11
110.1013479150338
 21
28.05162978342966
 31
0.0
 11
110.0637200870566
 21
28.11008232366751
 31
0.0
 11
110.080443626459
 21
28.1560092685885
 31
0.0
 11
110.1891462061576
 21
28.2102866103874
 31
0.0
 11
110.3898279036829
 21
28.24786323773298
 31
0.0
  0
SPLINE
  5
181FB
330
18
100
AcDbEntity
  8
0
100
AcDbSpline
210
0.0
220
0.0
230
1.0
 70
     8
 71
     3
 72
    16
 73
    12
 74
    10
 42
0.0000000001
 43
0.0000000001
 44
0.0000000001
 40
0.0
 40
0.0
 40
0.0
 40
0.0
 40
0.2075676782455289
 40
0.4542742672028745
 40
0.7107395898426685
 40
0.9352671660625356
 40
0.9909748632842145
 40
1.047188474018601
 40
1.236587568362337
 40
1.56310033482357
 40
1.861815352757391
 40
1.861815352757391
 40
1.861815352757391
 40
1.861815352757391
 10
110.3898279036829
 20
28.24786323773298
 30
0.0
 10
110.3218194008404
 20
28.23550051150346
 30
0.0
 10
110.1729787284703
 20
28.20844394640615
 30
0.0
 10
109.933835375031
 20
28.19374052907319
 30
0.0
 10
109.6960551234497
 20
28.2770127508609
 30
0.0
 10
109.560656070713
 20
28.38993230532264
 30
0.0
 10
109.5110580782274
 20
28.51120887141087
 30
0.0
 10
109.6106841248148
 20
28.57307174959208
 30
0.0
 10
109.7797412381752
 20
28.62707519681214
 30
0.0
 10
110.0505368978524
 20
28.71739652610595
 30
0.0
 10
110.2575001615211
 20
28.67654736197799
 30
0.0
 10
110.3563809799388
 20
28.65703086079294
 30
0.0
 11
110.3898279036829
 21
28.24786323773298
 31
0.0
 11
110.1849653019244
 21
28.21446180882635
 31
0.0
 11
109.9382940454859
 21
28.2102866103874
 31
0.0
 11
109.6958036157502
 21
28.29379022230523
 31
0.0
 11
109.536930572905
 21
28.45244704926297
 31
0.0
 11
109.5243879377358
 21
28.50672439106186
 31
0.0
 11
109.5661966699463
 21
28.54430097875618
 31
0.0
 11
109.7417931746635
 21
28.6152790350084
 31
0.0
 11
110.0595392603537
 21
28.69043228969957
 31
0.0
 11
110.3563809799388
 21
28.65703086079294
 31
0.0
  0
SPLINE
  5
181FC
330
18
100
AcDbEntity
  8
0
100
AcDbSpline
210
0.0
220
0.0
230
1.0
 70
     8
 71
     3
 72
    15
 73
    11
 74
     9
 42
0.0000000001
 43
0.0000000001
 44
0.0000000001
 40
0.0
 40
0.0
 40
0.0
 40
0.0
 40
0.149384696808602
 40
0.2681625137898689
 40
0.3473917547874462
 40
0.4531459962681736
 40
0.6916017763894491
 40
0.8859162675773418
 40
1.071987530208728
 40
1.200339521130087
 40
1.200339521130087
 40
1.200339521130087
 40
1.200339521130087
 10
110.3563809799388
 20
28.65703086079294
 30
0.0
 10
110.3108081403035
 20
28.66958354095933
 30
0.0
 10
110.2289997121431
 20
28.69211702892787
 30
0.0
 10
110.1003487777996
 20
28.75582670072534
 30
0.0
 10
110.1436766915044
 20
28.87561754920492
 30
0.0
 10
110.2969663974788
 20
28.89420186244985
 30
0.0
 10
110.4712241590313
 20
28.88946232073538
 30
0.0
 10
110.6737337188036
 20
28.83334340615339
 30
0.0
 10
110.8183327239571
 20
28.7362954833522
 30
0.0
 10
110.8792198710574
 20
28.65035936588283
 30
0.0
 10
110.9040748601956
 20
28.6152790350084
 30
0.0
 11
110.3563809799388
 21
28.65703086079294
 31
0.0
 11
110.2142313989657
 21
28.70295780571392
 31
0.0
 11
110.1222522811391
 21
28.77811106040509
 31
0.0
 11
110.1473374739472
 21
28.85326427544501
 31
0.0
 11
110.2476784002401
 21
28.8866657440029
 31
0.0
 11
110.4859879257427
 21
28.87831534712498
 31
0.0
 11
110.6721620576961
 21
28.82266182902434
 31
0.0
 11
110.8247637441915
 21
28.71619474464602
 31
0.0
 11
110.9040748601956
 21
28.6152790350084
 31
0.0
  0
SPLINE
  5
181FD
330
18
100
AcDbEntity
  8
0
100
AcDbSpline
210
0.0
220
0.0
230
1.0
 70
     8
 71
     3
 72
    11
 73
     7
 74
     5
 42
0.0000000001
 43
0.0000000001
 44
0.0000000001
 40
0.0
 40
0.0
 40
0.0
 40
0.0
 40
0.1438478831645104
 40
0.2702147653683912
 40
0.3563589876769077
 40
0.381789261940461
 40
0.381789261940461
 40
0.381789261940461
 40
0.381789261940461
 10
110.9040748601956
 20
28.6152790350084
 30
0.0
 10
110.8743101263506
 20
28.65451588055951
 30
0.0
 10
110.8183977945511
 20
28.72822134483989
 30
0.0
 10
110.8301691620874
 20
28.86004644708288
 30
0.0
 10
110.896233026861
 20
28.91880478973852
 30
0.0
 10
110.9333891979211
 20
28.92314756182737
 30
0.0
 10
110.9418579040293
 20
28.92413737481041
 30
0.0
 11
110.9040748601956
 21
28.6152790350084
 31
0.0
 11
110.8331553243306
 21
28.74042947617269
 31
0.0
 11
110.8498787862027
 21
28.86568487422382
 31
0.0
 11
110.9167727112212
 21
28.91996221602271
 31
0.0
 11
110.9418579040293
 21
28.92413737481041
 31
0.0
  0
SPLINE
  5
181FE
330
18
100
AcDbEntity
  8
0
100
AcDbSpline
210
0.0
220
0.0
230
1.0
 70
     8
 71
     3
 72
    10
 73
     6
 74
     4
 42
0.0000000001
 43
0.0000000001
 44
0.0000000001
 40
0.0
 40
0.0
 40
0.0
 40
0.0
 40
0.30032241080581
 40
0.6550712777779765
 40
1.068375974375651
 40
1.068375974375651
 40
1.068375974375651
 40
1.068375974375651
 10
110.7746231302481
 20
28.27698455096509
 30
0.0
 10
110.6791753027379
 20
28.30811201617417
 30
0.0
 10
110.4709819476017
 20
28.37600807612449
 30
0.0
 10
110.1148546251329
 20
28.41008651794792
 30
0.0
 10
109.8615390248208
 20
28.44570216783468
 30
0.0
 10
109.7252249286479
 20
28.46486764804176
 30
0.0
 11
110.7746231302481
 21
28.27698455096509
 31
0.0
 11
110.4861431415991
 21
28.36048812323166
 31
0.0
 11
110.1349501321648
 21
28.41059030624287
 31
0.0
 11
109.7252249286479
 21
28.46486764804176
 31
0.0
  0
SPLINE
  5
181FF
330
18
100
AcDbEntity
  8
0
100
AcDbSpline
210
0.0
220
0.0
230
1.0
 70
     8
 71
     3
 72
    10
 73
     6
 74
     4
 42
0.0000000001
 43
0.0000000001
 44
0.0000000001
 40
0.0
 40
0.0
 40
0.0
 40
0.0
 40
0.3390620037169435
 40
0.7539985945348209
 40
1.104036796558544
 40
1.104036796558544
 40
1.104036796558544
 40
1.104036796558544
 10
109.7252249286479
 20
28.46486764804176
 30
0.0
 10
109.8380973978119
 20
28.4703055313464
 30
0.0
 10
110.0891007015687
 20
28.48239817612521
 30
0.0
 10
110.45686968204
 20
28.50290745753287
 30
0.0
 10
110.7092905230222
 20
28.53982760598868
 30
0.0
 10
110.8247935933946
 20
28.55672157753499
 30
0.0
 11
109.7252249286479
 21
28.46486764804176
 31
0.0
 11
110.0638753804434
 21
28.48156836249508
 31
0.0
 11
110.4777814106631
 21
28.51079459296275
 31
0.0
 11
110.8247935933946
 21
28.55672157753499
 31
0.0
  0
SPLINE
  5
18200
330
18
100
AcDbEntity
  8
0
100
AcDbSpline
210
0.0
220
0.0
230
1.0
 70
     8
 71
     3
 72
     9
 73
     5
 74
     3
 42
0.0000000001
 43
0.0000000001
 44
0.0000000001
 40
0.0
 40
0.0
 40
0.0
 40
0.0
 40
0.1591906425359314
 40
0.3182829811593967
 40
0.3182829811593967
 40
0.3182829811593967
 40
0.3182829811593967
 10
110.7955274963533
 20
28.48574352128277
 30
0.0
 10
110.7443201496713
 20
28.47078213420619
 30
0.0
 10
110.641937078031
 20
28.44086859905641
 30
0.0
 10
110.5352762549622
 20
28.44016715194355
 30
0.0
 10
110.4819623148963
 20
28.43981653671054
 30
0.0
 11
110.7955274963533
 21
28.48574352128277
 31
0.0
 11
110.6408353577414
 21
28.4481668939372
 31
0.0
 11
110.4819623148963
 21
28.43981653671054
 31
0.0
  0
SPLINE
  5
18201
330
18
100
AcDbEntity
  8
0
100
AcDbSpline
210
0.0
220
0.0
230
1.0
 70
     8
 71
     3
 72
     9
 73
     5
 74
     3
 42
0.0000000001
 43
0.0000000001
 44
0.0000000001
 40
0.0
 40
0.0
 40
0.0
 40
0.0
 40
0.1443400830093359
 40
0.3032248393528932
 40
0.3032248393528932
 40
0.3032248393528932
 40
0.3032248393528932
 10
110.4819623148963
 20
28.43981653671054
 30
0.0
 10
110.5303778909717
 20
28.43459436210756
 30
0.0
 10
110.6320877207817
 20
28.42362379161842
 30
0.0
 10
110.7201291561829
 20
28.37123714008241
 30
0.0
 10
110.7662613993121
 20
28.34378740877835
 30
0.0
 11
110.4819623148963
 21
28.43981653671054
 31
0.0
 11
110.6241118958694
 21
28.41476546503057
 31
0.0
 11
110.7662613993121
 21
28.34378740877835
 31
0.0
  0
SPLINE
  5
18202
330
18
100
AcDbEntity
  8
0
100
AcDbSpline
210
0.0
220
0.0
230
1.0
 70
     8
 71
     3
 72
     9
 73
     5
 74
     3
 42
0.0000000001
 43
0.0000000001
 44
0.0000000001
 40
0.0
 40
0.0
 40
0.0
 40
0.0
 40
0.2779293426583873
 40
0.5629939269588613
 40
0.5629939269588613
 40
0.5629939269588613
 40
0.5629939269588613
 10
110.7495379374401
 20
28.20600649471288
 30
0.0
 10
110.6611365377611
 20
28.1764466469799
 30
0.0
 10
110.4820642214741
 20
28.11656806562422
 30
0.0
 10
110.2932611232517
 20
28.11219275027268
 30
0.0
 10
110.1976631529501
 20
28.1099773667807
 30
0.0
 11
110.7495379374401
 21
28.20600649471288
 31
0.0
 11
110.4819623148963
 21
28.13085327967297
 31
0.0
 11
110.1976631529501
 21
28.1099773667807
 31
0.0
  0
SPLINE
  5
18203
330
18
100
AcDbEntity
  8
0
100
AcDbSpline
210
0.0
220
0.0
230
1.0
 70
     8
 71
     3
 72
     9
 73
     5
 74
     3
 42
0.0000000001
 43
0.0000000001
 44
0.0000000001
 40
0.0
 40
0.0
 40
0.0
 40
0.0
 40
0.2476149023657367
 40
0.5365856917974067
 40
0.5365856917974067
 40
0.5365856917974067
 40
0.5365856917974067
 10
110.7578996683761
 20
28.63604999101386
 30
0.0
 10
110.6820257782435
 20
28.66905482024874
 30
0.0
 10
110.5176057718659
 20
28.74057684480563
 30
0.0
 10
110.3422623736582
 20
28.7784733428358
 30
0.0
 10
110.2478336160966
 20
28.79888197675929
 30
0.0
 11
110.7578996683761
 21
28.63604999101386
 31
0.0
 11
110.5279518738096
 21
28.72790396015834
 31
0.0
 11
110.2478336160966
 21
28.79888197675929
 31
0.0
  0
LINE
  5
18204
330
18
100
AcDbEntity
  8
0
100
AcDbLine
 10
109.6424126541613
 20
29.46713055293037
 30
0.0
 11
112.2424126541613
 21
29.46713055293037
 31
0.0
  0
LINE
  5
18205
330
18
100
AcDbEntity
  8
0
100
AcDbLine
 10
109.6424126541613
 20
29.21713055293036
 30
0.0
 11
112.2424126541613
 21
29.21713055293036
 31
0.0
  0
LINE
  5
18206
330
18
100
AcDbEntity
  8
0
100
AcDbLine
 10
109.6424126541613
 20
27.46713055293037
 30
0.0
 11
112.2424126541613
 21
27.46713055293037
 31
0.0
  0
LINE
  5
18207
330
18
100
AcDbEntity
  8
0
100
AcDbLine
 10
112.2424126541613
 20
27.71713055293036
 30
0.0
 11
109.6424126541613
 21
27.71713055293037
 31
0.0
  0
LINE
  5
18208
330
18
100
AcDbEntity
  8
0
100
AcDbLine
 10
108.6924126541613
 20
28.41713055293037
 30
0.0
 11
108.6924126541613
 21
28.51713055293036
 31
0.0
  0
LINE
  5
18209
330
18
100
AcDbEntity
  8
0
100
AcDbLine
 10
108.9424126541613
 20
28.41713055293037
 30
0.0
 11
108.9424126541613
 21
28.51713055293036
 31
0.0
  0
LINE
  5
1820A
330
18
100
AcDbEntity
  8
0
100
AcDbLine
 10
113.1924126541613
 20
28.41713055293037
 30
0.0
 11
113.1924126541613
 21
28.51713055293037
 31
0.0
  0
LINE
  5
1820B
330
18
100
AcDbEntity
  8
0
100
AcDbLine
 10
112.9424126541613
 20
28.41713055293037
 30
0.0
 11
112.9424126541613
 21
28.51713055293036
 31
0.0
  0
ARC
  5
1820C
330
18
100
AcDbEntity
  8
0
100
AcDbCircle
 10
112.2424126541613
 20
28.51713055293036
 30
0.0
 40
0.7
100
AcDbArc
 50
0.0
 51
90.0
  0
ARC
  5
1820D
330
18
100
AcDbEntity
  8
0
100
AcDbCircle
 10
112.2424126541613
 20
28.41713055293036
 30
0.0
 40
0.7
100
AcDbArc
 50
270.0
 51
0.0000000000010178
  0
ARC
  5
1820E
330
18
100
AcDbEntity
  8
0
100
AcDbCircle
 10
109.6424126541613
 20
28.41713055293037
 30
0.0
 40
0.7
100
AcDbArc
 50
180.0
 51
270.0
  0
ARC
  5
1820F
330
18
100
AcDbEntity
  8
0
100
AcDbCircle
 10
109.6424126541613
 20
28.51713055293036
 30
0.0
 40
0.7
100
AcDbArc
 50
90.0
 51
180.0
  0
ARC
  5
18210
330
18
100
AcDbEntity
  8
0
100
AcDbCircle
 10
112.2424126541613
 20
28.51713055293036
 30
0.0
 40
0.95
100
AcDbArc
 50
0.0
 51
90.0
  0
ARC
  5
18211
330
18
100
AcDbEntity
  8
0
100
AcDbCircle
 10
112.2424126541613
 20
28.41713055293036
 30
0.0
 40
0.95
100
AcDbArc
 50
270.0
 51
0.0000000000010178
  0
ARC
  5
18212
330
18
100
AcDbEntity
  8
0
100
AcDbCircle
 10
109.6424126541613
 20
28.41713055293037
 30
0.0
 40
0.95
100
AcDbArc
 50
180.0
 51
270.0
  0
ARC
  5
18213
330
18
100
AcDbEntity
  8
0
100
AcDbCircle
 10
109.6424126541613
 20
28.51713055293036
 30
0.0
 40
0.95
100
AcDbArc
 50
90.0
 51
180.0
  0
SPLINE
  5
18214
330
18
100
AcDbEntity
  8
0
100
AcDbSpline
210
0.0
220
0.0
230
1.0
 70
     8
 71
     3
 72
    10
 73
     6
 74
     4
 42
0.0000000001
 43
0.0000000001
 44
0.0000000001
 40
0.0
 40
0.0
 40
0.0
 40
0.0
 40
0.1124111513884303
 40
0.2337797411427293
 40
0.3496892119005668
 40
0.3496892119005668
 40
0.3496892119005668
 40
0.3496892119005668
 10
110.980750448127
 20
28.16853482425411
 30
0.0
 10
111.0109049964265
 20
28.14455398675079
 30
0.0
 10
111.073616946341
 20
28.09468140814388
 30
0.0
 10
111.0690338832811
 20
27.94528722696016
 30
0.0
 10
110.984444316359
 20
27.92416634398551
 30
0.0
 10
110.9431226201498
 20
27.91384886936418
 30
0.0
 11
110.980750448127
 21
28.16853482425411
 31
0.0
 11
111.0560061040816
 21
28.08503121233629
 31
0.0
 11
111.0476442956152
 21
27.96395101272413
 31
0.0
 11
110.9431226201498
 21
27.91384886936418
 31
0.0
  0
SPLINE
  5
18215
330
18
100
AcDbEntity
  8
0
100
AcDbSpline
210
0.0
220
0.0
230
1.0
 70
     8
 71
     3
 72
    15
 73
    11
 74
     9
 42
0.0000000001
 43
0.0000000001
 44
0.0000000001
 40
0.0
 40
0.0
 40
0.0
 40
0.0
 40
0.1450442837362184
 40
0.4229520897185711
 40
0.7115529080069971
 40
0.8741889906272282
 40
0.9437055562684182
 40
0.9925825553571467
 40
1.114082681554175
 40
1.318252088283674
 40
1.318252088283674
 40
1.318252088283674
 40
1.318252088283674
 10
110.980750448127
 20
28.16853482425411
 30
0.0
 10
111.015529412055
 20
28.13450300402163
 30
0.0
 10
111.1169455802255
 20
28.03526552210588
 30
0.0
 10
111.3500154406579
 20
27.95509421472531
 30
0.0
 10
111.6003677528437
 20
27.95852685793066
 30
0.0
 10
111.760912711853
 20
28.02172520682898
 30
0.0
 10
111.8323991067795
 20
28.10171784224587
 30
0.0
 10
111.7961890417321
 20
28.18463341139927
 30
0.0
 10
111.6656817265581
 20
28.21998095471429
 30
0.0
 10
111.560769310281
 20
28.23711901197659
 30
0.0
 10
111.4949974046397
 20
28.24786323773298
 30
0.0
 11
110.980750448127
 21
28.16853482425411
 31
0.0
 11
111.0894530278257
 21
28.07250569632192
 31
0.0
 11
111.3486669194335
 21
27.97230136995078
 31
0.0
 11
111.6371469080825
 21
27.98065172717744
 31
0.0
 11
111.7834773932888
 21
28.05162978342966
 31
0.0
 11
111.821105221266
 21
28.11008232366751
 31
0.0
 11
111.8043816818636
 21
28.1560092685885
 31
0.0
 11
111.695679102165
 21
28.2102866103874
 31
0.0
 11
111.4949974046397
 21
28.24786323773298
 31
0.0
  0
SPLINE
  5
18216
330
18
100
AcDbEntity
  8
0
100
AcDbSpline
210
0.0
220
0.0
230
1.0
 70
     8
 71
     3
 72
    16
 73
    12
 74
    10
 42
0.0000000001
 43
0.0000000001
 44
0.0000000001
 40
0.0
 40
0.0
 40
0.0
 40
0.0
 40
0.2075676782455289
 40
0.4542742672028745
 40
0.7107395898426685
 40
0.9352671660625356
 40
0.9909748632842145
 40
1.047188474018601
 40
1.236587568362337
 40
1.56310033482357
 40
1.861815352757391
 40
1.861815352757391
 40
1.861815352757391
 40
1.861815352757391
 10
111.4949974046397
 20
28.24786323773298
 30
0.0
 10
111.5630059074822
 20
28.23550051150346
 30
0.0
 10
111.7118465798523
 20
28.20844394640615
 30
0.0
 10
111.9509899332916
 20
28.19374052907319
 30
0.0
 10
112.1887701848728
 20
28.2770127508609
 30
0.0
 10
112.3241692376096
 20
28.38993230532264
 30
0.0
 10
112.3737672300952
 20
28.51120887141087
 30
0.0
 10
112.2741411835078
 20
28.57307174959208
 30
0.0
 10
112.1050840701474
 20
28.62707519681214
 30
0.0
 10
111.8342884104702
 20
28.71739652610595
 30
0.0
 10
111.6273251468015
 20
28.67654736197799
 30
0.0
 10
111.5284443283838
 20
28.65703086079294
 30
0.0
 11
111.4949974046397
 21
28.24786323773298
 31
0.0
 11
111.6998600063982
 21
28.21446180882635
 31
0.0
 11
111.9465312628367
 21
28.2102866103874
 31
0.0
 11
112.1890216925724
 21
28.29379022230523
 31
0.0
 11
112.3478947354175
 21
28.45244704926297
 31
0.0
 11
112.3604373705868
 21
28.50672439106186
 31
0.0
 11
112.3186286383763
 21
28.54430097875618
 31
0.0
 11
112.1430321336591
 21
28.6152790350084
 31
0.0
 11
111.8252860479689
 21
28.69043228969957
 31
0.0
 11
111.5284443283838
 21
28.65703086079294
 31
0.0
  0
SPLINE
  5
18217
330
18
100
AcDbEntity
  8
0
100
AcDbSpline
210
0.0
220
0.0
230
1.0
 70
     8
 71
     3
 72
    15
 73
    11
 74
     9
 42
0.0000000001
 43
0.0000000001
 44
0.0000000001
 40
0.0
 40
0.0
 40
0.0
 40
0.0
 40
0.149384696808602
 40
0.2681625137898689
 40
0.3473917547874462
 40
0.4531459962681736
 40
0.6916017763894491
 40
0.8859162675773418
 40
1.071987530208728
 40
1.200339521130087
 40
1.200339521130087
 40
1.200339521130087
 40
1.200339521130087
 10
111.5284443283838
 20
28.65703086079294
 30
0.0
 10
111.5740171680191
 20
28.66958354095933
 30
0.0
 10
111.6558255961795
 20
28.69211702892787
 30
0.0
 10
111.784476530523
 20
28.75582670072534
 30
0.0
 10
111.7411486168182
 20
28.87561754920492
 30
0.0
 10
111.5878589108438
 20
28.89420186244985
 30
0.0
 10
111.4136011492913
 20
28.88946232073538
 30
0.0
 10
111.211091589519
 20
28.83334340615339
 30
0.0
 10
111.0664925843655
 20
28.7362954833522
 30
0.0
 10
111.0056054372652
 20
28.65035936588283
 30
0.0
 10
110.980750448127
 20
28.6152790350084
 30
0.0
 11
111.5284443283838
 21
28.65703086079294
 31
0.0
 11
111.6705939093569
 21
28.70295780571392
 31
0.0
 11
111.7625730271835
 21
28.77811106040509
 31
0.0
 11
111.7374878343755
 21
28.85326427544501
 31
0.0
 11
111.6371469080825
 21
28.8866657440029
 31
0.0
 11
111.39883738258
 21
28.87831534712498
 31
0.0
 11
111.2126632506265
 21
28.82266182902434
 31
0.0
 11
111.0600615641311
 21
28.71619474464602
 31
0.0
 11
110.980750448127
 21
28.6152790350084
 31
0.0
  0
SPLINE
  5
18218
330
18
100
AcDbEntity
  8
0
100
AcDbSpline
210
0.0
220
0.0
230
1.0
 70
     8
 71
     3
 72
    11
 73
     7
 74
     5
 42
0.0000000001
 43
0.0000000001
 44
0.0000000001
 40
0.0
 40
0.0
 40
0.0
 40
0.0
 40
0.1438478831645104
 40
0.2702147653683912
 40
0.3563589876769077
 40
0.381789261940461
 40
0.381789261940461
 40
0.381789261940461
 40
0.381789261940461
 10
110.980750448127
 20
28.6152790350084
 30
0.0
 10
111.010515181972
 20
28.65451588055951
 30
0.0
 10
111.0664275137716
 20
28.72822134483989
 30
0.0
 10
111.0546561462352
 20
28.86004644708288
 30
0.0
 10
110.9885922814616
 20
28.91880478973852
 30
0.0
 10
110.9514361104015
 20
28.92314756182737
 30
0.0
 10
110.9429674042933
 20
28.92413737481041
 30
0.0
 11
110.980750448127
 21
28.6152790350084
 31
0.0
 11
111.051669983992
 21
28.74042947617269
 31
0.0
 11
111.0349465221199
 21
28.86568487422382
 31
0.0
 11
110.9680525971014
 21
28.91996221602271
 31
0.0
 11
110.9429674042933
 21
28.92413737481041
 31
0.0
  0
SPLINE
  5
18219
330
18
100
AcDbEntity
  8
0
100
AcDbSpline
210
0.0
220
0.0
230
1.0
 70
     8
 71
     3
 72
    10
 73
     6
 74
     4
 42
0.0000000001
 43
0.0000000001
 44
0.0000000001
 40
0.0
 40
0.0
 40
0.0
 40
0.0
 40
0.30032241080581
 40
0.6550712777779765
 40
1.068375974375651
 40
1.068375974375651
 40
1.068375974375651
 40
1.068375974375651
 10
111.1102021780745
 20
28.27698455096509
 30
0.0
 10
111.2056500055847
 20
28.30811201617417
 30
0.0
 10
111.4138433607209
 20
28.37600807612449
 30
0.0
 10
111.7699706831897
 20
28.41008651794792
 30
0.0
 10
112.0232862835018
 20
28.44570216783468
 30
0.0
 10
112.1596003796747
 20
28.46486764804176
 30
0.0
 11
111.1102021780745
 21
28.27698455096509
 31
0.0
 11
111.3986821667235
 21
28.36048812323166
 31
0.0
 11
111.7498751761578
 21
28.41059030624287
 31
0.0
 11
112.1596003796747
 21
28.46486764804176
 31
0.0
  0
SPLINE
  5
1821A
330
18
100
AcDbEntity
  8
0
100
AcDbSpline
210
0.0
220
0.0
230
1.0
 70
     8
 71
     3
 72
    10
 73
     6
 74
     4
 42
0.0000000001
 43
0.0000000001
 44
0.0000000001
 40
0.0
 40
0.0
 40
0.0
 40
0.0
 40
0.3390620037169435
 40
0.7539985945348209
 40
1.104036796558544
 40
1.104036796558544
 40
1.104036796558544
 40
1.104036796558544
 10
112.1596003796747
 20
28.46486764804176
 30
0.0
 10
112.0467279105107
 20
28.4703055313464
 30
0.0
 10
111.7957246067539
 20
28.48239817612521
 30
0.0
 10
111.4279556262826
 20
28.50290745753287
 30
0.0
 10
111.1755347853004
 20
28.53982760598868
 30
0.0
 10
111.060031714928
 20
28.55672157753499
 30
0.0
 11
112.1596003796747
 21
28.46486764804176
 31
0.0
 11
111.8209499278792
 21
28.48156836249508
 31
0.0
 11
111.4070438976595
 21
28.51079459296275
 31
0.0
 11
111.060031714928
 21
28.55672157753499
 31
0.0
  0
SPLINE
  5
1821B
330
18
100
AcDbEntity
  8
0
100
AcDbSpline
210
0.0
220
0.0
230
1.0
 70
     8
 71
     3
 72
     9
 73
     5
 74
     3
 42
0.0000000001
 43
0.0000000001
 44
0.0000000001
 40
0.0
 40
0.0
 40
0.0
 40
0.0
 40
0.1591906425359314
 40
0.3182829811593967
 40
0.3182829811593967
 40
0.3182829811593967
 40
0.3182829811593967
 10
111.0892978119693
 20
28.48574352128277
 30
0.0
 10
111.1405051586513
 20
28.47078213420619
 30
0.0
 10
111.2428882302916
 20
28.44086859905641
 30
0.0
 10
111.3495490533604
 20
28.44016715194355
 30
0.0
 10
111.4028629934263
 20
28.43981653671054
 30
0.0
 11
111.0892978119693
 21
28.48574352128277
 31
0.0
 11
111.2439899505812
 21
28.4481668939372
 31
0.0
 11
111.4028629934263
 21
28.43981653671054
 31
0.0
  0
SPLINE
  5
1821C
330
18
100
AcDbEntity
  8
0
100
AcDbSpline
210
0.0
220
0.0
230
1.0
 70
     8
 71
     3
 72
     9
 73
     5
 74
     3
 42
0.0000000001
 43
0.0000000001
 44
0.0000000001
 40
0.0
 40
0.0
 40
0.0
 40
0.0
 40
0.1443400830093359
 40
0.3032248393528932
 40
0.3032248393528932
 40
0.3032248393528932
 40
0.3032248393528932
 10
111.4028629934263
 20
28.43981653671054
 30
0.0
 10
111.3544474173509
 20
28.43459436210756
 30
0.0
 10
111.2527375875409
 20
28.42362379161842
 30
0.0
 10
111.1646961521397
 20
28.37123714008241
 30
0.0
 10
111.1185639090105
 20
28.34378740877835
 30
0.0
 11
111.4028629934263
 21
28.43981653671054
 31
0.0
 11
111.2607134124532
 21
28.41476546503057
 31
0.0
 11
111.1185639090105
 21
28.34378740877835
 31
0.0
  0
SPLINE
  5
1821D
330
18
100
AcDbEntity
  8
0
100
AcDbSpline
210
0.0
220
0.0
230
1.0
 70
     8
 71
     3
 72
     9
 73
     5
 74
     3
 42
0.0000000001
 43
0.0000000001
 44
0.0000000001
 40
0.0
 40
0.0
 40
0.0
 40
0.0
 40
0.2779293426583873
 40
0.5629939269588613
 40
0.5629939269588613
 40
0.5629939269588613
 40
0.5629939269588613
 10
111.1352873708825
 20
28.20600649471288
 30
0.0
 10
111.2236887705616
 20
28.1764466469799
 30
0.0
 10
111.4027610868485
 20
28.11656806562422
 30
0.0
 10
111.5915641850709
 20
28.11219275027268
 30
0.0
 10
111.6871621553725
 20
28.1099773667807
 30
0.0
 11
111.1352873708825
 21
28.20600649471288
 31
0.0
 11
111.4028629934263
 21
28.13085327967297
 31
0.0
 11
111.6871621553725
 21
28.1099773667807
 31
0.0
  0
SPLINE
  5
1821E
330
18
100
AcDbEntity
  8
0
100
AcDbSpline
210
0.0
220
0.0
230
1.0
 70
     8
 71
     3
 72
     9
 73
     5
 74
     3
 42
0.0000000001
 43
0.0000000001
 44
0.0000000001
 40
0.0
 40
0.0
 40
0.0
 40
0.0
 40
0.2476149023657367
 40
0.5365856917974067
 40
0.5365856917974067
 40
0.5365856917974067
 40
0.5365856917974067
 10
111.1269256399465
 20
28.63604999101386
 30
0.0
 10
111.2027995300791
 20
28.66905482024874
 30
0.0
 10
111.3672195364567
 20
28.74057684480563
 30
0.0
 10
111.5425629346645
 20
28.7784733428358
 30
0.0
 10
111.636991692226
 20
28.79888197675929
 30
0.0
 11
111.1269256399465
 21
28.63604999101386
 31
0.0
 11
111.356873434513
 21
28.72790396015834
 31
0.0
 11
111.636991692226
 21
28.79888197675929
 31
0.0
  0
LINE
  5
18263
330
18
100
AcDbEntity
  8
0
100
AcDbLine
 10
110.6424126541613
 20
17.65463055293037
 30
0.0
 11
113.5674126541613
 21
17.65463055293037
 31
0.0
  0
LINE
  5
18264
330
18
100
AcDbEntity
  8
0
100
AcDbLine
 10
110.6799126541613
 20
17.84213055293037
 30
0.0
 11
113.5674126541613
 21
17.84213055293037
 31
0.0
  0
LINE
  5
18265
330
18
100
AcDbEntity
  8
0
100
AcDbLine
 10
110.6424126541613
 20
19.15463055293036
 30
0.0
 11
113.5674126541613
 21
19.15463055293036
 31
0.0
  0
LINE
  5
18266
330
18
100
AcDbEntity
  8
0
100
AcDbLine
 10
110.6799126541613
 20
18.96713055293037
 30
0.0
 11
113.5674126541613
 21
18.96713055293037
 31
0.0
  0
LINE
  5
18267
330
18
100
AcDbEntity
  8
0
100
AcDbLine
 10
113.5674126541613
 20
17.09213055293037
 30
0.0
 11
110.5174126541613
 21
17.09213055293037
 31
0.0
  0
LINE
  5
18268
330
18
100
AcDbEntity
  8
0
100
AcDbLine
 10
109.3174126541613
 20
18.29213055293037
 30
0.0
 11
109.3174126541613
 21
18.51713055293
 31
0.0
  0
LINE
  5
18269
330
18
100
AcDbEntity
  8
0
100
AcDbLine
 10
109.6924126541613
 20
18.26713055293035
 30
0.0
 11
109.6924126541613
 21
18.54213055293037
 31
0.0
  0
LINE
  5
1826A
330
18
100
AcDbEntity
  8
0
100
AcDbLine
 10
109.9424126541613
 20
18.35463055293038
 30
0.0
 11
109.9424126541613
 21
18.45463055293037
 31
0.0
  0
LINE
  5
1826B
330
18
100
AcDbEntity
  8
0
100
AcDbLine
 10
110.1299126541613
 20
18.39213055293036
 30
0.0
 11
110.1299126541613
 21
18.41713055293037
 31
0.0
  0
ARC
  5
18275
330
18
100
AcDbEntity
  8
0
100
AcDbCircle
 10
110.6799126541613
 20
18.39213055293036
 30
0.0
 40
0.55
100
AcDbArc
 50
180.0
 51
270.0
  0
ARC
  5
18276
330
18
100
AcDbEntity
  8
0
100
AcDbCircle
 10
110.6799126541613
 20
18.41713055293037
 30
0.0
 40
0.55
100
AcDbArc
 50
90.0
 51
180.0
  0
ARC
  5
18279
330
18
100
AcDbEntity
  8
0
100
AcDbCircle
 10
110.6424126541613
 20
18.45463055293037
 30
0.0
 40
0.7
100
AcDbArc
 50
90.0
 51
180.0
  0
ARC
  5
1827A
330
18
100
AcDbEntity
  8
0
100
AcDbCircle
 10
110.6424126541613
 20
18.35463055293036
 30
0.0
 40
0.7
100
AcDbArc
 50
179.999999999999
 51
270.0
  0
ARC
  5
1827B
330
18
100
AcDbEntity
  8
0
100
AcDbCircle
 10
110.4924126541613
 20
18.54213055293037
 30
0.0
 40
0.8
100
AcDbArc
 50
90.0
 51
180.0
  0
ARC
  5
1827C
330
18
100
AcDbEntity
  8
0
100
AcDbCircle
 10
110.4924126541613
 20
18.26713055293037
 30
0.0
 40
0.8
100
AcDbArc
 50
180.0000000000007
 51
270.0
  0
CIRCLE
  5
1829B
330
18
100
AcDbEntity
  8
0
100
AcDbCircle
 10
111.8139707459684
 20
18.36775697076444
 30
0.0
 40
0.1478416379447169
  0
SPLINE
  5
1829C
330
18
100
AcDbEntity
  8
0
100
AcDbSpline
210
0.0
220
0.0
230
1.0
 70
     8
 71
     3
 72
    10
 73
     6
 74
     4
 42
0.0000000001
 43
0.0000000001
 44
0.0000000001
 40
0.0
 40
0.0
 40
0.0
 40
0.0
 40
0.112411151388425
 40
0.2337797411427231
 40
0.3496892119005637
 40
0.3496892119005637
 40
0.3496892119005637
 40
0.3496892119005637
 10
111.7712900293736
 20
18.15072924551442
 30
0.0
 10
111.7411354810742
 20
18.1267484080111
 30
0.0
 10
111.6784235311597
 20
18.0768758294042
 30
0.0
 10
111.6830065942195
 20
17.92748164822048
 30
0.0
 10
111.7675961611417
 20
17.90636076524582
 30
0.0
 10
111.8089178573508
 20
17.8960432906245
 30
0.0
 11
111.7712900293736
 21
18.15072924551442
 31
0.0
 11
111.696034373419
 21
18.0672256335966
 31
0.0
 11
111.7043961818854
 21
17.94614543398445
 31
0.0
 11
111.8089178573508
 21
17.8960432906245
 31
0.0
  0
SPLINE
  5
1829D
330
18
100
AcDbEntity
  8
0
100
AcDbSpline
210
0.0
220
0.0
230
1.0
 70
     8
 71
     3
 72
    15
 73
    11
 74
     9
 42
0.0000000001
 43
0.0000000001
 44
0.0000000001
 40
0.0
 40
0.0
 40
0.0
 40
0.0
 40
0.145044283736229
 40
0.4229520897185818
 40
0.7115529080070078
 40
0.8741889906272419
 40
0.943705556268426
 40
0.9925825553571611
 40
1.11408268155419
 40
1.318252088283689
 40
1.318252088283689
 40
1.318252088283689
 40
1.318252088283689
 10
111.7712900293736
 20
18.15072924551442
 30
0.0
 10
111.7365110654456
 20
18.11669742528193
 30
0.0
 10
111.6350948972751
 20
18.0174599433662
 30
0.0
 10
111.4020250368427
 20
17.93728863598561
 30
0.0
 10
111.1516727246569
 20
17.94072127919096
 30
0.0
 10
110.9911277656476
 20
18.00391962808929
 30
0.0
 10
110.9196413707211
 20
18.08391226350619
 30
0.0
 10
110.9558514357685
 20
18.16682783265958
 30
0.0
 10
111.0863587509425
 20
18.20217537597461
 30
0.0
 10
111.1912711672196
 20
18.21931343323691
 30
0.0
 10
111.2570430728609
 20
18.23005765899329
 30
0.0
 11
111.7712900293736
 21
18.15072924551442
 31
0.0
 11
111.6625874496749
 21
18.05470011758223
 31
0.0
 11
111.4033735580672
 21
17.95449579121109
 31
0.0
 11
111.1148935694182
 21
17.96284614843775
 31
0.0
 11
110.9685630842119
 21
18.03382420468997
 31
0.0
 11
110.9309352562346
 21
18.09227674492782
 31
0.0
 11
110.947658795637
 21
18.13820368984881
 31
0.0
 11
111.0563613753356
 21
18.19248103164771
 31
0.0
 11
111.2570430728609
 21
18.23005765899329
 31
0.0
  0
SPLINE
  5
1829E
330
18
100
AcDbEntity
  8
0
100
AcDbSpline
210
0.0
220
0.0
230
1.0
 70
     8
 71
     3
 72
    16
 73
    12
 74
    10
 42
0.0000000001
 43
0.0000000001
 44
0.0000000001
 40
0.0
 40
0.0
 40
0.0
 40
0.0
 40
0.2075676782455301
 40
0.4542742672028755
 40
0.7107395898426696
 40
0.9352671660625366
 40
0.9909748632842124
 40
1.047188474018595
 40
1.236587568362304
 40
1.56310033482355
 40
1.861815352757386
 40
1.861815352757386
 40
1.861815352757386
 40
1.861815352757386
 10
111.2570430728609
 20
18.23005765899329
 30
0.0
 10
111.1890345700184
 20
18.21769493276377
 30
0.0
 10
111.0401938976483
 20
18.19063836766646
 30
0.0
 10
110.801050544209
 20
18.17593495033351
 30
0.0
 10
110.5632702926278
 20
18.25920717212122
 30
0.0
 10
110.427871239891
 20
18.37212672658295
 30
0.0
 10
110.3782732474054
 20
18.49340329267118
 30
0.0
 10
110.4778992939928
 20
18.55526617085238
 30
0.0
 10
110.6469564073532
 20
18.60926961807247
 30
0.0
 10
110.9177520670304
 20
18.69959094736625
 30
0.0
 10
111.1247153306992
 20
18.65874178323829
 30
0.0
 10
111.2235961491168
 20
18.63922528205325
 30
0.0
 11
111.2570430728609
 21
18.23005765899329
 31
0.0
 11
111.0521804711024
 21
18.19665623008667
 31
0.0
 11
110.8055092146639
 21
18.19248103164771
 31
0.0
 11
110.5630187849282
 21
18.27598464356554
 31
0.0
 11
110.4041457420831
 21
18.43464147052328
 31
0.0
 11
110.3916031069138
 21
18.48891881232217
 31
0.0
 11
110.4334118391243
 21
18.52649540001649
 31
0.0
 11
110.6090083438415
 21
18.59747345626871
 31
0.0
 11
110.9267544295318
 21
18.67262671095988
 31
0.0
 11
111.2235961491168
 21
18.63922528205325
 31
0.0
  0
SPLINE
  5
1829F
330
18
100
AcDbEntity
  8
0
100
AcDbSpline
210
0.0
220
0.0
230
1.0
 70
     8
 71
     3
 72
    15
 73
    11
 74
     9
 42
0.0000000001
 43
0.0000000001
 44
0.0000000001
 40
0.0
 40
0.0
 40
0.0
 40
0.0
 40
0.1493846968086145
 40
0.2681625137898703
 40
0.3473917547874588
 40
0.4531459962681705
 40
0.6916017763894457
 40
0.8859162675773248
 40
1.071987530208739
 40
1.200339521130097
 40
1.200339521130097
 40
1.200339521130097
 40
1.200339521130097
 10
111.2235961491168
 20
18.63922528205325
 30
0.0
 10
111.1780233094815
 20
18.65177796221964
 30
0.0
 10
111.0962148813211
 20
18.67431145018817
 30
0.0
 10
110.9675639469776
 20
18.73802112198566
 30
0.0
 10
111.0108918606824
 20
18.85781197046523
 30
0.0
 10
111.1641815666568
 20
18.87639628371015
 30
0.0
 10
111.3384393282093
 20
18.87165674199571
 30
0.0
 10
111.5409488879817
 20
18.81553782741369
 30
0.0
 10
111.6855478931351
 20
18.71848990461251
 30
0.0
 10
111.7464350402354
 20
18.63255378714313
 30
0.0
 10
111.7712900293736
 20
18.59747345626871
 30
0.0
 11
111.2235961491168
 21
18.63922528205325
 31
0.0
 11
111.0814465681437
 21
18.68515222697423
 31
0.0
 11
110.9894674503171
 21
18.7603054816654
 31
0.0
 11
111.0145526431252
 21
18.83545869670532
 31
0.0
 11
111.1148935694182
 21
18.86886016526321
 31
0.0
 11
111.3532030949207
 21
18.86050976838529
 31
0.0
 11
111.5393772268741
 21
18.80485625028465
 31
0.0
 11
111.6919789133695
 21
18.69838916590633
 31
0.0
 11
111.7712900293736
 21
18.59747345626871
 31
0.0
  0
SPLINE
  5
182A0
330
18
100
AcDbEntity
  8
0
100
AcDbSpline
210
0.0
220
0.0
230
1.0
 70
     8
 71
     3
 72
    11
 73
     7
 74
     5
 42
0.0000000001
 43
0.0000000001
 44
0.0000000001
 40
0.0
 40
0.0
 40
0.0
 40
0.0
 40
0.1438478831645104
 40
0.2702147653683964
 40
0.3563589876769239
 40
0.3817892619404632
 40
0.3817892619404632
 40
0.3817892619404632
 40
0.3817892619404632
 10
111.7712900293736
 20
18.59747345626871
 30
0.0
 10
111.7415252955286
 20
18.63671030181982
 30
0.0
 10
111.6856129637291
 20
18.7104157661002
 30
0.0
 10
111.6973843312654
 20
18.84224086834319
 30
0.0
 10
111.763448196039
 20
18.90099921099883
 30
0.0
 10
111.8006043670991
 20
18.90534198308768
 30
0.0
 10
111.8090730732073
 20
18.90633179607072
 30
0.0
 11
111.7712900293736
 21
18.59747345626871
 31
0.0
 11
111.7003704935087
 21
18.722623897433
 31
0.0
 11
111.7170939553807
 21
18.84787929548412
 31
0.0
 11
111.7839878803992
 21
18.90215663728302
 31
0.0
 11
111.8090730732073
 21
18.90633179607072
 31
0.0
  0
SPLINE
  5
182A1
330
18
100
AcDbEntity
  8
0
100
AcDbSpline
210
0.0
220
0.0
230
1.0
 70
     8
 71
     3
 72
    10
 73
     6
 74
     4
 42
0.0000000001
 43
0.0000000001
 44
0.0000000001
 40
0.0
 40
0.0
 40
0.0
 40
0.0
 40
0.3003224108057827
 40
0.6550712777779643
 40
1.068375974375638
 40
1.068375974375638
 40
1.068375974375638
 40
1.068375974375638
 10
111.6418382994261
 20
18.2591789722254
 30
0.0
 10
111.5463904719159
 20
18.29030643743448
 30
0.0
 10
111.3381971167797
 20
18.3582024973848
 30
0.0
 10
110.9820697943109
 20
18.39228093920824
 30
0.0
 10
110.7287541939989
 20
18.42789658909499
 30
0.0
 10
110.5924400978259
 20
18.44706206930207
 30
0.0
 11
111.6418382994261
 21
18.2591789722254
 31
0.0
 11
111.3533583107771
 21
18.34268254449197
 31
0.0
 11
111.0021653013428
 21
18.39278472750318
 31
0.0
 11
110.5924400978259
 21
18.44706206930207
 31
0.0
  0
SPLINE
  5
182A2
330
18
100
AcDbEntity
  8
0
100
AcDbSpline
210
0.0
220
0.0
230
1.0
 70
     8
 71
     3
 72
    10
 73
     6
 74
     4
 42
0.0000000001
 43
0.0000000001
 44
0.0000000001
 40
0.0
 40
0.0
 40
0.0
 40
0.0
 40
0.3390620037169439
 40
0.7539985945348072
 40
1.10403679655853
 40
1.10403679655853
 40
1.10403679655853
 40
1.10403679655853
 10
110.5924400978259
 20
18.44706206930207
 30
0.0
 10
110.7053125669899
 20
18.45249995260671
 30
0.0
 10
110.9563158707467
 20
18.46459259738553
 30
0.0
 10
111.324084851218
 20
18.48510187879319
 30
0.0
 10
111.5765056922002
 20
18.52202202724898
 30
0.0
 10
111.6920087625726
 20
18.5389159987953
 30
0.0
 11
110.5924400978259
 21
18.44706206930207
 31
0.0
 11
110.9310905496214
 21
18.46376278375539
 31
0.0
 11
111.3449965798411
 21
18.49298901422306
 31
0.0
 11
111.6920087625726
 21
18.5389159987953
 31
0.0
  0
SPLINE
  5
182A3
330
18
100
AcDbEntity
  8
0
100
AcDbSpline
210
0.0
220
0.0
230
1.0
 70
     8
 71
     3
 72
     9
 73
     5
 74
     3
 42
0.0000000001
 43
0.0000000001
 44
0.0000000001
 40
0.0
 40
0.0
 40
0.0
 40
0.0
 40
0.1591906425359159
 40
0.3182829811593812
 40
0.3182829811593812
 40
0.3182829811593812
 40
0.3182829811593812
 10
111.6627426655314
 20
18.46793794254308
 30
0.0
 10
111.6115353188493
 20
18.4529765554665
 30
0.0
 10
111.509152247209
 20
18.42306302031673
 30
0.0
 10
111.4024914241402
 20
18.42236157320387
 30
0.0
 10
111.3491774840743
 20
18.42201095797085
 30
0.0
 11
111.6627426655314
 21
18.46793794254308
 31
0.0
 11
111.5080505269194
 21
18.43036131519751
 31
0.0
 11
111.3491774840743
 21
18.42201095797085
 31
0.0
  0
SPLINE
  5
182A4
330
18
100
AcDbEntity
  8
0
100
AcDbSpline
210
0.0
220
0.0
230
1.0
 70
     8
 71
     3
 72
     9
 73
     5
 74
     3
 42
0.0000000001
 43
0.0000000001
 44
0.0000000001
 40
0.0
 40
0.0
 40
0.0
 40
0.0
 40
0.1443400830093359
 40
0.3032248393528932
 40
0.3032248393528932
 40
0.3032248393528932
 40
0.3032248393528932
 10
111.3491774840743
 20
18.42201095797085
 30
0.0
 10
111.3975930601497
 20
18.41678878336787
 30
0.0
 10
111.4993028899597
 20
18.40581821287874
 30
0.0
 10
111.5873443253609
 20
18.35343156134273
 30
0.0
 10
111.6334765684901
 20
18.32598183003866
 30
0.0
 11
111.3491774840743
 21
18.42201095797085
 31
0.0
 11
111.4913270650474
 21
18.39695988629088
 31
0.0
 11
111.6334765684901
 21
18.32598183003866
 31
0.0
  0
SPLINE
  5
182A5
330
18
100
AcDbEntity
  8
0
100
AcDbSpline
210
0.0
220
0.0
230
1.0
 70
     8
 71
     3
 72
     9
 73
     5
 74
     3
 42
0.0000000001
 43
0.0000000001
 44
0.0000000001
 40
0.0
 40
0.0
 40
0.0
 40
0.0
 40
0.2779293426583854
 40
0.5629939269588742
 40
0.5629939269588742
 40
0.5629939269588742
 40
0.5629939269588742
 10
111.6167531066181
 20
18.18820091597319
 30
0.0
 10
111.5283517069391
 20
18.15864106824021
 30
0.0
 10
111.3492793906521
 20
18.09876248688453
 30
0.0
 10
111.1604762924297
 20
18.09438717153299
 30
0.0
 10
111.0648783221281
 20
18.092171788041
 30
0.0
 11
111.6167531066181
 21
18.18820091597319
 31
0.0
 11
111.3491774840743
 21
18.11304770093328
 31
0.0
 11
111.0648783221281
 21
18.092171788041
 31
0.0
  0
SPLINE
  5
182A6
330
18
100
AcDbEntity
  8
0
100
AcDbSpline
210
0.0
220
0.0
230
1.0
 70
     8
 71
     3
 72
     9
 73
     5
 74
     3
 42
0.0000000001
 43
0.0000000001
 44
0.0000000001
 40
0.0
 40
0.0
 40
0.0
 40
0.0
 40
0.247614902365734
 40
0.5365856917974316
 40
0.5365856917974316
 40
0.5365856917974316
 40
0.5365856917974316
 10
111.6251148375541
 20
18.61824441227417
 30
0.0
 10
111.5492409474215
 20
18.65124924150905
 30
0.0
 10
111.384820941044
 20
18.72277126606594
 30
0.0
 10
111.2094775428362
 20
18.76066776409611
 30
0.0
 10
111.1150487852746
 20
18.7810763980196
 30
0.0
 11
111.6251148375541
 21
18.61824441227417
 31
0.0
 11
111.3951670429876
 21
18.71009838141865
 31
0.0
 11
111.1150487852746
 21
18.7810763980196
 31
0.0
  0
SPLINE
  5
182A7
330
18
100
AcDbEntity
  8
0
100
AcDbSpline
210
0.0
220
0.0
230
1.0
 70
     8
 71
     3
 72
    10
 73
     6
 74
     4
 42
0.0000000001
 43
0.0000000001
 44
0.0000000001
 40
0.0
 40
0.0
 40
0.0
 40
0.0
 40
0.112411151388425
 40
0.2337797411427231
 40
0.3496892119005637
 40
0.3496892119005637
 40
0.3496892119005637
 40
0.3496892119005637
 10
111.8479656173051
 20
18.15072924551442
 30
0.0
 10
111.8781201656044
 20
18.1267484080111
 30
0.0
 10
111.940832115519
 20
18.0768758294042
 30
0.0
 10
111.9362490524591
 20
17.92748164822048
 30
0.0
 10
111.851659485537
 20
17.90636076524582
 30
0.0
 10
111.8103377893278
 20
17.8960432906245
 30
0.0
 11
111.8479656173051
 21
18.15072924551442
 31
0.0
 11
111.9232212732596
 21
18.0672256335966
 31
0.0
 11
111.9148594647932
 21
17.94614543398445
 31
0.0
 11
111.8103377893278
 21
17.8960432906245
 31
0.0
  0
SPLINE
  5
182A8
330
18
100
AcDbEntity
  8
0
100
AcDbSpline
210
0.0
220
0.0
230
1.0
 70
     8
 71
     3
 72
    15
 73
    11
 74
     9
 42
0.0000000001
 43
0.0000000001
 44
0.0000000001
 40
0.0
 40
0.0
 40
0.0
 40
0.0
 40
0.145044283736229
 40
0.4229520897185818
 40
0.7115529080070078
 40
0.8741889906272419
 40
0.943705556268426
 40
0.9925825553571611
 40
1.11408268155419
 40
1.318252088283689
 40
1.318252088283689
 40
1.318252088283689
 40
1.318252088283689
 10
111.8479656173051
 20
18.15072924551442
 30
0.0
 10
111.882744581233
 20
18.11669742528193
 30
0.0
 10
111.9841607494035
 20
18.0174599433662
 30
0.0
 10
112.2172306098359
 20
17.93728863598561
 30
0.0
 10
112.4675829220217
 20
17.94072127919096
 30
0.0
 10
112.628127881031
 20
18.00391962808929
 30
0.0
 10
112.6996142759575
 20
18.08391226350619
 30
0.0
 10
112.6634042109101
 20
18.16682783265958
 30
0.0
 10
112.5328968957362
 20
18.20217537597461
 30
0.0
 10
112.427984479459
 20
18.21931343323691
 30
0.0
 10
112.3622125738178
 20
18.23005765899329
 30
0.0
 11
111.8479656173051
 21
18.15072924551442
 31
0.0
 11
111.9566681970037
 21
18.05470011758223
 31
0.0
 11
112.2158820886115
 21
17.95449579121109
 31
0.0
 11
112.5043620772605
 21
17.96284614843775
 31
0.0
 11
112.6506925624668
 21
18.03382420468997
 31
0.0
 11
112.688320390444
 21
18.09227674492782
 31
0.0
 11
112.6715968510416
 21
18.13820368984881
 31
0.0
 11
112.562894271343
 21
18.19248103164771
 31
0.0
 11
112.3622125738178
 21
18.23005765899329
 31
0.0
  0
SPLINE
  5
182A9
330
18
100
AcDbEntity
  8
0
100
AcDbSpline
210
0.0
220
0.0
230
1.0
 70
     8
 71
     3
 72
    16
 73
    12
 74
    10
 42
0.0000000001
 43
0.0000000001
 44
0.0000000001
 40
0.0
 40
0.0
 40
0.0
 40
0.0
 40
0.2075676782455301
 40
0.4542742672028755
 40
0.7107395898426696
 40
0.9352671660625366
 40
0.9909748632842124
 40
1.047188474018595
 40
1.236587568362304
 40
1.56310033482355
 40
1.861815352757386
 40
1.861815352757386
 40
1.861815352757386
 40
1.861815352757386
 10
112.3622125738178
 20
18.23005765899329
 30
0.0
 10
112.4302210766603
 20
18.21769493276377
 30
0.0
 10
112.5790617490303
 20
18.19063836766646
 30
0.0
 10
112.8182051024696
 20
18.17593495033351
 30
0.0
 10
113.0559853540509
 20
18.25920717212122
 30
0.0
 10
113.1913844067876
 20
18.37212672658295
 30
0.0
 10
113.2409823992732
 20
18.49340329267118
 30
0.0
 10
113.1413563526858
 20
18.55526617085238
 30
0.0
 10
112.9722992393255
 20
18.60926961807247
 30
0.0
 10
112.7015035796482
 20
18.69959094736625
 30
0.0
 10
112.4945403159795
 20
18.65874178323829
 30
0.0
 10
112.3956594975618
 20
18.63922528205325
 30
0.0
 11
112.3622125738178
 21
18.23005765899329
 31
0.0
 11
112.5670751755762
 21
18.19665623008667
 31
0.0
 11
112.8137464320147
 21
18.19248103164771
 31
0.0
 11
113.0562368617504
 21
18.27598464356554
 31
0.0
 11
113.2151099045956
 21
18.43464147052328
 31
0.0
 11
113.2276525397648
 21
18.48891881232217
 31
0.0
 11
113.1858438075543
 21
18.52649540001649
 31
0.0
 11
113.0102473028372
 21
18.59747345626871
 31
0.0
 11
112.6925012171469
 21
18.67262671095988
 31
0.0
 11
112.3956594975618
 21
18.63922528205325
 31
0.0
  0
SPLINE
  5
182AA
330
18
100
AcDbEntity
  8
0
100
AcDbSpline
210
0.0
220
0.0
230
1.0
 70
     8
 71
     3
 72
    15
 73
    11
 74
     9
 42
0.0000000001
 43
0.0000000001
 44
0.0000000001
 40
0.0
 40
0.0
 40
0.0
 40
0.0
 40
0.1493846968086145
 40
0.2681625137898703
 40
0.3473917547874588
 40
0.4531459962681705
 40
0.6916017763894457
 40
0.8859162675773248
 40
1.071987530208739
 40
1.200339521130097
 40
1.200339521130097
 40
1.200339521130097
 40
1.200339521130097
 10
112.3956594975618
 20
18.63922528205325
 30
0.0
 10
112.4412323371971
 20
18.65177796221964
 30
0.0
 10
112.5230407653576
 20
18.67431145018817
 30
0.0
 10
112.651691699701
 20
18.73802112198566
 30
0.0
 10
112.6083637859962
 20
18.85781197046523
 30
0.0
 10
112.4550740800219
 20
18.87639628371015
 30
0.0
 10
112.2808163184694
 20
18.87165674199571
 30
0.0
 10
112.078306758697
 20
18.81553782741369
 30
0.0
 10
111.9337077535435
 20
18.71848990461251
 30
0.0
 10
111.8728206064433
 20
18.63255378714313
 30
0.0
 10
111.8479656173051
 20
18.59747345626871
 30
0.0
 11
112.3956594975618
 21
18.63922528205325
 31
0.0
 11
112.537809078535
 21
18.68515222697423
 31
0.0
 11
112.6297881963615
 21
18.7603054816654
 31
0.0
 11
112.6047030035535
 21
18.83545869670532
 31
0.0
 11
112.5043620772605
 21
18.86886016526321
 31
0.0
 11
112.266052551758
 21
18.86050976838529
 31
0.0
 11
112.0798784198045
 21
18.80485625028465
 31
0.0
 11
111.9272767333092
 21
18.69838916590633
 31
0.0
 11
111.8479656173051
 21
18.59747345626871
 31
0.0
  0
SPLINE
  5
182AB
330
18
100
AcDbEntity
  8
0
100
AcDbSpline
210
0.0
220
0.0
230
1.0
 70
     8
 71
     3
 72
    11
 73
     7
 74
     5
 42
0.0000000001
 43
0.0000000001
 44
0.0000000001
 40
0.0
 40
0.0
 40
0.0
 40
0.0
 40
0.1438478831645104
 40
0.2702147653683964
 40
0.3563589876769239
 40
0.3817892619404632
 40
0.3817892619404632
 40
0.3817892619404632
 40
0.3817892619404632
 10
111.8479656173051
 20
18.59747345626871
 30
0.0
 10
111.87773035115
 20
18.63671030181982
 30
0.0
 10
111.9336426829495
 20
18.7104157661002
 30
0.0
 10
111.9218713154132
 20
18.84224086834319
 30
0.0
 10
111.8558074506396
 20
18.90099921099883
 30
0.0
 10
111.8186512795796
 20
18.90534198308768
 30
0.0
 10
111.8101825734713
 20
18.90633179607072
 30
0.0
 11
111.8479656173051
 21
18.59747345626871
 31
0.0
 11
111.91888515317
 21
18.722623897433
 31
0.0
 11
111.9021616912979
 21
18.84787929548412
 31
0.0
 11
111.8352677662794
 21
18.90215663728302
 31
0.0
 11
111.8101825734713
 21
18.90633179607072
 31
0.0
  0
SPLINE
  5
182AC
330
18
100
AcDbEntity
  8
0
100
AcDbSpline
210
0.0
220
0.0
230
1.0
 70
     8
 71
     3
 72
    10
 73
     6
 74
     4
 42
0.0000000001
 43
0.0000000001
 44
0.0000000001
 40
0.0
 40
0.0
 40
0.0
 40
0.0
 40
0.3003224108057827
 40
0.6550712777779643
 40
1.068375974375638
 40
1.068375974375638
 40
1.068375974375638
 40
1.068375974375638
 10
111.9774173472525
 20
18.2591789722254
 30
0.0
 10
112.0728651747627
 20
18.29030643743448
 30
0.0
 10
112.281058529899
 20
18.3582024973848
 30
0.0
 10
112.6371858523677
 20
18.39228093920824
 30
0.0
 10
112.8905014526798
 20
18.42789658909499
 30
0.0
 10
113.0268155488527
 20
18.44706206930207
 30
0.0
 11
111.9774173472525
 21
18.2591789722254
 31
0.0
 11
112.2658973359015
 21
18.34268254449197
 31
0.0
 11
112.6170903453359
 21
18.39278472750318
 31
0.0
 11
113.0268155488527
 21
18.44706206930207
 31
0.0
  0
SPLINE
  5
182AD
330
18
100
AcDbEntity
  8
0
100
AcDbSpline
210
0.0
220
0.0
230
1.0
 70
     8
 71
     3
 72
    10
 73
     6
 74
     4
 42
0.0000000001
 43
0.0000000001
 44
0.0000000001
 40
0.0
 40
0.0
 40
0.0
 40
0.0
 40
0.3390620037169439
 40
0.7539985945348072
 40
1.10403679655853
 40
1.10403679655853
 40
1.10403679655853
 40
1.10403679655853
 10
113.0268155488527
 20
18.44706206930207
 30
0.0
 10
112.9139430796887
 20
18.45249995260671
 30
0.0
 10
112.6629397759319
 20
18.46459259738553
 30
0.0
 10
112.2951707954606
 20
18.48510187879319
 30
0.0
 10
112.0427499544784
 20
18.52202202724898
 30
0.0
 10
111.927246884106
 20
18.5389159987953
 30
0.0
 11
113.0268155488527
 21
18.44706206930207
 31
0.0
 11
112.6881650970572
 21
18.46376278375539
 31
0.0
 11
112.2742590668375
 21
18.49298901422306
 31
0.0
 11
111.927246884106
 21
18.5389159987953
 31
0.0
  0
SPLINE
  5
182AE
330
18
100
AcDbEntity
  8
0
100
AcDbSpline
210
0.0
220
0.0
230
1.0
 70
     8
 71
     3
 72
     9
 73
     5
 74
     3
 42
0.0000000001
 43
0.0000000001
 44
0.0000000001
 40
0.0
 40
0.0
 40
0.0
 40
0.0
 40
0.1591906425359159
 40
0.3182829811593812
 40
0.3182829811593812
 40
0.3182829811593812
 40
0.3182829811593812
 10
111.9565129811473
 20
18.46793794254308
 30
0.0
 10
112.0077203278293
 20
18.4529765554665
 30
0.0
 10
112.1101033994696
 20
18.42306302031673
 30
0.0
 10
112.2167642225385
 20
18.42236157320387
 30
0.0
 10
112.2700781626043
 20
18.42201095797085
 30
0.0
 11
111.9565129811473
 21
18.46793794254308
 31
0.0
 11
112.1112051197592
 21
18.43036131519751
 31
0.0
 11
112.2700781626043
 21
18.42201095797085
 31
0.0
  0
SPLINE
  5
182AF
330
18
100
AcDbEntity
  8
0
100
AcDbSpline
210
0.0
220
0.0
230
1.0
 70
     8
 71
     3
 72
     9
 73
     5
 74
     3
 42
0.0000000001
 43
0.0000000001
 44
0.0000000001
 40
0.0
 40
0.0
 40
0.0
 40
0.0
 40
0.1443400830093359
 40
0.3032248393528932
 40
0.3032248393528932
 40
0.3032248393528932
 40
0.3032248393528932
 10
112.2700781626043
 20
18.42201095797085
 30
0.0
 10
112.2216625865289
 20
18.41678878336787
 30
0.0
 10
112.1199527567189
 20
18.40581821287874
 30
0.0
 10
112.0319113213177
 20
18.35343156134273
 30
0.0
 10
111.9857790781885
 20
18.32598183003866
 30
0.0
 11
112.2700781626043
 21
18.42201095797085
 31
0.0
 11
112.1279285816312
 21
18.39695988629088
 31
0.0
 11
111.9857790781885
 21
18.32598183003866
 31
0.0
  0
SPLINE
  5
182B0
330
18
100
AcDbEntity
  8
0
100
AcDbSpline
210
0.0
220
0.0
230
1.0
 70
     8
 71
     3
 72
     9
 73
     5
 74
     3
 42
0.0000000001
 43
0.0000000001
 44
0.0000000001
 40
0.0
 40
0.0
 40
0.0
 40
0.0
 40
0.2779293426583854
 40
0.5629939269588742
 40
0.5629939269588742
 40
0.5629939269588742
 40
0.5629939269588742
 10
112.0025025400606
 20
18.18820091597319
 30
0.0
 10
112.0909039397396
 20
18.15864106824021
 30
0.0
 10
112.2699762560265
 20
18.09876248688453
 30
0.0
 10
112.4587793542489
 20
18.09438717153299
 30
0.0
 10
112.5543773245506
 20
18.092171788041
 30
0.0
 11
112.0025025400606
 21
18.18820091597319
 31
0.0
 11
112.2700781626043
 21
18.11304770093328
 31
0.0
 11
112.5543773245506
 21
18.092171788041
 31
0.0
  0
SPLINE
  5
182B1
330
18
100
AcDbEntity
  8
0
100
AcDbSpline
210
0.0
220
0.0
230
1.0
 70
     8
 71
     3
 72
     9
 73
     5
 74
     3
 42
0.0000000001
 43
0.0000000001
 44
0.0000000001
 40
0.0
 40
0.0
 40
0.0
 40
0.0
 40
0.247614902365734
 40
0.5365856917974316
 40
0.5365856917974316
 40
0.5365856917974316
 40
0.5365856917974316
 10
111.9941408091245
 20
18.61824441227417
 30
0.0
 10
112.0700146992571
 20
18.65124924150905
 30
0.0
 10
112.2344347056347
 20
18.72277126606594
 30
0.0
 10
112.4097781038425
 20
18.76066776409611
 30
0.0
 10
112.504206861404
 20
18.7810763980196
 30
0.0
 11
111.9941408091245
 21
18.61824441227417
 31
0.0
 11
112.224088603691
 21
18.71009838141865
 31
0.0
 11
112.504206861404
 21
18.7810763980196
 31
0.0
  0
SPLINE
  5
182B3
330
18
100
AcDbEntity
  8
0
100
AcDbSpline
210
0.0
220
0.0
230
1.0
 70
     8
 71
     3
 72
    16
 73
    12
 74
    10
 42
0.0000000001
 43
0.0000000001
 44
0.0000000001
 40
0.0
 40
0.0
 40
0.0
 40
0.0
 40
0.7181793574159637
 40
1.91498650613631
 40
2.873782862903519
 40
3.896595423102641
 40
4.996152368732969
 40
5.911979269419497
 40
6.84361997942696
 40
7.731220594415672
 40
8.556086416281818
 40
8.556086416281818
 40
8.556086416281818
 40
8.556086416281818
 10
109.5821092209541
 20
27.06930456281825
 30
0.0
 10
109.3796180368391
 20
26.93757796654961
 30
0.0
 10
108.8396862201031
 20
26.58633610509968
 30
0.0
 10
108.3976224137802
 20
25.65565155877865
 30
0.0
 10
108.4164055631899
 20
24.58173672915236
 30
0.0
 10
108.7741624997762
 20
23.58776820139216
 30
0.0
 10
109.4848369630205
 20
22.8488742386208
 30
0.0
 10
110.1366198436331
 20
22.11704123655987
 30
0.0
 10
110.6871880491623
 20
21.38765634630324
 30
0.0
 10
111.0534217642859
 20
20.56596607594263
 30
0.0
 10
111.0846493277996
 20
19.99207870448506
 30
0.0
 10
111.0996911115614
 20
19.71564696361815
 30
0.0
 11
109.5821092209541
 21
27.06930456281825
 31
0.0
 11
109.0091446007172
 21
26.63629978989408
 31
0.0
 11
108.4671508661607
 21
25.56925239500967
 31
0.0
 11
108.4671508661607
 21
24.61045603824246
 31
0.0
 11
108.8233180734537
 21
23.65165968147522
 31
0.0
 11
109.5201670451996
 21
22.80111456964366
 31
0.0
 11
110.1241029555106
 21
22.11263775212697
 31
0.0
 11
110.6660962856736
 21
21.35487945121432
 31
0.0
 11
111.0067780501265
 21
20.53526320741625
 31
0.0
 11
111.0996911115614
 21
19.71564696361815
 31
0.0
  0
SPLINE
  5
182B4
330
18
100
AcDbEntity
  8
0
100
AcDbSpline
210
0.0
220
0.0
230
1.0
 70
     8
 71
     3
 72
    32
 73
    28
 74
     0
 42
0.0000000001
 43
0.0000000001
 40
0.0
 40
0.0
 40
0.0
 40
0.0
 40
0.4188306092615166
 40
0.4188306092615166
 40
0.947330447080121
 40
0.947330447080121
 40
1.475830284898725
 40
1.475830284898725
 40
2.223285576864526
 40
2.223285576864526
 40
2.970740868830327
 40
2.970740868830327
 40
3.718196160796129
 40
3.718196160796129
 40
4.371289122967271
 40
4.371289122967271
 40
5.024382085138414
 40
5.024382085138414
 40
5.677475047309557
 40
5.677475047309557
 40
6.654401761380051
 40
6.654401761380051
 40
7.631328475450545
 40
7.631328475450545
 40
8.118378614910616
 40
8.118378614910616
 40
8.556086416281818
 40
8.556086416281818
 40
8.556086416281818
 40
8.556086416281818
 10
110.156445139775
 20
27.08480581051447
 30
0.0
 10
109.7460786803443
 20
26.82964233901052
 30
0.0
 10
109.5226731711521
 20
26.65750416694145
 30
0.0
 10
109.2982612077428
 20
26.48740103749533
 30
0.0
 10
109.1968259743485
 20
26.39111765700298
 30
0.0
 10
109.0185349842028
 20
26.1567339818143
 30
0.0
 10
108.9431917919098
 20
26.02250908394032
 30
0.0
 10
108.801550970628
 20
25.6766457308946
 30
0.0
 10
108.7532302468892
 20
25.45945458309405
 30
0.0
 10
108.7254430079567
 20
25.02303044625525
 30
0.0
 10
108.7447206218025
 20
24.79973213530327
 30
0.0
 10
108.8384629536768
 20
24.3596090054691
 30
0.0
 10
108.9131119963246
 20
24.14573773820957
 30
0.0
 10
109.101814743935
 20
23.77991121399151
 30
0.0
 10
109.2117411845323
 20
23.62435007532498
 30
0.0
 10
109.4716064606069
 20
23.31065903891937
 30
0.0
 10
109.6194698508565
 20
23.15466852318664
 30
0.0
 10
109.9191017519417
 20
22.82918362888704
 30
0.0
 10
110.0669736665766
 20
22.66433524062867
 30
0.0
 10
110.4275158864117
 20
22.24186836473159
 30
0.0
 10
110.6398581995706
 20
21.97899048898365
 30
0.0
 10
111.0182158831124
 20
21.39330888542688
 30
0.0
 10
111.1838631786327
 20
21.06909373307764
 30
0.0
 10
111.3321205094739
 20
20.54006179837498
 30
0.0
 10
111.3614061620595
 20
20.35968401745758
 30
0.0
 10
111.3956187479369
 20
20.03109077952339
 30
0.0
 10
111.40374770631
 20
19.87931232545358
 30
0.0
 10
111.411729496711
 20
19.73262625080167
 30
0.0
  0
SPLINE
  5
182B6
330
18
100
AcDbEntity
  8
0
100
AcDbSpline
210
0.0
220
0.0
230
1.0
 70
     8
 71
     3
 72
    12
 73
     8
 74
     6
 42
0.0000000001
 43
0.0000000001
 44
0.0000000001
 40
0.0
 40
0.0
 40
0.0
 40
0.0
 40
0.3767143916260407
 40
0.891772779493583
 40
1.415289250267643
 40
1.713341939615133
 40
1.919241163936436
 40
1.919241163936436
 40
1.919241163936436
 40
1.919241163936436
 10
112.8405111914455
 20
26.49128491554745
 30
0.0
 10
112.8671372654556
 20
26.3667962886115
 30
0.0
 10
112.9301675307036
 20
26.07210202864753
 30
0.0
 10
112.837697699934
 20
25.61578710363801
 30
0.0
 10
112.7621980559451
 20
25.12637639489987
 30
0.0
 10
113.0204628793104
 20
24.87377777636107
 30
0.0
 10
113.1324924904136
 20
24.75050455730559
 30
0.0
 10
113.1782643376901
 20
24.70013891825417
 30
0.0
 11
112.8405111914455
 21
26.49128491554745
 31
0.0
 11
112.8987442694085
 21
26.11909861610974
 31
0.0
 11
112.8405111914455
 21
25.60734276461054
 31
0.0
 11
112.8521577261594
 21
25.08395585858318
 31
0.0
 11
113.0385043035493
 21
24.85133952484381
 31
0.0
 11
113.1782643376901
 21
24.70013891825417
 31
0.0
  0
SPLINE
  5
182B7
330
18
100
AcDbEntity
  8
0
100
AcDbSpline
210
0.0
220
0.0
230
1.0
 70
     8
 71
     3
 72
     9
 73
     5
 74
     3
 42
0.0000000001
 43
0.0000000001
 44
0.0000000001
 40
0.0
 40
0.0
 40
0.0
 40
0.0
 40
0.1187668562623279
 40
0.2834712974063209
 40
0.2834712974063209
 40
0.2834712974063209
 40
0.2834712974063209
 10
113.1782643376901
 20
24.70013891825417
 30
0.0
 10
113.1395196486016
 20
24.68958938737717
 30
0.0
 10
113.0470442928571
 20
24.66440989455535
 30
0.0
 10
112.9532444807826
 20
24.68700851342688
 30
0.0
 10
112.8987442694085
 20
24.70013891825417
 30
0.0
 11
113.1782643376901
 21
24.70013891825417
 31
0.0
 11
113.0617977773706
 21
24.67687722283469
 31
0.0
 11
112.8987442694085
 21
24.70013891825417
 31
0.0
  0
SPLINE
  5
182B8
330
18
100
AcDbEntity
  8
0
100
AcDbSpline
210
0.0
220
0.0
230
1.0
 70
     8
 71
     3
 72
    10
 73
     6
 74
     4
 42
0.0000000001
 43
0.0000000001
 44
0.0000000001
 40
0.0
 40
0.0
 40
0.0
 40
0.0
 40
0.2196648825829743
 40
0.4537943389826813
 40
0.7454964329610429
 40
0.7454964329610429
 40
0.7454964329610429
 40
0.7454964329610429
 10
112.8987442694085
 20
24.70013891825417
 30
0.0
 10
112.966852430512
 20
24.66779697770615
 30
0.0
 10
113.1075535639107
 20
24.60098343263775
 30
0.0
 10
113.2126542563714
 20
24.3560313761668
 30
0.0
 10
113.2130080700679
 20
24.18087336084158
 30
0.0
 10
113.2132043462253
 20
24.08370543736737
 30
0.0
 11
112.8987442694085
 21
24.70013891825417
 31
0.0
 11
113.0850908467983
 21
24.58383064797528
 31
0.0
 11
113.189910872404
 21
24.37447600965538
 31
0.0
 11
113.2132043462253
 21
24.08370543736737
 31
0.0
  0
SPLINE
  5
182B9
330
18
100
AcDbEntity
  8
0
100
AcDbSpline
210
0.0
220
0.0
230
1.0
 70
     8
 71
     3
 72
    10
 73
     6
 74
     4
 42
0.0000000001
 43
0.0000000001
 44
0.0000000001
 40
0.0
 40
0.0
 40
0.0
 40
0.0
 40
0.1402431594106698
 40
0.3381769109642456
 40
0.4698541266876243
 40
0.4698541266876243
 40
0.4698541266876243
 40
0.4698541266876243
 10
113.2132043462253
 20
24.08370543736737
 30
0.0
 10
113.1659653570862
 20
24.08422281864437
 30
0.0
 10
113.0520550922916
 20
24.0854704117732
 30
0.0
 10
112.9096007141523
 20
24.16862701179002
 30
0.0
 10
112.8352669772787
 20
24.249229370854
 30
0.0
 10
112.8055711829103
 20
24.28142943479594
 30
0.0
 11
113.2132043462253
 21
24.08370543736737
 31
0.0
 11
113.0734443120845
 21
24.09533628507711
 31
0.0
 11
112.8987442694085
 21
24.18838285993653
 31
0.0
 11
112.8055711829103
 21
24.28142943479594
 31
0.0
  0
SPLINE
  5
182BA
330
18
100
AcDbEntity
  8
0
100
AcDbSpline
210
0.0
220
0.0
230
1.0
 70
     8
 71
     3
 72
    16
 73
    12
 74
    10
 42
0.0000000001
 43
0.0000000001
 44
0.0000000001
 40
0.0
 40
0.0
 40
0.0
 40
0.0
 40
0.2890668295406205
 40
0.6694249875728149
 40
1.069137498675617
 40
1.372551427599405
 40
1.735280184974715
 40
2.008018238597915
 40
2.299720332576281
 40
2.539803089343786
 40
2.6652183187405
 40
2.6652183187405
 40
2.6652183187405
 40
2.6652183187405
 10
112.8055711829103
 20
24.28142943479594
 30
0.0
 10
112.8727394374864
 20
24.21076858772318
 30
0.0
 10
113.0282886163955
 20
24.04713121449451
 30
0.0
 10
113.1468826105486
 20
23.70867396538625
 30
0.0
 10
113.2588224657749
 20
23.34650310978656
 30
0.0
 10
113.0536626856487
 20
22.99846987187621
 30
0.0
 10
112.6923971781842
 20
22.97964905781245
 30
0.0
 10
112.4237991698143
 20
23.1735722494832
 30
0.0
 10
112.4259129659988
 20
23.52594587503714
 30
0.0
 10
112.6948697594665
 20
23.57548565349514
 30
0.0
 10
112.8033036911739
 20
23.52089609827666
 30
0.0
 10
112.8405111914455
 20
23.50216449960976
 30
0.0
 11
112.8055711829103
 21
24.28142943479594
 31
0.0
 11
112.9919177603002
 21
24.06044394876634
 31
0.0
 11
113.1433243291549
 21
23.7115193447481
 31
0.0
 11
113.2015578115114
 21
23.31607155670935
 31
0.0
 11
113.0385043035493
 21
23.06019352755052
 31
0.0
 11
112.6774576834834
 21
23.02530098442133
 31
0.0
 11
112.4678176322721
 21
23.19976328643045
 31
0.0
 11
112.4911111060935
 21
23.49053385871846
 31
0.0
 11
112.7240442267324
 21
23.54868789044869
 31
0.0
 11
112.8405111914455
 21
23.50216449960976
 31
0.0
  0
SPLINE
  5
182BB
330
18
100
AcDbEntity
  8
0
100
AcDbSpline
210
0.0
220
0.0
230
1.0
 70
     8
 71
     3
 72
    10
 73
     6
 74
     4
 42
0.0000000001
 43
0.0000000001
 44
0.0000000001
 40
0.0
 40
0.0
 40
0.0
 40
0.0
 40
0.1693647726061058
 40
0.3668809554066343
 40
0.4996053254193479
 40
0.4996053254193479
 40
0.4996053254193479
 40
0.4996053254193479
 10
112.8405111914455
 20
23.50216449960976
 30
0.0
 10
112.8307634431968
 20
23.55965754484679
 30
0.0
 10
112.8096476991404
 20
23.68419999273148
 30
0.0
 10
112.6700654471717
 20
23.79214800832868
 30
0.0
 10
112.5839529693102
 20
23.85908109785513
 30
0.0
 10
112.5493441840564
 20
23.88598164675721
 30
0.0
 11
112.8405111914455
 21
23.50216449960976
 31
0.0
 11
112.7939242438029
 21
23.66499595390917
 31
0.0
 11
112.654164209662
 21
23.80456591960751
 31
0.0
 11
112.5493441840564
 21
23.88598164675721
 31
0.0
  0
SPLINE
  5
182BC
330
18
100
AcDbEntity
  8
0
100
AcDbSpline
210
0.0
220
0.0
230
1.0
 70
     8
 71
     3
 72
     9
 73
     5
 74
     3
 42
0.0000000001
 43
0.0000000001
 44
0.0000000001
 40
0.0
 40
0.0
 40
0.0
 40
0.0
 40
0.1214430645681742
 40
0.2053491752535621
 40
0.2053491752535621
 40
0.2053491752535621
 40
0.2053491752535621
 10
112.5493441840564
 20
23.88598164675722
 30
0.0
 10
112.5710808804155
 20
23.8457037811089
 30
0.0
 10
112.6078356567047
 20
23.77759757412813
 30
0.0
 10
112.5580430248467
 20
23.72243006063464
 30
0.0
 10
112.5376976493426
 20
23.69988849703836
 30
0.0
 11
112.5493441840564
 21
23.88598164675722
 31
0.0
 11
112.5842841925916
 21
23.76967337647832
 31
0.0
 11
112.5376976493426
 21
23.69988849703836
 31
0.0
  0
SPLINE
  5
182BD
330
18
100
AcDbEntity
  8
0
100
AcDbSpline
210
0.0
220
0.0
230
1.0
 70
     8
 71
     3
 72
    11
 73
     7
 74
     5
 42
0.0000000001
 43
0.0000000001
 44
0.0000000001
 40
0.0
 40
0.0
 40
0.0
 40
0.0
 40
0.1745478598028925
 40
0.4403371060371561
 40
0.873191708232432
 40
1.43582740671894
 40
1.43582740671894
 40
1.43582740671894
 40
1.43582740671894
 10
112.5376976493426
 20
23.69988849703836
 30
0.0
 10
112.5008167817363
 20
23.74513487693105
 30
0.0
 10
112.4077763140491
 20
23.85927927264637
 30
0.0
 10
112.2967584048872
 20
24.13397158100271
 30
0.0
 10
112.2618640334131
 20
24.55931447631427
 30
0.0
 10
112.3190375090822
 20
24.88707809207695
 30
0.0
 10
112.3513510719527
 20
25.07232501087344
 30
0.0
 11
112.5376976493426
 21
23.69988849703836
 31
0.0
 11
112.4328776237369
 21
23.83945825591829
 31
0.0
 11
112.3280575981313
 21
24.08370543736737
 31
0.0
 11
112.2814710548822
 21
24.51404576853531
 31
0.0
 11
112.3513510719527
 21
25.07232501087344
 31
0.0
  0
SPLINE
  5
182BE
330
18
100
AcDbEntity
  8
0
100
AcDbSpline
210
0.0
220
0.0
230
1.0
 70
     8
 71
     3
 72
    10
 73
     6
 74
     4
 42
0.0000000001
 43
0.0000000001
 44
0.0000000001
 40
0.0
 40
0.0
 40
0.0
 40
0.0
 40
0.4888879205030719
 40
1.071477541492329
 40
1.74458674453273
 40
1.74458674453273
 40
1.74458674453273
 40
1.74458674453273
 10
112.7589842352676
 20
23.99065886250793
 30
0.0
 10
112.6379933926348
 20
24.11001905152201
 30
0.0
 10
112.3728222456897
 20
24.37161635534835
 30
0.0
 10
112.4115697426504
 20
24.99883415303539
 30
0.0
 10
112.493681939348
 20
25.40255934436058
 30
0.0
 10
112.5376976493426
 20
25.61897361232027
 30
0.0
 11
112.7589842352676
 21
23.99065886250793
 31
0.0
 11
112.4561710975582
 21
24.37447600965538
 31
0.0
 11
112.421231089023
 21
24.95601694741296
 31
0.0
 11
112.5376976493426
 21
25.61897361232027
 31
0.0
  0
SPLINE
  5
182BF
330
18
100
AcDbEntity
  8
0
100
AcDbSpline
210
0.0
220
0.0
230
1.0
 70
     8
 71
     3
 72
    10
 73
     6
 74
     4
 42
0.0000000001
 43
0.0000000001
 44
0.0000000001
 40
0.0
 40
0.0
 40
0.0
 40
0.0
 40
0.3131443852488582
 40
0.8038551438380814
 40
1.633657889355783
 40
1.633657889355783
 40
1.633657889355783
 40
1.633657889355783
 10
112.9220377432297
 20
24.47915322540612
 30
0.0
 10
112.8405482827311
 20
24.55124549044479
 30
0.0
 10
112.6313613227339
 20
24.73630944436564
 30
0.0
 10
112.6726605882587
 20
25.3312350152647
 30
0.0
 10
112.7185199520851
 20
25.75792366581278
 30
0.0
 10
112.7473377005538
 20
26.02605224806874
 30
0.0
 11
112.9220377432297
 21
24.47915322540612
 31
0.0
 11
112.7123976920186
 21
24.71176976596388
 31
0.0
 11
112.6658111487695
 21
25.20026412886207
 31
0.0
 11
112.7473377005538
 21
26.02605224806874
 31
0.0
  0
SPLINE
  5
182C0
330
18
100
AcDbEntity
  8
0
100
AcDbSpline
210
0.0
220
0.0
230
1.0
 70
     8
 71
     3
 72
    11
 73
     7
 74
     5
 42
0.0000000001
 43
0.0000000001
 44
0.0000000001
 40
0.0
 40
0.0
 40
0.0
 40
0.0
 40
0.2552690589204782
 40
0.6371147805041045
 40
1.054468832903228
 40
1.264344201960496
 40
1.264344201960496
 40
1.264344201960496
 40
1.264344201960496
 10
112.8405111914455
 20
26.49128491554745
 30
0.0
 10
112.7791598904239
 20
26.43236247687902
 30
0.0
 10
112.6260358853082
 20
26.28530056213788
 30
0.0
 10
112.3489636667854
 20
26.06566746445018
 30
0.0
 10
112.0454187271201
 20
25.91712038715987
 30
0.0
 10
111.8732221790346
 20
25.79830112927983
 30
0.0
 10
111.8156040048171
 20
25.7585433712002
 30
0.0
 11
112.8405111914455
 21
26.49128491554745
 31
0.0
 11
112.654164209662
 21
26.31682261353834
 31
0.0
 11
112.3513510719527
 21
26.08420627979896
 31
0.0
 11
111.9903040474931
 21
25.87485143466066
 31
0.0
 11
111.8156040048171
 21
25.7585433712002
 31
0.0
  0
SPLINE
  5
182C1
330
18
100
AcDbEntity
  8
0
100
AcDbSpline
210
0.0
220
0.0
230
1.0
 70
     8
 71
     3
 72
    13
 73
     9
 74
     7
 42
0.0000000001
 43
0.0000000001
 44
0.0000000001
 40
0.0
 40
0.0
 40
0.0
 40
0.0
 40
0.4156825974227923
 40
0.9943908287324269
 40
1.452279425177762
 40
1.838913295519489
 40
1.897096025702874
 40
1.932036034238033
 40
1.932036034238033
 40
1.932036034238033
 40
1.932036034238033
 10
112.6425176749481
 20
26.3051917658286
 30
0.0
 10
112.6062179414007
 20
26.17060178248733
 30
0.0
 10
112.5193821624945
 20
25.84863726941033
 30
0.0
 10
112.2319748127415
 20
25.44797091262904
 30
0.0
 10
112.0171566726204
 20
25.03320698072614
 30
0.0
 10
111.9070699067108
 20
24.73413383689091
 30
0.0
 10
111.9913159700358
 20
24.56577577178783
 30
0.0
 10
112.0244565299995
 20
24.57044710000996
 30
0.0
 10
112.0368909951358
 20
24.57219980026554
 30
0.0
 11
112.6425176749481
 21
26.3051917658286
 31
0.0
 11
112.5144041755212
 21
25.90974397778984
 31
0.0
 11
112.2232375725257
 21
25.40961876718194
 31
0.0
 11
112.0135975213145
 21
25.00254013143348
 31
0.0
 11
111.9670109780654
 21
24.61872319110447
 31
0.0
 11
112.0019509866006
 21
24.57219980026554
 31
0.0
 11
112.0368909951358
 21
24.57219980026554
 31
0.0
  0
SPLINE
  5
182C2
330
18
100
AcDbEntity
  8
0
100
AcDbSpline
210
0.0
220
0.0
230
1.0
 70
     8
 71
     3
 72
    12
 73
     8
 74
     6
 42
0.0000000001
 43
0.0000000001
 44
0.0000000001
 40
0.0
 40
0.0
 40
0.0
 40
0.0
 40
0.1875451127595729
 40
0.4247807781915859
 40
0.5156934186341772
 40
0.6095607211349293
 40
0.7761285458155907
 40
0.7761285458155907
 40
0.7761285458155907
 40
0.7761285458155907
 10
112.0368909951358
 20
24.57219980026554
 30
0.0
 10
112.0272225439861
 20
24.51037705323837
 30
0.0
 10
112.0053239610647
 20
24.37035146576379
 30
0.0
 10
112.0143118752745
 20
24.19646664307312
 30
0.0
 10
112.1282645373096
 20
24.06982249878022
 30
0.0
 10
112.2435376209333
 20
24.15783006976653
 30
0.0
 10
112.266673757702
 20
24.2403088851937
 30
0.0
 10
112.2814710548822
 20
24.29306028250568
 30
0.0
 11
112.0368909951358
 21
24.57219980026554
 31
0.0
 11
112.0135975213145
 21
24.38610685736512
 31
0.0
 11
112.0601840645636
 21
24.15349031680734
 31
0.0
 11
112.130064081634
 21
24.09533628507711
 31
0.0
 11
112.2115910378118
 21
24.14185967591601
 31
0.0
 11
112.2814710548822
 21
24.29306028250568
 31
0.0
  0
SPLINE
  5
182C3
330
18
100
AcDbEntity
  8
0
100
AcDbSpline
210
0.0
220
0.0
230
1.0
 70
     8
 71
     3
 72
     9
 73
     5
 74
     3
 42
0.0000000001
 43
0.0000000001
 44
0.0000000001
 40
0.0
 40
0.0
 40
0.0
 40
0.0
 40
0.2813179518517694
 40
0.5866515881955501
 40
0.5866515881955501
 40
0.5866515881955501
 40
0.5866515881955501
 10
112.0368909951358
 20
24.57219980026554
 30
0.0
 10
112.0444692669059
 20
24.66614466444673
 30
0.0
 10
112.060272755949
 20
24.86205432258243
 30
0.0
 10
112.1291537215343
 20
25.04624464218917
 30
0.0
 10
112.1650040901692
 20
25.14210989031341
 30
0.0
 11
112.0368909951358
 21
24.57219980026554
 31
0.0
 11
112.071831003671
 21
24.85133952484381
 31
0.0
 11
112.1650040901692
 21
25.14210989031341
 31
0.0
  0
SPLINE
  5
182C4
330
18
100
AcDbEntity
  8
0
100
AcDbSpline
210
0.0
220
0.0
230
1.0
 70
     8
 71
     3
 72
     9
 73
     5
 74
     3
 42
0.0000000001
 43
0.0000000001
 44
0.0000000001
 40
0.0
 40
0.0
 40
0.0
 40
0.0
 40
0.3738225404328375
 40
0.9239652145937455
 40
0.9239652145937455
 40
0.9239652145937455
 40
0.9239652145937455
 10
112.1766510292766
 20
24.4675225845148
 30
0.0
 10
112.1847836765773
 20
24.5921672820926
 30
0.0
 10
112.2048848807467
 20
24.90024759370812
 30
0.0
 10
112.2893890748744
 20
25.19764912309681
 30
0.0
 10
112.3397041328452
 20
25.37472643087119
 30
0.0
 11
112.1766510292766
 21
24.4675225845148
 31
0.0
 11
112.2115910378118
 21
24.8397086771341
 31
0.0
 11
112.3397041328452
 21
25.37472643087119
 31
0.0
  0
SPLINE
  5
182C5
330
18
100
AcDbEntity
  8
0
100
AcDbSpline
210
0.0
220
0.0
230
1.0
 70
     8
 71
     3
 72
    10
 73
     6
 74
     4
 42
0.0000000001
 43
0.0000000001
 44
0.0000000001
 40
0.0
 40
0.0
 40
0.0
 40
0.0
 40
0.0885964154114149
 40
0.1701229671957081
 40
0.3219175302166967
 40
0.3219175302166967
 40
0.3219175302166967
 40
0.3219175302166967
 10
111.9437175042441
 20
24.67687722283469
 30
0.0
 10
111.9371502489213
 20
24.64311537191944
 30
0.0
 10
111.9245397955904
 20
24.57828581612928
 30
0.0
 10
111.794358669203
 20
24.59424505983199
 30
0.0
 10
111.7366691915199
 20
24.64430749431761
 30
0.0
 10
111.6991374444977
 20
24.67687722283469
 30
0.0
 11
111.9437175042441
 21
24.67687722283469
 31
0.0
 11
111.9087774957089
 21
24.59546149568499
 31
0.0
 11
111.8272509439246
 21
24.59546149568499
 31
0.0
 11
111.6991374444977
 21
24.67687722283469
 31
0.0
  0
SPLINE
  5
182C6
330
18
100
AcDbEntity
  8
0
100
AcDbSpline
210
0.0
220
0.0
230
1.0
 70
     8
 71
     3
 72
    22
 73
    18
 74
    16
 42
0.0000000001
 43
0.0000000001
 44
0.0000000001
 40
0.0
 40
0.0
 40
0.0
 40
0.0
 40
0.3547096215725032
 40
0.9718056746051622
 40
1.763312402642583
 40
2.465138367329854
 40
3.131045818061347
 40
3.561543511894872
 40
3.798778974535368
 40
3.864617941612707
 40
3.984489244160217
 40
4.042671808970004
 40
4.193902943532879
 40
4.368517461654256
 40
4.556973428723729
 40
4.687419466893087
 40
4.843465893437287
 40
4.843465893437287
 40
4.843465893437287
 40
4.843465893437287
 10
112.3164110634174
 20
25.9678980095201
 30
0.0
 10
112.241604469349
 20
25.87599702332799
 30
0.0
 10
112.0366552145438
 20
25.62421389016294
 30
0.0
 10
111.5488275611685
 20
25.27896342843253
 30
0.0
 10
110.8524925185349
 20
25.07434853235258
 30
0.0
 10
110.3939079922222
 20
24.48029733513386
 30
0.0
 10
110.170405697336
 20
23.91304595702571
 30
0.0
 10
110.1878899180352
 20
23.45621365510933
 30
0.0
 10
110.1833587616784
 20
23.22468791703622
 30
0.0
 10
110.0809514317984
 20
23.07816835219847
 30
0.0
 10
109.9995670427579
 20
23.21792022942175
 30
0.0
 10
109.9227176736565
 20
23.09337088121881
 30
0.0
 10
110.0160988144325
 20
22.98167541883177
 30
0.0
 10
110.1408471359132
 20
22.84624698257697
 30
0.0
 10
110.3348395475221
 20
22.92690867857111
 30
0.0
 10
110.3789073696365
 20
23.09649459496307
 30
0.0
 10
110.3246400418946
 20
23.17998580726585
 30
0.0
 10
110.2950817685882
 20
23.22546171652132
 30
0.0
 11
112.3164110634174
 21
25.9678980095201
 31
0.0
 11
112.0834775383849
 21
25.70038933946995
 31
0.0
 11
111.5826708841781
 21
25.33983388774198
 31
0.0
 11
110.8722241787602
 21
24.99090928372374
 31
0.0
 11
110.4180040678025
 21
24.45589173680509
 31
0.0
 11
110.1967170774839
 21
23.82782740820855
 31
0.0
 11
110.18507054277
 21
23.39748728385905
 31
0.0
 11
110.1384839995209
 21
23.16487095011968
 31
0.0
 11
110.0918970518782
 21
23.11834755928075
 31
0.0
 11
109.9870770262727
 21
23.17650159101098
 31
0.0
 11
109.9521370177374
 21
23.12997840699049
 31
0.0
 11
110.010370500094
 21
22.99040864811056
 31
0.0
 11
110.1501305342348
 21
22.88573122554141
 31
0.0
 11
110.3241985097664
 21
22.9579530464712
 31
0.0
 11
110.359770585446
 21
23.08345522296997
 31
0.0
 11
110.2950817685882
 21
23.22546171652132
 31
0.0
  0
SPLINE
  5
182C7
330
18
100
AcDbEntity
  8
0
100
AcDbSpline
210
0.0
220
0.0
230
1.0
 70
     8
 71
     3
 72
    13
 73
     9
 74
     7
 42
0.0000000001
 43
0.0000000001
 44
0.0000000001
 40
0.0
 40
0.0
 40
0.0
 40
0.0
 40
0.2001962591606291
 40
0.5593120398241193
 40
1.065746384186043
 40
1.41823020727466
 40
1.597610348505045
 40
1.813778825466191
 40
1.813778825466191
 40
1.813778825466191
 40
1.813778825466191
 10
110.2950817685882
 20
23.22546171652133
 30
0.0
 10
110.3339015486241
 20
23.17133365635372
 30
0.0
 10
110.4423569735579
 20
23.02010967309349
 30
0.0
 10
110.6491217681517
 20
22.72530624706001
 30
0.0
 10
111.0811493423313
 20
22.57843599387227
 30
0.0
 10
111.4218305908307
 20
22.72526798017647
 30
0.0
 10
111.6627558347238
 20
22.62253123837373
 30
0.0
 10
111.7950710797843
 20
22.64764332495768
 30
0.0
 10
111.8673817482788
 20
22.66136715373753
 30
0.0
 11
110.2950817685882
 21
23.22546171652133
 31
0.0
 11
110.4115483289077
 21
23.06263026222195
 31
0.0
 11
110.6444818539402
 21
22.78930606490772
 31
0.0
 11
111.1278183016826
 21
22.63810545831808
 31
0.0
 11
111.4772183870346
 21
22.68462884915701
 31
0.0
 11
111.6519184297106
 21
22.64392098558216
 31
0.0
 11
111.8673817482788
 21
22.66136715373753
 31
0.0
  0
SPLINE
  5
182C8
330
18
100
AcDbEntity
  8
0
100
AcDbSpline
210
0.0
220
0.0
230
1.0
 70
     8
 71
     3
 72
    11
 73
     7
 74
     5
 42
0.0000000001
 43
0.0000000001
 44
0.0000000001
 40
0.0
 40
0.0
 40
0.0
 40
0.0
 40
0.0818063948446458
 40
0.1563419240825226
 40
0.3175496269382782
 40
0.4230129588902122
 40
0.4230129588902122
 40
0.4230129588902122
 40
0.4230129588902122
 10
111.8673817482788
 20
22.66136715373753
 30
0.0
 10
111.8558450325473
 20
22.68650905153019
 30
0.0
 10
111.8337969721421
 20
22.73455826190615
 30
0.0
 10
111.7467910093843
 20
22.80073143063911
 30
0.0
 10
111.6288043540694
 20
22.8198624723206
 30
0.0
 10
111.5410430557093
 20
22.80630043924556
 30
0.0
 10
111.5063351282129
 20
22.80093691261746
 30
0.0
 11
111.8673817482788
 21
22.66136715373753
 31
0.0
 11
111.827079885446
 21
22.73255736436849
 31
0.0
 11
111.7688464030894
 21
22.77908054838897
 31
0.0
 11
111.6111551538185
 21
22.8125677603272
 31
0.0
 11
111.5063351282129
 21
22.80093691261746
 31
0.0
  0
SPLINE
  5
182C9
330
18
100
AcDbEntity
  8
0
100
AcDbSpline
210
0.0
220
0.0
230
1.0
 70
     8
 71
     3
 72
    17
 73
    13
 74
    11
 42
0.0000000001
 43
0.0000000001
 44
0.0000000001
 40
0.0
 40
0.0
 40
0.0
 40
0.0
 40
0.1951714503544543
 40
0.5095883043657654
 40
0.9202489231036096
 40
1.288097789937176
 40
1.708956624500383
 40
2.092016001013206
 40
2.412068702142684
 40
2.659562160672202
 40
2.892624869308155
 40
3.099334209130854
 40
3.099334209130854
 40
3.099334209130854
 40
3.099334209130854
 10
111.5063351282129
 20
22.80093691261746
 30
0.0
 10
111.5708403985587
 20
22.81732668751379
 30
0.0
 10
111.7392622209025
 20
22.86012002426045
 30
0.0
 10
111.9249898928606
 20
23.13690531037193
 30
0.0
 10
112.0065632725289
 20
23.48647804170589
 30
0.0
 10
111.9068181929172
 20
23.93460261697596
 30
0.0
 10
111.4534010615148
 20
24.00325608170319
 30
0.0
 10
111.0832702475678
 20
23.8648121037068
 30
0.0
 10
110.9503966781398
 20
23.52614869332837
 30
0.0
 10
111.091335911119
 20
23.26624260430802
 30
0.0
 10
111.3507262216923
 20
23.2009996089505
 30
0.0
 10
111.4667973397201
 20
23.30167121275914
 30
0.0
 10
111.5213551140581
 20
23.34899063843685
 30
0.0
 11
111.5063351282129
 21
22.80093691261746
 31
0.0
 11
111.6902318893772
 21
22.86631180280275
 31
0.0
 11
111.888225001481
 21
23.11055898425184
 31
0.0
 11
111.9755752250158
 21
23.51182209273625
 31
0.0
 11
111.8591082603027
 21
23.86074648993607
 31
0.0
 11
111.4514750969877
 21
23.96542391250523
 31
0.0
 11
111.1020750116356
 21
23.80840777865149
 31
0.0
 11
110.9972549860301
 21
23.50600656547218
 31
0.0
 11
111.1195452181001
 21
23.29083660670662
 31
0.0
 11
111.3466550713821
 21
23.23849789542206
 31
0.0
 11
111.5213551140581
 21
23.34899063843685
 31
0.0
  0
SPLINE
  5
182CA
330
18
100
AcDbEntity
  8
0
100
AcDbSpline
210
0.0
220
0.0
230
1.0
 70
     8
 71
     3
 72
    18
 73
    14
 74
    12
 42
0.0000000001
 43
0.0000000001
 44
0.0000000001
 40
0.0
 40
0.0
 40
0.0
 40
0.0
 40
0.1712477362118934
 40
0.286747705639015
 40
0.4685731188196466
 40
0.7006026051114472
 40
0.9654826153812607
 40
1.228335410677402
 40
1.572377352169202
 40
2.006470783693472
 40
2.463239451495916
 40
3.000817916603279
 40
3.487922606411542
 40
3.487922606411542
 40
3.487922606411542
 40
3.487922606411542
 10
111.5213551140581
 20
23.34899063843685
 30
0.0
 10
111.4667664380162
 20
23.35869425192599
 30
0.0
 10
111.3753598129994
 20
23.37494257710664
 30
0.0
 10
111.2292572247913
 20
23.50791727068692
 30
0.0
 10
111.4495386066393
 20
23.65183354571916
 30
0.0
 10
111.6785496003945
 20
23.55329448492101
 30
0.0
 10
111.7678595209641
 20
23.28184647712574
 30
0.0
 10
111.627046076103
 20
22.99594450769531
 30
0.0
 10
111.2777744245265
 20
22.87417341982006
 30
0.0
 10
110.846419040854
 20
22.91085725256628
 30
0.0
 10
110.486748499375
 20
23.28537432057518
 30
0.0
 10
110.4497092645555
 20
23.8208874754137
 30
0.0
 10
110.6196472983676
 20
24.12191507566071
 30
0.0
 10
110.7004309170399
 20
24.2650148769394
 30
0.0
 11
111.5213551140581
 21
23.34899063843685
 31
0.0
 11
111.358301606096
 21
23.40132934972144
 31
0.0
 11
111.2825983216686
 21
23.48856039731678
 31
0.0
 11
111.4223583558094
 21
23.60486866759567
 31
0.0
 11
111.6436449417345
 21
23.5350837881557
 31
0.0
 11
111.7309951652693
 21
23.28502107944254
 31
0.0
 11
111.6203518723068
 21
23.04658942525754
 31
0.0
 11
111.3058917954899
 21
22.90701966637761
 31
0.0
 11
110.8749651583536
 21
22.9593583776622
 31
0.0
 11
110.5546818141799
 21
23.28502107944254
 31
0.0
 11
110.5022715991802
 21
23.82003862636123
 31
0.0
 11
110.7004309170399
 21
24.2650148769394
 31
0.0
  0
SPLINE
  5
182CC
330
18
100
AcDbEntity
  8
0
100
AcDbSpline
210
0.0
220
0.0
230
1.0
 70
     8
 71
     3
 72
    10
 73
     6
 74
     4
 42
0.0000000001
 43
0.0000000001
 44
0.0000000001
 40
0.0
 40
0.0
 40
0.0
 40
0.0
 40
0.4611868634993354
 40
0.9201389090866975
 40
1.20313922072452
 40
1.20313922072452
 40
1.20313922072452
 40
1.20313922072452
 10
112.150441069054
 20
25.59674332038123
 30
0.0
 10
112.0328988451894
 20
25.49799945607799
 30
0.0
 10
111.7983839832139
 20
25.30099022019131
 30
0.0
 10
111.5691568743113
 20
24.95073800931121
 30
0.0
 10
111.5431048049097
 20
24.70272333126175
 30
0.0
 10
111.5331678545278
 20
24.60812395369357
 30
0.0
 11
112.150441069054
 21
25.59674332038123
 31
0.0
 11
111.8126879228094
 21
25.28271125949217
 31
0.0
 11
111.5797543977769
 21
24.88726347145342
 31
0.0
 11
111.5331678545278
 21
24.60812395369357
 31
0.0
  0
SPLINE
  5
182CE
330
18
100
AcDbEntity
  8
0
100
AcDbSpline
210
0.0
220
0.0
230
1.0
 70
     8
 71
     3
 72
    11
 73
     7
 74
     5
 42
0.0000000001
 43
0.0000000001
 44
0.0000000001
 40
0.0
 40
0.0
 40
0.0
 40
0.0
 40
0.1182163863595133
 40
0.2473427271893482
 40
0.3441691247450553
 40
0.4197693246306831
 40
0.4197693246306831
 40
0.4197693246306831
 40
0.4197693246306831
 10
111.6991374444976
 20
24.67687722283469
 30
0.0
 10
111.7097865177725
 20
24.63921738916234
 30
0.0
 10
111.7320674460513
 20
24.56042217089463
 30
0.0
 10
111.7280636639195
 20
24.43678965410146
 30
0.0
 10
111.6435611533163
 20
24.36309796645551
 30
0.0
 10
111.6518315419179
 20
24.30299693682283
 30
0.0
 10
111.6554576822042
 20
24.27664572464915
 30
0.0
 11
111.6991374444976
 21
24.67687722283469
 31
0.0
 11
111.7253376992747
 21
24.56160076967308
 31
0.0
 11
111.7078678972038
 21
24.43366165168445
 31
0.0
 11
111.6554576822042
 21
24.35224592453477
 31
0.0
 11
111.6554576822042
 21
24.27664572464915
 31
0.0
  0
SPLINE
  5
182CF
330
18
100
AcDbEntity
  8
0
100
AcDbSpline
210
0.0
220
0.0
230
1.0
 70
     8
 71
     3
 72
    15
 73
    11
 74
     9
 42
0.0000000001
 43
0.0000000001
 44
0.0000000001
 40
0.0
 40
0.0
 40
0.0
 40
0.0
 40
0.0607214914209885
 40
0.1373130307156976
 40
0.2572252997745243
 40
0.3608193922849423
 40
0.5123380112911662
 40
0.6859689525299011
 40
0.8810768348061696
 40
1.085364494504724
 40
1.085364494504724
 40
1.085364494504724
 40
1.085364494504724
 10
111.6554576822042
 20
24.27664572464915
 30
0.0
 10
111.6576003233088
 20
24.29877419413667
 30
0.0
 10
111.6624456019231
 20
24.34881458575625
 30
0.0
 10
111.7773011487029
 20
24.3637020231604
 30
0.0
 10
111.817545586253
 20
24.23265484217345
 30
0.0
 10
111.7249236190894
 20
24.12956568471274
 30
0.0
 10
111.5619752056206
 20
24.13179902049103
 30
0.0
 10
111.433325506604
 20
24.25993855389923
 30
0.0
 10
111.3419587444098
 20
24.43296884124169
 30
0.0
 10
111.3413231243914
 20
24.5680883896269
 30
0.0
 10
111.340998009781
 20
24.63720096955871
 30
0.0
 11
111.6554576822042
 21
24.27664572464915
 31
0.0
 11
111.6729278886686
 21
24.33479975637937
 31
0.0
 11
111.7486311730959
 21
24.34643060408911
 31
0.0
 11
111.795217716345
 21
24.23593786107429
 31
0.0
 11
111.7311613710251
 21
24.15452213392459
 31
0.0
 11
111.5797543977769
 21
24.14870660666051
 31
0.0
 11
111.445817630993
 21
24.25919934967533
 31
0.0
 11
111.3584678118518
 21
24.43366165168445
 31
0.0
 11
111.340998009781
 21
24.63720096955871
 31
0.0
  0
SPLINE
  5
182D0
330
18
100
AcDbEntity
  8
0
100
AcDbSpline
210
0.0
220
0.0
230
1.0
 70
     8
 71
     3
 72
    13
 73
     9
 74
     7
 42
0.0000000001
 43
0.0000000001
 44
0.0000000001
 40
0.0
 40
0.0
 40
0.0
 40
0.0
 40
0.4198135856737716
 40
0.7789518308237169
 40
1.044400570849126
 40
1.356828098595827
 40
1.627654558254919
 40
1.721551182386981
 40
1.721551182386981
 40
1.721551182386981
 40
1.721551182386981
 10
111.5333174801474
 20
25.13326488677478
 30
0.0
 10
111.4160389319742
 20
25.04803846550456
 30
0.0
 10
111.1984320156348
 20
24.88990333327332
 30
0.0
 10
111.1329551676968
 20
24.51589928667194
 30
0.0
 10
110.8564831947972
 20
24.33681659216788
 30
0.0
 10
110.5998925455972
 20
24.23172120099654
 30
0.0
 10
110.40577870898
 20
24.09875145152325
 30
0.0
 10
110.2836306695174
 20
24.08900156180865
 30
0.0
 10
110.2521841034523
 20
24.0864914883569
 30
0.0
 11
111.5333174801474
 21
25.13326488677478
 31
0.0
 11
111.2305039380444
 21
24.84249452130518
 31
0.0
 11
111.0790973691897
 21
24.5168316127064
 31
0.0
 11
110.8694573179785
 21
24.35400015840702
 31
0.0
 11
110.5899376540904
 21
24.21443039952709
 31
0.0
 11
110.345357594344
 21
24.09812233606661
 31
0.0
 11
110.2521841034523
 21
24.0864914883569
 31
0.0
  0
SPLINE
  5
182D1
330
18
100
AcDbEntity
  8
0
100
AcDbSpline
210
0.0
220
0.0
230
1.0
 70
     8
 71
     3
 72
     9
 73
     5
 74
     3
 42
0.0000000001
 43
0.0000000001
 44
0.0000000001
 40
0.0
 40
0.0
 40
0.0
 40
0.0
 40
0.3800456240318768
 40
0.8738357156753567
 40
0.8738357156753567
 40
0.8738357156753567
 40
0.8738357156753567
 10
111.2654439465797
 20
25.05184915962508
 30
0.0
 10
111.1667755408038
 20
24.97219502847111
 30
0.0
 10
110.9399081029922
 20
24.78904695281377
 30
0.0
 10
110.7386211703988
 20
24.57795956697182
 30
0.0
 10
110.6248772582321
 20
24.45867758097617
 30
0.0
 11
111.2654439465797
 21
25.05184915962508
 31
0.0
 11
110.9742773435841
 21
24.807601978176
 31
0.0
 11
110.6248772582321
 21
24.45867758097617
 31
0.0
  0
SPLINE
  5
182D2
330
18
100
AcDbEntity
  8
0
100
AcDbSpline
210
0.0
220
0.0
230
1.0
 70
     8
 71
     3
 72
    11
 73
     7
 74
     5
 42
0.0000000001
 43
0.0000000001
 44
0.0000000001
 40
0.0
 40
0.0
 40
0.0
 40
0.0
 40
0.1400548441313003
 40
0.2659802031025809
 40
0.3647383675744515
 40
0.5209631923772616
 40
0.5209631923772616
 40
0.5209631923772616
 40
0.5209631923772616
 10
111.1373308515463
 20
24.62150903527555
 30
0.0
 10
111.1312826205407
 20
24.57380225535364
 30
0.0
 10
111.1197963365694
 20
24.48320161178645
 30
0.0
 10
111.2513859642649
 20
24.37652142613608
 30
0.0
 10
111.3489249884893
 20
24.50031321138038
 30
0.0
 10
111.3440096034753
 20
24.58519498789458
 30
0.0
 10
111.340998009781
 20
24.63720096955871
 30
0.0
 11
111.1373308515463
 21
24.62150903527555
 31
0.0
 11
111.1489773862601
 21
24.48193927639562
 31
0.0
 11
111.2537974118657
 21
24.41215419013725
 31
0.0
 11
111.3236774289362
 21
24.48193927639562
 31
0.0
 11
111.340998009781
 21
24.63720096955871
 31
0.0
  0
SPLINE
  5
182D3
330
18
100
AcDbEntity
  8
0
100
AcDbSpline
210
0.0
220
0.0
230
1.0
 70
     8
 71
     3
 72
    18
 73
    14
 74
    12
 42
0.0000000001
 43
0.0000000001
 44
0.0000000001
 40
0.0
 40
0.0
 40
0.0
 40
0.0
 40
0.1879369883979114
 40
0.4620503251631141
 40
0.6186447773904487
 40
0.8104803564920208
 40
0.9043473077634278
 40
0.9625520805739151
 40
1.04059523270715
 40
1.168708732134095
 40
1.30486552044563
 40
1.441022641457967
 40
1.531912799162133
 40
1.531912799162133
 40
1.531912799162133
 40
1.531912799162133
 10
111.9178901003354
 20
23.80705932252709
 30
0.0
 10
111.9316552976775
 20
23.87160615700903
 30
0.0
 10
111.9654975655678
 20
24.03029703587681
 30
0.0
 10
112.2421413098314
 20
24.08756221949597
 30
0.0
 10
112.3811785847823
 20
23.93548318364125
 30
0.0
 10
112.4724329789893
 20
23.77028460156783
 30
0.0
 10
112.3459501520694
 20
23.68244974785215
 30
0.0
 10
112.2785388450881
 20
23.73901511013762
 30
0.0
 10
112.2673662444373
 20
23.83733905210847
 30
0.0
 10
112.0925573424691
 20
23.82959127005736
 30
0.0
 10
112.0870716483264
 20
23.67408270730463
 30
0.0
 10
112.0494022159881
 20
23.55990599536068
 30
0.0
 10
111.9970720642913
 20
23.50384028942158
 30
0.0
 10
111.9761235826919
 20
23.48139641392831
 30
0.0
 11
111.9178901003354
 21
23.80705932252709
 31
0.0
 11
111.9877701174057
 21
23.98152162453621
 31
0.0
 11
112.2556436509735
 21
24.03967565626644
 31
0.0
 11
112.372110211293
 21
23.93499823369729
 31
0.0
 11
112.4186967545421
 21
23.74890529079687
 31
0.0
 11
112.3371702027578
 21
23.70238189995794
 31
0.0
 11
112.2905836595087
 21
23.73727444308713
 31
0.0
 11
112.2556436509735
 21
23.80705932252709
 31
0.0
 11
112.1275301515465
 21
23.80705932252709
 31
0.0
 11
112.0809436082975
 21
23.6791204113569
 31
0.0
 11
112.0343566606548
 21
23.55118129336827
 31
0.0
 11
111.9761235826919
 21
23.48139641392831
 31
0.0
  0
SPLINE
  5
182D4
330
18
100
AcDbEntity
  8
0
100
AcDbSpline
210
0.0
220
0.0
230
1.0
 70
     8
 71
     3
 72
    13
 73
     9
 74
     7
 42
0.0000000001
 43
0.0000000001
 44
0.0000000001
 40
0.0
 40
0.0
 40
0.0
 40
0.0
 40
0.2147402098425756
 40
0.3615760026769381
 40
0.4793764336063985
 40
0.579898704407672
 40
0.699150185304429
 40
0.8802066232646177
 40
0.8802066232646177
 40
0.8802066232646177
 40
0.8802066232646177
 10
112.9846827550027
 20
23.14117865874147
 30
0.0
 10
112.9112659895454
 20
23.14435615282159
 30
0.0
 10
112.787648057892
 20
23.14970636463735
 30
0.0
 10
112.6636375749202
 20
23.29584041083927
 30
0.0
 10
112.7367532881899
 20
23.43016558169365
 30
0.0
 10
112.8965443741347
 20
23.40651749197666
 30
0.0
 10
112.8150707942191
 20
23.23382245878747
 30
0.0
 10
112.9190700809119
 20
23.17783893401064
 30
0.0
 10
112.9817715257178
 20
23.1440863189643
 30
0.0
 11
112.9846827550027
 21
23.14117865874147
 31
0.0
 11
112.7750427037916
 21
23.18770184276198
 31
0.0
 11
112.6935161520073
 21
23.30982543348654
 31
0.0
 11
112.7575729017207
 21
23.40868732879162
 31
0.0
 11
112.8565696599694
 21
23.39124116063621
 31
0.0
 11
112.8536580262909
 21
23.27202523013449
 31
0.0
 11
112.9817715257178
 21
23.1440863189643
 31
0.0
  0
SPLINE
  5
182D5
330
18
100
AcDbEntity
  8
0
100
AcDbSpline
210
0.0
220
0.0
230
1.0
 70
     8
 71
     3
 72
     9
 73
     5
 74
     3
 42
0.0000000001
 43
0.0000000001
 44
0.0000000001
 40
0.0
 40
0.0
 40
0.0
 40
0.0
 40
0.2913136234583644
 40
0.5389799575852454
 40
0.5389799575852454
 40
0.5389799575852454
 40
0.5389799575852454
 10
112.3164110634174
 20
25.9678980095201
 30
0.0
 10
112.2517453327517
 20
25.89389598623948
 30
0.0
 10
112.132102686597
 20
25.75697960417846
 30
0.0
 10
111.9691728454221
 20
25.67713078361502
 30
0.0
 10
111.8943050587526
 20
25.64043950336426
 30
0.0
 11
112.3164110634174
 21
25.9678980095201
 31
0.0
 11
112.1097683773208
 21
25.76256309408879
 31
0.0
 11
111.8943050587526
 21
25.64043950336426
 31
0.0
  0
CIRCLE
  5
182D6
330
18
100
AcDbEntity
  8
0
100
AcDbCircle
 10
111.7836617657901
 20
25.65207035107397
 30
0.0
 40
0.0919621676638102
  0
ELLIPSE
  5
182D9
330
18
100
AcDbEntity
  8
0
100
AcDbEllipse
 10
111.1984167239238
 20
25.43108476163515
 30
0.0
 11
-0.0370315606110027
 21
0.1529635041791564
 31
0.0
210
0.0
220
0.0
230
1.0
 40
0.6281558656036234
 41
0.0
 42
6.283185307179586
  0
ELLIPSE
  5
182DA
330
18
100
AcDbEntity
  8
0
100
AcDbEllipse
 10
111.3964102404211
 20
25.47470038884204
 30
0.0
 11
0.0353995657559941
 21
-0.1299750966057476
 31
0.0
210
0.0
220
0.0
230
1.0
 40
0.739256402823651
 41
0.0
 42
6.283185307179586
  0
ELLIPSE
  5
182DB
330
18
100
AcDbEntity
  8
0
100
AcDbEllipse
 10
111.5944035547217
 20
25.55902377621456
 30
0.0
 11
0.0435114645640336
 21
-0.1089269491129641
 31
0.0
210
0.0
220
0.0
230
1.0
 40
0.935566384232924
 41
0.0
 42
6.283185307179586
  0
SPLINE
  5
182DC
330
18
100
AcDbEntity
  8
0
100
AcDbSpline
210
0.0
220
0.0
230
1.0
 70
     8
 71
     3
 72
    20
 73
    16
 74
    14
 42
0.0000000001
 43
0.0000000001
 44
0.0000000001
 40
0.0
 40
0.0
 40
0.0
 40
0.0
 40
0.1437713190308931
 40
0.2580360593306894
 40
0.3500704440574109
 40
0.5453378519256196
 40
0.6990298721282326
 40
0.8794015206782709
 40
1.025180743399376
 40
1.168376656738252
 40
1.314076462410537
 40
1.41106928708494
 40
1.473584912558648
 40
1.608010352458355
 40
1.660420163064391
 40
1.660420163064391
 40
1.660420163064391
 40
1.660420163064391
 10
110.8455394604906
 20
25.43675396486427
 30
0.0
 10
110.8904896524697
 20
25.45468375400162
 30
0.0
 10
110.9711647863045
 20
25.48686355289904
 30
0.0
 10
111.0257228070183
 20
25.62583651295119
 30
0.0
 10
110.8837356299935
 20
25.7102883761422
 30
0.0
 10
110.74285008497
 20
25.60271240818926
 30
0.0
 10
110.6559765549053
 20
25.45122584370365
 30
0.0
 10
110.6483728298135
 20
25.28227152456186
 30
0.0
 10
110.7218243711193
 20
25.13503890549537
 30
0.0
 10
110.8647228637776
 20
25.06816261194368
 30
0.0
 10
110.9867417382994
 20
25.08200502079547
 30
0.0
 10
111.1057550083187
 20
25.10717958154808
 30
0.0
 10
111.104468911783
 20
25.23093816661853
 30
0.0
 10
110.9922917761634
 20
25.23346469482516
 30
0.0
 10
110.9322593763321
 20
25.23326942329185
 30
0.0
 10
110.915419477561
 20
25.23321464699001
 30
0.0
 11
110.8455394604906
 21
25.43675396486427
 31
0.0
 11
110.967829288167
 21
25.51235416474987
 31
0.0
 11
110.9969460293453
 21
25.62284690776468
 31
0.0
 11
110.9212427449179
 21
25.67518561904928
 31
0.0
 11
110.746542702242
 21
25.58795457145391
 31
0.0
 11
110.6708394178145
 21
25.45420013301964
 31
0.0
 11
110.6650161504576
 21
25.27392251056486
 31
0.0
 11
110.734896167528
 21
25.14598359939467
 31
0.0
 11
110.8630092625614
 21
25.08201404040037
 31
0.0
 11
111.0085929684527
 21
25.087829360846
 31
0.0
 11
111.0959427875939
 21
25.12999115794148
 31
0.0
 11
111.0959427875939
 21
25.19250678341518
 31
0.0
 11
110.967829288167
 21
25.23321464699001
 31
0.0
 11
110.915419477561
 21
25.23321464699001
 31
0.0
  0
SPLINE
  5
182DD
330
18
100
AcDbEntity
  8
0
100
AcDbSpline
210
0.0
220
0.0
230
1.0
 70
     8
 71
     3
 72
     9
 73
     5
 74
     3
 42
0.0000000001
 43
0.0000000001
 44
0.0000000001
 40
0.0
 40
0.0
 40
0.0
 40
0.0
 40
0.1589412717607471
 40
0.2509316020082917
 40
0.2509316020082917
 40
0.2509316020082917
 40
0.2509316020082917
 10
110.915419477561
 20
25.23321464699001
 30
0.0
 10
110.9748681598549
 20
25.22963475518735
 30
0.0
 10
111.0687239150029
 20
25.22398293187484
 30
0.0
 10
111.1099472503558
 20
25.30307995157023
 30
0.0
 10
111.1250595287722
 20
25.33207654229511
 30
0.0
 11
110.915419477561
 21
25.23321464699001
 31
0.0
 11
111.0726493137726
 21
25.25647634240949
 31
0.0
 11
111.1250595287722
 21
25.33207654229511
 31
0.0
  0
SPLINE
  5
182DE
330
18
100
AcDbEntity
  8
0
100
AcDbSpline
210
0.0
220
0.0
230
1.0
 70
     8
 71
     3
 72
    10
 73
     6
 74
     4
 42
0.0000000001
 43
0.0000000001
 44
0.0000000001
 40
0.0
 40
0.0
 40
0.0
 40
0.0
 40
0.1215809804446554
 40
0.2393469706793722
 40
0.2975295354891245
 40
0.2975295354891245
 40
0.2975295354891245
 40
0.2975295354891245
 10
110.8455394604906
 20
25.43675396486426
 30
0.0
 10
110.8825554376501
 20
25.45082002907279
 30
0.0
 10
110.9554258978772
 20
25.47851078995808
 30
0.0
 10
111.0721148956916
 20
25.47773649521902
 30
0.0
 10
111.103149939584
 20
25.42508703993887
 30
0.0
 10
111.1134125896648
 20
25.40767694899916
 30
0.0
 11
110.8455394604906
 21
25.43675396486426
 31
0.0
 11
110.9620060208101
 21
25.47164630117502
 31
0.0
 11
111.0784725811296
 21
25.45420013301964
 31
0.0
 11
111.1134125896648
 21
25.40767694899916
 31
0.0
  0
SPLINE
  5
182DF
330
18
100
AcDbEntity
  8
0
100
AcDbSpline
210
0.0
220
0.0
230
1.0
 70
     8
 71
     3
 72
    11
 73
     7
 74
     5
 42
0.0000000001
 43
0.0000000001
 44
0.0000000001
 40
0.0
 40
0.0
 40
0.0
 40
0.0
 40
0.2526919709218184
 40
0.4175155408315213
 40
0.7096341277213572
 40
0.9069151592064292
 40
0.9069151592064292
 40
0.9069151592064292
 40
0.9069151592064292
 10
110.6569112945988
 20
25.33462020209171
 30
0.0
 10
110.64668410308
 20
25.42573590556427
 30
0.0
 10
110.6297860141436
 20
25.57628371313731
 30
0.0
 10
110.4029694111367
 20
25.68580457537812
 30
0.0
 10
110.1990423551516
 20
25.76691280935839
 30
0.0
 10
110.0965570929239
 20
25.89748733105959
 30
0.0
 10
110.0552444365892
 20
25.95012300007056
 30
0.0
 11
110.6569112945988
 21
25.33462020209171
 31
0.0
 11
110.5835373171142
 21
25.57642485795353
 31
0.0
 11
110.4441266790148
 21
25.6643537109114
 31
0.0
 11
110.1873177578188
 21
25.80357456711005
 31
0.0
 11
110.0552444365892
 21
25.95012300007056
 31
0.0
  0
SPLINE
  5
182E0
330
18
100
AcDbEntity
  8
0
100
AcDbSpline
210
0.0
220
0.0
230
1.0
 70
     8
 71
     3
 72
    17
 73
    13
 74
    11
 42
0.0000000001
 43
0.0000000001
 44
0.0000000001
 40
0.0
 40
0.0
 40
0.0
 40
0.0
 40
0.3249068165761238
 40
0.5619409590541674
 40
0.7174847840395107
 40
0.8224037038113795
 40
0.9576897455515311
 40
0.9904946939614163
 40
1.058054429044745
 40
1.157842254722607
 40
1.272659485648456
 40
1.354604777089288
 40
1.354604777089288
 40
1.354604777089288
 40
1.354604777089288
 10
110.5395126071086
 20
25.48116842823379
 30
0.0
 10
110.4456221769539
 20
25.53793841411013
 30
0.0
 10
110.283234453227
 20
25.63612465915423
 30
0.0
 10
110.0587597891534
 20
25.69872056552387
 30
0.0
 10
109.9029987197755
 20
25.80171509100644
 30
0.0
 10
109.9325675550131
 20
25.97178841403505
 30
0.0
 10
110.0416398842628
 20
25.95048678790832
 30
0.0
 10
110.1242586325624
 20
25.98033484243014
 30
0.0
 10
110.0923706606392
 20
26.07101488600412
 30
0.0
 10
109.9897539522932
 20
26.08469415495151
 30
0.0
 10
109.8903758215133
 20
26.03978195411457
 30
0.0
 10
109.8669080360825
 20
25.97648440350251
 30
0.0
 10
109.8571344547447
 20
25.95012300007056
 30
0.0
 11
110.5395126071086
 21
25.48116842823379
 31
0.0
 11
110.2533540140401
 21
25.63504402431929
 31
0.0
 11
110.0332320815863
 21
25.7229730840956
 31
0.0
 11
109.9231711153595
 21
25.83288425370216
 31
0.0
 11
109.9451834703623
 21
25.9354680533653
 31
0.0
 11
110.0772563871984
 21
25.96477773995741
 31
0.0
 11
110.1066060590709
 21
25.97943247984423
 31
0.0
 11
110.0919314253314
 21
26.04537922297186
 31
0.0
 11
109.996545092844
 21
26.07468890956397
 31
0.0
 11
109.8938214434869
 21
26.02339711314161
 31
0.0
 11
109.8571344547447
 21
25.95012300007056
 31
0.0
  0
SPLINE
  5
182E1
330
18
100
AcDbEntity
  8
0
100
AcDbSpline
210
0.0
220
0.0
230
1.0
 70
     8
 71
     3
 72
    14
 73
    10
 74
     8
 42
0.0000000001
 43
0.0000000001
 44
0.0000000001
 40
0.0
 40
0.0
 40
0.0
 40
0.0
 40
0.1049375408804825
 40
0.2833979267770267
 40
0.5656641008788968
 40
0.7629451323639688
 40
0.9827674715770926
 40
1.166577929454908
 40
1.332829353472759
 40
1.332829353472759
 40
1.332829353472759
 40
1.332829353472759
 10
110.0992687422012
 20
26.0527067997337
 30
0.0
 10
110.1180831324849
 20
26.08341646578321
 30
0.0
 10
110.1688939210284
 20
26.16635204458011
 30
0.0
 10
110.0895221555635
 20
26.37741727705753
 30
0.0
 10
109.8116332455287
 20
26.41170423119451
 30
0.0
 10
109.6426864430222
 20
26.21379062282226
 30
0.0
 10
109.6621797445655
 20
26.00342586944213
 30
0.0
 10
109.7299424467908
 20
25.8194822212139
 30
0.0
 10
109.8261287053345
 20
25.74908077570556
 30
0.0
 10
109.8718094928777
 20
25.71564571415218
 30
0.0
 11
110.0992687422012
 21
26.0527067997337
 31
0.0
 11
110.1432930478132
 21
26.147963022635
 31
0.0
 11
110.0845941084617
 21
26.31649356542576
 31
0.0
 11
109.8057728322629
 21
26.36045819872314
 31
0.0
 11
109.6736995110332
 21
26.21390976576262
 31
0.0
 11
109.6736995110332
 21
25.9940874265495
 31
0.0
 11
109.7470734885177
 21
25.82555688375874
 31
0.0
 11
109.8718094928777
 21
25.71564571415218
 31
0.0
  0
SPLINE
  5
182E2
330
18
100
AcDbEntity
  8
0
100
AcDbSpline
210
0.0
220
0.0
230
1.0
 70
     8
 71
     3
 72
     9
 73
     5
 74
     3
 42
0.0000000001
 43
0.0000000001
 44
0.0000000001
 40
0.0
 40
0.0
 40
0.0
 40
0.0
 40
0.1037637489693818
 40
0.1830967781951135
 40
0.1830967781951135
 40
0.1830967781951135
 40
0.1830967781951135
 10
109.7323988547783
 20
25.84021162364559
 30
0.0
 10
109.6966132536302
 20
25.85191216531228
 30
0.0
 10
109.6334676142226
 20
25.87255840741117
 30
0.0
 10
109.5847480051198
 20
25.82954080514897
 30
0.0
 10
109.5636385448063
 20
25.81090193705347
 30
0.0
 11
109.7323988547783
 21
25.84021162364559
 31
0.0
 11
109.6296752054212
 21
25.85486657035085
 31
0.0
 11
109.5636385448063
 21
25.81090193705347
 31
0.0
  0
SPLINE
  5
182E3
330
18
100
AcDbEntity
  8
0
100
AcDbSpline
210
0.0
220
0.0
230
1.0
 70
     8
 71
     3
 72
    10
 73
     6
 74
     4
 42
0.0000000001
 43
0.0000000001
 44
0.0000000001
 40
0.0
 40
0.0
 40
0.0
 40
0.0
 40
0.1347394656834274
 40
0.2802693268205987
 40
0.433461530501474
 40
0.433461530501474
 40
0.433461530501474
 40
0.433461530501474
 10
109.5636385448063
 20
25.81090193705347
 30
0.0
 10
109.5784477990243
 20
25.76874397342258
 30
0.0
 10
109.6092522829915
 20
25.6810518928059
 30
0.0
 10
109.7032961857262
 20
25.55819590272353
 30
0.0
 10
109.8049855736755
 20
25.54118423606978
 30
0.0
 10
109.8571344547447
 20
25.53246022465615
 30
0.0
 11
109.5636385448063
 21
25.81090193705347
 31
0.0
 11
109.6150005716817
 21
25.68633602756009
 31
0.0
 11
109.7103864997755
 21
25.57642485795353
 31
0.0
 11
109.8571344547447
 21
25.53246022465615
 31
0.0
  0
SPLINE
  5
182E4
330
18
100
AcDbEntity
  8
0
100
AcDbSpline
210
0.0
220
0.0
230
1.0
 70
     8
 71
     3
 72
    10
 73
     6
 74
     4
 42
0.0000000001
 43
0.0000000001
 44
0.0000000001
 40
0.0
 40
0.0
 40
0.0
 40
0.0
 40
0.3258253220521707
 40
0.5144552490786843
 40
0.7901813901655155
 40
0.7901813901655155
 40
0.7901813901655155
 40
0.7901813901655155
 10
110.3047160409154
 20
25.5104781148259
 30
0.0
 10
110.1971278443291
 20
25.53649959142572
 30
0.0
 10
110.0272536549195
 20
25.57758567135727
 30
0.0
 10
109.7660239899077
 20
25.51011740779139
 30
0.0
 10
109.6344358556003
 20
25.42758867864795
 30
0.0
 10
109.5563012279366
 20
25.37858462857065
 30
0.0
 11
110.3047160409154
 21
25.5104781148259
 31
0.0
 11
109.9818704591045
 21
25.55444254130484
 31
0.0
 11
109.7984355153931
 21
25.5104781148259
 31
0.0
 11
109.5563012279366
 21
25.37858462857065
 31
0.0
  0
SPLINE
  5
182E5
330
18
100
AcDbEntity
  8
0
100
AcDbSpline
210
0.0
220
0.0
230
1.0
 70
     8
 71
     3
 72
    10
 73
     6
 74
     4
 42
0.0000000001
 43
0.0000000001
 44
0.0000000001
 40
0.0
 40
0.0
 40
0.0
 40
0.0
 40
0.1455301261927284
 40
0.2940766941718444
 40
0.4170593178875406
 40
0.4170593178875406
 40
0.4170593178875406
 40
0.4170593178875406
 10
109.5563012279366
 20
25.37858462857066
 30
0.0
 10
109.5845037796749
 20
25.33893018935913
 30
0.0
 10
109.641493444972
 20
25.25879938278565
 30
0.0
 10
109.784735324796
 20
25.19757881666894
 30
0.0
 10
109.8699159596032
 20
25.23642435772599
 30
0.0
 10
109.90849648162
 20
25.25401851225883
 30
0.0
 11
109.5563012279366
 21
25.37858462857066
 31
0.0
 11
109.651687560424
 21
25.26867345896409
 31
0.0
 11
109.7910977941299
 21
25.21738145572332
 31
0.0
 11
109.90849648162
 21
25.25401851225883
 31
0.0
  0
SPLINE
  5
182E6
330
18
100
AcDbEntity
  8
0
100
AcDbSpline
210
0.0
220
0.0
230
1.0
 70
     8
 71
     3
 72
     9
 73
     5
 74
     3
 42
0.0000000001
 43
0.0000000001
 44
0.0000000001
 40
0.0
 40
0.0
 40
0.0
 40
0.0
 40
0.2504382049881624
 40
0.4986845540059255
 40
0.4986845540059255
 40
0.4986845540059255
 40
0.4986845540059255
 10
110.2386793803006
 20
25.4591861115851
 30
0.0
 10
110.1544674359974
 20
25.45682474317098
 30
0.0
 10
109.9867805773218
 20
25.45212267323521
 30
0.0
 10
109.8316401009907
 20
25.38834899807041
 30
0.0
 10
109.7544108053875
 20
25.35660231192196
 30
0.0
 11
110.2386793803006
 21
25.4591861115851
 31
0.0
 11
109.9892077759743
 21
25.43720400175485
 31
0.0
 11
109.7544108053875
 21
25.35660231192196
 31
0.0
  0
SPLINE
  5
182E7
330
18
100
AcDbEntity
  8
0
100
AcDbSpline
210
0.0
220
0.0
230
1.0
 70
     8
 71
     3
 72
    17
 73
    13
 74
    11
 42
0.0000000001
 43
0.0000000001
 44
0.0000000001
 40
0.0
 40
0.0
 40
0.0
 40
0.0
 40
0.1712866017818071
 40
0.2803482229108825
 40
0.3800234517315209
 40
0.4939201676253166
 40
0.5923351976370287
 40
0.7301582755720231
 40
0.8601634473739668
 40
0.9702244136008776
 40
1.090463874572929
 40
1.137407214362649
 40
1.137407214362649
 40
1.137407214362649
 40
1.137407214362649
 10
110.0625817534589
 20
25.15876208253911
 30
0.0
 10
110.1141926577963
 20
25.14432052869841
 30
0.0
 10
110.1986652619774
 20
25.12068374734367
 30
0.0
 10
110.3637465227356
 20
25.13953562126492
 30
0.0
 10
110.3127608654009
 20
25.30325137136693
 30
0.0
 10
110.1944311436555
 20
25.22891738688847
 30
0.0
 10
110.0965642671313
 20
25.18450521020488
 30
0.0
 10
109.9855010373931
 20
25.12525704321753
 30
0.0
 10
109.8641937712618
 20
25.09321702540616
 30
0.0
 10
109.7451688414522
 20
25.06926630474735
 30
0.0
 10
109.645899115608
 20
25.17139672542882
 30
0.0
 10
109.690520049278
 20
25.21302109790998
 30
0.0
 10
109.7030491829057
 20
25.22470882566674
 30
0.0
 11
110.0625817534589
 21
25.15876208253911
 31
0.0
 11
110.2313420634308
 21
25.129452395947
 31
0.0
 11
110.3340657127879
 21
25.16608965930095
 31
0.0
 11
110.3047160409154
 21
25.26134588220225
 31
0.0
 11
110.1946550746885
 21
25.23203640242858
 31
0.0
 11
110.1066060590709
 21
25.1880717691312
 31
0.0
 11
109.9818704591045
 21
25.129452395947
 31
0.0
 11
109.8571344547447
 21
25.09281533941149
 31
0.0
 11
109.7470734885177
 21
25.09281533941149
 31
0.0
 11
109.6736995110332
 21
25.1880717691312
 31
0.0
 11
109.7030491829057
 21
25.22470882566674
 31
0.0
  0
SPLINE
  5
182E8
330
18
100
AcDbEntity
  8
0
100
AcDbSpline
210
0.0
220
0.0
230
1.0
 70
     8
 71
     3
 72
     9
 73
     5
 74
     3
 42
0.0000000001
 43
0.0000000001
 44
0.0000000001
 40
0.0
 40
0.0
 40
0.0
 40
0.0
 40
0.0790113808260004
 40
0.1523213129637238
 40
0.1523213129637238
 40
0.1523213129637238
 40
0.1523213129637238
 10
109.8057728322629
 20
25.08548796946806
 30
0.0
 10
109.7790734869017
 20
25.07864608297948
 30
0.0
 10
109.7276014166992
 20
25.0654560194444
 30
0.0
 10
109.7011197653508
 20
25.01961952460762
 30
0.0
 10
109.6883745491663
 20
24.99755911651019
 30
0.0
 11
109.8057728322629
 21
25.08548796946806
 31
0.0
 11
109.7323988547783
 21
25.05617828287595
 31
0.0
 11
109.6883745491663
 21
24.99755911651019
 31
0.0
  0
SPLINE
  5
182E9
330
18
100
AcDbEntity
  8
0
100
AcDbSpline
210
0.0
220
0.0
230
1.0
 70
     8
 71
     3
 72
    10
 73
     6
 74
     4
 42
0.0000000001
 43
0.0000000001
 44
0.0000000001
 40
0.0
 40
0.0
 40
0.0
 40
0.0
 40
0.0984146682129112
 40
0.2284198400148549
 40
0.3986054092505223
 40
0.3986054092505223
 40
0.3986054092505223
 40
0.3986054092505223
 10
109.6883745491663
 20
24.99755911651019
 30
0.0
 10
109.717288507841
 20
24.98233245211709
 30
0.0
 10
109.7843976282049
 20
24.94699145765161
 30
0.0
 10
109.9137909454856
 20
24.90144492159246
 30
0.0
 10
110.0134307795287
 20
24.92537384419216
 30
0.0
 10
110.0699190703286
 20
24.93893974332599
 30
0.0
 11
109.6883745491663
 21
24.99755911651019
 31
0.0
 11
109.7764231603903
 21
24.95359448321281
 31
0.0
 11
109.9011591647502
 21
24.9169574266773
 31
0.0
 11
110.0699190703286
 21
24.93893974332599
 31
0.0
  0
SPLINE
  5
182EA
330
18
100
AcDbEntity
  8
0
100
AcDbSpline
210
0.0
220
0.0
230
1.0
 70
     8
 71
     3
 72
     9
 73
     5
 74
     3
 42
0.0000000001
 43
0.0000000001
 44
0.0000000001
 40
0.0
 40
0.0
 40
0.0
 40
0.0
 40
0.1749535643837575
 40
0.4030843347807554
 40
0.4030843347807554
 40
0.4030843347807554
 40
0.4030843347807554
 10
109.7910977941299
 20
24.94626711326942
 30
0.0
 10
109.7405214060991
 20
24.91656725516997
 30
0.0
 10
109.6239959166254
 20
24.8481402551985
 30
0.0
 10
109.5339116189011
 20
24.74703151255203
 30
0.0
 10
109.482927250452
 20
24.68980771752075
 30
0.0
 11
109.7910977941299
 21
24.94626711326942
 31
0.0
 11
109.6443498391607
 21
24.85101068354968
 31
0.0
 11
109.482927250452
 21
24.68980771752075
 31
0.0
  0
SPLINE
  5
182EB
330
18
100
AcDbEntity
  8
0
100
AcDbSpline
210
0.0
220
0.0
230
1.0
 70
     8
 71
     3
 72
    10
 73
     6
 74
     4
 42
0.0000000001
 43
0.0000000001
 44
0.0000000001
 40
0.0
 40
0.0
 40
0.0
 40
0.0
 40
0.1811520311799247
 40
0.452734855606077
 40
0.8276006189180556
 40
0.8276006189180556
 40
0.8276006189180556
 40
0.8276006189180556
 10
109.482927250452
 20
24.68980771752075
 30
0.0
 10
109.5319924603242
 20
24.65307327767518
 30
0.0
 10
109.6546161513867
 20
24.5612666265936
 30
0.0
 10
109.9574364242573
 20
24.5641027881566
 30
0.0
 10
110.130807055381
 20
24.69932389489345
 30
0.0
 10
110.2313420634308
 20
24.77773657047862
 30
0.0
 11
109.482927250452
 21
24.68980771752075
 31
0.0
 11
109.6370125222909
 21
24.59455128780104
 31
0.0
 11
109.90849648162
 21
24.58722391785761
 31
0.0
 11
110.2313420634308
 21
24.77773657047862
 31
0.0
  0
SPLINE
  5
182EC
330
18
100
AcDbEntity
  8
0
100
AcDbSpline
210
0.0
220
0.0
230
1.0
 70
     8
 71
     3
 72
     9
 73
     5
 74
     3
 42
0.0000000001
 43
0.0000000001
 44
0.0000000001
 40
0.0
 40
0.0
 40
0.0
 40
0.0
 40
0.2220650825934515
 40
0.5009068785513856
 40
0.5009068785513856
 40
0.5009068785513856
 40
0.5009068785513856
 10
109.7177238166452
 20
24.73377214399969
 30
0.0
 10
109.792682612657
 20
24.73837783874034
 30
0.0
 10
109.9617653702508
 20
24.74876679385728
 30
0.0
 10
110.106659162443
 20
24.8379832600591
 30
0.0
 10
110.1873177578188
 20
24.88764774008519
 30
0.0
 11
109.7177238166452
 21
24.73377214399969
 31
0.0
 11
109.9378461534925
 21
24.7630818305918
 31
0.0
 11
110.1873177578188
 21
24.88764774008519
 31
0.0
  0
SPLINE
  5
182ED
330
18
100
AcDbEntity
  8
0
100
AcDbSpline
210
0.0
220
0.0
230
1.0
 70
     8
 71
     3
 72
    13
 73
     9
 74
     7
 42
0.0000000001
 43
0.0000000001
 44
0.0000000001
 40
0.0
 40
0.0
 40
0.0
 40
0.0
 40
0.2627196980313483
 40
0.6000688886107844
 40
0.9746259357797637
 40
1.202340932015743
 40
1.350533065933234
 40
1.488922182090377
 40
1.488922182090377
 40
1.488922182090377
 40
1.488922182090377
 10
110.7008203480443
 20
25.17927061109844
 30
0.0
 10
110.6727025932118
 20
25.09475369583407
 30
0.0
 10
110.6084798112162
 20
24.90171156084556
 30
0.0
 10
110.3485115867426
 20
24.68770286358411
 30
0.0
 10
110.1695966853945
 20
24.43706734390364
 30
0.0
 10
109.9843885192043
 20
24.25192124608336
 30
0.0
 10
110.0028853996506
 20
24.04954080001098
 30
0.0
 10
110.0974926694907
 20
24.01089269001075
 30
0.0
 10
110.1431782000403
 20
23.99222964843813
 30
0.0
 11
110.7008203480443
 21
25.17927061109844
 31
0.0
 11
110.5980966986872
 21
24.93746595523666
 31
0.0
 11
110.3706374493638
 21
24.68833392943142
 31
0.0
 11
110.1285031619073
 21
24.40256484709067
 31
0.0
 11
110.0037675619409
 21
24.21205198765125
 31
0.0
 11
110.0257795125501
 21
24.06550376150915
 31
0.0
 11
110.1431782000403
 21
23.99222964843813
 31
0.0
  0
SPLINE
  5
182EE
330
18
100
AcDbEntity
  8
0
100
AcDbSpline
210
0.0
220
0.0
230
1.0
 70
     8
 71
     3
 72
     9
 73
     5
 74
     3
 42
0.0000000001
 43
0.0000000001
 44
0.0000000001
 40
0.0
 40
0.0
 40
0.0
 40
0.0
 40
0.0591364146095379
 40
0.1701687418297666
 40
0.1701687418297666
 40
0.1701687418297666
 40
0.1701687418297666
 10
110.1431782000403
 20
23.99222964843813
 30
0.0
 10
110.1264778474664
 20
23.9803100818412
 30
0.0
 10
110.0784215355582
 20
23.94601078141274
 30
0.0
 10
110.01992393605
 20
23.9651116782416
 30
0.0
 10
109.9817552069381
 20
23.97757470173286
 30
0.0
 11
110.1431782000403
 21
23.99222964843813
 31
0.0
 11
110.091816173165
 21
23.96291996184601
 31
0.0
 11
109.9817552069381
 21
23.97757470173286
 31
0.0
  0
SPLINE
  5
182F0
330
18
100
AcDbEntity
  8
0
100
AcDbSpline
210
0.0
220
0.0
230
1.0
 70
     8
 71
     3
 72
    10
 73
     6
 74
     4
 42
0.0000000001
 43
0.0000000001
 44
0.0000000001
 40
0.0
 40
0.0
 40
0.0
 40
0.0
 40
0.2151809858202928
 40
0.5210607017051585
 40
0.6337883818659092
 40
0.6337883818659092
 40
0.6337883818659092
 40
0.6337883818659092
 10
109.8491945914609
 20
24.57379705895397
 30
0.0
 10
109.797750694662
 20
24.53507134939049
 30
0.0
 10
109.6731793118221
 20
24.44129705366331
 30
0.0
 10
109.5495810148048
 20
24.05836156251994
 30
0.0
 10
109.6998179951913
 20
24.14059926723436
 30
0.0
 10
109.7402756326657
 20
24.16274523446231
 30
0.0
 11
109.8491945914609
 21
24.57379705895397
 31
0.0
 11
109.6987779780569
 21
24.41992146286847
 31
0.0
 11
109.6357176540912
 21
24.12061259876461
 31
0.0
 11
109.7402756326657
 21
24.16274523446231
 31
0.0
  0
SPLINE
  5
182F1
330
18
100
AcDbEntity
  8
0
100
AcDbSpline
210
0.0
220
0.0
230
1.0
 70
     8
 71
     3
 72
    16
 73
    12
 74
    10
 42
0.0000000001
 43
0.0000000001
 44
0.0000000001
 40
0.0
 40
0.0
 40
0.0
 40
0.0
 40
0.2594610970424667
 40
0.5074407547726835
 40
0.788288974182613
 40
0.9863716150633587
 40
1.213831268780364
 40
1.32388002995298
 40
1.475203808577655
 40
1.584214857020923
 40
1.706285005158673
 40
1.706285005158673
 40
1.706285005158673
 40
1.706285005158673
 10
109.9849365711254
 20
24.45289493784151
 30
0.0
 10
109.9136982864352
 20
24.40018290761063
 30
0.0
 10
109.7743740896134
 20
24.29709141254317
 30
0.0
 10
109.6942624034883
 20
24.03164135992062
 30
0.0
 10
109.7194715993869
 20
23.78592328640217
 30
0.0
 10
109.8632002434533
 20
23.57361462880963
 30
0.0
 10
110.0747165803514
 20
23.57411351662765
 30
0.0
 10
110.2079776410947
 20
23.6894295441972
 30
0.0
 10
110.1819215497974
 20
23.8381672641648
 30
0.0
 10
110.0771526811668
 20
23.91449029071336
 30
0.0
 10
110.0120108507352
 20
23.95513968735685
 30
0.0
 10
109.9775992542557
 20
23.97661299606131
 30
0.0
 11
109.9849365711254
 21
24.45289493784151
 31
0.0
 11
109.7941643105442
 21
24.27703702510732
 31
0.0
 11
109.7134530161899
 21
24.04255973918893
 31
0.0
 11
109.7501400049322
 21
23.76411802679161
 31
0.0
 11
109.8748756048985
 21
23.6102422238877
 31
0.0
 11
110.1023352586156
 21
23.6102422238877
 31
0.0
 11
110.1808345201614
 21
23.68736936419759
 31
0.0
 11
110.1610341979671
 21
23.83739213986266
 31
0.0
 11
110.0803229036128
 21
23.91066625293371
 31
0.0
 11
109.9775992542557
 21
23.97661299606131
 31
0.0
  0
DIMENSION
  5
182F2
330
18
100
AcDbEntity
  8
DIM
100
AcDbDimension
  2
*D16
 10
113.5674126541613
 20
32.18074021836822
 30
0.0
 11
110.9424126541613
 21
32.18074021836822
 31
0.0
 70
    32
 71
     5
 42
5.249999999999985
  3
STANDARD
100
AcDbAlignedDimension
 13
108.3174126541613
 23
29.84213055293037
 33
0.0
 14
113.5674126541613
 24
29.84213055293037
 34
0.0
100
AcDbRotatedDimension
  0
ARC
  5
18311
330
18
100
AcDbEntity
  8
0
100
AcDbCircle
 10
110.5174126541613
 20
18.51713055293
 30
0.0
 40
1.199999999999999
100
AcDbArc
 50
90.0
 51
180.0
  0
ARC
  5
18312
330
18
100
AcDbEntity
  8
0
100
AcDbCircle
 10
110.5174126541613
 20
18.29213055293037
 30
0.0
 40
1.199999999999999
100
AcDbArc
 50
180.0
 51
270.0
  0
VIEWPORT
  5
17709
330
15
100
AcDbEntity
 67
     1
  8
0
100
AcDbViewport
 10
5.249999639556163
 20
3.999999883606677
 30
0.0
 40
17.58407771518677
 41
8.992999745766947
 68
     2
 69
     1
 12
5.249999639556163
 22
3.999999883606677
 13
0.0
 23
0.0
 14
10.0
 24
10.0
 15
10.0
 25
10.0
 16
0.0
 26
0.0
 36
1.0
 17
0.0
 27
0.0
 37
0.0
 42
50.0
 43
0.0
 44
0.0
 45
8.992999745766947
 50
0.0
 51
0.0
 72
   100
 90
    32800
  1

281
     0
 71
     1
 74
     0
110
0.0
120
0.0
130
0.0
111
1.0
121
0.0
131
0.0
112
0.0
122
1.0
132
0.0
 79
     0
146
0.0
170
     0
  0
VIEWPORT
  5
1770B
330
15
100
AcDbEntity
 67
     1
  8
0
100
AcDbViewport
 10
5.24999976158142
 20
3.99999976158142
 30
0.0
 40
8.399999618530271
 41
6.399999618530272
 68
     1
 69
     2
 12
104.6705018728484
 22
22.75196589513271
 13
0.0
 23
0.0
 14
0.5
 24
0.5
 15
0.5
 25
0.5
 16
0.0
 26
0.0
 36
1.0
 17
0.0
 27
0.0
 37
0.0
 42
50.0
 43
0.0
 44
0.0
 45
18.608437528227
 50
0.0
 51
0.0
 72
   100
 90
    32800
  1

281
     0
 71
     1
 74
     0
110
0.0
120
0.0
130
0.0
111
1.0
121
0.0
131
0.0
112
0.0
122
1.0
132
0.0
 79
     0
146
0.0
170
     0
  0
ENDSEC
  0
SECTION
  2
OBJECTS
  0
DICTIONARY
  5
C
330
0
100
AcDbDictionary
281
     1
  3
ACAD_COLOR
350
1733F
  3
ACAD_GROUP
350
D
  3
ACAD_IMAGE_DICT
350
21
  3
ACAD_IMAGE_VARS
350
20
  3
ACAD_LAYOUT
350
1544A
  3
ACAD_MATERIAL
350
1733E
  3
ACAD_MLINESTYLE
350
1B
  3
ACAD_PLOTSETTINGS
350
1544B
  3
ACAD_PLOTSTYLENAME
350
15448
  0
DICTIONARY
  5
15481
330
18
100
AcDbDictionary
280
     1
281
     1
  3
ACAD_LAYOUTSELFREF
360
17338
  3
ACAD_SORTENTS
360
17370
  0
DICTIONARY
  5
1547F
330
15
100
AcDbDictionary
280
     1
281
     1
  3
ACAD_LAYOUTSELFREF
360
17337
  0
DICTIONARY
  5
1733F
102
{ACAD_REACTORS
330
C
102
}
330
C
100
AcDbDictionary
281
     1
  0
DICTIONARY
  5
D
102
{ACAD_REACTORS
330
C
102
}
330
C
100
AcDbDictionary
281
     1
  0
DICTIONARY
  5
21
102
{ACAD_REACTORS
330
C
102
}
330
C
100
AcDbDictionary
281
     1
  3
1001T
350
14E25
  3
2219
350
15451
  3
rien 004
350
175D9
  3
rien 005
350
1734C
  3
rien 005_2
350
17351
  3
rien 006
350
17343
  3
rien 007
350
17EC7
  3
rien 008
350
17ED1
  3
rien 009
350
17ECA
  3
rien 011
350
17FB4
  3
rien 012
350
1806C
  3
rien 013
350
1736B
  3
rien 018
350
175DE
  3
rien 019
350
175E1
  0
RASTERVARIABLES
  5
20
102
{ACAD_REACTORS
330
C
102
}
330
C
100
AcDbRasterVariables
 90
        0
 70
     1
 71
     1
 72
     0
  0
DICTIONARY
  5
1544A
102
{ACAD_REACTORS
330
C
102
}
330
C
100
AcDbDictionary
281
     1
  3
Layout1
350
1544D
  3
Model
350
1544C
  0
DICTIONARY
  5
1733E
102
{ACAD_REACTORS
330
C
102
}
330
C
100
AcDbDictionary
281
     1
  0
DICTIONARY
  5
1B
102
{ACAD_REACTORS
330
C
102
}
330
C
100
AcDbDictionary
281
     1
  3
STANDARD
350
1C
  0
DICTIONARY
  5
1544B
102
{ACAD_REACTORS
330
C
102
}
330
C
100
AcDbDictionary
281
     1
  0
ACDBDICTIONARYWDFLT
  5
15448
102
{ACAD_REACTORS
330
C
102
}
330
C
100
AcDbDictionary
281
     1
  3
Normal
350
15449
100
AcDbDictionaryWithDefault
340
15449
  0
XRECORD
  5
17338
102
{ACAD_REACTORS
330
15481
102
}
330
15481
100
AcDbXrecord
280
     1
340
18
  0
SORTENTSTABLE
  5
17370
102
{ACAD_REACTORS
330
15481
102
}
330
15481
100
AcDbSortentsTable
330
18
331
180D9
  5
180DA
331
17F3B
  5
17F3E
331
1809D
  5
1809E
331
17F1D
  5
17F20
331
18087
  5
18089
331
17EFF
  5
17F05
331
18104
  5
18105
331
18069
  5
1806B
331
17F48
  5
17F4B
331
180E6
  5
180E8
331
17F58
  5
17F5B
331
18094
  5
18095
331
17F0C
  5
17F0F
331
180F3
  5
180F4
331
18076
  5
18077
331
17EEE
  5
17EF1
331
17F37
  5
17F3A
331
180DA
  5
180DF
331
17F3C
  5
17F3F
331
1809E
  5
1809F
331
17F1E
  5
17F23
331
18105
  5
18106
331
1806A
  5
1806E
331
17F59
  5
17F5C
331
17F00
  5
17F06
331
180C9
  5
180CB
331
17F49
  5
17F4C
331
180AB
  5
180B0
331
17F2B
  5
17F2F
331
18095
  5
18096
331
18077
  5
18078
331
17EEF
  5
17EF2
331
180F4
  5
180F5
331
18059
  5
1805B
331
17F0D
  5
17F10
331
180F9
  5
180FA
331
17F3D
  5
17F40
331
1809F
  5
180A0
331
17F1F
  5
17F24
331
17F5A
  5
17F5D
331
18106
  5
18107
331
1806B
  5
18070
331
180E8
  5
180E9
331
17F4A
  5
17F4D
331
1813A
  5
17EE7
331
18089
  5
1808B
331
18096
  5
18098
331
17F0E
  5
17F12
331
18078
  5
18079
331
180F5
  5
180F6
331
180D7
  5
180D9
331
1805A
  5
1805C
331
17EF0
  5
17EF3
331
18110
  5
18111
331
180FA
  5
180FB
331
17F3E
  5
17F41
331
180A0
  5
180A1
331
17F20
  5
17F25
331
18107
  5
18108
331
180E9
  5
180EE
331
180CB
  5
180CF
331
17F4B
  5
17F4E
331
17F5B
  5
17F5E
331
17F2D
  5
17F30
331
1812A
  5
1813A
331
18079
  5
1807A
331
17EF1
  5
17EF4
331
180F6
  5
180F7
331
1805B
  5
18068
331
17F0F
  5
17F13
331
18111
  5
18112
331
180FB
  5
180FC
331
180A1
  5
180A2
331
17F3F
  5
17F42
331
1813C
  5
1813C
331
17F5C
  5
17F5F
331
18108
  5
18109
331
17EE5
  5
17EE9
331
1808B
  5
1808D
331
17F2E
  5
17F31
331
17F4C
  5
17F4F
331
1807A
  5
1807D
331
17EF2
  5
17EF6
331
180F7
  5
180F9
331
1805C
  5
18069
331
17F10
  5
17F14
331
18112
  5
1812A
331
17F50
  5
17F53
331
180FC
  5
180FD
331
180A2
  5
180A3
331
17F40
  5
17F43
331
1813D
  5
1813D
331
17F5D
  5
17F6D
331
17F04
  5
17F07
331
18109
  5
1810A
331
1806E
  5
17EE8
331
17F2F
  5
17F32
331
17EF3
  5
17EF7
331
17F4D
  5
17F50
331
18080
  5
18081
331
17EF8
  5
17EFF
331
180FD
  5
180FE
331
17F51
  5
17F54
331
17F41
  5
17F44
331
180DF
  5
180E1
331
180A3
  5
180A4
331
17F23
  5
17F26
331
1808D
  5
1808F
331
1813E
  5
1813E
331
1810A
  5
1810B
331
17EE7
  5
17EEE
331
17F5E
  5
17FAF
331
180B0
  5
180B4
331
17F30
  5
17F33
331
17F4E
  5
17F51
331
17EF4
  5
17EF8
331
17F12
  5
17F15
331
17F05
  5
17F08
331
18081
  5
18082
331
17EF9
  5
17F00
331
180FE
  5
180FF
331
17F52
  5
17F55
331
17F42
  5
17F45
331
180A4
  5
180A5
331
17F24
  5
17F27
331
1813F
  5
1813F
331
17F5F
  5
17FB1
331
1810B
  5
1810C
331
18070
  5
18071
331
17EE8
  5
17EEF
331
180CF
  5
180D1
331
17F31
  5
17F34
331
17F4F
  5
17F52
331
1807D
  5
1807E
331
17F13
  5
17F16
331
17F06
  5
17F09
331
18098
  5
18099
331
17F18
  5
17F1C
331
18082
  5
18083
331
180FF
  5
18100
331
17F53
  5
17F56
331
17F43
  5
17F46
331
180E1
  5
180E2
331
180A5
  5
180A6
331
17F25
  5
17F2B
331
18140
  5
18140
331
1808F
  5
18093
331
1810C
  5
1810D
331
18071
  5
18072
331
17EE9
  5
17EF0
331
17F32
  5
17F35
331
17F6D
  5
18059
331
17F14
  5
17F17
331
180EE
  5
180EF
331
17F07
  5
17F0A
331
1807E
  5
1807F
331
17EF6
  5
17EF9
331
17FB0
  5
1805A
331
18099
  5
1809A
331
17F19
  5
17F1D
331
18100
  5
18101
331
17F54
  5
17F57
331
17F44
  5
17F47
331
180E2
  5
180E4
331
18083
  5
18084
331
180A6
  5
180A7
331
17F26
  5
17F2D
331
1810D
  5
1810E
331
18072
  5
18073
331
180D1
  5
180D3
331
17F33
  5
17F36
331
17F15
  5
17F18
331
180EF
  5
180F0
331
17F08
  5
17F0B
331
1807F
  5
18080
331
17EF7
  5
17EFD
331
17F38
  5
17F3B
331
1809A
  5
1809B
331
17F1A
  5
17F1E
331
18101
  5
18102
331
17F55
  5
17F58
331
17F45
  5
17F48
331
18084
  5
18085
331
180A7
  5
180A9
331
1810E
  5
1810F
331
18073
  5
18074
331
17F09
  5
17F0C
331
180B4
  5
180B6
331
17F34
  5
17F37
331
17F16
  5
17F19
331
180F0
  5
180F1
331
17F27
  5
17F2E
331
1809B
  5
1809D
331
17F39
  5
17F3C
331
18085
  5
18086
331
17EFD
  5
17F04
331
18102
  5
18103
331
180E4
  5
180E6
331
17F46
  5
17F49
331
17F56
  5
17F59
331
1810F
  5
18110
331
18074
  5
18075
331
180F1
  5
180F2
331
180D3
  5
180D7
331
17F35
  5
17F38
331
17F17
  5
17F1A
331
17F0A
  5
17F0D
331
17F3A
  5
17F3D
331
18086
  5
18087
331
17F1C
  5
17F1F
331
18103
  5
18104
331
18068
  5
1806A
331
180A9
  5
180AB
331
17F47
  5
17F4A
331
17F57
  5
17F5A
331
18093
  5
18094
331
17F0B
  5
17F0E
331
180F2
  5
180F3
331
180B6
  5
180C9
331
17F36
  5
17F39
331
18075
  5
18076
  0
XRECORD
  5
17337
102
{ACAD_REACTORS
330
1547F
102
}
330
1547F
100
AcDbXrecord
280
     1
340
15
  0
IMAGEDEF
  5
14E25
102
{ACAD_REACTORS
330
21
102
}
330
21
100
AcDbRasterImageDef
 90
        0
  1
U:\TPDWG\MichelQ\1001t.tif
 10
3054.0
 20
3298.0
 11
0.0705555555555556
 21
0.0705555555555556
280
     1
281
     5
  0
IMAGEDEF
  5
15451
102
{ACAD_REACTORS
330
21
102
}
330
21
100
AcDbRasterImageDef
 90
        0
  1
C:\Michel\TEMP\GPL\TIF\2219.tif
 10
1792.0
 20
2510.0
 11
0.1693333333333333
 21
0.1693333333333333
280
     1
281
     5
  0
IMAGEDEF
  5
175D9
102
{ACAD_REACTORS
330
21
102
}
330
21
100
AcDbRasterImageDef
 90
        0
  1
C:\Documents and Settings\USAGER\Mes documents\Mes images\rien\rien 004.jpg
 10
2272.0
 20
1704.0
 11
0.0004401408450704
 21
0.0004401408450704
280
     1
281
     0
  0
IMAGEDEF
  5
1734C
102
{ACAD_REACTORS
330
21
102
}
330
21
100
AcDbRasterImageDef
 90
        0
  1
C:\Documents and Settings\USAGER\Mes documents\Mes images\rien\rien 005.jpg
 10
2272.0
 20
1704.0
 11
0.0004401408450704
 21
0.0004401408450704
280
     1
281
     0
  0
IMAGEDEF
  5
17351
102
{ACAD_REACTORS
330
21
102
}
330
21
100
AcDbRasterImageDef
 90
        0
  1
C:\Documents and Settings\USAGER\Mes documents\Mes images\rien\rien 005_2.jpg
 10
2181.0
 20
1636.0
 11
0.0846666666666667
 21
0.0846666666666667
280
     1
281
     5
  0
IMAGEDEF
  5
17343
102
{ACAD_REACTORS
330
21
102
}
330
21
100
AcDbRasterImageDef
 90
        0
  1
C:\Documents and Settings\USAGER\Mes documents\Mes images\rien\rien 006.jpg
 10
2272.0
 20
1704.0
 11
0.0004401408450704
 21
0.0004401408450704
280
     1
281
     0
  0
IMAGEDEF
  5
17EC7
102
{ACAD_REACTORS
330
21
102
}
330
21
100
AcDbRasterImageDef
 90
        0
  1
C:\Documents and Settings\USAGER\Mes documents\Mes images\rien\rien 007.jpg
 10
2272.0
 20
1704.0
 11
0.0004401408450704
 21
0.0004401408450704
280
     1
281
     0
  0
IMAGEDEF
  5
17ED1
102
{ACAD_REACTORS
330
21
102
}
330
21
100
AcDbRasterImageDef
 90
        0
  1
C:\Documents and Settings\USAGER\Mes documents\Mes images\rien\rien 008.jpg
 10
2272.0
 20
1704.0
 11
0.0004401408450704
 21
0.0004401408450704
280
     1
281
     0
  0
IMAGEDEF
  5
17ECA
102
{ACAD_REACTORS
330
21
102
}
330
21
100
AcDbRasterImageDef
 90
        0
  1
C:\Documents and Settings\USAGER\Mes documents\Mes images\rien\rien 009.jpg
 10
2272.0
 20
1704.0
 11
0.0004401408450704
 21
0.0004401408450704
280
     1
281
     0
  0
IMAGEDEF
  5
17FB4
102
{ACAD_REACTORS
330
21
102
}
330
21
100
AcDbRasterImageDef
 90
        0
  1
C:\Documents and Settings\USAGER\Mes documents\Mes images\rien\rien 011.jpg
 10
2272.0
 20
1704.0
 11
0.0004401408450704
 21
0.0004401408450704
280
     1
281
     0
  0
IMAGEDEF
  5
1806C
102
{ACAD_REACTORS
330
21
330
1806D
102
}
330
21
100
AcDbRasterImageDef
 90
        0
  1
C:\Documents and Settings\USAGER\Mes documents\Mes images\rien\rien 012.jpg
 10
2272.0
 20
1704.0
 11
0.0004401408450704
 21
0.0004401408450704
280
     1
281
     0
  0
IMAGEDEF
  5
1736B
102
{ACAD_REACTORS
330
21
330
18139
102
}
330
21
100
AcDbRasterImageDef
 90
        0
  1
C:\Documents and Settings\USAGER\Mes documents\Mes images\rien\rien 013.jpg
 10
2272.0
 20
1704.0
 11
0.0004401408450704
 21
0.0004401408450704
280
     1
281
     0
  0
IMAGEDEF
  5
175DE
102
{ACAD_REACTORS
330
21
102
}
330
21
100
AcDbRasterImageDef
 90
        0
  1
C:\Documents and Settings\USAGER\Mes documents\Mes images\rien\rien 018.jpg
 10
2272.0
 20
1704.0
 11
0.0004401408450704
 21
0.0004401408450704
280
     1
281
     0
  0
IMAGEDEF
  5
175E1
102
{ACAD_REACTORS
330
21
102
}
330
21
100
AcDbRasterImageDef
 90
        0
  1
C:\Documents and Settings\USAGER\Mes documents\Mes images\rien\rien 019.jpg
 10
2272.0
 20
1704.0
 11
0.0004401408450704
 21
0.0004401408450704
280
     1
281
     0
  0
LAYOUT
  5
1544D
102
{ACAD_REACTORS
330
1544A
102
}
330
1544A
100
AcDbPlotSettings
  1

  2
none_device
  4
Letter_(8.50_x_11.00_Inches)
  6

 40
6.349999904632568
 41
6.349999904632568
 42
6.350006103515625
 43
6.350006103515625
 44
215.8999938964844
 45
279.3999938964844
 46
0.0
 47
0.0
 48
0.0
 49
0.0
140
0.0
141
0.0
142
1.0
143
1.0
 70
   688
 72
     0
 73
     1
 74
     5
  7
pen2000.ctb
 75
    16
147
1.0
 76
     0
 77
     2
 78
   300
148
0.0
149
0.0
100
AcDbLayout
  1
Layout1
 70
     1
 71
     1
 10
-0.2500002402958907
 20
-0.2499999962453767
 11
10.74999951940821
 21
8.249999763458731
 12
0.0
 22
0.0
 32
0.0
 14
1.049636599258096
 24
0.7996597240971113
 34
-0.0000000000000058
 15
9.450362731076971
 25
7.200340082697458
 35
0.0000000000000104
146
0.0
 13
0.0
 23
0.0
 33
0.0
 16
1.0
 26
0.0
 36
0.0
 17
0.0
 27
1.0
 37
0.0
 76
     0
330
15
331
1770B
  0
LAYOUT
  5
1544C
102
{ACAD_REACTORS
330
1544A
102
}
330
1544A
100
AcDbPlotSettings
  1

  2
C:\Program Files\AutoCAD 2000i\plotters\HP DesignJet 430 (D_A1) by HP.pc3
  4

  6

 40
0.0
 41
0.0
 42
0.0
 43
0.0
 44
0.0
 45
0.0
 46
0.0
 47
0.0
 48
0.0
 49
0.0
140
0.0
141
0.0
142
1.0
143
1.0
 70
  1712
 72
     0
 73
     0
 74
     0
  7
pen2000.ctb
 75
     0
147
1.0
 76
     0
 77
     2
 78
   300
148
0.0
149
0.0
100
AcDbLayout
  1
Model
 70
     1
 71
     0
 10
0.0
 20
0.0
 11
12.0
 21
9.0
 12
0.0
 22
0.0
 32
0.0
 14
0.0
 24
0.0
 34
0.0
 15
0.0
 25
0.0
 35
0.0
146
0.0
 13
0.0
 23
0.0
 33
0.0
 16
1.0
 26
0.0
 36
0.0
 17
0.0
 27
1.0
 37
0.0
 76
     0
330
18
  0
MLINESTYLE
  5
1C
102
{ACAD_REACTORS
330
1B
102
}
330
1B
100
AcDbMlineStyle
  2
STANDARD
 70
     0
  3

 62
   256
 51
90.0
 52
90.0
 71
     2
 49
0.5
 62
   256
  6
BYLAYER
 49
-0.5
 62
   256
  6
BYLAYER
  0
ACDBPLACEHOLDER
  5
15449
102
{ACAD_REACTORS
330
15448
102
}
330
15448
  0
ENDSEC
  0
EOF
