  0
SECTION
  2
HEADER
  9
$ACADVER
  1
AC1018
  9
$ACADMAINTVER
 70
     0
  9
$DWGCODEPAGE
  3
ANSI_1252
  9
$INSBASE
 10
0.0
 20
0.0
 30
0.0
  9
$EXTMIN
 10
9.180098242950474
 20
7.134175262856311
 30
0.0
  9
$EXTMAX
 10
30.96949889466154
 20
18.82483742803614
 30
0.0
  9
$LIMMIN
 10
0.0
 20
0.0
  9
$LIMMAX
 10
420.0
 20
297.0
  9
$ORTHOMODE
 70
     0
  9
$REGENMODE
 70
     1
  9
$FILLMODE
 70
     1
  9
$QTEXTMODE
 70
     0
  9
$MIRRTEXT
 70
     1
  9
$LTSCALE
 40
0.04
  9
$ATTMODE
 70
     1
  9
$TEXTSIZE
 40
0.09375
  9
$TRACEWID
 40
1.0
  9
$TEXTSTYLE
  7
STYLE1
  9
$CLAYER
  8
0
  9
$CELTYPE
  6
BYLAYER
  9
$CECOLOR
 62
   256
  9
$CELTSCALE
 40
1.0
  9
$DISPSILH
 70
     0
  9
$DIMSCALE
 40
1.0
  9
$DIMASZ
 40
0.18
  9
$DIMEXO
 40
0.0625
  9
$DIMDLI
 40
0.38
  9
$DIMRND
 40
0.0
  9
$DIMDLE
 40
0.0
  9
$DIMEXE
 40
0.18
  9
$DIMTP
 40
0.0
  9
$DIMTM
 40
0.0
  9
$DIMTXT
 40
1.0
  9
$DIMCEN
 40
0.09
  9
$DIMTSZ
 40
0.0
  9
$DIMTOL
 70
     0
  9
$DIMLIM
 70
     0
  9
$DIMTIH
 70
     0
  9
$DIMTOH
 70
     0
  9
$DIMSE1
 70
     0
  9
$DIMSE2
 70
     0
  9
$DIMTAD
 70
     0
  9
$DIMZIN
 70
     0
  9
$DIMBLK
  1

  9
$DIMASO
 70
     1
  9
$DIMSHO
 70
     1
  9
$DIMPOST
  1

  9
$DIMAPOST
  1

  9
$DIMALT
 70
     0
  9
$DIMALTD
 70
     2
  9
$DIMALTF
 40
25.4
  9
$DIMLFAC
 40
1.0
  9
$DIMTOFL
 70
     0
  9
$DIMTVP
 40
0.0
  9
$DIMTIX
 70
     0
  9
$DIMSOXD
 70
     0
  9
$DIMSAH
 70
     0
  9
$DIMBLK1
  1

  9
$DIMBLK2
  1

  9
$DIMSTYLE
  2
STANDARD
  9
$DIMCLRD
 70
     0
  9
$DIMCLRE
 70
     0
  9
$DIMCLRT
 70
     0
  9
$DIMTFAC
 40
1.0
  9
$DIMGAP
 40
0.09
  9
$DIMJUST
 70
     0
  9
$DIMSD1
 70
     0
  9
$DIMSD2
 70
     0
  9
$DIMTOLJ
 70
     1
  9
$DIMTZIN
 70
     0
  9
$DIMALTZ
 70
     0
  9
$DIMALTTZ
 70
     0
  9
$DIMUPT
 70
     0
  9
$DIMDEC
 70
     4
  9
$DIMTDEC
 70
     4
  9
$DIMALTU
 70
     2
  9
$DIMALTTD
 70
     2
  9
$DIMTXSTY
  7
STANDARD
  9
$DIMAUNIT
 70
     0
  9
$DIMADEC
 70
     0
  9
$DIMALTRND
 40
0.0
  9
$DIMAZIN
 70
     0
  9
$DIMDSEP
 70
    46
  9
$DIMATFIT
 70
     3
  9
$DIMFRAC
 70
     0
  9
$DIMLDRBLK
  1

  9
$DIMLUNIT
 70
     2
  9
$DIMLWD
 70
    -2
  9
$DIMLWE
 70
    -2
  9
$DIMTMOVE
 70
     0
  9
$LUNITS
 70
     4
  9
$LUPREC
 70
     4
  9
$SKETCHINC
 40
1.0
  9
$FILLETRAD
 40
0.0
  9
$AUNITS
 70
     0
  9
$AUPREC
 70
     0
  9
$MENU
  1
.
  9
$ELEVATION
 40
0.0
  9
$PELEVATION
 40
0.0
  9
$THICKNESS
 40
0.0
  9
$LIMCHECK
 70
     0
  9
$CHAMFERA
 40
10.0
  9
$CHAMFERB
 40
10.0
  9
$CHAMFERC
 40
20.0
  9
$CHAMFERD
 40
0.0
  9
$SKPOLY
 70
     0
  9
$TDCREATE
 40
2451158.432431366
  9
$TDUCREATE
 40
2451158.599098032
  9
$TDUPDATE
 40
2453488.682810764
  9
$TDUUPDATE
 40
2453488.849477430
  9
$TDINDWG
 40
0.5900269676
  9
$TDUSRTIMER
 40
0.5900269676
  9
$USRTIMER
 70
     1
  9
$ANGBASE
 50
0.0
  9
$ANGDIR
 70
     0
  9
$PDMODE
 70
     3
  9
$PDSIZE
 40
0.25
  9
$PLINEWID
 40
0.0
  9
$SPLFRAME
 70
     0
  9
$SPLINETYPE
 70
     6
  9
$SPLINESEGS
 70
     8
  9
$HANDSEED
  5
3C2D
  9
$SURFTAB1
 70
     6
  9
$SURFTAB2
 70
     6
  9
$SURFTYPE
 70
     6
  9
$SURFU
 70
     6
  9
$SURFV
 70
     6
  9
$UCSBASE
  2

  9
$UCSNAME
  2

  9
$UCSORG
 10
0.0
 20
0.0
 30
0.0
  9
$UCSXDIR
 10
1.0
 20
0.0
 30
0.0
  9
$UCSYDIR
 10
0.0
 20
1.0
 30
0.0
  9
$UCSORTHOREF
  2

  9
$UCSORTHOVIEW
 70
     0
  9
$UCSORGTOP
 10
0.0
 20
0.0
 30
0.0
  9
$UCSORGBOTTOM
 10
0.0
 20
0.0
 30
0.0
  9
$UCSORGLEFT
 10
0.0
 20
0.0
 30
0.0
  9
$UCSORGRIGHT
 10
0.0
 20
0.0
 30
0.0
  9
$UCSORGFRONT
 10
0.0
 20
0.0
 30
0.0
  9
$UCSORGBACK
 10
0.0
 20
0.0
 30
0.0
  9
$PUCSBASE
  2

  9
$PUCSNAME
  2

  9
$PUCSORG
 10
0.0
 20
0.0
 30
0.0
  9
$PUCSXDIR
 10
1.0
 20
0.0
 30
0.0
  9
$PUCSYDIR
 10
0.0
 20
1.0
 30
0.0
  9
$PUCSORTHOREF
  2

  9
$PUCSORTHOVIEW
 70
     0
  9
$PUCSORGTOP
 10
0.0
 20
0.0
 30
0.0
  9
$PUCSORGBOTTOM
 10
0.0
 20
0.0
 30
0.0
  9
$PUCSORGLEFT
 10
0.0
 20
0.0
 30
0.0
  9
$PUCSORGRIGHT
 10
0.0
 20
0.0
 30
0.0
  9
$PUCSORGFRONT
 10
0.0
 20
0.0
 30
0.0
  9
$PUCSORGBACK
 10
0.0
 20
0.0
 30
0.0
  9
$USERI1
 70
     0
  9
$USERI2
 70
     0
  9
$USERI3
 70
     0
  9
$USERI4
 70
     0
  9
$USERI5
 70
     0
  9
$USERR1
 40
0.0
  9
$USERR2
 40
0.0
  9
$USERR3
 40
0.0
  9
$USERR4
 40
0.0
  9
$USERR5
 40
0.0
  9
$WORLDVIEW
 70
     1
  9
$SHADEDGE
 70
     3
  9
$SHADEDIF
 70
    70
  9
$TILEMODE
 70
     1
  9
$MAXACTVP
 70
    48
  9
$PINSBASE
 10
0.0
 20
0.0
 30
0.0
  9
$PLIMCHECK
 70
     0
  9
$PEXTMIN
 10
26.64733987609782
 20
20.31633067121299
 30
-0.0015258207003583
  9
$PEXTMAX
 10
240.0567634637198
 20
182.8968206270327
 30
0.0000000349246037
  9
$PLIMMIN
 10
-6.350006103515625
 20
-6.349999904632568
  9
$PLIMMAX
 10
273.0499877929688
 20
209.5499939918518
  9
$UNITMODE
 70
     0
  9
$VISRETAIN
 70
     1
  9
$PLINEGEN
 70
     0
  9
$PSLTSCALE
 70
     1
  9
$TREEDEPTH
 70
  3020
  9
$CMLSTYLE
  2
STANDARD
  9
$CMLJUST
 70
     0
  9
$CMLSCALE
 40
20.0
  9
$PROXYGRAPHICS
 70
     1
  9
$MEASUREMENT
 70
     1
  9
$CELWEIGHT
370
    -1
  9
$ENDCAPS
280
     0
  9
$JOINSTYLE
280
     0
  9
$LWDISPLAY
290
     0
  9
$INSUNITS
 70
     0
  9
$HYPERLINKBASE
  1

  9
$STYLESHEET
  1

  9
$XEDIT
290
     1
  9
$CEPSNTYPE
380
     0
  9
$PSTYLEMODE
290
     1
  9
$FINGERPRINTGUID
  2
{65FBE5F9-0648-4B1E-AF85-19D452D2C27D}
  9
$VERSIONGUID
  2
{13275E7F-5434-4C4F-8EC2-C305D56D8C78}
  9
$EXTNAMES
290
     1
  9
$PSVPSCALE
 40
0.0
  9
$OLESTARTUP
290
     0
  9
$SORTENTS
280
    96
  9
$INDEXCTL
280
     0
  9
$HIDETEXT
280
     0
  9
$XCLIPFRAME
290
     0
  9
$HALOGAP
280
     0
  9
$OBSCOLOR
 70
   257
  9
$OBSLTYPE
280
     0
  9
$INTERSECTIONDISPLAY
280
     0
  9
$INTERSECTIONCOLOR
 70
   257
  9
$DIMASSOC
280
     1
  9
$PROJECTNAME
  1

  0
ENDSEC
  0
SECTION
  2
CLASSES
  0
CLASS
  1
RASTERVARIABLES
  2
AcDbRasterVariables
  3
ISM
 90
        0
 91
        1
280
     0
281
     0
  0
CLASS
  1
IMAGEDEF
  2
AcDbRasterImageDef
  3
ISM
 90
        0
 91
        6
280
     0
281
     0
  0
CLASS
  1
IMAGEDEF_REACTOR
  2
AcDbRasterImageDefReactor
  3
ISM
 90
        1
 91
        0
280
     0
281
     0
  0
CLASS
  1
IMAGE
  2
AcDbRasterImage
  3
ISM
 90
      127
 91
        0
280
     0
281
     1
  0
CLASS
  1
DICTIONARYVAR
  2
AcDbDictionaryVar
  3
ObjectDBX Classes
 90
        0
 91
        1
280
     0
281
     0
  0
CLASS
  1
ACDBDICTIONARYWDFLT
  2
AcDbDictionaryWithDefault
  3
ObjectDBX Classes
 90
        0
 91
        1
280
     0
281
     0
  0
ENDSEC
  0
SECTION
  2
TABLES
  0
TABLE
  2
VPORT
  5
8
330
0
100
AcDbSymbolTable
 70
     2
  0
VPORT
  5
3C2C
330
8
100
AcDbSymbolTableRecord
100
AcDbViewportTableRecord
  2
*Active
 70
     0
 10
0.0
 20
0.0
 11
1.0
 21
1.0
 12
21.09440377169149
 22
12.17893007006273
 13
0.0
 23
0.0
 14
10.0
 24
10.0
 15
10.0
 25
10.0
 16
0.0
 26
0.0
 36
1.0
 17
0.0
 27
0.0
 37
0.0
 40
13.37200430704763
 41
1.977142857142857
 42
50.0
 43
0.0
 44
0.0
 50
0.0
 51
0.0
 71
     0
 72
   100
 73
     1
 74
     1
 75
     0
 76
     0
 77
     0
 78
     0
281
     0
 65
     1
110
0.0
120
0.0
130
0.0
111
1.0
121
0.0
131
0.0
112
0.0
122
1.0
132
0.0
 79
     0
146
0.0
  0
ENDTAB
  0
TABLE
  2
LTYPE
  5
5
330
0
100
AcDbSymbolTable
 70
     2
  0
LTYPE
  5
12
330
5
100
AcDbSymbolTableRecord
100
AcDbLinetypeTableRecord
  2
BYBLOCK
 70
     0
  3

 72
    65
 73
     0
 40
0.0
  0
LTYPE
  5
13
330
5
100
AcDbSymbolTableRecord
100
AcDbLinetypeTableRecord
  2
BYLAYER
 70
     0
  3

 72
    65
 73
     0
 40
0.0
  0
LTYPE
  5
14
330
5
100
AcDbSymbolTableRecord
100
AcDbLinetypeTableRecord
  2
CONTINUOUS
 70
     0
  3
Solid line
 72
    65
 73
     0
 40
0.0
  0
LTYPE
  5
3B9F
330
5
100
AcDbSymbolTableRecord
100
AcDbLinetypeTableRecord
  2
DASHED
 70
     0
  3
Dashed __ __ __ __ __ __ __ __ __ __ __ __ __ _
 72
    65
 73
     2
 40
19.05
 49
12.7
 74
     0
 49
-6.349999999999999
 74
     0
  0
ENDTAB
  0
TABLE
  2
LAYER
  5
2
330
0
100
AcDbSymbolTable
 70
     3
  0
LAYER
  5
E
330
2
100
AcDbSymbolTableRecord
100
AcDbLayerTableRecord
  2
0
 70
     0
 62
     7
  6
CONTINUOUS
370
    -3
390
38D0
  0
LAYER
  5
38DA
330
2
100
AcDbSymbolTableRecord
100
AcDbLayerTableRecord
  2
Defpoints
 70
     0
 62
     7
  6
CONTINUOUS
290
     0
370
    -3
390
38D0
  0
LAYER
  5
3BF9
330
2
100
AcDbSymbolTableRecord
100
AcDbLayerTableRecord
  2
DIM
 70
     0
 62
    -3
  6
CONTINUOUS
370
    -3
390
38D0
  0
ENDTAB
  0
TABLE
  2
STYLE
  5
3
330
0
100
AcDbSymbolTable
 70
     3
  0
STYLE
  5
F
330
3
100
AcDbSymbolTableRecord
100
AcDbTextStyleTableRecord
  2
STANDARD
 70
     0
 40
0.0
 41
1.0
 50
0.0
 71
     0
 42
2.5
  3
txt
  4

  0
STYLE
  5
36AA
330
3
100
AcDbSymbolTableRecord
100
AcDbTextStyleTableRecord
  2
STYLE1
 70
     0
 40
0.09375
 41
1.0
 50
0.0
 71
     0
 42
0.09375
  3
simplex.shx
  4

  0
STYLE
  5
3B9E
330
3
100
AcDbSymbolTableRecord
100
AcDbTextStyleTableRecord
  2

 70
     1
 40
0.0
 41
1.0
 50
0.0
 71
     0
 42
0.09375
  3
ltypeshp.shx
  4

  0
ENDTAB
  0
TABLE
  2
VIEW
  5
6
330
0
100
AcDbSymbolTable
 70
     0
  0
ENDTAB
  0
TABLE
  2
UCS
  5
7
330
0
100
AcDbSymbolTable
 70
     0
  0
ENDTAB
  0
TABLE
  2
APPID
  5
9
330
0
100
AcDbSymbolTable
 70
     1
  0
APPID
  5
10
330
9
100
AcDbSymbolTableRecord
100
AcDbRegAppTableRecord
  2
ACAD
 70
     0
  0
ENDTAB
  0
TABLE
  2
DIMSTYLE
  5
A
330
0
100
AcDbSymbolTable
 70
     1
100
AcDbDimStyleTable
 71
     1
340
1D
  0
DIMSTYLE
105
1D
102
{ACAD_REACTORS
330
3AD2
330
3B27
330
3BA5
330
3BB3
102
}
330
A
100
AcDbSymbolTableRecord
100
AcDbDimStyleTableRecord
  2
STANDARD
 70
     0
 73
     0
 74
     0
140
1.0
340
F
  0
ENDTAB
  0
TABLE
  2
BLOCK_RECORD
  5
1
330
0
100
AcDbSymbolTable
 70
     6
  0
BLOCK_RECORD
  5
18
330
1
100
AcDbSymbolTableRecord
100
AcDbBlockTableRecord
  2
*MODEL_SPACE
340
38D5
  0
BLOCK_RECORD
  5
15
330
1
100
AcDbSymbolTableRecord
100
AcDbBlockTableRecord
  2
*PAPER_SPACE
340
38D6
  0
BLOCK_RECORD
  5
389B
330
1
100
AcDbSymbolTableRecord
100
AcDbBlockTableRecord
  2
2214_E
340
0
  0
BLOCK_RECORD
  5
38BB
330
1
100
AcDbSymbolTableRecord
100
AcDbBlockTableRecord
  2
2214_C
340
0
  0
BLOCK_RECORD
  5
3AD3
330
1
100
AcDbSymbolTableRecord
100
AcDbBlockTableRecord
  2
*D2
340
0
  0
BLOCK_RECORD
  5
3B28
330
1
100
AcDbSymbolTableRecord
100
AcDbBlockTableRecord
  2
*D3
340
0
  0
BLOCK_RECORD
  5
3BA6
330
1
100
AcDbSymbolTableRecord
100
AcDbBlockTableRecord
  2
*D4
340
0
  0
BLOCK_RECORD
  5
3BB4
330
1
100
AcDbSymbolTableRecord
100
AcDbBlockTableRecord
  2
*D5
340
0
  0
ENDTAB
  0
ENDSEC
  0
SECTION
  2
BLOCKS
  0
BLOCK
  5
19
330
18
100
AcDbEntity
  8
0
100
AcDbBlockBegin
  2
*MODEL_SPACE
 70
     0
 10
0.0
 20
0.0
 30
0.0
  3
*MODEL_SPACE
  1

  0
ENDBLK
  5
1A
330
18
100
AcDbEntity
  8
0
100
AcDbBlockEnd
  0
BLOCK
  5
16
330
15
100
AcDbEntity
 67
     1
  8
0
100
AcDbBlockBegin
  2
*PAPER_SPACE
 70
     0
 10
0.0
 20
0.0
 30
0.0
  3
*PAPER_SPACE
  1

  0
ENDBLK
  5
17
330
15
100
AcDbEntity
 67
     1
  8
0
100
AcDbBlockEnd
  0
BLOCK
  5
38AC
330
389B
100
AcDbEntity
  8
0
100
AcDbBlockBegin
  2
2214_E
 70
     0
 10
0.0
 20
0.0
 30
0.0
  3
2214_E
  1

  0
LINE
  5
38AD
330
389B
100
AcDbEntity
  8
0
100
AcDbLine
 10
1.374999999999996
 20
-6.624999999999992
 30
0.0
 11
-1.375000000000003
 21
-6.624999999999992
 31
0.0
  0
LINE
  5
38AE
330
389B
100
AcDbEntity
  8
0
100
AcDbLine
 10
1.374999999999996
 20
-2.499999999999998
 30
0.0
 11
-1.375000000000001
 21
-2.499999999999998
 31
0.0
  0
LINE
  5
38AF
330
389B
100
AcDbEntity
  8
0
100
AcDbLine
 10
-1.750000000000001
 20
0.0
 30
0.0
 11
1.75
 21
0.0000000000000036
 31
0.0
  0
LINE
  5
38B0
330
389B
100
AcDbEntity
  8
0
100
AcDbLine
 10
-1.750000000000001
 20
-10.0
 30
0.0
 11
1.749999999999996
 21
-10.0
 31
0.0
  0
LINE
  5
38B1
330
389B
100
AcDbEntity
  8
0
100
AcDbLine
 10
1.749999999999994
 20
-8.875
 30
0.0
 11
-1.750000000000001
 21
-8.875
 31
0.0
  0
LINE
  5
38B2
330
389B
100
AcDbEntity
  8
0
100
AcDbLine
 10
1.749999999999994
 20
-6.999999999999992
 30
0.0
 11
-1.750000000000001
 21
-6.999999999999992
 31
0.0
  0
LINE
  5
38B3
330
389B
100
AcDbEntity
  8
0
100
AcDbLine
 10
1.749999999999996
 20
-8.145357719173254
 30
0.0
 11
-1.750000000000001
 21
-8.145357719173254
 31
0.0
  0
LINE
  5
38B4
330
389B
100
AcDbEntity
  8
0
100
AcDbLine
 10
1.749999999999994
 20
-2.124999999999998
 30
0.0
 11
-1.750000000000001
 21
-2.124999999999998
 31
0.0
  0
LINE
  5
38B5
330
389B
100
AcDbEntity
  8
0
100
AcDbLine
 10
1.749999999999994
 20
-1.374999999999998
 30
0.0
 11
-1.750000000000001
 21
-1.374999999999998
 31
0.0
  0
LINE
  5
38B6
330
389B
100
AcDbEntity
  8
0
100
AcDbLine
 10
-1.750000000000001
 20
-10.0
 30
0.0
 11
-1.750000000000001
 21
0.0
 31
0.0
  0
LINE
  5
38B7
330
389B
100
AcDbEntity
  8
0
100
AcDbLine
 10
-1.375000000000003
 20
-6.624999999999992
 30
0.0
 11
-1.375000000000001
 21
-2.499999999999998
 31
0.0
  0
LINE
  5
38B8
330
389B
100
AcDbEntity
  8
0
100
AcDbLine
 10
1.749999999999996
 20
-10.0
 30
0.0
 11
1.749999999999996
 21
0.0
 31
0.0
  0
LINE
  5
38B9
330
389B
100
AcDbEntity
  8
0
100
AcDbLine
 10
1.374999999999996
 20
-6.624999999999992
 30
0.0
 11
1.374999999999996
 21
-2.499999999999998
 31
0.0
  0
ENDBLK
  5
38BA
330
389B
100
AcDbEntity
  8
0
100
AcDbBlockEnd
  0
BLOCK
  5
38BC
330
38BB
100
AcDbEntity
  8
0
100
AcDbBlockBegin
  2
2214_C
 70
     0
 10
0.0
 20
0.0
 30
0.0
  3
2214_C
  1

  0
LINE
  5
38BD
330
38BB
100
AcDbEntity
  8
0
100
AcDbLine
 10
0.0
 20
-10.0
 30
0.0
 11
0.0
 21
0.0
 31
0.0
  0
ARC
  5
38BE
330
38BB
100
AcDbEntity
  8
0
100
AcDbCircle
 10
-1.15625
 20
-7.562499999999996
 30
0.0
 40
0.5837981778834215
100
AcDbArc
 50
105.5241109967541
 51
285.5241109967541
  0
LINE
  5
38BF
330
38BB
100
AcDbEntity
  8
0
100
AcDbLine
 10
-0.375
 20
-10.0
 30
0.0
 11
0.0
 21
-10.0
 31
0.0
  0
ARC
  5
38C0
330
38BB
100
AcDbEntity
  8
0
100
AcDbCircle
 10
-0.375
 20
-9.625
 30
0.0
 40
0.375
100
AcDbArc
 50
180.0
 51
270.0
  0
ARC
  5
38C1
330
38BB
100
AcDbEntity
  8
0
100
AcDbCircle
 10
-1.740337916991723
 20
-9.743558611327815
 30
0.0
 40
0.9974093112416216
100
AcDbArc
 50
6.826692921466179
 51
60.55344213049339
  0
ARC
  5
38C2
330
38BB
100
AcDbEntity
  8
0
100
AcDbCircle
 10
-4.195616070095965
 20
-7.476461309968005
 30
0.0
 40
3.260761337467676
100
AcDbArc
 50
334.6022643213402
 51
348.5278380328156
  0
ARC
  5
38C3
330
38BB
100
AcDbEntity
  8
0
100
AcDbCircle
 10
-8.891988255033549
 20
-8.641568791946305
 30
0.0
 40
7.755216973552937
100
AcDbArc
 50
12.22040290426199
 51
57.16990415820601
  0
LINE
  5
38C4
330
38BB
100
AcDbEntity
  8
0
100
AcDbLine
 10
-5.0
 20
0.0
 30
0.0
 11
0.0000000000000036
 21
0.0000000000000036
 31
0.0
  0
LINE
  5
38C5
330
38BB
100
AcDbEntity
  8
0
100
AcDbLine
 10
-5.0
 20
-1.375
 30
0.0
 11
-5.0
 21
0.0
 31
0.0
  0
ARC
  5
38C6
330
38BB
100
AcDbEntity
  8
0
100
AcDbCircle
 10
-5.111607142857142
 20
-1.861607142857142
 30
0.0
 40
0.4992420913908661
100
AcDbArc
 50
328.1575427400147
 51
77.08218715606602
  0
ENDBLK
  5
38C7
330
38BB
100
AcDbEntity
  8
0
100
AcDbBlockEnd
  0
BLOCK
  5
3ADE
330
3AD3
100
AcDbEntity
  8
0
100
AcDbBlockBegin
  2
*D2
 70
     1
 10
0.0
 20
0.0
 30
0.0
  3
*D2
  1

  0
LINE
  5
3C0E
330
3AD3
100
AcDbEntity
  8
DIM
 62
     0
370
    -2
100
AcDbLine
 10
22.74491496901245
 20
17.14352983345387
 30
0.0
 11
22.74491496901245
 21
18.49847501828127
 31
0.0
  0
LINE
  5
3C0F
330
3AD3
100
AcDbEntity
  8
DIM
 62
     0
370
    -2
100
AcDbLine
 10
27.86990267937627
 20
17.14248569793265
 30
0.0
 11
27.86990267937627
 21
18.49847501828127
 31
0.0
  0
LINE
  5
3C10
330
3AD3
100
AcDbEntity
  8
DIM
 62
     0
370
    -2
100
AcDbLine
 10
22.56491496901245
 20
18.31847501828127
 30
0.0
 11
22.38491496901245
 21
18.31847501828127
 31
0.0
  0
LINE
  5
3C11
330
3AD3
100
AcDbEntity
  8
DIM
 62
     0
370
    -2
100
AcDbLine
 10
28.04990267937627
 20
18.31847501828127
 30
0.0
 11
28.22990267937627
 21
18.31847501828127
 31
0.0
  0
SOLID
  5
3C12
330
3AD3
100
AcDbEntity
  8
DIM
 62
     0
100
AcDbTrace
 10
22.56491496901245
 20
18.34847501828128
 30
0.0
 11
22.56491496901245
 21
18.28847501828127
 31
0.0
 12
22.74491496901245
 22
18.31847501828127
 32
0.0
 13
22.74491496901245
 23
18.31847501828127
 33
0.0
  0
SOLID
  5
3C13
330
3AD3
100
AcDbEntity
  8
DIM
 62
     0
100
AcDbTrace
 10
28.04990267937627
 20
18.34847501828128
 30
0.0
 11
28.04990267937627
 21
18.28847501828127
 31
0.0
 12
27.86990267937627
 22
18.31847501828127
 32
0.0
 13
27.86990267937627
 23
18.31847501828127
 33
0.0
  0
MTEXT
  5
3C14
330
3AD3
100
AcDbEntity
  8
DIM
 62
     0
100
AcDbMText
 10
25.30740882419436
 20
18.31847501828127
 30
0.0
 40
1.0
 41
0.0
 71
     5
 72
     1
  1
\A1;5.1250
 73
     1
 44
1.0
  0
POINT
  5
3C15
330
3AD3
100
AcDbEntity
  8
Defpoints
 62
     0
100
AcDbPoint
 10
22.74491496901245
 20
17.08102983345387
 30
0.0
  0
POINT
  5
3C16
330
3AD3
100
AcDbEntity
  8
Defpoints
 62
     0
100
AcDbPoint
 10
27.86990267937627
 20
17.07998569793265
 30
0.0
  0
POINT
  5
3C17
330
3AD3
100
AcDbEntity
  8
Defpoints
 62
     0
100
AcDbPoint
 10
27.86990267937627
 20
18.31847501828127
 30
0.0
  0
ENDBLK
  5
3ADF
330
3AD3
100
AcDbEntity
  8
0
100
AcDbBlockEnd
  0
BLOCK
  5
3B33
330
3B28
100
AcDbEntity
  8
0
100
AcDbBlockBegin
  2
*D3
 70
     1
 10
0.0
 20
0.0
 30
0.0
  3
*D3
  1

  0
LINE
  5
3C18
330
3B28
100
AcDbEntity
  8
DIM
 62
     0
370
    -2
100
AcDbLine
 10
27.93240267937627
 20
17.07998569793265
 30
0.0
 11
30.64949889466154
 21
17.07998569793265
 31
0.0
  0
LINE
  5
3C19
330
3B28
100
AcDbEntity
  8
DIM
 62
     0
370
    -2
100
AcDbLine
 10
27.93240267937627
 20
7.204985697932652
 30
0.0
 11
30.64949889466154
 21
7.204985697932651
 31
0.0
  0
LINE
  5
3C1A
330
3B28
100
AcDbEntity
  8
DIM
 62
     0
370
    -2
100
AcDbLine
 10
30.46949889466155
 20
16.89998569793265
 30
0.0
 11
30.46949889466155
 21
14.64915236459932
 31
0.0
  0
LINE
  5
3C1B
330
3B28
100
AcDbEntity
  8
DIM
 62
     0
370
    -2
100
AcDbLine
 10
30.46949889466154
 20
7.384985697932651
 30
0.0
 11
30.46949889466155
 21
9.635819031265985
 31
0.0
  0
SOLID
  5
3C1C
330
3B28
100
AcDbEntity
  8
DIM
 62
     0
100
AcDbTrace
 10
30.43949889466154
 20
16.89998569793265
 30
0.0
 11
30.49949889466155
 21
16.89998569793265
 31
0.0
 12
30.46949889466155
 22
17.07998569793265
 32
0.0
 13
30.46949889466155
 23
17.07998569793265
 33
0.0
  0
SOLID
  5
3C1D
330
3B28
100
AcDbEntity
  8
DIM
 62
     0
100
AcDbTrace
 10
30.43949889466154
 20
7.384985697932651
 30
0.0
 11
30.49949889466154
 21
7.384985697932651
 31
0.0
 12
30.46949889466154
 22
7.204985697932651
 32
0.0
 13
30.46949889466154
 23
7.204985697932651
 33
0.0
  0
MTEXT
  5
3C1E
330
3B28
100
AcDbEntity
  8
DIM
 62
     0
100
AcDbMText
 10
30.46949889466154
 20
12.14248569793266
 30
0.0
 40
1.0
 41
0.0
 71
     5
 72
     1
  1
\A1;9.8750
 11
0.0000000000000001
 21
1.0
 31
0.0
 73
     1
 44
1.0
  0
POINT
  5
3C1F
330
3B28
100
AcDbEntity
  8
Defpoints
 62
     0
100
AcDbPoint
 10
27.86990267937627
 20
17.07998569793265
 30
0.0
  0
POINT
  5
3C20
330
3B28
100
AcDbEntity
  8
Defpoints
 62
     0
100
AcDbPoint
 10
27.86990267937627
 20
7.204985697932652
 30
0.0
  0
POINT
  5
3C21
330
3B28
100
AcDbEntity
  8
Defpoints
 62
     0
100
AcDbPoint
 10
30.46949889466154
 20
7.204985697932651
 30
0.0
  0
ENDBLK
  5
3B34
330
3B28
100
AcDbEntity
  8
0
100
AcDbBlockEnd
  0
BLOCK
  5
3BB1
330
3BA6
100
AcDbEntity
  8
0
100
AcDbBlockBegin
  2
*D4
 70
     1
 10
0.0
 20
0.0
 30
0.0
  3
*D4
  1

  0
LINE
  5
3C04
330
3BA6
100
AcDbEntity
  8
DIM
 62
     0
370
    -2
100
AcDbLine
 10
17.45009824295047
 20
17.14248569793265
 30
0.0
 11
17.45009824295047
 21
18.50483742803614
 31
0.0
  0
LINE
  5
3C05
330
3BA6
100
AcDbEntity
  8
DIM
 62
     0
370
    -2
100
AcDbLine
 10
13.95009824295047
 20
17.14248569793265
 30
0.0
 11
13.95009824295047
 21
18.50483742803614
 31
0.0
  0
LINE
  5
3C06
330
3BA6
100
AcDbEntity
  8
DIM
 62
     0
370
    -2
100
AcDbLine
 10
17.27009824295047
 20
18.32483742803615
 30
0.0
 11
14.13009824295047
 21
18.32483742803615
 31
0.0
  0
LINE
  5
3C07
330
3BA6
100
AcDbEntity
  8
DIM
 62
     0
370
    -2
100
AcDbLine
 10
13.95009824295047
 20
18.32483742803615
 30
0.0
 11
13.77009824295047
 21
18.32483742803615
 31
0.0
  0
SOLID
  5
3C08
330
3BA6
100
AcDbEntity
  8
DIM
 62
     0
100
AcDbTrace
 10
17.27009824295047
 20
18.35483742803615
 30
0.0
 11
17.27009824295047
 21
18.29483742803614
 31
0.0
 12
17.45009824295047
 22
18.32483742803615
 32
0.0
 13
17.45009824295047
 23
18.32483742803615
 33
0.0
  0
SOLID
  5
3C09
330
3BA6
100
AcDbEntity
  8
DIM
 62
     0
100
AcDbTrace
 10
14.13009824295047
 20
18.35483742803615
 30
0.0
 11
14.13009824295047
 21
18.29483742803614
 31
0.0
 12
13.95009824295047
 22
18.32483742803615
 32
0.0
 13
13.95009824295047
 23
18.32483742803615
 33
0.0
  0
MTEXT
  5
3C0A
330
3BA6
100
AcDbEntity
  8
DIM
 62
     0
100
AcDbMText
 10
11.43009824295047
 20
18.32483742803615
 30
0.0
 40
1.0
 41
0.0
 71
     5
 72
     1
  1
\A1;3.5000
 73
     1
 44
1.0
  0
POINT
  5
3C0B
330
3BA6
100
AcDbEntity
  8
Defpoints
 62
     0
100
AcDbPoint
 10
17.45009824295047
 20
17.07998569793265
 30
0.0
  0
POINT
  5
3C0C
330
3BA6
100
AcDbEntity
  8
Defpoints
 62
     0
100
AcDbPoint
 10
13.95009824295047
 20
17.07998569793265
 30
0.0
  0
POINT
  5
3C0D
330
3BA6
100
AcDbEntity
  8
Defpoints
 62
     0
100
AcDbPoint
 10
13.95009824295047
 20
18.32483742803615
 30
0.0
  0
ENDBLK
  5
3BB2
330
3BA6
100
AcDbEntity
  8
0
100
AcDbBlockEnd
  0
BLOCK
  5
3BBF
330
3BB4
100
AcDbEntity
  8
0
100
AcDbBlockBegin
  2
*D5
 70
     1
 10
0.0
 20
0.0
 30
0.0
  3
*D5
  1

  0
LINE
  5
3BFA
330
3BB4
100
AcDbEntity
  8
DIM
 62
     0
370
    -2
100
AcDbLine
 10
13.88759824295047
 20
17.07998569793265
 30
0.0
 11
10.51447482449851
 21
17.07998569793265
 31
0.0
  0
LINE
  5
3BFB
330
3BB4
100
AcDbEntity
  8
DIM
 62
     0
370
    -2
100
AcDbLine
 10
13.88759824295047
 20
7.204985697932654
 30
0.0
 11
10.51447482449851
 21
7.204985697932654
 31
0.0
  0
LINE
  5
3BFC
330
3BB4
100
AcDbEntity
  8
DIM
 62
     0
370
    -2
100
AcDbLine
 10
10.69447482449851
 20
16.89998569793266
 30
0.0
 11
10.69447482449851
 21
14.64915236459932
 31
0.0
  0
LINE
  5
3BFD
330
3BB4
100
AcDbEntity
  8
DIM
 62
     0
370
    -2
100
AcDbLine
 10
10.69447482449851
 20
7.384985697932654
 30
0.0
 11
10.69447482449851
 21
9.63581903126599
 31
0.0
  0
SOLID
  5
3BFE
330
3BB4
100
AcDbEntity
  8
DIM
 62
     0
100
AcDbTrace
 10
10.66447482449851
 20
16.89998569793266
 30
0.0
 11
10.72447482449851
 21
16.89998569793266
 31
0.0
 12
10.69447482449851
 22
17.07998569793265
 32
0.0
 13
10.69447482449851
 23
17.07998569793265
 33
0.0
  0
SOLID
  5
3BFF
330
3BB4
100
AcDbEntity
  8
DIM
 62
     0
100
AcDbTrace
 10
10.66447482449851
 20
7.384985697932654
 30
0.0
 11
10.72447482449851
 21
7.384985697932654
 31
0.0
 12
10.69447482449851
 22
7.204985697932654
 32
0.0
 13
10.69447482449851
 23
7.204985697932654
 33
0.0
  0
MTEXT
  5
3C00
330
3BB4
100
AcDbEntity
  8
DIM
 62
     0
100
AcDbMText
 10
10.69447482449851
 20
12.14248569793266
 30
0.0
 40
1.0
 41
0.0
 71
     5
 72
     1
  1
\A1;9.8750
 11
0.0000000000000001
 21
1.0
 31
0.0
 73
     1
 44
1.0
  0
POINT
  5
3C01
330
3BB4
100
AcDbEntity
  8
Defpoints
 62
     0
100
AcDbPoint
 10
13.95009824295047
 20
17.07998569793265
 30
0.0
  0
POINT
  5
3C02
330
3BB4
100
AcDbEntity
  8
Defpoints
 62
     0
100
AcDbPoint
 10
13.95009824295047
 20
7.204985697932654
 30
0.0
  0
POINT
  5
3C03
330
3BB4
100
AcDbEntity
  8
Defpoints
 62
     0
100
AcDbPoint
 10
10.69447482449851
 20
7.204985697932654
 30
0.0
  0
ENDBLK
  5
3BC0
330
3BB4
100
AcDbEntity
  8
0
100
AcDbBlockEnd
  0
ENDSEC
  0
SECTION
  2
ENTITIES
  0
LINE
  5
3867
330
18
100
AcDbEntity
  8
0
100
AcDbLine
 10
27.49490267937627
 20
7.204985697932652
 30
0.0
 11
27.86990267937627
 21
7.204985697932652
 31
0.0
  0
LINE
  5
3869
330
18
100
AcDbEntity
  8
0
100
AcDbLine
 10
22.74491496901245
 20
17.08102983345387
 30
0.0
 11
27.86990324095103
 21
17.08274210615631
 31
0.0
  0
LINE
  5
386A
330
18
100
AcDbEntity
  8
0
100
AcDbLine
 10
22.74491496901245
 20
15.70602983345387
 30
0.0
 11
22.74491496901245
 21
17.08102983345387
 31
0.0
  0
ARC
  5
386F
330
18
100
AcDbEntity
  8
0
100
AcDbCircle
 10
22.63330782615531
 20
15.21942269059673
 30
0.0
 40
0.4992420913908675
100
AcDbArc
 50
328.1575427400146
 51
77.08218715606605
  0
ARC
  5
387F
330
18
100
AcDbEntity
  8
0
100
AcDbCircle
 10
18.85292671397889
 20
8.439461041507557
 30
0.0
 40
7.755216973552946
100
AcDbArc
 50
12.22040290426203
 51
57.16990415820599
  0
ARC
  5
3881
330
18
100
AcDbEntity
  8
0
100
AcDbCircle
 10
27.49959504983424
 20
7.589484489976205
 30
0.0
 40
0.3845274234998995
100
AcDbArc
 50
186.9478768402865
 51
269.3008048847829
  0
ARC
  5
3886
330
18
100
AcDbEntity
  8
0
100
AcDbCircle
 10
26.13874567038701
 20
7.476220746792114
 30
0.0
 40
0.9814182064815831
100
AcDbArc
 50
3.899848937996166
 51
60.77649986948749
  0
ARC
  5
3889
330
18
100
AcDbEntity
  8
0
100
AcDbCircle
 10
23.67227529184949
 20
9.731264604511082
 30
0.0
 40
3.260761337467676
100
AcDbArc
 50
334.6022643213402
 51
348.5278380328156
  0
ARC
  5
388A
330
18
100
AcDbEntity
  8
0
100
AcDbCircle
 10
26.61540988571484
 20
9.566722290718971
 30
0.0
 40
0.5458932020578106
100
AcDbArc
 50
109.5859831466952
 51
297.549240884399
  0
LINE
  5
388C
330
18
100
AcDbEntity
  8
0
100
AcDbLine
 10
17.45009824295047
 20
7.204985697932654
 30
0.0
 11
17.45009824295047
 21
17.07998569793265
 31
0.0
  0
LINE
  5
388F
330
18
100
AcDbEntity
  8
0
100
AcDbLine
 10
13.95009824295047
 20
7.204985697932654
 30
0.0
 11
13.95009824295047
 21
17.07998569793265
 31
0.0
  0
DIMENSION
  5
3AD2
330
18
100
AcDbEntity
  8
DIM
100
AcDbDimension
  2
*D2
 10
27.86990267937627
 20
18.31847501828127
 30
0.0
 11
25.30740882419436
 21
18.31847501828127
 31
0.0
 70
    32
 71
     5
 42
5.124987710363821
  3
STANDARD
100
AcDbAlignedDimension
 13
22.74491496901245
 23
17.08102983345387
 33
0.0
 14
27.86990267937627
 24
17.07998569793265
 34
0.0
100
AcDbRotatedDimension
  0
LINE
  5
3B26
330
18
100
AcDbEntity
  8
0
100
AcDbLine
 10
27.86990267937627
 20
17.07998569793265
 30
0.0
 11
27.86990267937627
 21
7.204985697932652
 31
0.0
  0
DIMENSION
  5
3B27
330
18
100
AcDbEntity
  8
DIM
100
AcDbDimension
  2
*D3
 10
30.46949889466154
 20
7.204985697932651
 30
0.0
 11
30.46949889466154
 21
12.14248569793266
 31
0.0
 70
    32
 71
     5
 42
9.875
  3
STANDARD
100
AcDbAlignedDimension
 13
27.86990267937627
 23
17.07998569793265
 33
0.0
 14
27.86990267937627
 24
7.204985697932652
 34
0.0
 50
90.0
100
AcDbRotatedDimension
  0
LINE
  5
3B4A
330
18
100
AcDbEntity
  8
0
100
AcDbLine
 10
17.45009824295047
 20
17.07998569793265
 30
0.0
 11
13.95009824295047
 21
17.07998569793265
 31
0.0
  0
LINE
  5
3B4B
330
18
100
AcDbEntity
  8
0
100
AcDbLine
 10
17.45009824295047
 20
7.204985697932653
 30
0.0
 11
13.95009824295047
 21
7.204985697932654
 31
0.0
  0
LINE
  5
3B4C
330
18
100
AcDbEntity
  8
0
100
AcDbLine
 10
17.45009824295047
 20
8.332725914479087
 30
0.0
 11
13.95009824295047
 21
8.332725914479087
 31
0.0
  0
LINE
  5
3B4D
330
18
100
AcDbEntity
  8
0
100
AcDbLine
 10
17.45009824295047
 20
9.020829088661161
 30
0.0
 11
13.95009824295047
 21
9.020829088661161
 31
0.0
  0
LINE
  5
3B4E
330
18
100
AcDbEntity
  8
0
100
AcDbLine
 10
17.45009824295047
 20
10.08102983345387
 30
0.0
 11
13.95009824295047
 21
10.08102983345387
 31
0.0
  0
LINE
  5
3B4F
330
18
100
AcDbEntity
  8
0
100
AcDbLine
 10
17.45009824295047
 20
14.95602983345387
 30
0.0
 11
13.95009824295047
 21
14.95602983345387
 31
0.0
  0
LINE
  5
3B50
330
18
100
AcDbEntity
  8
0
100
AcDbLine
 10
17.45009824295047
 20
15.70602983345387
 30
0.0
 11
13.95009824295047
 21
15.70602983345387
 31
0.0
  0
LINE
  5
3B55
330
18
100
AcDbEntity
  8
0
100
AcDbLine
 10
14.26259824295047
 20
10.51852983345387
 30
0.0
 11
14.26259824295047
 21
14.64352983345387
 31
0.0
  0
LINE
  5
3B5C
330
18
100
AcDbEntity
  8
0
100
AcDbLine
 10
17.13759824295047
 20
10.51852983345387
 30
0.0
 11
17.13759824295047
 21
14.64352983345387
 31
0.0
  0
LINE
  5
3B5D
330
18
100
AcDbEntity
  8
0
100
AcDbLine
 10
14.26259824295047
 20
14.64352983345387
 30
0.0
 11
17.13759824295047
 21
14.64352983345387
 31
0.0
  0
LINE
  5
3B65
330
18
100
AcDbEntity
  8
0
100
AcDbLine
 10
14.26259824295047
 20
10.51852983345387
 30
0.0
 11
17.13759824295047
 21
10.51852983345387
 31
0.0
  0
LINE
  5
3B73
330
18
100
AcDbEntity
  8
0
100
AcDbLine
 10
14.45009824295047
 20
14.45602983345387
 30
0.0
 11
16.95009824295047
 21
14.45602983345387
 31
0.0
  0
LINE
  5
3B79
330
18
100
AcDbEntity
  8
0
100
AcDbLine
 10
14.45009824295047
 20
10.76852983345387
 30
0.0
 11
16.95009824295047
 21
10.76852983345387
 31
0.0
  0
LINE
  5
3B80
330
18
100
AcDbEntity
  8
0
100
AcDbLine
 10
14.45009824295047
 20
10.76852983345387
 30
0.0
 11
14.45009824295047
 21
14.45602983345387
 31
0.0
  0
LINE
  5
3B86
330
18
100
AcDbEntity
  8
0
100
AcDbLine
 10
16.95009824295047
 20
10.76852983345387
 30
0.0
 11
16.95009824295047
 21
14.45602983345387
 31
0.0
  0
LINE
  5
3B8A
330
18
100
AcDbEntity
  8
0
  6
DASHED
100
AcDbLine
 10
23.5061966106947
 20
14.64352983345387
 30
0.0
 11
23.69369661069471
 21
14.64352983345387
 31
0.0
  0
ARC
  5
3B94
330
18
100
AcDbEntity
  8
0
  6
DASHED
100
AcDbCircle
 10
18.98749111904379
 20
8.53458453322303
 30
0.0
 40
7.77787213089638
100
AcDbArc
 50
16.69147807531756
 51
51.7601226551309
  0
LINE
  5
3B9C
330
18
100
AcDbEntity
  8
0
  6
DASHED
100
AcDbLine
 10
26.32426282375461
 20
10.51852983345387
 30
0.0
 11
26.43764435774641
 21
10.76852983345387
 31
0.0
  0
LINE
  5
3BA0
330
18
100
AcDbEntity
  8
0
  6
DASHED
100
AcDbLine
 10
23.5061966106947
 20
14.64352983345387
 30
0.0
 11
23.80164547919492
 21
14.64352983345387
 31
0.0
  0
DIMENSION
  5
3BA5
330
18
100
AcDbEntity
  8
DIM
100
AcDbDimension
  2
*D4
 10
13.95009824295047
 20
18.32483742803615
 30
0.0
 11
11.43009824295047
 21
18.32483742803615
 31
0.0
 70
    32
 71
     5
 42
3.5
  3
STANDARD
100
AcDbAlignedDimension
 13
17.45009824295047
 23
17.07998569793265
 33
0.0
 14
13.95009824295047
 24
17.07998569793265
 34
0.0
100
AcDbRotatedDimension
  0
DIMENSION
  5
3BB3
330
18
100
AcDbEntity
  8
DIM
100
AcDbDimension
  2
*D5
 10
10.69447482449851
 20
7.204985697932654
 30
0.0
 11
10.69447482449851
 21
12.14248569793266
 31
0.0
 70
    32
 71
     5
 42
9.875000000000003
  3
STANDARD
100
AcDbAlignedDimension
 13
13.95009824295047
 23
17.07998569793265
 33
0.0
 14
13.95009824295047
 24
7.204985697932654
 34
0.0
 50
90.0
100
AcDbRotatedDimension
  0
VIEWPORT
  5
3BEC
330
15
100
AcDbEntity
 67
     1
  8
0
100
AcDbViewport
 10
133.3499908447265
 20
101.5999970436096
 30
0.0
 40
446.6355739657439
 41
228.4221935424805
 68
     2
 69
     1
 12
133.3499908447265
 22
101.5999970436096
 13
0.0
 23
0.0
 14
10.0
 24
10.0
 15
10.0
 25
10.0
 16
0.0
 26
0.0
 36
1.0
 17
0.0
 27
0.0
 37
0.0
 42
50.0
 43
0.0
 44
0.0
 45
228.4221935424805
 50
0.0
 51
0.0
 72
   100
 90
    32800
  1

281
     0
 71
     1
 74
     0
110
0.0
120
0.0
130
0.0
111
1.0
121
0.0
131
0.0
112
0.0
122
1.0
132
0.0
 79
     0
146
0.0
170
     0
  0
VIEWPORT
  5
3BEE
330
15
100
AcDbEntity
 67
     1
  8
0
100
AcDbViewport
 10
133.3499939441681
 20
101.5999939441681
 30
0.0
 40
213.3599903106689
 41
162.5599903106689
 68
     1
 69
     2
 12
20.4057053622723
 22
12.46462458293249
 13
0.0
 23
0.0
 14
10.0
 24
10.0
 15
10.0
 25
10.0
 16
0.0
 26
0.0
 36
1.0
 17
0.0
 27
0.0
 37
0.0
 42
50.0
 43
0.0
 44
0.0
 45
18.93917233794415
 50
0.0
 51
0.0
 72
   100
 90
    32800
  1

281
     0
 71
     1
 74
     0
110
0.0
120
0.0
130
0.0
111
1.0
121
0.0
131
0.0
112
0.0
122
1.0
132
0.0
 79
     0
146
0.0
170
     0
  0
ENDSEC
  0
SECTION
  2
OBJECTS
  0
DICTIONARY
  5
C
330
0
100
AcDbDictionary
281
     1
  3
ACAD_COLOR
350
38D2
  3
ACAD_GROUP
350
D
  3
ACAD_IMAGE_DICT
350
21
  3
ACAD_IMAGE_VARS
350
20
  3
ACAD_LAYOUT
350
38D3
  3
ACAD_MATERIAL
350
38D1
  3
ACAD_MLINESTYLE
350
1B
  3
ACAD_PLOTSETTINGS
350
38D4
  3
ACAD_PLOTSTYLENAME
350
38CF
  3
ACDBVARIABLEDICTIONARY
350
34D4
  0
DICTIONARY
  5
38D2
102
{ACAD_REACTORS
330
C
102
}
330
C
100
AcDbDictionary
281
     1
  0
DICTIONARY
  5
D
102
{ACAD_REACTORS
330
C
102
}
330
C
100
AcDbDictionary
281
     1
  0
DICTIONARY
  5
21
102
{ACAD_REACTORS
330
C
102
}
330
C
100
AcDbDictionary
281
     1
  3
3304-1
350
22
  3
3304-1B
350
1C41
  3
3304-2
350
25
  3
3304-2B
350
1C44
  3
3304-3
350
28
  3
3304-3B
350
1C47
  0
RASTERVARIABLES
  5
20
102
{ACAD_REACTORS
330
C
102
}
330
C
100
AcDbRasterVariables
 90
        0
 70
     1
 71
     1
 72
     0
  0
DICTIONARY
  5
38D3
102
{ACAD_REACTORS
330
C
102
}
330
C
100
AcDbDictionary
281
     1
  3
Layout1
350
38D6
  3
Model
350
38D5
  0
DICTIONARY
  5
38D1
102
{ACAD_REACTORS
330
C
102
}
330
C
100
AcDbDictionary
281
     1
  0
DICTIONARY
  5
1B
102
{ACAD_REACTORS
330
C
102
}
330
C
100
AcDbDictionary
281
     1
  3
STANDARD
350
1C
  0
DICTIONARY
  5
38D4
102
{ACAD_REACTORS
330
C
102
}
330
C
100
AcDbDictionary
281
     1
  0
ACDBDICTIONARYWDFLT
  5
38CF
102
{ACAD_REACTORS
330
C
102
}
330
C
100
AcDbDictionary
281
     1
  3
Normal
350
38D0
100
AcDbDictionaryWithDefault
340
38D0
  0
DICTIONARY
  5
34D4
102
{ACAD_REACTORS
330
C
102
}
330
C
100
AcDbDictionary
281
     1
  3
SORTENTS
350
34D5
  0
IMAGEDEF
  5
22
102
{ACAD_REACTORS
330
21
102
}
330
21
100
AcDbRasterImageDef
 90
        0
  1
U:\TPDWG\MichelQ\3304-1.tif
 10
2243.0
 20
3009.0
 11
0.0705555555555556
 21
0.0705555555555556
280
     1
281
     5
  0
IMAGEDEF
  5
1C41
102
{ACAD_REACTORS
330
21
102
}
330
21
100
AcDbRasterImageDef
 90
        0
  1
U:\TPDWG\MichelQ\3304-1b.TIF
 10
2202.0
 20
2931.0
 11
0.0705555555555556
 21
0.0705555555555556
280
     1
281
     5
  0
IMAGEDEF
  5
25
102
{ACAD_REACTORS
330
21
102
}
330
21
100
AcDbRasterImageDef
 90
        0
  1
U:\TPDWG\MichelQ\3304-2.tif
 10
2243.0
 20
3009.0
 11
0.0705555555555556
 21
0.0705555555555556
280
     1
281
     5
  0
IMAGEDEF
  5
1C44
102
{ACAD_REACTORS
330
21
102
}
330
21
100
AcDbRasterImageDef
 90
        0
  1
U:\TPDWG\MichelQ\3304-2b.TIF
 10
2202.0
 20
2931.0
 11
0.0705555555555556
 21
0.0705555555555556
280
     1
281
     5
  0
IMAGEDEF
  5
28
102
{ACAD_REACTORS
330
21
102
}
330
21
100
AcDbRasterImageDef
 90
        0
  1
U:\TPDWG\MichelQ\3304-3.tif
 10
2243.0
 20
3009.0
 11
0.0705555555555556
 21
0.0705555555555556
280
     1
281
     5
  0
IMAGEDEF
  5
1C47
102
{ACAD_REACTORS
330
21
102
}
330
21
100
AcDbRasterImageDef
 90
        0
  1
U:\TPDWG\MichelQ\3304-3b.TIF
 10
2202.0
 20
2931.0
 11
0.0705555555555556
 21
0.0705555555555556
280
     1
281
     5
  0
LAYOUT
  5
38D6
102
{ACAD_REACTORS
330
38D3
102
}
330
38D3
100
AcDbPlotSettings
  1

  2
none_device
  4
Letter_(8.50_x_11.00_Inches)
  6

 40
6.349999904632568
 41
6.349999904632568
 42
6.350006103515625
 43
6.350006103515625
 44
215.8999938964844
 45
279.3999938964844
 46
0.0
 47
0.0
 48
0.0
 49
0.0
140
0.0
141
0.0
142
1.0
143
1.0
 70
   688
 72
     1
 73
     1
 74
     5
  7

 75
    16
147
1.0
 76
     1
 77
     2
 78
   300
148
0.0
149
0.0
100
AcDbLayout
  1
Layout1
 70
     1
 71
     1
 10
-6.350006103515625
 20
-6.349999904632568
 11
273.0499877929688
 21
209.5499939918518
 12
0.0
 22
0.0
 32
0.0
 14
26.64733987609782
 24
20.31633067121299
 34
-0.0015258207003583
 15
240.0567634637198
 25
182.8968206270327
 35
0.0000000349246037
146
0.0
 13
0.0
 23
0.0
 33
0.0
 16
1.0
 26
0.0
 36
0.0
 17
0.0
 27
1.0
 37
0.0
 76
     0
330
15
331
3BEE
  0
LAYOUT
  5
38D5
102
{ACAD_REACTORS
330
38D3
102
}
330
38D3
100
AcDbPlotSettings
  1

  2
None
  4

  6

 40
0.0
 41
0.0
 42
0.0
 43
0.0
 44
0.0
 45
0.0
 46
0.0
 47
0.0
 48
0.0
 49
0.0
140
0.0
141
0.0
142
1.0
143
1.0
 70
  1712
 72
     0
 73
     0
 74
     0
  7

 75
     0
147
1.0
 76
     0
 77
     2
 78
   300
148
0.0
149
0.0
100
AcDbLayout
  1
Model
 70
     1
 71
     0
 10
0.0
 20
0.0
 11
12.0
 21
9.0
 12
0.0
 22
0.0
 32
0.0
 14
0.0
 24
0.0
 34
0.0
 15
0.0
 25
0.0
 35
0.0
146
0.0
 13
0.0
 23
0.0
 33
0.0
 16
1.0
 26
0.0
 36
0.0
 17
0.0
 27
1.0
 37
0.0
 76
     0
330
18
  0
MLINESTYLE
  5
1C
102
{ACAD_REACTORS
330
1B
102
}
330
1B
100
AcDbMlineStyle
  2
STANDARD
 70
     0
  3

 62
   256
 51
90.0
 52
90.0
 71
     2
 49
0.5
 62
   256
  6
BYLAYER
 49
-0.5
 62
   256
  6
BYLAYER
  0
ACDBPLACEHOLDER
  5
38D0
102
{ACAD_REACTORS
330
38CF
102
}
330
38CF
  0
DICTIONARYVAR
  5
34D5
102
{ACAD_REACTORS
330
34D4
102
}
330
34D4
100
DictionaryVariables
280
     0
  1
96
  0
ENDSEC
  0
EOF
