  0
SECTION
  2
HEADER
  9
$ACADVER
  1
AC1018
  9
$ACADMAINTVER
 70
     0
  9
$DWGCODEPAGE
  3
ANSI_1252
  9
$INSBASE
 10
0.0
 20
0.0
 30
0.0
  9
$EXTMIN
 10
1.137079980224147
 20
3.931945430707505
 30
0.0
  9
$EXTMAX
 10
22.76034263290277
 20
11.64791186434405
 30
0.0
  9
$LIMMIN
 10
0.0
 20
0.0
  9
$LIMMAX
 10
12.0
 20
9.0
  9
$ORTHOMODE
 70
     0
  9
$REGENMODE
 70
     1
  9
$FILLMODE
 70
     1
  9
$QTEXTMODE
 70
     0
  9
$MIRRTEXT
 70
     1
  9
$LTSCALE
 40
1.0
  9
$ATTMODE
 70
     1
  9
$TEXTSIZE
 40
0.2
  9
$TRACEWID
 40
0.05
  9
$TEXTSTYLE
  7
STANDARD
  9
$CLAYER
  8
0
  9
$CELTYPE
  6
BYLAYER
  9
$CECOLOR
 62
   256
  9
$CELTSCALE
 40
1.0
  9
$DISPSILH
 70
     0
  9
$DIMSCALE
 40
1.0
  9
$DIMASZ
 40
0.18
  9
$DIMEXO
 40
0.0625
  9
$DIMDLI
 40
0.38
  9
$DIMRND
 40
0.0
  9
$DIMDLE
 40
0.0
  9
$DIMEXE
 40
0.18
  9
$DIMTP
 40
0.0
  9
$DIMTM
 40
0.0
  9
$DIMTXT
 40
1.0
  9
$DIMCEN
 40
0.09
  9
$DIMTSZ
 40
0.0
  9
$DIMTOL
 70
     0
  9
$DIMLIM
 70
     0
  9
$DIMTIH
 70
     1
  9
$DIMTOH
 70
     1
  9
$DIMSE1
 70
     0
  9
$DIMSE2
 70
     0
  9
$DIMTAD
 70
     0
  9
$DIMZIN
 70
     0
  9
$DIMBLK
  1

  9
$DIMASO
 70
     1
  9
$DIMSHO
 70
     1
  9
$DIMPOST
  1

  9
$DIMAPOST
  1

  9
$DIMALT
 70
     0
  9
$DIMALTD
 70
     2
  9
$DIMALTF
 40
25.4
  9
$DIMLFAC
 40
1.0
  9
$DIMTOFL
 70
     0
  9
$DIMTVP
 40
0.0
  9
$DIMTIX
 70
     0
  9
$DIMSOXD
 70
     0
  9
$DIMSAH
 70
     0
  9
$DIMBLK1
  1

  9
$DIMBLK2
  1

  9
$DIMSTYLE
  2
STANDARD
  9
$DIMCLRD
 70
     0
  9
$DIMCLRE
 70
     0
  9
$DIMCLRT
 70
     0
  9
$DIMTFAC
 40
1.0
  9
$DIMGAP
 40
0.09
  9
$DIMJUST
 70
     0
  9
$DIMSD1
 70
     0
  9
$DIMSD2
 70
     0
  9
$DIMTOLJ
 70
     1
  9
$DIMTZIN
 70
     0
  9
$DIMALTZ
 70
     0
  9
$DIMALTTZ
 70
     0
  9
$DIMUPT
 70
     0
  9
$DIMDEC
 70
     4
  9
$DIMTDEC
 70
     4
  9
$DIMALTU
 70
     2
  9
$DIMALTTD
 70
     2
  9
$DIMTXSTY
  7
STANDARD
  9
$DIMAUNIT
 70
     0
  9
$DIMADEC
 70
     0
  9
$DIMALTRND
 40
0.0
  9
$DIMAZIN
 70
     0
  9
$DIMDSEP
 70
    46
  9
$DIMATFIT
 70
     3
  9
$DIMFRAC
 70
     0
  9
$DIMLDRBLK
  1

  9
$DIMLUNIT
 70
     2
  9
$DIMLWD
 70
    -2
  9
$DIMLWE
 70
    -2
  9
$DIMTMOVE
 70
     0
  9
$LUNITS
 70
     4
  9
$LUPREC
 70
     4
  9
$SKETCHINC
 40
0.1
  9
$FILLETRAD
 40
0.0
  9
$AUNITS
 70
     0
  9
$AUPREC
 70
     0
  9
$MENU
  1
.
  9
$ELEVATION
 40
0.0
  9
$PELEVATION
 40
0.0
  9
$THICKNESS
 40
0.0
  9
$LIMCHECK
 70
     0
  9
$CHAMFERA
 40
0.5
  9
$CHAMFERB
 40
0.5
  9
$CHAMFERC
 40
1.0
  9
$CHAMFERD
 40
0.0
  9
$SKPOLY
 70
     0
  9
$TDCREATE
 40
2451160.318790972
  9
$TDUCREATE
 40
2451160.485457639
  9
$TDUPDATE
 40
2453488.683173727
  9
$TDUUPDATE
 40
2453488.849840393
  9
$TDINDWG
 40
0.4926064120
  9
$TDUSRTIMER
 40
0.4926064120
  9
$USRTIMER
 70
     1
  9
$ANGBASE
 50
0.0
  9
$ANGDIR
 70
     0
  9
$PDMODE
 70
     3
  9
$PDSIZE
 40
0.01
  9
$PLINEWID
 40
0.0
  9
$SPLFRAME
 70
     0
  9
$SPLINETYPE
 70
     6
  9
$SPLINESEGS
 70
     8
  9
$HANDSEED
  5
15D22
  9
$SURFTAB1
 70
     6
  9
$SURFTAB2
 70
     6
  9
$SURFTYPE
 70
     6
  9
$SURFU
 70
     6
  9
$SURFV
 70
     6
  9
$UCSBASE
  2

  9
$UCSNAME
  2

  9
$UCSORG
 10
0.0
 20
0.0
 30
0.0
  9
$UCSXDIR
 10
1.0
 20
0.0
 30
0.0
  9
$UCSYDIR
 10
0.0
 20
1.0
 30
0.0
  9
$UCSORTHOREF
  2

  9
$UCSORTHOVIEW
 70
     0
  9
$UCSORGTOP
 10
0.0
 20
0.0
 30
0.0
  9
$UCSORGBOTTOM
 10
0.0
 20
0.0
 30
0.0
  9
$UCSORGLEFT
 10
0.0
 20
0.0
 30
0.0
  9
$UCSORGRIGHT
 10
0.0
 20
0.0
 30
0.0
  9
$UCSORGFRONT
 10
0.0
 20
0.0
 30
0.0
  9
$UCSORGBACK
 10
0.0
 20
0.0
 30
0.0
  9
$PUCSBASE
  2

  9
$PUCSNAME
  2

  9
$PUCSORG
 10
0.0
 20
0.0
 30
0.0
  9
$PUCSXDIR
 10
1.0
 20
0.0
 30
0.0
  9
$PUCSYDIR
 10
0.0
 20
1.0
 30
0.0
  9
$PUCSORTHOREF
  2

  9
$PUCSORTHOVIEW
 70
     0
  9
$PUCSORGTOP
 10
0.0
 20
0.0
 30
0.0
  9
$PUCSORGBOTTOM
 10
0.0
 20
0.0
 30
0.0
  9
$PUCSORGLEFT
 10
0.0
 20
0.0
 30
0.0
  9
$PUCSORGRIGHT
 10
0.0
 20
0.0
 30
0.0
  9
$PUCSORGFRONT
 10
0.0
 20
0.0
 30
0.0
  9
$PUCSORGBACK
 10
0.0
 20
0.0
 30
0.0
  9
$USERI1
 70
     0
  9
$USERI2
 70
     0
  9
$USERI3
 70
     0
  9
$USERI4
 70
     0
  9
$USERI5
 70
     0
  9
$USERR1
 40
0.0
  9
$USERR2
 40
0.0
  9
$USERR3
 40
0.0
  9
$USERR4
 40
0.0
  9
$USERR5
 40
0.0
  9
$WORLDVIEW
 70
     1
  9
$SHADEDGE
 70
     3
  9
$SHADEDIF
 70
    70
  9
$TILEMODE
 70
     1
  9
$MAXACTVP
 70
    48
  9
$PINSBASE
 10
0.0
 20
0.0
 30
0.0
  9
$PLIMCHECK
 70
     0
  9
$PEXTMIN
 10
1.000000000000000E+20
 20
1.000000000000000E+20
 30
1.000000000000000E+20
  9
$PEXTMAX
 10
-1.000000000000000E+20
 20
-1.000000000000000E+20
 30
-1.000000000000000E+20
  9
$PLIMMIN
 10
0.0
 20
0.0
  9
$PLIMMAX
 10
12.0
 20
9.0
  9
$UNITMODE
 70
     0
  9
$VISRETAIN
 70
     1
  9
$PLINEGEN
 70
     0
  9
$PSLTSCALE
 70
     1
  9
$TREEDEPTH
 70
  3020
  9
$CMLSTYLE
  2
STANDARD
  9
$CMLJUST
 70
     0
  9
$CMLSCALE
 40
1.0
  9
$PROXYGRAPHICS
 70
     1
  9
$MEASUREMENT
 70
     0
  9
$CELWEIGHT
370
    -1
  9
$ENDCAPS
280
     0
  9
$JOINSTYLE
280
     0
  9
$LWDISPLAY
290
     0
  9
$INSUNITS
 70
     0
  9
$HYPERLINKBASE
  1

  9
$STYLESHEET
  1

  9
$XEDIT
290
     1
  9
$CEPSNTYPE
380
     0
  9
$PSTYLEMODE
290
     1
  9
$FINGERPRINTGUID
  2
{96767202-3864-462C-9EF2-ECB80CCE21A9}
  9
$VERSIONGUID
  2
{3F4D5F24-87A4-48C9-98B7-C62DD5336CC4}
  9
$EXTNAMES
290
     1
  9
$PSVPSCALE
 40
0.0
  9
$OLESTARTUP
290
     0
  9
$SORTENTS
280
   127
  9
$INDEXCTL
280
     0
  9
$HIDETEXT
280
     0
  9
$XCLIPFRAME
290
     0
  9
$HALOGAP
280
     0
  9
$OBSCOLOR
 70
   257
  9
$OBSLTYPE
280
     0
  9
$INTERSECTIONDISPLAY
280
     0
  9
$INTERSECTIONCOLOR
 70
   257
  9
$DIMASSOC
280
     1
  9
$PROJECTNAME
  1

  0
ENDSEC
  0
SECTION
  2
CLASSES
  0
CLASS
  1
RASTERVARIABLES
  2
AcDbRasterVariables
  3
ISM
 90
        0
 91
        1
280
     0
281
     0
  0
CLASS
  1
IMAGEDEF
  2
AcDbRasterImageDef
  3
ISM
 90
        0
 91
        1
280
     0
281
     0
  0
CLASS
  1
IMAGEDEF_REACTOR
  2
AcDbRasterImageDefReactor
  3
ISM
 90
        1
 91
        0
280
     0
281
     0
  0
CLASS
  1
IMAGE
  2
AcDbRasterImage
  3
ISM
 90
      127
 91
        0
280
     0
281
     1
  0
CLASS
  1
ACDBDICTIONARYWDFLT
  2
AcDbDictionaryWithDefault
  3
ObjectDBX Classes
 90
        0
 91
        1
280
     0
281
     0
  0
ENDSEC
  0
SECTION
  2
TABLES
  0
TABLE
  2
VPORT
  5
8
330
0
100
AcDbSymbolTable
 70
     2
  0
VPORT
  5
15D21
330
8
100
AcDbSymbolTableRecord
100
AcDbViewportTableRecord
  2
*Active
 70
     0
 10
0.0
 20
0.0
 11
1.0
 21
1.0
 12
12.22748712612336
 22
6.857414781280058
 13
0.0
 23
0.0
 14
0.5
 24
0.5
 15
0.5
 25
0.5
 16
0.0
 26
0.0
 36
1.0
 17
0.0
 27
0.0
 37
0.0
 40
12.65990505670943
 41
1.977142857142857
 42
50.0
 43
0.0
 44
0.0
 50
0.0
 51
0.0
 71
     0
 72
   100
 73
     1
 74
     1
 75
     0
 76
     0
 77
     0
 78
     0
281
     0
 65
     1
110
0.0
120
0.0
130
0.0
111
1.0
121
0.0
131
0.0
112
0.0
122
1.0
132
0.0
 79
     0
146
0.0
  0
ENDTAB
  0
TABLE
  2
LTYPE
  5
5
330
0
100
AcDbSymbolTable
 70
     1
  0
LTYPE
  5
12
330
5
100
AcDbSymbolTableRecord
100
AcDbLinetypeTableRecord
  2
BYBLOCK
 70
     0
  3

 72
    65
 73
     0
 40
0.0
  0
LTYPE
  5
13
330
5
100
AcDbSymbolTableRecord
100
AcDbLinetypeTableRecord
  2
BYLAYER
 70
     0
  3

 72
    65
 73
     0
 40
0.0
  0
LTYPE
  5
14
330
5
100
AcDbSymbolTableRecord
100
AcDbLinetypeTableRecord
  2
CONTINUOUS
 70
     0
  3
Solid line
 72
    65
 73
     0
 40
0.0
  0
ENDTAB
  0
TABLE
  2
LAYER
  5
2
330
0
100
AcDbSymbolTable
 70
     3
  0
LAYER
  5
E
330
2
100
AcDbSymbolTableRecord
100
AcDbLayerTableRecord
  2
0
 70
     0
 62
     7
  6
CONTINUOUS
370
    -3
390
15A81
  0
LAYER
  5
15A8B
330
2
100
AcDbSymbolTableRecord
100
AcDbLayerTableRecord
  2
Defpoints
 70
     0
 62
     7
  6
CONTINUOUS
290
     0
370
    -3
390
15A81
  0
LAYER
  5
15CFC
330
2
100
AcDbSymbolTableRecord
100
AcDbLayerTableRecord
  2
DIM
 70
     0
 62
    -3
  6
CONTINUOUS
370
    -3
390
15A81
  0
ENDTAB
  0
TABLE
  2
STYLE
  5
3
330
0
100
AcDbSymbolTable
 70
     1
  0
STYLE
  5
F
330
3
100
AcDbSymbolTableRecord
100
AcDbTextStyleTableRecord
  2
STANDARD
 70
     0
 40
0.0
 41
1.0
 50
0.0
 71
     0
 42
0.2
  3
txt
  4

  0
ENDTAB
  0
TABLE
  2
VIEW
  5
6
330
0
100
AcDbSymbolTable
 70
     0
  0
ENDTAB
  0
TABLE
  2
UCS
  5
7
330
0
100
AcDbSymbolTable
 70
     0
  0
ENDTAB
  0
TABLE
  2
APPID
  5
9
330
0
100
AcDbSymbolTable
 70
     1
  0
APPID
  5
10
330
9
100
AcDbSymbolTableRecord
100
AcDbRegAppTableRecord
  2
ACAD
 70
     0
  0
ENDTAB
  0
TABLE
  2
DIMSTYLE
  5
A
330
0
100
AcDbSymbolTable
 70
     1
100
AcDbDimStyleTable
 71
     1
340
1D
  0
DIMSTYLE
105
1D
102
{ACAD_REACTORS
330
15CCC
330
15CDA
330
15CE8
102
}
330
A
100
AcDbSymbolTableRecord
100
AcDbDimStyleTableRecord
  2
STANDARD
 70
     0
140
1.0
340
F
  0
ENDTAB
  0
TABLE
  2
BLOCK_RECORD
  5
1
330
0
100
AcDbSymbolTable
 70
     5
  0
BLOCK_RECORD
  5
18
330
1
100
AcDbSymbolTableRecord
100
AcDbBlockTableRecord
  2
*MODEL_SPACE
340
15A86
  0
BLOCK_RECORD
  5
15
330
1
100
AcDbSymbolTableRecord
100
AcDbBlockTableRecord
  2
*PAPER_SPACE
340
15A87
  0
BLOCK_RECORD
  5
1597B
330
1
100
AcDbSymbolTableRecord
100
AcDbBlockTableRecord
  2
2217_E
340
0
  0
BLOCK_RECORD
  5
15985
330
1
100
AcDbSymbolTableRecord
100
AcDbBlockTableRecord
  2
2217_C
340
0
  0
BLOCK_RECORD
  5
15CCD
330
1
100
AcDbSymbolTableRecord
100
AcDbBlockTableRecord
  2
*D2
340
0
  0
BLOCK_RECORD
  5
15CDB
330
1
100
AcDbSymbolTableRecord
100
AcDbBlockTableRecord
  2
*D3
340
0
  0
BLOCK_RECORD
  5
15CE9
330
1
100
AcDbSymbolTableRecord
100
AcDbBlockTableRecord
  2
*D4
340
0
  0
ENDTAB
  0
ENDSEC
  0
SECTION
  2
BLOCKS
  0
BLOCK
  5
19
330
18
100
AcDbEntity
  8
0
100
AcDbBlockBegin
  2
*MODEL_SPACE
 70
     0
 10
0.0
 20
0.0
 30
0.0
  3
*MODEL_SPACE
  1

  0
ENDBLK
  5
1A
330
18
100
AcDbEntity
  8
0
100
AcDbBlockEnd
  0
BLOCK
  5
16
330
15
100
AcDbEntity
 67
     1
  8
0
100
AcDbBlockBegin
  2
*PAPER_SPACE
 70
     0
 10
0.0
 20
0.0
 30
0.0
  3
*PAPER_SPACE
  1

  0
ENDBLK
  5
17
330
15
100
AcDbEntity
 67
     1
  8
0
100
AcDbBlockEnd
  0
BLOCK
  5
1597C
330
1597B
100
AcDbEntity
  8
0
100
AcDbBlockBegin
  2
2217_E
 70
     0
 10
0.0
 20
0.0
 30
0.0
  3
2217_E
  1

  0
LINE
  5
1597D
330
1597B
100
AcDbEntity
  8
0
100
AcDbLine
 10
2.249999999999998
 20
-5.614891113698397
 30
0.0
 11
2.25
 21
0.0
 31
0.0
  0
LINE
  5
1597E
330
1597B
100
AcDbEntity
  8
0
100
AcDbLine
 10
-2.250000000000002
 20
-5.614891113698398
 30
0.0
 11
-2.25
 21
0.0
 31
0.0
  0
LINE
  5
1597F
330
1597B
100
AcDbEntity
  8
0
100
AcDbLine
 10
2.249999999999998
 20
-5.614891113698397
 30
0.0
 11
-2.250000000000002
 21
-5.614891113698398
 31
0.0
  0
LINE
  5
15980
330
1597B
100
AcDbEntity
  8
0
100
AcDbLine
 10
2.249999999999998
 20
-4.281435602476071
 30
0.0
 11
-2.250000000000001
 21
-4.28143560247607
 31
0.0
  0
LINE
  5
15981
330
1597B
100
AcDbEntity
  8
0
100
AcDbLine
 10
2.249999999999998
 20
-3.87713920710581
 30
0.0
 11
-2.250000000000001
 21
-3.877139207105809
 31
0.0
  0
LINE
  5
15982
330
1597B
100
AcDbEntity
  8
0
100
AcDbLine
 10
2.25
 20
-0.7301127433396691
 30
0.0
 11
-2.25
 21
-0.7301127433396691
 31
0.0
  0
LINE
  5
15983
330
1597B
100
AcDbEntity
  8
0
100
AcDbLine
 10
2.25
 20
0.0
 30
0.0
 11
-2.25
 21
0.0
 31
0.0
  0
ENDBLK
  5
15984
330
1597B
100
AcDbEntity
  8
0
100
AcDbBlockEnd
  0
BLOCK
  5
15986
330
15985
100
AcDbEntity
  8
0
100
AcDbBlockBegin
  2
2217_C
 70
     0
 10
0.0
 20
0.0
 30
0.0
  3
2217_C
  1

  0
LWPOLYLINE
  5
15987
330
15985
100
AcDbEntity
  8
0
100
AcDbPolyline
 90
      241
 70
     0
 43
0.0
 10
-5.000050845905633
 20
0.0
 10
-4.978956620678388
 20
-0.1629509193310614
 10
-4.95851102108552
 20
-0.3202702660837975
 10
-4.94345909654438
 20
-0.4352667448622061
 10
-4.932897081316632
 20
-0.5148856296551028
 10
-4.925921209663954
 20
-0.5660721944512961
 10
-4.921627715848018
 20
-0.5957717132396088
 10
-4.919112834130491
 20
-0.6109294600088476
 10
-4.917472798773044
 20
-0.6184907087478191
 10
-4.915949049023403
 20
-0.6242519310743174
 10
-4.914363844073456
 20
-0.6294143891219104
 10
-4.912684648101144
 20
-0.6340305426531448
 10
-4.910878925284414
 20
-0.6381528514305597
 10
-4.908914139801201
 20
-0.6418337752166945
 10
-4.906757755829445
 20
-0.6451257737740992
 10
-4.904377237547095
 20
-0.648081306865306
 10
-4.901740049132079
 20
-0.6507528342528613
 10
-4.898788951871289
 20
-0.6531852783439281
 10
-4.895367895487368
 20
-0.6553934121241998
 10
-4.891296126811901
 20
-0.6573844712239936
 10
-4.886392892676475
 20
-0.6591656912736195
 10
-4.880477439912674
 20
-0.6607443079033981
 10
-4.873369015352086
 20
-0.6621275567436431
 10
-4.864886865826299
 20
-0.6633226734246716
 10
-4.854850238166893
 20
-0.6643368935768006
 10
-4.843136822748586
 20
-0.6651871006780806
 10
-4.829858084118601
 20
-0.6659287695975209
 10
-4.815183930367286
 20
-0.6666270230518539
 10
-4.79928426958499
 20
-0.6673469837578221
 10
-4.78232900986206
 20
-0.6681537744321684
 10
-4.764488059288851
 20
-0.6691125177916302
 10
-4.745931325955705
 20
-0.6702883365529449
 10
-4.726828717952976
 20
-0.6717463534328552
 10
-4.707298327421696
 20
-0.6735444552372503
 10
-4.687250982705648
 20
-0.6757115851286191
 10
-4.666545696199296
 20
-0.6782694503585916
 10
-4.645041480297106
 20
-0.6812397581788084
 10
-4.622597347393543
 20
-0.684644215840903
 10
-4.599072309883073
 20
-0.688504530596509
 10
-4.574325380160161
 20
-0.6928424096972652
 10
-4.548215570619273
 20
-0.6976795603948052
 10
-4.520674194982184
 20
-0.7030304541501487
 10
-4.491921772279869
 20
-0.7088806192618123
 10
-4.462251122870643
 20
-0.715208348237713
 10
-4.431955067112781
 20
-0.7219919335857484
 10
-4.401326425364587
 20
-0.7292096678138318
 10
-4.370658017984354
 20
-0.7368398434298645
 10
-4.340242665330375
 20
-0.7448607529417544
 10
-4.310373187760944
 20
-0.7532506888574098
 10
-4.281296883037068
 20
-0.7619835286902355
 10
-4.253078958530593
 20
-0.7710154899756727
 10
-4.225739099016085
 20
-0.7802983752546613
 10
-4.199296989268106
 20
-0.7897839870681427
 10
-4.173772314061217
 20
-0.7994241279570567
 10
-4.149184758169976
 20
-0.8091706004623429
 10
-4.12555400636895
 20
-0.8189752071249412
 10
-4.102899743432704
 20
-0.828789750485793
 10
-4.081220380534126
 20
-0.8385943362285228
 10
-4.060429234439446
 20
-0.8484822826074616
 10
-4.04041834831322
 20
-0.8585752110196214
 10
-4.021079765320006
 20
-0.8689947428620232
 10
-4.002305528624361
 20
-0.8798624995316774
 10
-3.983987681390853
 20
-0.8913001024255997
 10
-3.966018266784033
 20
-0.9034291729408003
 10
-3.948289327968456
 20
-0.9163713324743003
 10
-3.930682884163232
 20
-0.9302634711235757
 10
-3.913040858805636
 20
-0.9453035537879603
 10
-3.89519515138749
 20
-0.9617048140672679
 10
-3.876977661400616
 20
-0.9796804855612908
 10
-3.858220288336838
 20
-0.9994438018698375
 10
-3.838754931687972
 20
-1.021207996592709
 10
-3.81841349094585
 20
-1.04518630332971
 10
-3.797027865602288
 20
-1.071591955680645
 10
-3.774508483780039
 20
-1.100550609852431
 10
-3.751079888125573
 20
-1.131837612480444
 10
-3.727045149916307
 20
-1.16514073280719
 10
-3.702707340429629
 20
-1.200147740075154
 10
-3.678369530942955
 20
-1.236546403526837
 10
-3.654334792733685
 20
-1.274024492404734
 10
-3.630906197079223
 20
-1.312269775951341
 10
-3.608386815256977
 20
-1.350970023409153
 10
-3.587006931340575
 20
-1.389892096181634
 10
-3.566705680588576
 20
-1.429119224316101
 10
-3.547349411055769
 20
-1.468813730020849
 10
-3.528804470796941
 20
-1.509137935504158
 10
-3.510937207866881
 20
-1.550254162974317
 10
-3.493613970320375
 20
-1.59232473463961
 10
-3.47670110621221
 20
-1.63551197270833
 10
-3.460064963597179
 20
-1.679978199388761
 10
-3.443589514617606
 20
-1.7258325790562
 10
-3.427229227766012
 20
-1.772971644754006
 10
-3.410956195622464
 20
-1.82123877169254
 10
-3.39474251076702
 20
-1.870477335082172
 10
-3.378560265779746
 20
-1.92053071013327
 10
-3.362381553240702
 20
-1.971242272056199
 10
-3.346178465729956
 20
-2.022455396061323
 10
-3.329923095827563
 20
-2.074013457359015
 10
-3.313597185623407
 20
-2.125752039810183
 10
-3.297221075246639
 20
-2.177475561877919
 10
-3.280824754336215
 20
-2.228980650675847
 10
-3.264438212531096
 20
-2.280063933317606
 10
-3.248091439470243
 20
-2.33052203691683
 10
-3.23181442479262
 20
-2.380151588587148
 10
-3.215637158137194
 20
-2.428749215442198
 10
-3.19958962914292
 20
-2.476111544595609
 10
-3.18365356985986
 20
-2.522127378136387
 10
-3.167617681982477
 20
-2.567054218055018
 10
-3.15122240961633
 20
-2.611241741317364
 10
-3.134208196866982
 20
-2.655039624889294
 10
-3.11631548783999
 20
-2.69879754573666
 10
-3.097284726640921
 20
-2.742865180825329
 10
-3.076856357375326
 20
-2.78759220712116
 10
-3.054770824148778
 20
-2.833328301590011
 10
-3.030833460034671
 20
-2.880296591427798
 10
-3.005109153977805
 20
-2.92821400475062
 10
-2.977727683890819
 20
-2.976670919904635
 10
-2.948818827686352
 20
-3.025257715235987
 10
-2.918512363277049
 20
-3.073564769090834
 10
-2.886938068575535
 20
-3.121182459815332
 10
-2.854225721494461
 20
-3.167701165755627
 10
-2.820505099946466
 20
-3.212711265257873
 10
-2.785912637113774
 20
-3.255869741790262
 10
-2.750611387256988
 20
-3.29709999930916
 10
-2.714771059906286
 20
-3.336392046892965
 10
-2.67856136459186
 20
-3.373735893620079
 10
-2.642152010843901
 20
-3.409121548568903
 10
-2.605712708192584
 20
-3.442539020817839
 10
-2.569413166168104
 20
-3.473978319445288
 10
-2.533423094300644
 20
-3.503429453529655
 10
-2.497848977007407
 20
-3.530892422990783
 10
-2.462544398253641
 20
-3.556407191114303
 10
-2.427299716891617
 20
-3.580023712027291
 10
-2.3919052917736
 20
-3.601791939856821
 10
-2.356151481751854
 20
-3.621761828729971
 10
-2.319828645678651
 20
-3.639983332773813
 10
-2.282727142406251
 20
-3.656506406115424
 10
-2.244637330786929
 20
-3.671381002881879
 10
-2.205457345077
 20
-3.68467122760938
 10
-2.165516421149046
 20
-3.696497786470622
 10
-2.125251570279694
 20
-3.706995536047426
 10
-2.085099803745578
 20
-3.716299332921616
 10
-2.045498132823329
 20
-3.724544033675014
 10
-2.006883568789575
 20
-3.731864494889443
 10
-1.969693122920958
 20
-3.738395573146717
 10
-1.934363806494101
 20
-3.744272125028668
 10
-1.901245862634141
 20
-3.749613900806145
 10
-1.870342461860218
 20
-3.754480225506126
 10
-1.841570006539967
 20
-3.758915317844628
 10
-1.814844899041034
 20
-3.762963396537662
 10
-1.790083541731057
 20
-3.76666868030124
 10
-1.767202336977682
 20
-3.77007538785137
 10
-1.74611768714854
 20
-3.773227737904074
 10
-1.726745994611281
 20
-3.776169949175356
 10
-1.709010695991842
 20
-3.778939478052977
 10
-1.692863364949399
 20
-3.781546731611677
 10
-1.678262609401421
 20
-3.783995354597941
 10
-1.665167037265376
 20
-3.786288991758258
 10
-1.653535256458749
 20
-3.788431287839113
 10
-1.643325874899005
 20
-3.790425887586992
 10
-1.634497500503616
 20
-3.79227643574838
 10
-1.62700874119006
 20
-3.793986577069763
 10
-1.620790939785202
 20
-3.79563675264302
 10
-1.615666378753491
 20
-3.797614588941607
 10
-1.611430075468767
 20
-3.800384508784365
 10
-1.607877047304874
 20
-3.804410934990136
 10
-1.604802311635651
 20
-3.810158290377771
 10
-1.602000885834947
 20
-3.818090997766107
 10
-1.599267787276598
 20
-3.828673479973994
 10
-1.596398033334445
 20
-3.842370159820274
 10
-1.593234565570902
 20
-3.859458361354101
 10
-1.589812022302641
 20
-3.879467013545875
 10
-1.586212966034903
 20
-3.901737946596298
 10
-1.582519959272929
 20
-3.925612990706086
 10
-1.578815564521963
 20
-3.950433976075935
 10
-1.575182344287242
 20
-3.975542732906561
 10
-1.571702861074012
 20
-4.000281091398662
 10
-1.568459677387512
 20
-4.023990881752951
 10
-1.565504513424166
 20
-4.046140249553372
 10
-1.562765720145133
 20
-4.066702601916811
 10
-1.560140806202753
 20
-4.085777661343394
 10
-1.557527280249367
 20
-4.10346515033324
 10
-1.554822650937314
 20
-4.119864791386477
 10
-1.551924426918937
 20
-4.13507630700323
 10
-1.548730116846577
 20
-4.149199419683617
 10
-1.545137229372571
 20
-4.162333851927773
 10
-1.540981456895902
 20
-4.174606327857931
 10
-1.535851226802101
 20
-4.186251578084847
 10
-1.529273150223332
 20
-4.19753133484138
 10
-1.52077383829177
 20
-4.208707330360399
 10
-1.509879902139577
 20
-4.22004129687477
 10
-1.496117952898927
 20
-4.231794966617364
 10
-1.479014601701987
 20
-4.244230071821045
 10
-1.458096459680923
 20
-4.257608344718677
 10
-1.433115152739407
 20
-4.272101065671806
 10
-1.404722365867112
 20
-4.287517707556682
 10
-1.373794798825201
 20
-4.303577291378212
 10
-1.341209151374854
 20
-4.319998838141325
 10
-1.307842123277232
 20
-4.336501368850939
 10
-1.274570414293513
 20
-4.352803904511974
 10
-1.242270724184869
 20
-4.368625466129346
 10
-1.211819752712468
 20
-4.38368507470798
 10
-1.183892593767453
 20
-4.397792261335062
 10
-1.158357917760863
 20
-4.411118597426854
 10
-1.134882789233714
 20
-4.423926164481883
 10
-1.113134272727016
 20
-4.436477043998683
 10
-1.092779432781785
 20
-4.449033317475773
 10
-1.073485333939032
 20
-4.461857066411687
 10
-1.054919040739772
 20
-4.475210372304958
 10
-1.036747617725016
 20
-4.489355316654107
 10
-1.018718134542375
 20
-4.504487056887748
 10
-1.000897681265833
 20
-4.5205330541548
 10
-0.9834333530759842
 20
-4.537353845534267
 10
-0.9664722451534117
 20
-4.55480996810515
 10
-0.9501614526787065
 20
-4.572761958946452
 10
-0.9346480708324449
 20
-4.591070355137174
 10
-0.9200791947952211
 20
-4.60959569375632
 10
-0.9066019197476151
 20
-4.628198511882894
 10
-0.8943220510071014
 20
-4.646978241603516
 10
-0.8831802344386687
 20
-4.666989895035325
 10
-0.8730758260441859
 20
-4.68952737930307
 10
-0.8639081818255363
 20
-4.715884601531513
 10
-0.8555766577845851
 20
-4.747355468845407
 10
-0.8479806099232085
 20
-4.785233888369512
 10
-0.8410193942432755
 20
-4.830813767228585
 10
-0.8345923667466692
 20
-4.88538901254738
 10
-0.8286124316564595
 20
-4.94956719250406
 10
-0.8230466860805591
 20
-5.021210519490429
 10
-0.8178757753480816
 20
-5.097494866951693
 10
-0.813080344788144
 20
-5.175596108333062
 10
-0.80864103972986
 20
-5.252690117079739
 10
-0.804538505502343
 20
-5.325952766636936
 10
-0.8007533874347139
 20
-5.392559930449861
 10
-0.7972663308560826
 20
-5.449687481963717
 10
-0.7923870313235924
 20
-5.495118216991039
 10
-0.777741385306463
 20
-5.529062620813634
 10
-0.7432843395019511
 20
-5.552338101080637
 10
-0.6789708406073061
 20
-5.565762065441177
 10
-0.5747558353197811
 20
-5.570151921544386
 10
-0.4205942703366219
 20
-5.566325077039396
 10
-0.2064410923550852
 20
-5.555098939575339
 10
0.0
 20
-5.542162841582722
  0
LINE
  5
15A7A
330
15985
100
AcDbEntity
  8
0
100
AcDbLine
 10
0.0
 20
-5.542162841582722
 30
0.0
 11
0.0
 21
0.0
 31
0.0
  0
LINE
  5
15A7B
330
15985
100
AcDbEntity
  8
0
100
AcDbLine
 10
-5.000050845905633
 20
0.0
 30
0.0
 11
0.0
 21
0.0
 31
0.0
  0
ENDBLK
  5
15A7C
330
15985
100
AcDbEntity
  8
0
100
AcDbBlockEnd
  0
BLOCK
  5
15CD8
330
15CCD
100
AcDbEntity
  8
0
100
AcDbBlockBegin
  2
*D2
 70
     1
 10
0.0
 20
0.0
 30
0.0
  3
*D2
  1

  0
LINE
  5
15CFE
330
15CCD
100
AcDbEntity
  8
DIM
 62
     0
370
    -2
100
AcDbLine
 10
10.86541331355748
 20
9.994451529121885
 30
0.0
 11
10.86541331355748
 21
11.26913794485692
 31
0.0
  0
LINE
  5
15CFF
330
15CCD
100
AcDbEntity
  8
DIM
 62
     0
370
    -2
100
AcDbLine
 10
6.240413313557481
 20
9.994451529121885
 30
0.0
 11
6.240413313557481
 21
11.26913794485692
 31
0.0
  0
LINE
  5
15D00
330
15CCD
100
AcDbEntity
  8
DIM
 62
     0
370
    -2
100
AcDbLine
 10
10.68541331355748
 20
11.08913794485692
 30
0.0
 11
6.420413313557481
 21
11.08913794485692
 31
0.0
  0
LINE
  5
15D01
330
15CCD
100
AcDbEntity
  8
DIM
 62
     0
370
    -2
100
AcDbLine
 10
6.240413313557481
 20
11.08913794485692
 30
0.0
 11
6.06041331355748
 21
11.08913794485692
 31
0.0
  0
SOLID
  5
15D02
330
15CCD
100
AcDbEntity
  8
DIM
 62
     0
100
AcDbTrace
 10
10.68541331355748
 20
11.11913794485692
 30
0.0
 11
10.68541331355748
 21
11.05913794485692
 31
0.0
 12
10.86541331355748
 22
11.08913794485692
 32
0.0
 13
10.86541331355748
 23
11.08913794485692
 33
0.0
  0
SOLID
  5
15D03
330
15CCD
100
AcDbEntity
  8
DIM
 62
     0
100
AcDbTrace
 10
6.420413313557481
 20
11.11913794485692
 30
0.0
 11
6.420413313557481
 21
11.05913794485692
 31
0.0
 12
6.240413313557481
 22
11.08913794485692
 32
0.0
 13
6.240413313557481
 23
11.08913794485692
 33
0.0
  0
MTEXT
  5
15D04
330
15CCD
100
AcDbEntity
  8
DIM
 62
     0
100
AcDbMText
 10
3.553746646890814
 20
11.08913794485692
 30
0.0
 40
1.0
 41
0.0
 71
     5
 72
     1
  1
\A1;4.6250
 73
     1
 44
1.0
  0
POINT
  5
15D05
330
15CCD
100
AcDbEntity
  8
Defpoints
 62
     0
100
AcDbPoint
 10
10.86541331355748
 20
9.931951529121885
 30
0.0
  0
POINT
  5
15D06
330
15CCD
100
AcDbEntity
  8
Defpoints
 62
     0
100
AcDbPoint
 10
6.240413313557481
 20
9.931951529121885
 30
0.0
  0
POINT
  5
15D07
330
15CCD
100
AcDbEntity
  8
Defpoints
 62
     0
100
AcDbPoint
 10
6.240413313557481
 20
11.08913794485692
 30
0.0
  0
ENDBLK
  5
15CD9
330
15CCD
100
AcDbEntity
  8
0
100
AcDbBlockEnd
  0
BLOCK
  5
15CE6
330
15CDB
100
AcDbEntity
  8
0
100
AcDbBlockBegin
  2
*D3
 70
     1
 10
0.0
 20
0.0
 30
0.0
  3
*D3
  1

  0
LINE
  5
15D08
330
15CDB
100
AcDbEntity
  8
DIM
 62
     0
370
    -2
100
AcDbLine
 10
12.62011647976143
 20
9.994451529121883
 30
0.0
 11
12.62011647976143
 21
11.32791186434405
 31
0.0
  0
LINE
  5
15D09
330
15CDB
100
AcDbEntity
  8
DIM
 62
     0
370
    -2
100
AcDbLine
 10
17.74506834258518
 20
9.994451529121883
 30
0.0
 11
17.74506834258518
 21
11.32791186434405
 31
0.0
  0
LINE
  5
15D0A
330
15CDB
100
AcDbEntity
  8
DIM
 62
     0
370
    -2
100
AcDbLine
 10
12.44011647976143
 20
11.14791186434405
 30
0.0
 11
12.26011647976143
 21
11.14791186434405
 31
0.0
  0
LINE
  5
15D0B
330
15CDB
100
AcDbEntity
  8
DIM
 62
     0
370
    -2
100
AcDbLine
 10
17.92506834258517
 20
11.14791186434405
 30
0.0
 11
18.10506834258518
 21
11.14791186434405
 31
0.0
  0
SOLID
  5
15D0C
330
15CDB
100
AcDbEntity
  8
DIM
 62
     0
100
AcDbTrace
 10
12.44011647976143
 20
11.17791186434405
 30
0.0
 11
12.44011647976143
 21
11.11791186434405
 31
0.0
 12
12.62011647976143
 22
11.14791186434405
 32
0.0
 13
12.62011647976143
 23
11.14791186434405
 33
0.0
  0
SOLID
  5
15D0D
330
15CDB
100
AcDbEntity
  8
DIM
 62
     0
100
AcDbTrace
 10
17.92506834258517
 20
11.17791186434405
 30
0.0
 11
17.92506834258517
 21
11.11791186434405
 31
0.0
 12
17.74506834258518
 22
11.14791186434405
 32
0.0
 13
17.74506834258518
 23
11.14791186434405
 33
0.0
  0
MTEXT
  5
15D0E
330
15CDB
100
AcDbEntity
  8
DIM
 62
     0
100
AcDbMText
 10
15.1825924111733
 20
11.14791186434405
 30
0.0
 40
1.0
 41
0.0
 71
     5
 72
     1
  1
\A1;5.1250
 73
     1
 44
1.0
  0
POINT
  5
15D0F
330
15CDB
100
AcDbEntity
  8
Defpoints
 62
     0
100
AcDbPoint
 10
12.62011647976143
 20
9.931951529121883
 30
0.0
  0
POINT
  5
15D10
330
15CDB
100
AcDbEntity
  8
Defpoints
 62
     0
100
AcDbPoint
 10
17.74506834258518
 20
9.931951529121883
 30
0.0
  0
POINT
  5
15D11
330
15CDB
100
AcDbEntity
  8
Defpoints
 62
     0
100
AcDbPoint
 10
17.74506834258518
 20
11.14791186434405
 30
0.0
  0
ENDBLK
  5
15CE7
330
15CDB
100
AcDbEntity
  8
0
100
AcDbBlockEnd
  0
BLOCK
  5
15CF4
330
15CE9
100
AcDbEntity
  8
0
100
AcDbBlockBegin
  2
*D4
 70
     1
 10
0.0
 20
0.0
 30
0.0
  3
*D4
  1

  0
LINE
  5
15D12
330
15CE9
100
AcDbEntity
  8
DIM
 62
     0
370
    -2
100
AcDbLine
 10
17.80756834258518
 20
9.931951529121883
 30
0.0
 11
20.77367596623609
 21
9.931951529121882
 31
0.0
  0
LINE
  5
15D13
330
15CE9
100
AcDbEntity
  8
DIM
 62
     0
370
    -2
100
AcDbLine
 10
17.80756834258518
 20
3.931945430707505
 30
0.0
 11
20.77367596623609
 21
3.931945430707505
 31
0.0
  0
LINE
  5
15D14
330
15CE9
100
AcDbEntity
  8
DIM
 62
     0
370
    -2
100
AcDbLine
 10
20.5936759662361
 20
9.751951529121882
 30
0.0
 11
20.59367596623609
 21
7.521948479914693
 31
0.0
  0
LINE
  5
15D15
330
15CE9
100
AcDbEntity
  8
DIM
 62
     0
370
    -2
100
AcDbLine
 10
20.59367596623609
 20
4.111945430707505
 30
0.0
 11
20.59367596623609
 21
6.341948479914694
 31
0.0
  0
SOLID
  5
15D16
330
15CE9
100
AcDbEntity
  8
DIM
 62
     0
100
AcDbTrace
 10
20.56367596623609
 20
9.751951529121882
 30
0.0
 11
20.6236759662361
 21
9.751951529121882
 31
0.0
 12
20.5936759662361
 22
9.931951529121882
 32
0.0
 13
20.5936759662361
 23
9.931951529121882
 33
0.0
  0
SOLID
  5
15D17
330
15CE9
100
AcDbEntity
  8
DIM
 62
     0
100
AcDbTrace
 10
20.56367596623609
 20
4.111945430707505
 30
0.0
 11
20.62367596623609
 21
4.111945430707505
 31
0.0
 12
20.59367596623609
 22
3.931945430707505
 32
0.0
 13
20.59367596623609
 23
3.931945430707505
 33
0.0
  0
MTEXT
  5
15D18
330
15CE9
100
AcDbEntity
  8
DIM
 62
     0
100
AcDbMText
 10
20.59367596623609
 20
6.931948479914697
 30
0.0
 40
1.0
 41
0.0
 71
     5
 72
     1
  1
\A1;6.0000
 73
     1
 44
1.0
  0
POINT
  5
15D19
330
15CE9
100
AcDbEntity
  8
Defpoints
 62
     0
100
AcDbPoint
 10
17.74506834258518
 20
9.931951529121883
 30
0.0
  0
POINT
  5
15D1A
330
15CE9
100
AcDbEntity
  8
Defpoints
 62
     0
100
AcDbPoint
 10
17.74506834258518
 20
3.931945430707505
 30
0.0
  0
POINT
  5
15D1B
330
15CE9
100
AcDbEntity
  8
Defpoints
 62
     0
100
AcDbPoint
 10
20.59367596623609
 20
3.931945430707505
 30
0.0
  0
ENDBLK
  5
15CF5
330
15CE9
100
AcDbEntity
  8
0
100
AcDbBlockEnd
  0
ENDSEC
  0
SECTION
  2
ENTITIES
  0
LINE
  5
15688
330
18
100
AcDbEntity
  8
0
100
AcDbLine
 10
10.86541331355748
 20
9.931951529121885
 30
0.0
 11
6.240413313557481
 21
9.931951529121885
 31
0.0
  0
LINE
  5
1568E
330
18
100
AcDbEntity
  8
0
100
AcDbLine
 10
6.240413313557477
 20
3.932624766650742
 30
0.0
 11
6.240413313557481
 21
9.931951529121885
 31
0.0
  0
LINE
  5
1596C
330
18
100
AcDbEntity
  8
0
100
AcDbLine
 10
17.74506834258518
 20
3.931945430707505
 30
0.0
 11
17.74506834258518
 21
9.931951529121883
 31
0.0
  0
LINE
  5
1596D
330
18
100
AcDbEntity
  8
0
100
AcDbLine
 10
12.62011647976143
 20
9.931951529121883
 30
0.0
 11
17.74506834258518
 21
9.931951529121883
 31
0.0
  0
LINE
  5
1596E
330
18
100
AcDbEntity
  8
0
100
AcDbLine
 10
10.86541331355748
 20
3.932624766650743
 30
0.0
 11
10.86541331355748
 21
9.931951529121885
 31
0.0
  0
LINE
  5
15970
330
18
100
AcDbEntity
  8
0
100
AcDbLine
 10
10.86541331355748
 20
9.424298931885269
 30
0.0
 11
6.240413313557481
 21
9.424298931885269
 31
0.0
  0
LINE
  5
15972
330
18
100
AcDbEntity
  8
0
100
AcDbLine
 10
10.86541331355748
 20
5.709384474410457
 30
0.0
 11
6.24041331355748
 21
5.709384474410458
 31
0.0
  0
LINE
  5
15974
330
18
100
AcDbEntity
  8
0
100
AcDbLine
 10
10.86541331355748
 20
5.214084473048329
 30
0.0
 11
6.240413313557478
 21
5.21408447304833
 31
0.0
  0
LINE
  5
15977
330
18
100
AcDbEntity
  8
0
100
AcDbLine
 10
10.86541331355748
 20
3.932624766650743
 30
0.0
 11
6.240413313557477
 21
3.932624766650742
 31
0.0
  0
SPLINE
  5
15C9E
330
18
100
AcDbEntity
  8
0
100
AcDbSpline
210
0.0
220
0.0
230
1.0
 70
     8
 71
     3
 72
    11
 73
     7
 74
     5
 42
0.0000000001
 43
0.0000000001
 44
0.0000000001
 40
0.0
 40
0.0
 40
0.0
 40
0.0
 40
0.1719657673092314
 40
3.03857987959329
 40
4.253657404226379
 40
5.482043581980512
 40
5.482043581980512
 40
5.482043581980512
 40
5.482043581980512
 10
12.6208698174604
 20
9.404278449358933
 30
0.0
 10
12.67871202332461
 20
9.405616952111502
 30
0.0
 10
13.70076522426332
 20
9.429267865874022
 30
0.0
 10
14.44932254106021
 20
7.70732561063763
 30
0.0
 10
15.14294564494696
 20
6.034331599295272
 30
0.0
 10
15.98399256480163
 20
5.818092773970374
 30
0.0
 10
16.40680646221408
 20
5.709384474410455
 30
0.0
 11
12.6208698174604
 21
9.404278449358933
 31
0.0
 11
12.79283558476963
 21
9.404278449358933
 31
0.0
 11
14.64864678484106
 21
7.219457802615687
 31
0.0
 11
15.2702579006628
 21
6.175420920338376
 31
0.0
 11
16.40680646221408
 21
5.709384474410455
 31
0.0
  0
ARC
  5
15CC2
330
18
100
AcDbEntity
  8
0
100
AcDbCircle
 10
16.08988655454514
 20
4.098895951365491
 30
0.0
 40
1.159363294997852
100
AcDbArc
 50
351.7544390746146
 51
74.13267429124601
  0
LINE
  5
15CC3
330
18
100
AcDbEntity
  8
0
100
AcDbLine
 10
16.40680646221408
 20
5.709384474410455
 30
0.0
 11
16.40686890562345
 21
5.214084473048326
 31
0.0
  0
LINE
  5
15CC4
330
18
100
AcDbEntity
  8
0
100
AcDbLine
 10
17.23726493281528
 20
3.932624766650738
 30
0.0
 11
17.74506834258518
 21
3.931945430707505
 31
0.0
  0
LINE
  5
15CC5
330
18
100
AcDbEntity
  8
0
100
AcDbLine
 10
12.6208698174604
 20
9.404278449358933
 30
0.0
 11
12.6208698174604
 21
9.931951529121883
 31
0.0
  0
DIMENSION
  5
15CCC
330
18
100
AcDbEntity
  8
DIM
100
AcDbDimension
  2
*D2
 10
6.240413313557481
 20
11.08913794485692
 30
0.0
 11
3.553746646890814
 21
11.08913794485692
 31
0.0
 70
    32
 71
     5
 42
4.625
  3
STANDARD
100
AcDbAlignedDimension
 13
10.86541331355748
 23
9.931951529121885
 33
0.0
 14
6.240413313557481
 24
9.931951529121885
 34
0.0
100
AcDbRotatedDimension
  0
DIMENSION
  5
15CDA
330
18
100
AcDbEntity
  8
DIM
100
AcDbDimension
  2
*D3
 10
17.74506834258518
 20
11.14791186434405
 30
0.0
 11
15.1825924111733
 21
11.14791186434405
 31
0.0
 70
    32
 71
     5
 42
5.124951862823747
  3
STANDARD
100
AcDbAlignedDimension
 13
12.62011647976143
 23
9.931951529121883
 33
0.0
 14
17.74506834258518
 24
9.931951529121883
 34
0.0
100
AcDbRotatedDimension
  0
DIMENSION
  5
15CE8
330
18
100
AcDbEntity
  8
DIM
100
AcDbDimension
  2
*D4
 10
20.59367596623609
 20
3.931945430707505
 30
0.0
 11
20.59367596623609
 21
6.931948479914697
 31
0.0
 70
    32
 71
     5
 42
6.000006098414377
  3
STANDARD
100
AcDbAlignedDimension
 13
17.74506834258518
 23
9.931951529121883
 33
0.0
 14
17.74506834258518
 24
3.931945430707505
 34
0.0
 50
90.0
100
AcDbRotatedDimension
  0
ENDSEC
  0
SECTION
  2
OBJECTS
  0
DICTIONARY
  5
C
330
0
100
AcDbDictionary
281
     1
  3
ACAD_COLOR
350
15A83
  3
ACAD_GROUP
350
D
  3
ACAD_IMAGE_DICT
350
21
  3
ACAD_IMAGE_VARS
350
20
  3
ACAD_LAYOUT
350
15A84
  3
ACAD_MATERIAL
350
15A82
  3
ACAD_MLINESTYLE
350
1B
  3
ACAD_PLOTSETTINGS
350
15A85
  3
ACAD_PLOTSTYLENAME
350
15A80
  0
DICTIONARY
  5
15A83
102
{ACAD_REACTORS
330
C
102
}
330
C
100
AcDbDictionary
281
     1
  0
DICTIONARY
  5
D
102
{ACAD_REACTORS
330
C
102
}
330
C
100
AcDbDictionary
281
     1
  0
DICTIONARY
  5
21
102
{ACAD_REACTORS
330
C
102
}
330
C
100
AcDbDictionary
281
     1
  3
2217
350
15453
  0
RASTERVARIABLES
  5
20
102
{ACAD_REACTORS
330
C
102
}
330
C
100
AcDbRasterVariables
 90
        0
 70
     1
 71
     1
 72
     0
  0
DICTIONARY
  5
15A84
102
{ACAD_REACTORS
330
C
102
}
330
C
100
AcDbDictionary
281
     1
  3
Layout1
350
15A87
  3
Model
350
15A86
  0
DICTIONARY
  5
15A82
102
{ACAD_REACTORS
330
C
102
}
330
C
100
AcDbDictionary
281
     1
  0
DICTIONARY
  5
1B
102
{ACAD_REACTORS
330
C
102
}
330
C
100
AcDbDictionary
281
     1
  3
STANDARD
350
1C
  0
DICTIONARY
  5
15A85
102
{ACAD_REACTORS
330
C
102
}
330
C
100
AcDbDictionary
281
     1
  0
ACDBDICTIONARYWDFLT
  5
15A80
102
{ACAD_REACTORS
330
C
102
}
330
C
100
AcDbDictionary
281
     1
  3
Normal
350
15A81
100
AcDbDictionaryWithDefault
340
15A81
  0
IMAGEDEF
  5
15453
102
{ACAD_REACTORS
330
21
102
}
330
21
100
AcDbRasterImageDef
 90
        0
  1
U:\TPDWG\MichelQ\2217.tif
 10
3060.0
 20
3844.0
 11
0.0705555555555556
 21
0.0705555555555556
280
     1
281
     5
  0
LAYOUT
  5
15A87
102
{ACAD_REACTORS
330
15A84
102
}
330
15A84
100
AcDbPlotSettings
  1

  2
None
  4

  6

 40
0.0
 41
0.0
 42
0.0
 43
0.0
 44
0.0
 45
0.0
 46
0.0
 47
0.0
 48
0.0
 49
0.0
140
0.0
141
0.0
142
1.0
143
1.0
 70
   688
 72
     0
 73
     0
 74
     5
  7

 75
    16
147
1.0
 76
     0
 77
     2
 78
   300
148
0.0
149
0.0
100
AcDbLayout
  1
Layout1
 70
     1
 71
     1
 10
0.0
 20
0.0
 11
12.0
 21
9.0
 12
0.0
 22
0.0
 32
0.0
 14
1.000000000000000E+20
 24
1.000000000000000E+20
 34
1.000000000000000E+20
 15
-1.000000000000000E+20
 25
-1.000000000000000E+20
 35
-1.000000000000000E+20
146
0.0
 13
0.0
 23
0.0
 33
0.0
 16
1.0
 26
0.0
 36
0.0
 17
0.0
 27
1.0
 37
0.0
 76
     0
330
15
  0
LAYOUT
  5
15A86
102
{ACAD_REACTORS
330
15A84
102
}
330
15A84
100
AcDbPlotSettings
  1

  2
None
  4

  6

 40
0.0
 41
0.0
 42
0.0
 43
0.0
 44
0.0
 45
0.0
 46
0.0
 47
0.0
 48
0.0
 49
0.0
140
0.0
141
0.0
142
1.0
143
1.0
 70
  1712
 72
     0
 73
     0
 74
     0
  7

 75
     0
147
1.0
 76
     0
 77
     2
 78
   300
148
0.0
149
0.0
100
AcDbLayout
  1
Model
 70
     1
 71
     0
 10
0.0
 20
0.0
 11
12.0
 21
9.0
 12
0.0
 22
0.0
 32
0.0
 14
0.0
 24
0.0
 34
0.0
 15
0.0
 25
0.0
 35
0.0
146
0.0
 13
0.0
 23
0.0
 33
0.0
 16
1.0
 26
0.0
 36
0.0
 17
0.0
 27
1.0
 37
0.0
 76
     0
330
18
  0
MLINESTYLE
  5
1C
102
{ACAD_REACTORS
330
1B
102
}
330
1B
100
AcDbMlineStyle
  2
STANDARD
 70
     0
  3

 62
   256
 51
90.0
 52
90.0
 71
     2
 49
0.5
 62
   256
  6
BYLAYER
 49
-0.5
 62
   256
  6
BYLAYER
  0
ACDBPLACEHOLDER
  5
15A81
102
{ACAD_REACTORS
330
15A80
102
}
330
15A80
  0
ENDSEC
  0
EOF
