  0
SECTION
  2
HEADER
  9
$ACADVER
  1
AC1018
  9
$ACADMAINTVER
 70
     0
  9
$DWGCODEPAGE
  3
ANSI_1252
  9
$INSBASE
 10
0.0
 20
0.0
 30
0.0
  9
$EXTMIN
 10
45.96536805876309
 20
16.56681052110309
 30
0.0
  9
$EXTMAX
 10
137.8816511629911
 20
53.4387739049843
 30
0.0
  9
$LIMMIN
 10
0.0
 20
0.0
  9
$LIMMAX
 10
12.0
 20
9.0
  9
$ORTHOMODE
 70
     0
  9
$REGENMODE
 70
     1
  9
$FILLMODE
 70
     1
  9
$QTEXTMODE
 70
     0
  9
$MIRRTEXT
 70
     1
  9
$LTSCALE
 40
1.0
  9
$ATTMODE
 70
     1
  9
$TEXTSIZE
 40
0.2
  9
$TRACEWID
 40
0.05
  9
$TEXTSTYLE
  7
STANDARD
  9
$CLAYER
  8
0
  9
$CELTYPE
  6
BYLAYER
  9
$CECOLOR
 62
     6
  9
$CELTSCALE
 40
1.0
  9
$DISPSILH
 70
     0
  9
$DIMSCALE
 40
1.0
  9
$DIMASZ
 40
0.18
  9
$DIMEXO
 40
0.0625
  9
$DIMDLI
 40
0.38
  9
$DIMRND
 40
0.0
  9
$DIMDLE
 40
0.0
  9
$DIMEXE
 40
0.18
  9
$DIMTP
 40
0.0
  9
$DIMTM
 40
0.0
  9
$DIMTXT
 40
1.0
  9
$DIMCEN
 40
0.09
  9
$DIMTSZ
 40
0.0
  9
$DIMTOL
 70
     0
  9
$DIMLIM
 70
     0
  9
$DIMTIH
 70
     1
  9
$DIMTOH
 70
     1
  9
$DIMSE1
 70
     0
  9
$DIMSE2
 70
     0
  9
$DIMTAD
 70
     0
  9
$DIMZIN
 70
     0
  9
$DIMBLK
  1

  9
$DIMASO
 70
     1
  9
$DIMSHO
 70
     1
  9
$DIMPOST
  1

  9
$DIMAPOST
  1

  9
$DIMALT
 70
     0
  9
$DIMALTD
 70
     2
  9
$DIMALTF
 40
25.4
  9
$DIMLFAC
 40
1.0
  9
$DIMTOFL
 70
     0
  9
$DIMTVP
 40
0.0
  9
$DIMTIX
 70
     0
  9
$DIMSOXD
 70
     0
  9
$DIMSAH
 70
     0
  9
$DIMBLK1
  1

  9
$DIMBLK2
  1

  9
$DIMSTYLE
  2
STANDARD
  9
$DIMCLRD
 70
     0
  9
$DIMCLRE
 70
     0
  9
$DIMCLRT
 70
     0
  9
$DIMTFAC
 40
1.0
  9
$DIMGAP
 40
0.09
  9
$DIMJUST
 70
     0
  9
$DIMSD1
 70
     0
  9
$DIMSD2
 70
     0
  9
$DIMTOLJ
 70
     1
  9
$DIMTZIN
 70
     0
  9
$DIMALTZ
 70
     0
  9
$DIMALTTZ
 70
     0
  9
$DIMUPT
 70
     0
  9
$DIMDEC
 70
     4
  9
$DIMTDEC
 70
     4
  9
$DIMALTU
 70
     2
  9
$DIMALTTD
 70
     2
  9
$DIMTXSTY
  7
STANDARD
  9
$DIMAUNIT
 70
     0
  9
$DIMADEC
 70
     0
  9
$DIMALTRND
 40
0.0
  9
$DIMAZIN
 70
     0
  9
$DIMDSEP
 70
    46
  9
$DIMATFIT
 70
     3
  9
$DIMFRAC
 70
     0
  9
$DIMLDRBLK
  1

  9
$DIMLUNIT
 70
     5
  9
$DIMLWD
 70
    -2
  9
$DIMLWE
 70
    -2
  9
$DIMTMOVE
 70
     0
  9
$LUNITS
 70
     2
  9
$LUPREC
 70
     4
  9
$SKETCHINC
 40
0.1
  9
$FILLETRAD
 40
0.3
  9
$AUNITS
 70
     0
  9
$AUPREC
 70
     0
  9
$MENU
  1
.
  9
$ELEVATION
 40
0.0
  9
$PELEVATION
 40
0.0
  9
$THICKNESS
 40
0.0
  9
$LIMCHECK
 70
     0
  9
$CHAMFERA
 40
0.5
  9
$CHAMFERB
 40
0.5
  9
$CHAMFERC
 40
1.0
  9
$CHAMFERD
 40
0.0
  9
$SKPOLY
 70
     0
  9
$TDCREATE
 40
2451160.318790972
  9
$TDUCREATE
 40
2451160.485457639
  9
$TDUPDATE
 40
2453530.600601991
  9
$TDUUPDATE
 40
2453530.767268657
  9
$TDINDWG
 40
0.6853532639
  9
$TDUSRTIMER
 40
0.6853532639
  9
$USRTIMER
 70
     1
  9
$ANGBASE
 50
0.0
  9
$ANGDIR
 70
     0
  9
$PDMODE
 70
     3
  9
$PDSIZE
 40
0.01
  9
$PLINEWID
 40
0.0
  9
$SPLFRAME
 70
     0
  9
$SPLINETYPE
 70
     6
  9
$SPLINESEGS
 70
     8
  9
$HANDSEED
  5
177C4
  9
$SURFTAB1
 70
     6
  9
$SURFTAB2
 70
     6
  9
$SURFTYPE
 70
     6
  9
$SURFU
 70
     6
  9
$SURFV
 70
     6
  9
$UCSBASE
  2

  9
$UCSNAME
  2

  9
$UCSORG
 10
0.0
 20
0.0
 30
0.0
  9
$UCSXDIR
 10
1.0
 20
0.0
 30
0.0
  9
$UCSYDIR
 10
0.0
 20
1.0
 30
0.0
  9
$UCSORTHOREF
  2

  9
$UCSORTHOVIEW
 70
     0
  9
$UCSORGTOP
 10
0.0
 20
0.0
 30
0.0
  9
$UCSORGBOTTOM
 10
0.0
 20
0.0
 30
0.0
  9
$UCSORGLEFT
 10
0.0
 20
0.0
 30
0.0
  9
$UCSORGRIGHT
 10
0.0
 20
0.0
 30
0.0
  9
$UCSORGFRONT
 10
0.0
 20
0.0
 30
0.0
  9
$UCSORGBACK
 10
0.0
 20
0.0
 30
0.0
  9
$PUCSBASE
  2

  9
$PUCSNAME
  2

  9
$PUCSORG
 10
0.0
 20
0.0
 30
0.0
  9
$PUCSXDIR
 10
1.0
 20
0.0
 30
0.0
  9
$PUCSYDIR
 10
0.0
 20
1.0
 30
0.0
  9
$PUCSORTHOREF
  2

  9
$PUCSORTHOVIEW
 70
     0
  9
$PUCSORGTOP
 10
0.0
 20
0.0
 30
0.0
  9
$PUCSORGBOTTOM
 10
0.0
 20
0.0
 30
0.0
  9
$PUCSORGLEFT
 10
0.0
 20
0.0
 30
0.0
  9
$PUCSORGRIGHT
 10
0.0
 20
0.0
 30
0.0
  9
$PUCSORGFRONT
 10
0.0
 20
0.0
 30
0.0
  9
$PUCSORGBACK
 10
0.0
 20
0.0
 30
0.0
  9
$USERI1
 70
     0
  9
$USERI2
 70
     0
  9
$USERI3
 70
     0
  9
$USERI4
 70
     0
  9
$USERI5
 70
     0
  9
$USERR1
 40
0.0
  9
$USERR2
 40
0.0
  9
$USERR3
 40
0.0
  9
$USERR4
 40
0.0
  9
$USERR5
 40
0.0
  9
$WORLDVIEW
 70
     1
  9
$SHADEDGE
 70
     3
  9
$SHADEDIF
 70
    70
  9
$TILEMODE
 70
     1
  9
$MAXACTVP
 70
    48
  9
$PINSBASE
 10
0.0
 20
0.0
 30
0.0
  9
$PLIMCHECK
 70
     0
  9
$PEXTMIN
 10
1.049636599258096
 20
0.7996597240971113
 30
-0.0015258207003583
  9
$PEXTMAX
 10
9.450362731076971
 20
7.200340082697458
 30
0.0000000349246037
  9
$PLIMMIN
 10
-0.2500002402958907
 20
-0.2499999962453767
  9
$PLIMMAX
 10
10.74999951940821
 20
8.249999763458731
  9
$UNITMODE
 70
     0
  9
$VISRETAIN
 70
     1
  9
$PLINEGEN
 70
     0
  9
$PSLTSCALE
 70
     1
  9
$TREEDEPTH
 70
  3020
  9
$CMLSTYLE
  2
STANDARD
  9
$CMLJUST
 70
     0
  9
$CMLSCALE
 40
1.0
  9
$PROXYGRAPHICS
 70
     1
  9
$MEASUREMENT
 70
     0
  9
$CELWEIGHT
370
    -1
  9
$ENDCAPS
280
     0
  9
$JOINSTYLE
280
     0
  9
$LWDISPLAY
290
     0
  9
$INSUNITS
 70
     0
  9
$HYPERLINKBASE
  1

  9
$STYLESHEET
  1

  9
$XEDIT
290
     1
  9
$CEPSNTYPE
380
     0
  9
$PSTYLEMODE
290
     1
  9
$FINGERPRINTGUID
  2
{C667DFB6-41CF-4BAE-8BFD-D038ABE97765}
  9
$VERSIONGUID
  2
{51DE92A0-34B6-4C47-9D34-A975F1D9B541}
  9
$EXTNAMES
290
     1
  9
$PSVPSCALE
 40
0.0
  9
$OLESTARTUP
290
     0
  9
$SORTENTS
280
   127
  9
$INDEXCTL
280
     0
  9
$HIDETEXT
280
     0
  9
$XCLIPFRAME
290
     0
  9
$HALOGAP
280
     0
  9
$OBSCOLOR
 70
   257
  9
$OBSLTYPE
280
     0
  9
$INTERSECTIONDISPLAY
280
     0
  9
$INTERSECTIONCOLOR
 70
   257
  9
$DIMASSOC
280
     1
  9
$PROJECTNAME
  1

  0
ENDSEC
  0
SECTION
  2
CLASSES
  0
CLASS
  1
RASTERVARIABLES
  2
AcDbRasterVariables
  3
ISM
 90
        0
 91
        1
280
     0
281
     0
  0
CLASS
  1
IMAGEDEF
  2
AcDbRasterImageDef
  3
ISM
 90
        0
 91
        9
280
     0
281
     0
  0
CLASS
  1
IMAGEDEF_REACTOR
  2
AcDbRasterImageDefReactor
  3
ISM
 90
        1
 91
       16
280
     0
281
     0
  0
CLASS
  1
IMAGE
  2
AcDbRasterImage
  3
ISM
 90
      127
 91
       16
280
     0
281
     1
  0
CLASS
  1
ACDBDICTIONARYWDFLT
  2
AcDbDictionaryWithDefault
  3
ObjectDBX Classes
 90
        0
 91
        1
280
     0
281
     0
  0
CLASS
  1
SORTENTSTABLE
  2
AcDbSortentsTable
  3
ObjectDBX Classes
 90
        0
 91
        5
280
     0
281
     0
  0
ENDSEC
  0
SECTION
  2
TABLES
  0
TABLE
  2
VPORT
  5
8
330
0
100
AcDbSymbolTable
 70
    34
  0
VPORT
  5
177C3
330
8
100
AcDbSymbolTableRecord
100
AcDbViewportTableRecord
  2
*Active
 70
     0
 10
0.0
 20
0.0
 11
1.0
 21
1.0
 12
61.25288429454642
 22
25.76410404959512
 13
0.0
 23
0.0
 14
0.5
 24
0.5
 15
0.5
 25
0.5
 16
0.0
 26
0.0
 36
1.0
 17
0.0
 27
0.0
 37
0.0
 40
17.31227416149988
 41
1.955307262569832
 42
50.0
 43
0.0
 44
0.0
 50
0.0
 51
0.0
 71
     0
 72
   100
 73
     1
 74
     1
 75
     0
 76
     0
 77
     0
 78
     0
281
     0
 65
     1
110
0.0
120
0.0
130
0.0
111
1.0
121
0.0
131
0.0
112
0.0
122
1.0
132
0.0
 79
     0
146
0.0
  0
ENDTAB
  0
TABLE
  2
LTYPE
  5
5
330
0
100
AcDbSymbolTable
 70
     1
  0
LTYPE
  5
12
330
5
100
AcDbSymbolTableRecord
100
AcDbLinetypeTableRecord
  2
BYBLOCK
 70
     0
  3

 72
    65
 73
     0
 40
0.0
  0
LTYPE
  5
13
330
5
100
AcDbSymbolTableRecord
100
AcDbLinetypeTableRecord
  2
BYLAYER
 70
     0
  3

 72
    65
 73
     0
 40
0.0
  0
LTYPE
  5
14
330
5
100
AcDbSymbolTableRecord
100
AcDbLinetypeTableRecord
  2
CONTINUOUS
 70
     0
  3
Solid line
 72
    65
 73
     0
 40
0.0
  0
ENDTAB
  0
TABLE
  2
LAYER
  5
2
330
0
100
AcDbSymbolTable
 70
     3
  0
LAYER
  5
E
330
2
100
AcDbSymbolTableRecord
100
AcDbLayerTableRecord
  2
0
 70
     0
 62
     7
  6
CONTINUOUS
370
    -3
390
15449
  0
LAYER
  5
1755A
330
2
100
AcDbSymbolTableRecord
100
AcDbLayerTableRecord
  2
DIM
 70
     0
 62
    -3
  6
CONTINUOUS
370
    -3
390
15449
  0
LAYER
  5
1755C
330
2
100
AcDbSymbolTableRecord
100
AcDbLayerTableRecord
  2
Defpoints
 70
     0
 62
     7
  6
CONTINUOUS
290
     0
370
    -3
390
15449
  0
ENDTAB
  0
TABLE
  2
STYLE
  5
3
330
0
100
AcDbSymbolTable
 70
     1
  0
STYLE
  5
F
330
3
100
AcDbSymbolTableRecord
100
AcDbTextStyleTableRecord
  2
STANDARD
 70
     0
 40
0.0
 41
1.0
 50
0.0
 71
     0
 42
0.2
  3
txt
  4

  0
ENDTAB
  0
TABLE
  2
VIEW
  5
6
330
0
100
AcDbSymbolTable
 70
     0
  0
ENDTAB
  0
TABLE
  2
UCS
  5
7
330
0
100
AcDbSymbolTable
 70
     0
  0
ENDTAB
  0
TABLE
  2
APPID
  5
9
330
0
100
AcDbSymbolTable
 70
     2
  0
APPID
  5
10
330
9
100
AcDbSymbolTableRecord
100
AcDbRegAppTableRecord
  2
ACAD
 70
     0
  0
APPID
  5
1733B
330
9
100
AcDbSymbolTableRecord
100
AcDbRegAppTableRecord
  2
CONTENTBLOCKICON
 70
     0
  0
ENDTAB
  0
TABLE
  2
DIMSTYLE
  5
A
330
0
100
AcDbSymbolTable
 70
     1
100
AcDbDimStyleTable
 71
     1
340
1D
  0
DIMSTYLE
105
1D
102
{ACAD_REACTORS
330
1758D
330
175A6
330
176EC
102
}
330
A
100
AcDbSymbolTableRecord
100
AcDbDimStyleTableRecord
  2
STANDARD
 70
     0
140
1.0
277
     5
340
F
  0
ENDTAB
  0
TABLE
  2
BLOCK_RECORD
  5
1
330
0
100
AcDbSymbolTable
 70
    16
  0
BLOCK_RECORD
  5
18
102
{ACAD_XDICTIONARY
360
15481
102
}
330
1
100
AcDbSymbolTableRecord
100
AcDbBlockTableRecord
  2
*MODEL_SPACE
340
1544C
  0
BLOCK_RECORD
  5
15
102
{ACAD_XDICTIONARY
360
1547F
102
}
330
1
100
AcDbSymbolTableRecord
100
AcDbBlockTableRecord
  2
*PAPER_SPACE
340
1544D
  0
BLOCK_RECORD
  5
16B91
330
1
100
AcDbSymbolTableRecord
100
AcDbBlockTableRecord
  2
2219e
340
0
310
2800000020000000200000000100080000000000000400000000000000000000000000000000000000000000000080000080000000808000800000008000800080800000C0C0C000C0DCC000F0CAA6000020400000206000002080000020A0000020C0000020E00000400000004020000040400000406000004080000040A0
310
000040C0000040E00000600000006020000060400000606000006080000060A0000060C0000060E00000800000008020000080400000806000008080000080A0000080C0000080E00000A0000000A0200000A0400000A0600000A0800000A0A00000A0C00000A0E00000C0000000C0200000C0400000C0600000C0800000C0
310
A00000C0C00000C0E00000E0000000E0200000E0400000E0600000E0800000E0A00000E0C00000E0E00040000000400020004000400040006000400080004000A0004000C0004000E00040200000402020004020400040206000402080004020A0004020C0004020E000404000004040200040404000404060004040800040
310
40A0004040C0004040E00040600000406020004060400040606000406080004060A0004060C0004060E00040800000408020004080400040806000408080004080A0004080C0004080E00040A0000040A0200040A0400040A0600040A0800040A0A00040A0C00040A0E00040C0000040C0200040C0400040C0600040C08000
310
40C0A00040C0C00040C0E00040E0000040E0200040E0400040E0600040E0800040E0A00040E0C00040E0E00080000000800020008000400080006000800080008000A0008000C0008000E00080200000802020008020400080206000802080008020A0008020C0008020E00080400000804020008040400080406000804080
310
008040A0008040C0008040E00080600000806020008060400080606000806080008060A0008060C0008060E00080800000808020008080400080806000808080008080A0008080C0008080E00080A0000080A0200080A0400080A0600080A0800080A0A00080A0C00080A0E00080C0000080C0200080C0400080C0600080C0
310
800080C0A00080C0C00080C0E00080E0000080E0200080E0400080E0600080E0800080E0A00080E0C00080E0E000C0000000C0002000C0004000C0006000C0008000C000A000C000C000C000E000C0200000C0202000C0204000C0206000C0208000C020A000C020C000C020E000C0400000C0402000C0404000C0406000C0
310
408000C040A000C040C000C040E000C0600000C0602000C0604000C0606000C0608000C060A000C060C000C060E000C0800000C0802000C0804000C0806000C0808000C080A000C080C000C080E000C0A00000C0A02000C0A04000C0A06000C0A08000C0A0A000C0A0C000C0A0E000C0C00000C0C02000C0C04000C0C06000
310
C0C08000C0C0A000F0FBFF00A4A0A000808080000000FF0000FF000000FFFF00FF000000FF00FF00FFFF0000FFFFFF0000000000000000000000000000000000000000000000000000000000000000000000000000000000000000000000000000000000000000000000000000000000000000000000000000000000000000
310
00000000000000000000000000000000000000000000000000000000000000000000000000000000000000000000000000000000000000000000000000000000000000000000000000000000000000000000000000000000000000000000000000000000000000000000000000000000000000000000000000000000000000
310
00000000000000000000000000000000000000FFFFFFFFFFFFFFFFFFFFFF000000000000000000000000000000000000000000FF000000FFFFFF00000000FFFF00000000000000000000000000000000000000FF0000FFFF0000000000000000FFFF0000000000000000000000000000000000FF00FF000000000000000000
310
0000FFFF00000000000000000000000000000000FFFFFF000000FFFFFFFFFF00000000FF00000000000000000000000000000000FFFF0000FFFFFFFFFFFFFFFFFF0000FFFF000000000000000000000000000000FFFF0000FFFFFF000000FFFFFFFF0000FF000000000000000000000000000000FF000000FFFF0000000000
310
FFFFFFFF0000FF0000000000000000000000000000FF0000FFFF000000FFFF0000FFFFFF0000FFFF00000000000000000000000000FF0000FFFFFF000000FF0000FFFFFFFF0000FFFF000000000000000000000000FFFF0000FFFF0000FFFF0000FFFFFFFFFF0000FFFF00000000FFFFFF00000000FFFF0000FFFFFFFFFFFF
310
0000FF00FFFFFFFF0000FFFFFF00FFFFFFFFFF000000FFFFFF0000FFFFFFFF000000FF00FFFFFFFF00000000FFFFFF00FFFFFF000000FF00FF0000000000000000FF00FFFFFFFFFFFFFF00000000FFFFFFFF00FF0000FF0000FFFF00000000FFFFFF00FFFFFFFFFFFFFFFFFF0000FFFFFFFFFFFF0000FF000000FFFFFFFFFF
310
FF000000FFFF00FFFFFFFFFFFFFFFFFFFFFFFFFF000000FFFFFFFFFFFFFFFFFFFFFFFFFFFFFFFFFFFFFFFFFFFFFFFFFFFFFFFFFFFF0000FFFFFFFFFFFFFFFFFFFFFFFFFFFFFFFFFFFFFFFFFFFFFFFFFFFFFFFFFFFF000000000000000000000000000000000000000000000000000000000000000000000000000000000000
310
00000000000000000000000000000000000000000000000000000000000000000000000000000000000000000000000000000000000000000000000000000000000000000000000000000000000000000000000000000000000000000000000000000000000000000000000000000000000000000000000000000000000000
310
0000000000000000000000000000000000000000000000000000000000000000000000000000000000000000000000000000000000000000
  0
BLOCK_RECORD
  5
172D3
330
1
100
AcDbSymbolTableRecord
100
AcDbBlockTableRecord
  2
2219f
340
0
310
2800000020000000200000000100080000000000000400000000000000000000000000000000000000000000000080000080000000808000800000008000800080800000C0C0C000C0DCC000F0CAA6000020400000206000002080000020A0000020C0000020E00000400000004020000040400000406000004080000040A0
310
000040C0000040E00000600000006020000060400000606000006080000060A0000060C0000060E00000800000008020000080400000806000008080000080A0000080C0000080E00000A0000000A0200000A0400000A0600000A0800000A0A00000A0C00000A0E00000C0000000C0200000C0400000C0600000C0800000C0
310
A00000C0C00000C0E00000E0000000E0200000E0400000E0600000E0800000E0A00000E0C00000E0E00040000000400020004000400040006000400080004000A0004000C0004000E00040200000402020004020400040206000402080004020A0004020C0004020E000404000004040200040404000404060004040800040
310
40A0004040C0004040E00040600000406020004060400040606000406080004060A0004060C0004060E00040800000408020004080400040806000408080004080A0004080C0004080E00040A0000040A0200040A0400040A0600040A0800040A0A00040A0C00040A0E00040C0000040C0200040C0400040C0600040C08000
310
40C0A00040C0C00040C0E00040E0000040E0200040E0400040E0600040E0800040E0A00040E0C00040E0E00080000000800020008000400080006000800080008000A0008000C0008000E00080200000802020008020400080206000802080008020A0008020C0008020E00080400000804020008040400080406000804080
310
008040A0008040C0008040E00080600000806020008060400080606000806080008060A0008060C0008060E00080800000808020008080400080806000808080008080A0008080C0008080E00080A0000080A0200080A0400080A0600080A0800080A0A00080A0C00080A0E00080C0000080C0200080C0400080C0600080C0
310
800080C0A00080C0C00080C0E00080E0000080E0200080E0400080E0600080E0800080E0A00080E0C00080E0E000C0000000C0002000C0004000C0006000C0008000C000A000C000C000C000E000C0200000C0202000C0204000C0206000C0208000C020A000C020C000C020E000C0400000C0402000C0404000C0406000C0
310
408000C040A000C040C000C040E000C0600000C0602000C0604000C0606000C0608000C060A000C060C000C060E000C0800000C0802000C0804000C0806000C0808000C080A000C080C000C080E000C0A00000C0A02000C0A04000C0A06000C0A08000C0A0A000C0A0C000C0A0E000C0C00000C0C02000C0C04000C0C06000
310
C0C08000C0C0A000F0FBFF00A4A0A000808080000000FF0000FF000000FFFF00FF000000FF00FF00FFFF0000FFFFFF00000000000000000000000000000000000000000000000000000000000000000000000000000000000000FFFFFFFFFFFFFFFFFFFFFFFF0000000000000000000000000000000000000000FF00FF0000
310
FFFFFF00FF00FF0000000000000000000000000000000000000000FF00FFFFFFFFFFFFFFFF00FF0000000000000000000000000000000000000000FF00FFFFFFFFFFFFFFFF00FF0000000000000000000000000000000000000000FF00FFFFFFFFFFFFFFFF00FF0000000000000000000000000000000000000000FF00FFFF
310
FFFFFFFFFFFF00FF0000000000000000000000000000000000000000FF00FFFFFFFFFFFFFFFF00FF0000000000000000000000000000000000000000FF00FFFFFFFFFFFFFFFF00FF0000000000000000000000000000000000000000FF00FFFFFFFFFFFFFFFF00FF0000000000000000000000000000000000000000FF00FF
310
FFFFFFFFFFFFFF00FF0000000000000000000000000000000000000000FF00FFFFFFFF00FFFFFF00FF0000000000000000000000000000000000000000FF00FFFFFFFFFF00FFFF00FF0000000000000000000000000000000000000000FF00FF0000FF00FF00FF00FF0000000000000000000000000000000000000000FF00
310
FFFFFFFFFF00FFFF00FF0000000000000000000000000000000000000000FF00FF0000FF00FF00FF00FF0000000000000000000000000000000000000000FF00FFFFFFFF0000FFFF00FF0000000000000000000000000000000000000000FF00FF0000FFFF0000FF00FF0000000000000000000000000000000000000000FF
310
00FF00FFFF00FFFFFF00FF0000000000000000000000000000000000000000FFFFFFFFFFFFFFFFFFFFFFFF0000000000000000000000000000000000000000FF00FF0000FFFF0000FF00FF0000000000000000000000000000000000000000FF00FF0000FFFF0000FF00FF0000000000000000000000000000000000000000
310
FF00FF0000FFFF0000FF00FF0000000000000000000000000000000000000000FF00FF0000FFFF0000FF00FF0000000000000000000000000000000000000000FF00FF0000FFFF0000FF00FF0000000000000000000000000000000000000000FF00FF0000FFFF0000FF00FF00000000000000000000000000000000000000
310
00FF00FF0000FFFF0000FF00FF0000000000000000000000000000000000000000FFFFFFFFFFFFFFFFFFFFFFFF0000000000000000000000000000000000000000FFFFFFFFFFFFFFFFFFFFFFFF0000000000000000000000000000000000000000FF00000000000000000000FF000000000000000000000000000000000000
310
0000FFFFFFFFFFFFFFFFFFFFFFFF000000000000000000000000000000000000000000000000000000000000000000000000000000000000
  0
BLOCK_RECORD
  5
1755D
330
1
100
AcDbSymbolTableRecord
100
AcDbBlockTableRecord
  2
*D3
340
0
  0
BLOCK_RECORD
  5
1756C
330
1
100
AcDbSymbolTableRecord
100
AcDbBlockTableRecord
  2
*D4
340
0
  0
BLOCK_RECORD
  5
1758E
330
1
100
AcDbSymbolTableRecord
100
AcDbBlockTableRecord
  2
*D5
340
0
  0
BLOCK_RECORD
  5
175A7
330
1
100
AcDbSymbolTableRecord
100
AcDbBlockTableRecord
  2
*D6
340
0
  0
BLOCK_RECORD
  5
175ED
330
1
100
AcDbSymbolTableRecord
100
AcDbBlockTableRecord
  2
*D7
340
0
  0
BLOCK_RECORD
  5
175FA
330
1
100
AcDbSymbolTableRecord
100
AcDbBlockTableRecord
  2
*D8
340
0
  0
BLOCK_RECORD
  5
17635
330
1
100
AcDbSymbolTableRecord
100
AcDbBlockTableRecord
  2
*D10
340
0
  0
BLOCK_RECORD
  5
17642
330
1
100
AcDbSymbolTableRecord
100
AcDbBlockTableRecord
  2
*D11
340
0
  0
BLOCK_RECORD
  5
176ED
330
1
100
AcDbSymbolTableRecord
100
AcDbBlockTableRecord
  2
*D14
340
0
  0
ENDTAB
  0
ENDSEC
  0
SECTION
  2
BLOCKS
  0
BLOCK
  5
19
330
18
100
AcDbEntity
  8
0
100
AcDbBlockBegin
  2
*MODEL_SPACE
 70
     0
 10
0.0
 20
0.0
 30
0.0
  3
*MODEL_SPACE
  1

  0
ENDBLK
  5
1A
330
18
100
AcDbEntity
  8
0
100
AcDbBlockEnd
  0
BLOCK
  5
16
330
15
100
AcDbEntity
 67
     1
  8
0
100
AcDbBlockBegin
  2
*PAPER_SPACE
 70
     0
 10
0.0
 20
0.0
 30
0.0
  3
*PAPER_SPACE
  1

  0
ENDBLK
  5
17
330
15
100
AcDbEntity
 67
     1
  8
0
100
AcDbBlockEnd
  0
BLOCK
  5
16B92
330
16B91
100
AcDbEntity
  8
0
100
AcDbBlockBegin
  2
2219e
 70
     0
 10
0.0
 20
0.0
 30
0.0
  3
2219e
  1

  0
LWPOLYLINE
  5
16B94
330
16B91
100
AcDbEntity
  8
0
100
AcDbPolyline
 90
      613
 70
     0
 43
0.0
 10
4.18615704358626
 20
-5.215176762836158
 10
4.213329578250447
 20
-5.216748434301165
 10
4.240386238550979
 20
-5.21663479719644
 10
4.267211150124214
 20
-5.215003096062297
 10
4.293688438606507
 20
-5.212020575439045
 10
4.319702229634205
 20
-5.207854479866997
 10
4.345136648843663
 20
-5.202672053886465
 10
4.369875821871233
 20
-5.196640542037763
 10
4.393803874353283
 20
-5.189927188861204
 10
4.41685643163391
 20
-5.18264992324988
 10
4.439175117888336
 20
-5.174729411508035
 10
4.460953056999553
 20
-5.166037004292691
 10
4.482383372850549
 20
-5.156444052260871
 10
4.503659189324305
 20
-5.145821906069597
 10
4.524973630303821
 20
-5.134041916375893
 10
4.546519819672073
 20
-5.120975433836785
 10
4.568490881312051
 20
-5.106493809109293
 10
4.591017710313164
 20
-5.090517708408382
 10
4.613982286590532
 20
-5.073165060180759
 10
4.637204361265704
 20
-5.054603108431078
 10
4.660503685460206
 20
-5.034999097163986
 10
4.683700010295593
 20
-5.014520270384131
 10
4.706613086893404
 20
-4.993333872096163
 10
4.729062666375176
 20
-4.971607146304731
 10
4.750868499862463
 20
-4.949507337014487
 10
4.771884671596504
 20
-4.927163093487247
 10
4.792102598297371
 20
-4.904548686013484
 10
4.811548029804851
 20
-4.881599790140853
 10
4.830246715958715
 20
-4.858252081416994
 10
4.848224406598748
 20
-4.834441235389558
 10
4.865506851564735
 20
-4.810102927606192
 10
4.882119800696436
 20
-4.785172833614537
 10
4.898089003833654
 20
-4.759586628962246
 10
4.913438064982075
 20
-4.733297142358285
 10
4.928182004811023
 20
-4.706325815156914
 10
4.942333698155771
 20
-4.678711241873719
 10
4.955906019851549
 20
-4.650492017024277
 10
4.968911844733622
 20
-4.621706735124176
 10
4.981364047637233
 20
-4.592393990688997
 10
4.993275503397634
 20
-4.562592378234325
 10
5.004659086850075
 20
-4.532340492275737
 10
5.015504068795902
 20
-4.501664062474059
 10
5.025705303900846
 20
-4.470537359071078
 10
5.035134042796724
 20
-4.438921787453817
 10
5.043661536115354
 20
-4.406778753009294
 10
5.051159034488573
 20
-4.374069661124541
 10
5.057497788548195
 20
-4.340755917186576
 10
5.062549048926051
 20
-4.306798926582426
 10
5.066184066253943
 20
-4.272160094699113
 10
5.068312716036239
 20
-4.236811547665723
 10
5.06899937326736
 20
-4.20076829457957
 10
5.068347037814268
 20
-4.164056065280034
 10
5.066458709543913
 20
-4.126700589606491
 10
5.063437388323252
 20
-4.08872759739832
 10
5.059386074019235
 20
-4.050162818494896
 10
5.054407766498822
 20
-4.011031982735599
 10
5.048605465628973
 20
-3.971360819959805
 10
5.042062858713416
 20
-3.931215798976055
 10
5.034786382803002
 20
-3.890826344469516
 10
5.026763162385377
 20
-3.850462620094543
 10
5.017980321948164
 20
-3.810394789505459
 10
5.008424985979007
 20
-3.770893016356613
 10
4.998084278965539
 20
-3.732227464302337
 10
4.986945325395385
 20
-3.694668296996973
 10
4.974995249756182
 20
-3.658485678094852
 10
4.962210447590836
 20
-3.623868293295771
 10
4.948524398663302
 20
-3.590678916481302
 10
4.933859853792789
 20
-3.558698843578463
 10
4.918139563798526
 20
-3.527709370514278
 10
4.90128627949972
 20
-3.497491793215778
 10
4.883222751715601
 20
-3.467827407609975
 10
4.863871731265378
 20
-3.438497509623902
 10
4.843155968968271
 20
-3.409283395184577
 10
4.820998215587083
 20
-3.380000666768918
 10
4.797321221658887
 20
-3.350602153053432
 10
4.772047737664346
 20
-3.321074989264518
 10
4.745100514084128
 20
-3.29140631062858
 10
4.716402301398894
 20
-3.261583252372023
 10
4.685875850089301
 20
-3.231592949721239
 10
4.653443910636008
 20
-3.201422537902637
 10
4.619029233519678
 20
-3.171059152142612
 10
4.582576027364362
 20
-3.140541387378788
 10
4.544114333367674
 20
-3.110113677393665
 10
4.503695650870612
 20
-3.080071915680952
 10
4.46137147921418
 20
-3.050711995734369
 10
4.41719331773938
 20
-3.022329811047626
 10
4.371212665787215
 20
-2.995221255114444
 10
4.323481022698688
 20
-2.969682221428543
 10
4.274049887814789
 20
-2.946008603483628
 10
4.223002947903218
 20
-2.924431970077583
 10
4.170552639438386
 20
-2.904926591224942
 10
4.116943586321409
 20
-2.8874024122444
 10
4.062420412453375
 20
-2.871769378454655
 10
4.007227741735403
 20
-2.857937435174402
 10
3.951610198068584
 20
-2.845816527722335
 10
3.895812405354035
 20
-2.835316601417149
 10
3.840078987492841
 20
-2.826347601577548
 10
3.784598776981966
 20
-2.818825906022649
 10
3.729337440701696
 20
-2.81269362257327
 10
3.67420485412815
 20
-2.807899291550658
 10
3.619110892737479
 20
-2.804391453276058
 10
3.563965432005808
 20
-2.802118648070719
 10
3.508678347409262
 20
-2.801029416255878
 10
3.453159514423981
 20
-2.801072298152786
 10
3.397318808526099
 20
-2.80219583408269
 10
3.34112189656768
 20
-2.804372150077277
 10
3.284757610904618
 20
-2.807667715010015
 10
3.228470575268727
 20
-2.812172583464811
 10
3.172505413391841
 20
-2.817976810025582
 10
3.11710674900578
 20
-2.825170449276227
 10
3.062519205842365
 20
-2.83384355580067
 10
3.008987407633429
 20
-2.844086184182811
 10
2.956755978110797
 20
-2.855988389006571
 10
2.905987999734138
 20
-2.86963808069445
 10
2.8565203898745
 20
-2.885114593023382
 10
2.808108524630782
 20
-2.902495115608886
 10
2.760507780101876
 20
-2.92185683806649
 10
2.713473532386679
 20
-2.94327695001172
 10
2.666761157584093
 20
-2.966832641060097
 10
2.620126031793019
 20
-2.992601100827153
 10
2.573323531112323
 20
-3.020659518928408
 10
2.526194864553048
 20
-3.051044345993992
 10
2.47892457277468
 20
-3.083629076712477
 10
2.431783029348811
 20
-3.118246466787029
 10
2.385040607847054
 20
-3.154729271920819
 10
2.338967681841012
 20
-3.192910247817017
 10
2.293834624902282
 20
-3.232622150178793
 10
2.249911810602483
 20
-3.273697734709324
 10
2.207469612513217
 20
-3.315969757111774
 10
2.166726904498313
 20
-3.359316000413738
 10
2.127696561590512
 20
-3.403794356940486
 10
2.090339959114779
 20
-3.4495077463417
 10
2.054618472396093
 20
-3.496559088267079
 10
2.020493476759423
 20
-3.545051302366306
 10
1.987926347529736
 20
-3.595087308289069
 10
1.956878460032008
 20
-3.646770025685061
 10
1.927311189591194
 20
-3.700202374203972
 10
1.899215952983806
 20
-3.755414372170294
 10
1.872704332792463
 20
-3.812144432607744
 10
1.847917953051309
 20
-3.870058067214843
 10
1.824998437794499
 20
-3.928820787690114
 10
1.804087411056175
 20
-3.988098105732077
 10
1.785326496870488
 20
-4.047555533039254
 10
1.768857319271596
 20
-4.106858581310168
 10
1.754821502293633
 20
-4.165672762243334
 10
1.743292003759554
 20
-4.223738632991416
 10
1.734067116647515
 20
-4.281096932523555
 10
1.726876467724468
 20
-4.337863445263057
 10
1.721449683757361
 20
-4.394153955633202
 10
1.71751639151315
 20
-4.450084248057272
 10
1.714806217758788
 20
-4.505770106958566
 10
1.713048789261221
 20
-4.561327316760365
 10
1.711973732787407
 20
-4.616871661885959
 10
1.711375049647328
 20
-4.672531791662093
 10
1.711304239323039
 20
-4.728487815029334
 10
1.711877175839639
 20
-4.784932705831711
 10
1.713209733222214
 20
-4.842059437913253
 10
1.715417785495859
 20
-4.900060985117981
 10
1.718617206685662
 20
-4.959130321289924
 10
1.722923870816714
 20
-5.01946042027311
 10
1.728453651914097
 20
-5.081244255911563
 10
1.735311934672278
 20
-5.14457501638499
 10
1.743562146463135
 20
-5.209146747215821
 10
1.753257225327926
 20
-5.274553708262157
 10
1.764450109307889
 20
-5.340390159382107
 10
1.777193736444289
 20
-5.406250360433775
 10
1.791541044778363
 20
-5.471728571275269
 10
1.807544972351375
 20
-5.536419051764694
 10
1.825258457204558
 20
-5.599916061760155
 10
1.844735864088853
 20
-5.661909523461703
 10
1.866037264593839
 20
-5.72247200843718
 10
1.889224157018784
 20
-5.781771750596361
 10
1.914358039662959
 20
-5.839976983849032
 10
1.941500410825616
 20
-5.897255942104971
 10
1.970712768806032
 20
-5.953776859273965
 10
2.00205661190347
 20
-6.00970796926579
 10
2.035593438417179
 20
-6.065217505990232
 10
2.071357570096993
 20
-6.120425212419781
 10
2.109274622494923
 20
-6.17525686777777
 10
2.149243034613543
 20
-6.229589760350243
 10
2.191161245455436
 20
-6.283301178423242
 10
2.23492769402315
 20
-6.336268410282809
 10
2.280440819319283
 20
-6.388368744214991
 10
2.327599060346385
 20
-6.439479468505829
 10
2.376300856107047
 20
-6.489477871441367
 10
2.426431530872351
 20
-6.538255260775779
 10
2.477823949987484
 20
-6.585759022135779
 10
2.530297864066157
 20
-6.631950560616209
 10
2.583673023722063
 20
-6.676791281311913
 10
2.63776917956892
 20
-6.720242589317735
 10
2.69240608222043
 20
-6.762265889728521
 10
2.747403482290295
 20
-6.802822587639114
 10
2.802581130392229
 20
-6.841874088144356
 10
2.857833880994462
 20
-6.879396805468878
 10
2.913357003983344
 20
-6.915427190356436
 10
2.96942087309977
 20
-6.950016702680571
 10
3.026295862084608
 20
-6.983216802314824
 10
3.084252344678757
 20
-7.015078949132738
 10
3.143560694623097
 20
-7.045654603007854
 10
3.2044912856585
 20
-7.074995223813711
 10
3.267314491525867
 20
-7.103152271423851
 10
3.332249186201876
 20
-7.130127890097064
 10
3.399308244606409
 20
-7.155726961633143
 10
3.468453041895169
 20
-7.179705052217124
 10
3.539644953223838
 20
-7.201817728034045
 10
3.612845353748119
 20
-7.221820555268946
 10
3.688015618623684
 20
-7.23946910010687
 10
3.765117123006247
 20
-7.254518928732849
 10
3.844111242051483
 20
-7.266725607331927
 10
3.924935746852964
 20
-7.275894017671425
 10
4.007433992255805
 20
-7.282026303847817
 10
4.091425729042984
 20
-7.285173925539853
 10
4.176730707997478
 20
-7.28538834242629
 10
4.263168679902284
 20
-7.28272101418588
 10
4.350559395540384
 20
-7.277223400497383
 10
4.438722605694751
 20
-7.268946961039547
 10
4.527478061148384
 20
-7.257943155491132
 10
4.616621908763208
 20
-7.244274164337875
 10
4.705855879716953
 20
-7.228045051293477
 10
4.794858101266285
 20
-7.209371600878613
 10
4.883306700667877
 20
-7.188369597613966
 10
4.970879805178404
 20
-7.165154826020216
 10
5.057255542054534
 20
-7.139843070618048
 10
5.142112038552943
 20
-7.112550115928137
 10
5.225127421930295
 20
-7.08339174647117
 10
5.306037756484028
 20
-7.052496611671279
 10
5.384810854674602
 20
-7.020044820566434
 10
5.461472466003253
 20
-6.986229347098051
 10
5.536048339971179
 20
-6.951243165207548
 10
5.608564226079613
 20
-6.915279248836347
 10
5.67904587382978
 20
-6.878530571925868
 10
5.747519032722903
 20
-6.841190108417534
 10
5.814009452260198
 20
-6.803450832252758
 10
5.878628714855012
 20
-6.765392077127308
 10
5.94183173456915
 20
-6.726638615754309
 10
6.004159258376551
 20
-6.686701580601233
 10
6.066152033251147
 20
-6.645092104135555
 10
6.128350806166868
 20
-6.60132131882474
 10
6.19129632409763
 20
-6.554900357136264
 10
6.255529334017388
 20
-6.505340351537595
 10
6.321590582900056
 20
-6.452152434496209
 10
6.389823402196626
 20
-6.395017126791711
 10
6.459781461266269
 20
-6.33429250245225
 10
6.530821013945214
 20
-6.270506023818129
 10
6.602298314069702
 20
-6.20418515322963
 10
6.673569615475944
 20
-6.135857353027048
 10
6.743991172000177
 20
-6.066050085550677
 10
6.81291923747863
 20
-5.995290813140802
 10
6.879710065747537
 20
-5.924106998137719
 10
6.94385901358036
 20
-5.852924145542402
 10
7.00541784949957
 20
-5.781759930998573
 10
7.064577444964854
 20
-5.710530072810632
 10
7.121528671435926
 20
-5.639150289282986
 10
7.176462400372475
 20
-5.567536298720036
 10
7.229569503234205
 20
-5.495603819426185
 10
7.281040851480827
 20
-5.423268569705839
 10
7.331067316572037
 20
-5.350446267863398
 10
7.379860208516691
 20
-5.277049745775345
 10
7.427712591520283
 20
-5.202980289606454
 10
7.474937968337465
 20
-5.128136299093586
 10
7.52184984172288
 20
-5.052416173973591
 10
7.568761714431174
 20
-4.975718313983325
 10
7.615987089217008
 20
-4.897941118859643
 10
7.663839468835027
 20
-4.818982988339398
 10
7.712632356039878
 20
-4.738742322159447
 10
7.762637356921873
 20
-4.657163289598893
 10
7.81395849091399
 20
-4.574373138105842
 10
7.866657880784869
 20
-4.490544884670653
 10
7.920797649303136
 20
-4.405851546283681
 10
7.976439919237455
 20
-4.320466139935279
 10
8.033646813356448
 20
-4.234561682615814
 10
8.092480454428754
 20
-4.14831119131563
 10
8.153002965223008
 20
-4.061887683025092
 10
8.215225344034697
 20
-3.975463212602734
 10
8.278954091266594
 20
-3.889205986379809
 10
8.343944582848317
 20
-3.803283248555759
 10
8.409952194709497
 20
-3.717862243330012
 10
8.47673230277973
 20
-3.633110214902016
 10
8.544040282988651
 20
-3.549194407471192
 10
8.611631511265864
 20
-3.466282065236984
 10
8.679261363541002
 20
-3.384540432398829
 10
8.746723840616191
 20
-3.304126032349171
 10
8.81396744278366
 20
-3.225152505252506
 10
8.880979295208158
 20
-3.147722770466352
 10
8.947746523054437
 20
-3.071939747348205
 10
9.014256251487246
 20
-2.997906355255585
 10
9.080495605671336
 20
-2.925725513545998
 10
9.146451710771456
 20
-2.855500141576952
 10
9.212111691952356
 20
-2.787333158705959
 10
9.277466966018742
 20
-2.721314619370835
 10
9.342526116335195
 20
-2.65748311833065
 10
9.407302017906232
 20
-2.595864385424782
 10
9.471807545736382
 20
-2.53648415049261
 10
9.536055574830175
 20
-2.479368143373501
 10
9.600058980192143
 20
-2.424542093906843
 10
9.663830636826817
 20
-2.372031731932009
 10
9.72738341973873
 20
-2.321862787288379
 10
9.790703560864994
 20
-2.274020871354882
 10
9.853670719873067
 20
-2.228331121668672
 10
9.916137913363034
 20
-2.184578557306457
 10
9.977958157934933
 20
-2.142548197344954
 10
10.03898447018884
 20
-2.10202506086086
 10
10.09906986672479
 20
-2.062794166930892
 10
10.15806736414287
 20
-2.024640534631756
 10
10.21582997904313
 20
-1.987349183040155
 10
10.27233357362749
 20
-1.950718278868912
 10
10.32804539250535
 20
-1.914598579375228
 10
10.38355552588798
 20
-1.878853989452426
 10
10.43945406398664
 20
-1.843348413993814
 10
10.49633109701261
 20
-1.807945757892715
 10
10.55477671517714
 20
-1.772509926042441
 10
10.61538100869151
 20
-1.736904823336304
 10
10.67873406776697
 20
-1.700994354667624
 10
10.74524305396881
 20
-1.664700034424942
 10
10.81458341427832
 20
-1.628173814977738
 10
10.88624766703081
 20
-1.591625258190706
 10
10.95972833056159
 20
-1.555263925928562
 10
11.03451792320597
 20
-1.519299380056
 10
11.11010896329925
 20
-1.483941182437734
 10
11.18599396917673
 20
-1.44939889493846
 10
11.26166545917374
 20
-1.415882079422886
 10
11.33688078095075
 20
-1.383537496745029
 10
11.41245659946901
 20
-1.352260703716134
 10
11.48947440901493
 20
-1.321884456136775
 10
11.56901570387493
 20
-1.292241509807514
 10
11.65216197833544
 20
-1.263164620528913
 10
11.73999472668286
 20
-1.234486544101534
 10
11.83359544320364
 20
-1.206040036325946
 10
11.93404562218417
 20
-1.177657853002715
 10
12.04194394803413
 20
-1.149277813564928
 10
12.15595786565623
 20
-1.121257991975821
 10
12.27427201007639
 20
-1.094061525831147
 10
12.39507101632055
 20
-1.068151552726664
 10
12.51653951941465
 20
-1.043991210258129
 10
12.63686215438464
 20
-1.022043636021309
 10
12.75422355625646
 20
-1.002771967611953
 10
12.86680836005604
 20
-0.9866393426258182
 10
12.97326469823571
 20
-0.9739566636214844
 10
13.0740946929533
 20
-0.9644258930087557
 10
13.17026396379302
 20
-0.957596758160267
 10
13.2627381303391
 20
-0.9530189864486422
 10
13.35248281217573
 20
-0.9502423052465108
 10
13.44046362888715
 20
-0.9488164419264965
 10
13.52764620005756
 20
-0.948291123861229
 10
13.61499614527118
 20
-0.948216078423332
 10
13.7033117100408
 20
-0.9482482407469001
 10
13.79272164359353
 20
-0.9484733770118921
 10
13.88318732108506
 20
-0.9490844611597218
 10
13.9746701176711
 20
-0.9502744671318076
 10
14.06713140850731
 20
-0.9522363688695792
 10
14.16053256874941
 20
-0.9551631403144444
 10
14.25483497355308
 20
-0.9592477554078326
 10
14.349999998074
 20
-0.9646831880911575
 10
14.44580662269889
 20
-0.9715766461096565
 10
14.5413042487386
 20
-0.9796922724238092
 10
14.63535988273497
 20
-0.988708443797925
 10
14.72684053122986
 20
-0.9983035369963022
 10
14.81461320076514
 20
-1.008155928783234
 10
14.89754489788265
 20
-1.01794399592303
 10
14.97450262912424
 20
-1.027346115179988
 10
15.04435340103179
 20
-1.036040663318403
 10
15.10629038492542
 20
-1.043838954719652
 10
15.16081141123835
 20
-1.051084054233416
 10
15.20874047518212
 20
-1.058251964326442
 10
15.25090157196821
 20
-1.06581868746548
 10
15.28811869680814
 20
-1.074260226117278
 10
15.32121584491341
 20
-1.08405258274859
 10
15.35101701149554
 20
-1.09567175982616
 10
15.37834619176603
 20
-1.109593759816748
 10
15.40392652735493
 20
-1.12621739560403
 10
15.42807774556647
 20
-1.145632721739464
 10
15.45101872012341
 20
-1.167852603191434
 10
15.47296832474852
 20
-1.19288990492832
 10
15.49414543316457
 20
-1.220757491918507
 10
15.51476891909432
 20
-1.251468229130386
 10
15.53505765626055
 20
-1.28503498153234
 10
15.55523051838601
 20
-1.321470614092756
 10
15.57542912967413
 20
-1.360740820342891
 10
15.59548611625099
 20
-1.402622608065534
 10
15.61515685472331
 20
-1.446845813606351
 10
15.63419672169784
 20
-1.493140273310992
 10
15.6523610937813
 20
-1.541235823525126
 10
15.66940534758042
 20
-1.590862300594417
 10
15.68508485970194
 20
-1.641749540864517
 10
15.6991550067526
 20
-1.693627380681099
 10
15.71140764423648
 20
-1.74626853950414
 10
15.72178054324716
 20
-1.799617269250936
 10
15.73024795377559
 20
-1.853660704953097
 10
15.73678412581271
 20
-1.908385981642244
 10
15.74136330934945
 20
-1.963780234349985
 10
15.74395975437676
 20
-2.019830598107942
 10
15.74454771088558
 20
-2.076524207947719
 10
15.74310142886686
 20
-2.133848198900941
 10
15.73961876237364
 20
-2.191740390465631
 10
15.73419198170747
 20
-2.249941340005457
 10
15.726936961232
 20
-2.308142289350493
 10
15.71796957531085
 20
-2.366034480330822
 10
15.7074056983077
 20
-2.423309154776523
 10
15.69536120458617
 20
-2.479657554517671
 10
15.68195196850993
 20
-2.534770921384353
 10
15.66729386444263
 20
-2.588340497206639
 10
15.65148790426956
 20
-2.640120544609433
 10
15.63457564996275
 20
-2.690117409396923
 10
15.61658380101584
 20
-2.738400458168123
 10
15.59753905692252
 20
-2.785039057522034
 10
15.57746811717645
 20
-2.830102574057671
 10
15.55639768127128
 20
-2.873660374374044
 10
15.53435444870071
 20
-2.915781825070162
 10
15.51136511895839
 20
-2.956536292745031
 10
15.4874366043171
 20
-2.995997055440996
 10
15.46249666816609
 20
-3.034253036973712
 10
15.43645328667371
 20
-3.071397072602155
 10
15.40921443600831
 20
-3.107521997585316
 10
15.38068809233826
 20
-3.142720647182167
 10
15.3507822318319
 20
-3.177085856651703
 10
15.31940483065761
 20
-3.210710461252902
 10
15.28646386498371
 20
-3.24368729624475
 10
15.25188495242182
 20
-3.276068834845222
 10
15.21566427635638
 20
-3.30774610210833
 10
15.1778156616151
 20
-3.338569761047065
 10
15.13835293302566
 20
-3.368390474674423
 10
15.09728991541579
 20
-3.397058906003408
 10
15.05464043361316
 20
-3.424425718047025
 10
15.01041831244546
 20
-3.450341573818257
 10
14.96463737674041
 20
-3.47465713633012
 10
14.91735635519912
 20
-3.497247958077204
 10
14.86881359201646
 20
-3.51808914948052
 10
14.81929233526073
 20
-3.537180710442671
 10
14.76907583300023
 20
-3.554522640866261
 10
14.71844733330325
 20
-3.570114940653904
 10
14.6676900842381
 20
-3.583957609708206
 10
14.61708733387307
 20
-3.596050647931766
 10
14.56692233027645
 20
-3.606394055227198
 10
14.5173924887455
 20
-3.61498139904538
 10
14.46835189349325
 20
-3.621780517030272
 10
14.41956879596167
 20
-3.626752814374118
 10
14.37081144759278
 20
-3.629859696269148
 10
14.32184809982851
 20
-3.63106256790761
 10
14.27244700411088
 20
-3.63032283448173
 10
14.22237641188187
 20
-3.627601901183751
 10
14.17140457458345
 20
-3.622861173205915
 10
14.11941347215895
 20
-3.616089929773693
 10
14.06673999855709
 20
-3.607388946245515
 10
14.01383477622794
 20
-3.596886872013064
 10
13.96114842762156
 20
-3.584712356468006
 10
13.90913157518801
 20
-3.570994049002015
 10
13.85823484137735
 20
-3.555860599006765
 10
13.80890884863963
 20
-3.539440655873931
 10
13.76160421942495
 20
-3.521862868995188
 10
13.71663853525985
 20
-3.503191563082597
 10
13.67379721397687
 20
-3.483233764129814
 10
13.6327326324851
 20
-3.461732173450886
 10
13.59309716769358
 20
-3.438429492359862
 10
13.55454319651135
 20
-3.413068422170785
 10
13.51672309584749
 20
-3.385391664197703
 10
13.47928924261104
 20
-3.355141919754663
 10
13.44189401371107
 20
-3.322061890155714
 10
13.40430995208844
 20
-3.286052944236285
 10
13.36679026481136
 20
-3.247651120917323
 10
13.3297083249798
 20
-3.207551126641165
 10
13.29343750569379
 20
-3.166447667850145
 10
13.25835118005331
 20
-3.125035450986597
 10
13.22482272115837
 20
-3.084009182492856
 10
13.19322550210898
 20
-3.044063568811257
 10
13.16393289600513
 20
-3.005893316384129
 10
13.13723888048055
 20
-2.970066626439763
 10
13.11311985130385
 20
-2.936645679350282
 10
13.09147280877734
 20
-2.905566150273758
 10
13.07219475320334
 20
-2.876763714368259
 10
13.05518268488419
 20
-2.850174046791861
 10
13.04033360412222
 20
-2.825732822702639
 10
13.02754451121973
 20
-2.803375717258668
 10
13.01671240647906
 20
-2.783038405618017
 10
13.00770854041917
 20
-2.764654418826058
 10
13.00030116442562
 20
-2.748148711477366
 10
12.99423278010062
 20
-2.733444094053811
 10
12.98924588904636
 20
-2.720463377037248
 10
12.98508299286505
 20
-2.709129370909558
 10
12.9814865931589
 20
-2.699364886152602
 10
12.9781991915301
 20
-2.691092733248256
 10
12.97496328958086
 20
-2.684235722678373
 10
12.97154499294729
 20
-2.678712376618276
 10
12.96780482340112
 20
-2.674424064017002
 10
12.96362690674796
 20
-2.671267865517053
 10
12.95889536879347
 20
-2.669140861760918
 10
12.95349433534326
 20
-2.667940133391088
 10
12.94730793220296
 20
-2.667562761050045
 10
12.94022028517821
 20
-2.667905825380294
 10
12.93211552007464
 20
-2.668866407024314
 10
12.92279192975755
 20
-2.670393046319584
 10
12.9117044753309
 20
-2.672640122383537
 10
12.89822228495835
 20
-2.675813474028573
 10
12.88171448680354
 20
-2.680118940067116
 10
12.86155020903011
 20
-2.685762359311567
 10
12.83709857980171
 20
-2.692949570574348
 10
12.80772872728196
 20
-2.70188641266786
 10
12.77280977963452
 20
-2.712778724404527
 10
12.7318803850414
 20
-2.7257808848693
 10
12.68515727175804
 20
-2.740841434237337
 10
12.63302668805826
 20
-2.757857452956347
 10
12.57587488221586
 20
-2.77672602147403
 10
12.51408810250465
 20
-2.797344220238088
 10
12.44805259719845
 20
-2.819609129696224
 10
12.37815461457105
 20
-2.843417830296149
 10
12.30478040289629
 20
-2.868667402485566
 10
12.22835054345482
 20
-2.895276368309916
 10
12.14942294955471
 20
-2.92324901620563
 10
12.06858986751091
 20
-2.952611076206862
 10
11.98644354363834
 20
-2.98338827834778
 10
11.90357622425194
 20
-3.015606352662547
 10
11.82058015566665
 20
-3.049291029185328
 10
11.73804758419738
 20
-3.084468037950286
 10
11.65657075615909
 20
-3.121163108991588
 10
11.57666955700532
 20
-3.159339006380979
 10
11.49857442874413
 20
-3.198706630340552
 10
11.42244345252222
 20
-3.238913915129984
 10
11.34843470948627
 20
-3.279608795008956
 10
11.27670628078297
 20
-3.320439204237141
 10
11.20741624755898
 20
-3.361053077074225
 10
11.14072269096102
 20
-3.40109834777988
 10
11.07678369213575
 20
-3.440222950613781
 10
11.01565897931902
 20
-3.478207969575211
 10
10.95701486910322
 20
-3.515367087621868
 10
10.90041932516987
 20
-3.552147137451049
 10
10.84544031120052
 20
-3.588994951760053
 10
10.79164579087672
 20
-3.626357363246172
 10
10.73860372788
 20
-3.664681204606714
 10
10.68588208589188
 20
-3.704413308538966
 10
10.63304882859392
 20
-3.746000507740238
 10
10.57970589789442
 20
-3.789867981268707
 10
10.52559114860877
 20
-3.836354293626126
 10
10.47047641377911
 20
-3.885776355675123
 10
10.4141335264476
 20
-3.938451078278335
 10
10.3563343196564
 20
-3.994695372298397
 10
10.29685062644766
 20
-4.054826148597947
 10
10.23545427986353
 20
-4.119160318039612
 10
10.17191711294618
 20
-4.18801479148603
 10
10.10613481941974
 20
-4.261555030174392
 10
10.03849853573638
 20
-4.339340696840099
 10
9.969523259030248
 20
-4.420780004593119
 10
9.899723986435486
 20
-4.505281166543411
 10
9.829615715086259
 20
-4.592252395800938
 10
9.759713442116709
 20
-4.681101905475661
 10
9.690532164660991
 20
-4.771237908677546
 10
9.622586879853251
 20
-4.862068618516549
 10
9.556253106458308
 20
-4.953163059736716
 10
9.491348449763618
 20
-5.044733503618421
 10
9.427551036687297
 20
-5.137153033076115
 10
9.364538994147441
 20
-5.230794731024259
 10
9.30199044906219
 20
-5.326031680377299
 10
9.239583528349641
 20
-5.423236964049693
 10
9.176996358927908
 20
-5.522783664955898
 10
9.113907067715112
 20
-5.625044866010367
 10
9.050099890075188
 20
-5.730187599160149
 10
8.985783495155368
 20
-5.837554692482674
 10
8.921272660548694
 20
-5.946282923087967
 10
8.856882163848222
 20
-6.055509068086059
 10
8.792926782647001
 20
-6.164369904586971
 10
8.729721294538082
 20
-6.272002209700733
 10
8.667580477114508
 20
-6.377542760537371
 10
8.606819107969338
 20
-6.48012833420691
 10
8.547624617378836
 20
-6.579132201145311
 10
8.489675046352141
 20
-6.674873605092291
 10
8.432521088581617
 20
-6.767908283113499
 10
8.375713437759612
 20
-6.858791972274585
 10
8.318802787578491
 20
-6.948080409641195
 10
8.261339831730605
 20
-7.036329332278985
 10
8.202875263908319
 20
-7.124094477253599
 10
8.142959777803989
 20
-7.211931581630689
 10
8.0811941648792
 20
-7.300258520314543
 10
8.017379607672458
 20
-7.388941719563979
 10
7.951367386491498
 20
-7.477709743476455
 10
7.88300878164406
 20
-7.566291156149436
 10
7.812155073437883
 20
-7.65441452168037
 10
7.738657542180695
 20
-7.741808404166719
 10
7.662367468180247
 20
-7.82820136770594
 10
7.583136131744265
 20
-7.913321976395488
 10
7.500871787081484
 20
-7.996918303745613
 10
7.41571058400462
 20
-8.078816460917684
 10
7.327845646227376
 20
-8.15886206848587
 10
7.237470097463468
 20
-8.23690074702433
 10
7.144777061426593
 20
-8.312778117107232
 10
7.049959661830468
 20
-8.386339799308737
 10
6.953211022388803
 20
-8.457431414203005
 10
6.854724266815296
 20
-8.525898582364202
 10
6.754713977108121
 20
-8.5916062218353
 10
6.653480568403261
 20
-8.654496440534515
 10
6.551345914121158
 20
-8.714530643848865
 10
6.448631887682265
 20
-8.771670237165384
 10
6.345660362507011
 20
-8.825876625871089
 10
6.242753212015842
 20
-8.877111215352998
 10
6.140232309629213
 20
-8.925335410998147
 10
6.038419528767562
 20
-8.970510618193557
 10
5.937585243087122
 20
-9.012617539681432
 10
5.837793827187353
 20
-9.05171406762472
 10
5.739058155903505
 20
-9.087877391541557
 10
5.641391104070827
 20
-9.121184700950067
 10
5.544805546524561
 20
-9.151713185368391
 10
5.449314358099976
 20
-9.179540034314655
 10
5.354930413632306
 20
-9.204742437307
 10
5.261666587956807
 20
-9.227397583863545
 10
5.169518589348876
 20
-9.247591240131789
 10
5.078413459844506
 20
-9.265443478776649
 10
4.988261074919812
 20
-9.281082949092407
 10
4.898971310050943
 20
-9.294638300373346
 10
4.810454040714016
 20
-9.306238181913737
 10
4.722619142385169
 20
-9.316011243007871
 10
4.635376490540537
 20
-9.324086132950021
 10
4.548635960656247
 20
-9.330591501034469
 10
4.462376094504269
 20
-9.335638843313009
 10
4.376850099039939
 20
-9.339271042867505
 10
4.292379847514404
 20
-9.341513829537333
 10
4.209287213178839
 20
-9.342392933161875
  0
POLYLINE
  5
16DFB
330
16B91
100
AcDbEntity
  8
0
100
AcDb2dPolyline
 66
     1
 10
0.0
 20
0.0
 30
0.0
 70
     5
 75
     6
  0
VERTEX
  5
16DFC
330
16DFB
100
AcDbEntity
  8
0
100
AcDbVertex
100
AcDb2dVertex
 10
6.516423709719513
 20
-5.796489971164321
 30
0.0
 70
    16
  0
VERTEX
  5
16DFD
330
16DFB
100
AcDbEntity
  8
0
100
AcDbVertex
100
AcDb2dVertex
 10
6.481567198119289
 20
-5.792589071240574
 30
0.0
 70
     8
  0
VERTEX
  5
16DFE
330
16DFB
100
AcDbEntity
  8
0
100
AcDbVertex
100
AcDb2dVertex
 10
6.479336873640667
 20
-5.78988103373595
 30
0.0
 70
     8
  0
VERTEX
  5
16DFF
330
16DFB
100
AcDbEntity
  8
0
100
AcDbVertex
100
AcDb2dVertex
 10
6.478102913325353
 20
-5.786075575850592
 30
0.0
 70
     8
  0
VERTEX
  5
16E00
330
16DFB
100
AcDbEntity
  8
0
100
AcDbVertex
100
AcDb2dVertex
 10
6.478208121744178
 20
-5.78075445107621
 30
0.0
 70
     8
  0
VERTEX
  5
16E01
330
16DFB
100
AcDbEntity
  8
0
100
AcDbVertex
100
AcDb2dVertex
 10
6.47999530346796
 20
-5.773499412904526
 30
0.0
 70
     8
  0
VERTEX
  5
16E02
330
16DFB
100
AcDbEntity
  8
0
100
AcDbVertex
100
AcDb2dVertex
 10
6.483807263067497
 20
-5.76389221482726
 30
0.0
 70
     8
  0
VERTEX
  5
16E03
330
16DFB
100
AcDbEntity
  8
0
100
AcDbVertex
100
AcDb2dVertex
 10
6.489986805113633
 20
-5.751514610336128
 30
0.0
 70
     8
  0
VERTEX
  5
16E04
330
16DFB
100
AcDbEntity
  8
0
100
AcDbVertex
100
AcDb2dVertex
 10
6.498876734177155
 20
-5.735948352922846
 30
0.0
 70
     8
  0
VERTEX
  5
16E05
330
16DFB
100
AcDbEntity
  8
0
100
AcDbVertex
100
AcDb2dVertex
 10
6.510819854828904
 20
-5.716775196079131
 30
0.0
 70
     8
  0
VERTEX
  5
16E06
330
16DFB
100
AcDbEntity
  8
0
100
AcDbVertex
100
AcDb2dVertex
 10
6.526040545370389
 20
-5.693693800826648
 30
0.0
 70
     8
  0
VERTEX
  5
16E07
330
16DFB
100
AcDbEntity
  8
0
100
AcDbVertex
100
AcDb2dVertex
 10
6.544289479025988
 20
-5.666870458306812
 30
0.0
 70
     8
  0
VERTEX
  5
16E08
330
16DFB
100
AcDbEntity
  8
0
100
AcDbVertex
100
AcDb2dVertex
 10
6.565198902750806
 20
-5.636588367190984
 30
0.0
 70
     8
  0
VERTEX
  5
16E09
330
16DFB
100
AcDbEntity
  8
0
100
AcDbVertex
100
AcDb2dVertex
 10
6.588401063499936
 20
-5.603130726150532
 30
0.0
 70
     8
  0
VERTEX
  5
16E0A
330
16DFB
100
AcDbEntity
  8
0
100
AcDbVertex
100
AcDb2dVertex
 10
6.613528208228452
 20
-5.566780733856814
 30
0.0
 70
     8
  0
VERTEX
  5
16E0B
330
16DFB
100
AcDbEntity
  8
0
100
AcDbVertex
100
AcDb2dVertex
 10
6.64021258389146
 20
-5.527821588981196
 30
0.0
 70
     8
  0
VERTEX
  5
16E0C
330
16DFB
100
AcDbEntity
  8
0
100
AcDbVertex
100
AcDb2dVertex
 10
6.668086437444054
 20
-5.486536490195036
 30
0.0
 70
     8
  0
VERTEX
  5
16E0D
330
16DFB
100
AcDbEntity
  8
0
100
AcDbVertex
100
AcDb2dVertex
 10
6.69678201584132
 20
-5.443208636169697
 30
0.0
 70
     8
  0
VERTEX
  5
16E0E
330
16DFB
100
AcDbEntity
  8
0
100
AcDbVertex
100
AcDb2dVertex
 10
6.725987219903506
 20
-5.39806870229842
 30
0.0
 70
     8
  0
VERTEX
  5
16E0F
330
16DFB
100
AcDbEntity
  8
0
100
AcDbVertex
100
AcDb2dVertex
 10
6.755612565911531
 20
-5.351137270861946
 30
0.0
 70
     8
  0
VERTEX
  5
16E10
330
16DFB
100
AcDbEntity
  8
0
100
AcDbVertex
100
AcDb2dVertex
 10
6.785624224011469
 20
-5.302382400862901
 30
0.0
 70
     8
  0
VERTEX
  5
16E11
330
16DFB
100
AcDbEntity
  8
0
100
AcDbVertex
100
AcDb2dVertex
 10
6.815988364349376
 20
-5.251772151303905
 30
0.0
 70
     8
  0
VERTEX
  5
16E12
330
16DFB
100
AcDbEntity
  8
0
100
AcDbVertex
100
AcDb2dVertex
 10
6.846671157071337
 20
-5.19927458118758
 30
0.0
 70
     8
  0
VERTEX
  5
16E13
330
16DFB
100
AcDbEntity
  8
0
100
AcDbVertex
100
AcDb2dVertex
 10
6.877638772323405
 20
-5.144857749516547
 30
0.0
 70
     8
  0
VERTEX
  5
16E14
330
16DFB
100
AcDbEntity
  8
0
100
AcDbVertex
100
AcDb2dVertex
 10
6.908857380251674
 20
-5.08848971529343
 30
0.0
 70
     8
  0
VERTEX
  5
16E15
330
16DFB
100
AcDbEntity
  8
0
100
AcDbVertex
100
AcDb2dVertex
 10
6.940293151002192
 20
-5.030138537520851
 30
0.0
 70
     8
  0
VERTEX
  5
16E16
330
16DFB
100
AcDbEntity
  8
0
100
AcDbVertex
100
AcDb2dVertex
 10
6.971868240605029
 20
-4.96981576319285
 30
0.0
 70
     8
  0
VERTEX
  5
16E17
330
16DFB
100
AcDbEntity
  8
0
100
AcDbVertex
100
AcDb2dVertex
 10
7.003328748626171
 20
-4.907706891269162
 30
0.0
 70
     8
  0
VERTEX
  5
16E18
330
16DFB
100
AcDbEntity
  8
0
100
AcDbVertex
100
AcDb2dVertex
 10
7.034376760515583
 20
-4.844040908700941
 30
0.0
 70
     8
  0
VERTEX
  5
16E19
330
16DFB
100
AcDbEntity
  8
0
100
AcDbVertex
100
AcDb2dVertex
 10
7.064714361723244
 20
-4.779046802439344
 30
0.0
 70
     8
  0
VERTEX
  5
16E1A
330
16DFB
100
AcDbEntity
  8
0
100
AcDbVertex
100
AcDb2dVertex
 10
7.09404363769913
 20
-4.712953559435524
 30
0.0
 70
     8
  0
VERTEX
  5
16E1B
330
16DFB
100
AcDbEntity
  8
0
100
AcDbVertex
100
AcDb2dVertex
 10
7.122066673893195
 20
-4.645990166640632
 30
0.0
 70
     8
  0
VERTEX
  5
16E1C
330
16DFB
100
AcDbEntity
  8
0
100
AcDbVertex
100
AcDb2dVertex
 10
7.14848555575543
 20
-4.578385611005824
 30
0.0
 70
     8
  0
VERTEX
  5
16E1D
330
16DFB
100
AcDbEntity
  8
0
100
AcDbVertex
100
AcDb2dVertex
 10
7.1730023687358
 20
-4.510368879482254
 30
0.0
 70
     8
  0
VERTEX
  5
16E1E
330
16DFB
100
AcDbEntity
  8
0
100
AcDbVertex
100
AcDb2dVertex
 10
7.195414683725656
 20
-4.442084997132496
 30
0.0
 70
     8
  0
VERTEX
  5
16E1F
330
16DFB
100
AcDbEntity
  8
0
100
AcDbVertex
100
AcDb2dVertex
 10
7.21590201338189
 20
-4.373343141464788
 30
0.0
 70
     8
  0
VERTEX
  5
16E20
330
16DFB
100
AcDbEntity
  8
0
100
AcDbVertex
100
AcDb2dVertex
 10
7.234739355802761
 20
-4.303868528098787
 30
0.0
 70
     8
  0
VERTEX
  5
16E21
330
16DFB
100
AcDbEntity
  8
0
100
AcDbVertex
100
AcDb2dVertex
 10
7.252201709086531
 20
-4.233386372654156
 30
0.0
 70
     8
  0
VERTEX
  5
16E22
330
16DFB
100
AcDbEntity
  8
0
100
AcDbVertex
100
AcDb2dVertex
 10
7.268564071331475
 20
-4.161621890750544
 30
0.0
 70
     8
  0
VERTEX
  5
16E23
330
16DFB
100
AcDbEntity
  8
0
100
AcDbVertex
100
AcDb2dVertex
 10
7.284101440635847
 20
-4.088300298007618
 30
0.0
 70
     8
  0
VERTEX
  5
16E24
330
16DFB
100
AcDbEntity
  8
0
100
AcDbVertex
100
AcDb2dVertex
 10
7.299088815097919
 20
-4.013146810045024
 30
0.0
 70
     8
  0
VERTEX
  5
16E25
330
16DFB
100
AcDbEntity
  8
0
100
AcDbVertex
100
AcDb2dVertex
 10
7.313801192815958
 20
-3.935886642482429
 30
0.0
 70
     8
  0
VERTEX
  5
16E26
330
16DFB
100
AcDbEntity
  8
0
100
AcDbVertex
100
AcDb2dVertex
 10
7.328425725264096
 20
-3.856271726106511
 30
0.0
 70
     8
  0
VERTEX
  5
16E27
330
16DFB
100
AcDbEntity
  8
0
100
AcDbVertex
100
AcDb2dVertex
 10
7.342798177419963
 20
-3.774160852372067
 30
0.0
 70
     8
  0
VERTEX
  5
16E28
330
16DFB
100
AcDbEntity
  8
0
100
AcDbVertex
100
AcDb2dVertex
 10
7.356666467637055
 20
-3.689439527900903
 30
0.0
 70
     8
  0
VERTEX
  5
16E29
330
16DFB
100
AcDbEntity
  8
0
100
AcDbVertex
100
AcDb2dVertex
 10
7.369778514268875
 20
-3.601993259314843
 30
0.0
 70
     8
  0
VERTEX
  5
16E2A
330
16DFB
100
AcDbEntity
  8
0
100
AcDbVertex
100
AcDb2dVertex
 10
7.381882235668909
 20
-3.511707553235698
 30
0.0
 70
     8
  0
VERTEX
  5
16E2B
330
16DFB
100
AcDbEntity
  8
0
100
AcDbVertex
100
AcDb2dVertex
 10
7.392725550190661
 20
-3.418467916285293
 30
0.0
 70
     8
  0
VERTEX
  5
16E2C
330
16DFB
100
AcDbEntity
  8
0
100
AcDbVertex
100
AcDb2dVertex
 10
7.402056376187625
 20
-3.322159855085432
 30
0.0
 70
     8
  0
VERTEX
  5
16E2D
330
16DFB
100
AcDbEntity
  8
0
100
AcDbVertex
100
AcDb2dVertex
 10
7.409622632013291
 20
-3.222668876257935
 30
0.0
 70
     8
  0
VERTEX
  5
16E2E
330
16DFB
100
AcDbEntity
  8
0
100
AcDbVertex
100
AcDb2dVertex
 10
7.415187513824961
 20
-3.119991163415305
 30
0.0
 70
     8
  0
VERTEX
  5
16E2F
330
16DFB
100
AcDbEntity
  8
0
100
AcDbVertex
100
AcDb2dVertex
 10
7.418575328995056
 20
-3.014565608132752
 30
0.0
 70
     8
  0
VERTEX
  5
16E30
330
16DFB
100
AcDbEntity
  8
0
100
AcDbVertex
100
AcDb2dVertex
 10
7.419625662699796
 20
-2.906941778976177
 30
0.0
 70
     8
  0
VERTEX
  5
16E31
330
16DFB
100
AcDbEntity
  8
0
100
AcDbVertex
100
AcDb2dVertex
 10
7.418178100115405
 20
-2.79766924451148
 30
0.0
 70
     8
  0
VERTEX
  5
16E32
330
16DFB
100
AcDbEntity
  8
0
100
AcDbVertex
100
AcDb2dVertex
 10
7.414072226418105
 20
-2.687297573304561
 30
0.0
 70
     8
  0
VERTEX
  5
16E33
330
16DFB
100
AcDbEntity
  8
0
100
AcDbVertex
100
AcDb2dVertex
 10
7.407147626784104
 20
-2.576376333921316
 30
0.0
 70
     8
  0
VERTEX
  5
16E34
330
16DFB
100
AcDbEntity
  8
0
100
AcDbVertex
100
AcDb2dVertex
 10
7.397243886389639
 20
-2.465455094927644
 30
0.0
 70
     8
  0
VERTEX
  5
16E35
330
16DFB
100
AcDbEntity
  8
0
100
AcDbVertex
100
AcDb2dVertex
 10
7.384200590410912
 20
-2.355083424889442
 30
0.0
 70
     8
  0
VERTEX
  5
16E36
330
16DFB
100
AcDbEntity
  8
0
100
AcDbVertex
100
AcDb2dVertex
 10
7.367970655877139
 20
-2.245841841711775
 30
0.0
 70
     8
  0
VERTEX
  5
16E37
330
16DFB
100
AcDbEntity
  8
0
100
AcDbVertex
100
AcDb2dVertex
 10
7.348960327229433
 20
-2.138434660656383
 30
0.0
 70
     8
  0
VERTEX
  5
16E38
330
16DFB
100
AcDbEntity
  8
0
100
AcDbVertex
100
AcDb2dVertex
 10
7.327689180761891
 20
-2.033597146324161
 30
0.0
 70
     8
  0
VERTEX
  5
16E39
330
16DFB
100
AcDbEntity
  8
0
100
AcDbVertex
100
AcDb2dVertex
 10
7.304676792768625
 20
-1.932064563316007
 30
0.0
 70
     8
  0
VERTEX
  5
16E3A
330
16DFB
100
AcDbEntity
  8
0
100
AcDbVertex
100
AcDb2dVertex
 10
7.280442739543732
 20
-1.834572176232822
 30
0.0
 70
     8
  0
VERTEX
  5
16E3B
330
16DFB
100
AcDbEntity
  8
0
100
AcDbVertex
100
AcDb2dVertex
 10
7.25550659738132
 20
-1.741855249675507
 30
0.0
 70
     8
  0
VERTEX
  5
16E3C
330
16DFB
100
AcDbEntity
  8
0
100
AcDbVertex
100
AcDb2dVertex
 10
7.230387942575486
 20
-1.654649048244964
 30
0.0
 70
     8
  0
VERTEX
  5
16E3D
330
16DFB
100
AcDbEntity
  8
0
100
AcDbVertex
100
AcDb2dVertex
 10
7.205606351420337
 20
-1.573688836542095
 30
0.0
 70
     8
  0
VERTEX
  5
16E3E
330
16DFB
100
AcDbEntity
  8
0
100
AcDbVertex
100
AcDb2dVertex
 10
7.181581327708959
 20
-1.499490083965617
 30
0.0
 70
     8
  0
VERTEX
  5
16E3F
330
16DFB
100
AcDbEntity
  8
0
100
AcDbVertex
100
AcDb2dVertex
 10
7.158332085230413
 20
-1.43168907910556
 30
0.0
 70
     8
  0
VERTEX
  5
16E40
330
16DFB
100
AcDbEntity
  8
0
100
AcDbVertex
100
AcDb2dVertex
 10
7.135777765272749
 20
-1.369702315349775
 30
0.0
 70
     8
  0
VERTEX
  5
16E41
330
16DFB
100
AcDbEntity
  8
0
100
AcDbVertex
100
AcDb2dVertex
 10
7.113837509124023
 20
-1.312946286086108
 30
0.0
 70
     8
  0
VERTEX
  5
16E42
330
16DFB
100
AcDbEntity
  8
0
100
AcDbVertex
100
AcDb2dVertex
 10
7.092430458072284
 20
-1.260837484702419
 30
0.0
 70
     8
  0
VERTEX
  5
16E43
330
16DFB
100
AcDbEntity
  8
0
100
AcDbVertex
100
AcDb2dVertex
 10
7.071475753405572
 20
-1.212792404586551
 30
0.0
 70
     8
  0
VERTEX
  5
16E44
330
16DFB
100
AcDbEntity
  8
0
100
AcDbVertex
100
AcDb2dVertex
 10
7.050892536411955
 20
-1.168227539126358
 30
0.0
 70
     8
  0
VERTEX
  5
16E45
330
16DFB
100
AcDbEntity
  8
0
100
AcDbVertex
100
AcDb2dVertex
 10
7.030599948379463
 20
-1.126559381709687
 30
0.0
 70
     8
  0
VERTEX
  5
16E46
330
16DFB
100
AcDbEntity
  8
0
100
AcDbVertex
100
AcDb2dVertex
 10
7.010569279629083
 20
-1.087316781937263
 30
0.0
 70
     8
  0
VERTEX
  5
16E47
330
16DFB
100
AcDbEntity
  8
0
100
AcDbVertex
100
AcDb2dVertex
 10
6.990980416613409
 20
-1.050478014261274
 30
0.0
 70
     8
  0
VERTEX
  5
16E48
330
16DFB
100
AcDbEntity
  8
0
100
AcDbVertex
100
AcDb2dVertex
 10
6.972065394817978
 20
-1.016133709346797
 30
0.0
 70
     8
  0
VERTEX
  5
16E49
330
16DFB
100
AcDbEntity
  8
0
100
AcDbVertex
100
AcDb2dVertex
 10
6.95405624972833
 20
-0.9843744978588896
 30
0.0
 70
     8
  0
VERTEX
  5
16E4A
330
16DFB
100
AcDbEntity
  8
0
100
AcDbVertex
100
AcDb2dVertex
 10
6.937185016829983
 20
-0.955291010462618
 30
0.0
 70
     8
  0
VERTEX
  5
16E4B
330
16DFB
100
AcDbEntity
  8
0
100
AcDbVertex
100
AcDb2dVertex
 10
6.921683731608458
 20
-0.9289738778230447
 30
0.0
 70
     8
  0
VERTEX
  5
16E4C
330
16DFB
100
AcDbEntity
  8
0
100
AcDbVertex
100
AcDb2dVertex
 10
6.907784429549296
 20
-0.9055137306052417
 30
0.0
 70
     8
  0
VERTEX
  5
16E4D
330
16DFB
100
AcDbEntity
  8
0
100
AcDbVertex
100
AcDb2dVertex
 10
6.895719146138036
 20
-0.8850011994742768
 30
0.0
 70
     8
  0
VERTEX
  5
16E4E
330
16DFB
100
AcDbEntity
  8
0
100
AcDbVertex
100
AcDb2dVertex
 10
6.885652819778517
 20
-0.8674574396267594
 30
0.0
 70
     8
  0
VERTEX
  5
16E4F
330
16DFB
100
AcDbEntity
  8
0
100
AcDbVertex
100
AcDb2dVertex
 10
6.877482000547994
 20
-0.8526257043855283
 30
0.0
 70
     8
  0
VERTEX
  5
16E50
330
16DFB
100
AcDbEntity
  8
0
100
AcDbVertex
100
AcDb2dVertex
 10
6.871036141442012
 20
-0.8401797716049699
 30
0.0
 70
     8
  0
VERTEX
  5
16E51
330
16DFB
100
AcDbEntity
  8
0
100
AcDbVertex
100
AcDb2dVertex
 10
6.866144695456156
 20
-0.8297934191394706
 30
0.0
 70
     8
  0
VERTEX
  5
16E52
330
16DFB
100
AcDbEntity
  8
0
100
AcDbVertex
100
AcDb2dVertex
 10
6.862637115585981
 20
-0.8211404248434224
 30
0.0
 70
     8
  0
VERTEX
  5
16E53
330
16DFB
100
AcDbEntity
  8
0
100
AcDbVertex
100
AcDb2dVertex
 10
6.860342854827059
 20
-0.8138945665712009
 30
0.0
 70
     8
  0
VERTEX
  5
16E54
330
16DFB
100
AcDbEntity
  8
0
100
AcDbVertex
100
AcDb2dVertex
 10
6.859091366174958
 20
-0.8077296221772087
 30
0.0
 70
     8
  0
VERTEX
  5
16E55
330
16DFB
100
AcDbEntity
  8
0
100
AcDbVertex
100
AcDb2dVertex
 10
6.858712102625234
 20
-0.8023193695158216
 30
0.0
 70
     8
  0
VERTEX
  5
16E56
330
16DFB
100
AcDbEntity
  8
0
100
AcDbVertex
100
AcDb2dVertex
 10
6.859064565960415
 20
-0.7973887108438767
 30
0.0
 70
     8
  0
VERTEX
  5
16E57
330
16DFB
100
AcDbEntity
  8
0
100
AcDbVertex
100
AcDb2dVertex
 10
6.860128453110779
 20
-0.7928670460279795
 30
0.0
 70
     8
  0
VERTEX
  5
16E58
330
16DFB
100
AcDbEntity
  8
0
100
AcDbVertex
100
AcDb2dVertex
 10
6.861913509793534
 20
-0.7887348993371816
 30
0.0
 70
     8
  0
VERTEX
  5
16E59
330
16DFB
100
AcDbEntity
  8
0
100
AcDbVertex
100
AcDb2dVertex
 10
6.864429481725936
 20
-0.7849727950405391
 30
0.0
 70
     8
  0
VERTEX
  5
16E5A
330
16DFB
100
AcDbEntity
  8
0
100
AcDbVertex
100
AcDb2dVertex
 10
6.867686114625185
 20
-0.7815612574071033
 30
0.0
 70
     8
  0
VERTEX
  5
16E5B
330
16DFB
100
AcDbEntity
  8
0
100
AcDbVertex
100
AcDb2dVertex
 10
6.871693154208517
 20
-0.7784808107059252
 30
0.0
 70
     8
  0
VERTEX
  5
16E5C
330
16DFB
100
AcDbEntity
  8
0
100
AcDbVertex
100
AcDb2dVertex
 10
6.876460346193165
 20
-0.7757119792060612
 30
0.0
 70
     8
  0
VERTEX
  5
16E5D
330
16DFB
100
AcDbEntity
  8
0
100
AcDbVertex
100
AcDb2dVertex
 10
6.881997436296346
 20
-0.7732352871765677
 30
0.0
 70
     8
  0
VERTEX
  5
16E5E
330
16DFB
100
AcDbEntity
  8
0
100
AcDbVertex
100
AcDb2dVertex
 10
6.888340970365176
 20
-0.771053169270474
 30
0.0
 70
     8
  0
VERTEX
  5
16E5F
330
16DFB
100
AcDbEntity
  8
0
100
AcDbVertex
100
AcDb2dVertex
 10
6.89563469476637
 20
-0.7692557016767639
 30
0.0
 70
     8
  0
VERTEX
  5
16E60
330
16DFB
100
AcDbEntity
  8
0
100
AcDbVertex
100
AcDb2dVertex
 10
6.904049155996506
 20
-0.7679548709684152
 30
0.0
 70
     8
  0
VERTEX
  5
16E61
330
16DFB
100
AcDbEntity
  8
0
100
AcDbVertex
100
AcDb2dVertex
 10
6.913754900552195
 20
-0.7672626637183902
 30
0.0
 70
     8
  0
VERTEX
  5
16E62
330
16DFB
100
AcDbEntity
  8
0
100
AcDbVertex
100
AcDb2dVertex
 10
6.924922474930029
 20
-0.7672910664996559
 30
0.0
 70
     8
  0
VERTEX
  5
16E63
330
16DFB
100
AcDbEntity
  8
0
100
AcDbVertex
100
AcDb2dVertex
 10
6.937722425626613
 20
-0.7681520658851852
 30
0.0
 70
     8
  0
VERTEX
  5
16E64
330
16DFB
100
AcDbEntity
  8
0
100
AcDbVertex
100
AcDb2dVertex
 10
6.952325299138535
 20
-0.7699576484479506
 30
0.0
 70
     8
  0
VERTEX
  5
16E65
330
16DFB
100
AcDbEntity
  8
0
100
AcDbVertex
100
AcDb2dVertex
 10
6.968901641962383
 20
-0.7728198007609141
 30
0.0
 70
     8
  0
VERTEX
  5
16E66
330
16DFB
100
AcDbEntity
  8
0
100
AcDbVertex
100
AcDb2dVertex
 10
6.987569212393442
 20
-0.7768391484403656
 30
0.0
 70
     8
  0
VERTEX
  5
16E67
330
16DFB
100
AcDbEntity
  8
0
100
AcDbVertex
100
AcDb2dVertex
 10
7.00823461592167
 20
-0.7820708732758913
 30
0.0
 70
     8
  0
VERTEX
  5
16E68
330
16DFB
100
AcDbEntity
  8
0
100
AcDbVertex
100
AcDb2dVertex
 10
7.030751669835698
 20
-0.7885587961003841
 30
0.0
 70
     8
  0
VERTEX
  5
16E69
330
16DFB
100
AcDbEntity
  8
0
100
AcDbVertex
100
AcDb2dVertex
 10
7.054974191424143
 20
-0.7963467377467526
 30
0.0
 70
     8
  0
VERTEX
  5
16E6A
330
16DFB
100
AcDbEntity
  8
0
100
AcDbVertex
100
AcDb2dVertex
 10
7.08075599797565
 20
-0.8054785190478952
 30
0.0
 70
     8
  0
VERTEX
  5
16E6B
330
16DFB
100
AcDbEntity
  8
0
100
AcDbVertex
100
AcDb2dVertex
 10
7.107950906778853
 20
-0.8159979608367045
 30
0.0
 70
     8
  0
VERTEX
  5
16E6C
330
16DFB
100
AcDbEntity
  8
0
100
AcDbVertex
100
AcDb2dVertex
 10
7.136412735122374
 20
-0.8279488839460951
 30
0.0
 70
     8
  0
VERTEX
  5
16E6D
330
16DFB
100
AcDbEntity
  8
0
100
AcDbVertex
100
AcDb2dVertex
 10
7.165995300294841
 20
-0.8413751092089594
 30
0.0
 70
     8
  0
VERTEX
  5
16E6E
330
16DFB
100
AcDbEntity
  8
0
100
AcDbVertex
100
AcDb2dVertex
 10
7.196564601449301
 20
-0.8563374989094445
 30
0.0
 70
     8
  0
VERTEX
  5
16E6F
330
16DFB
100
AcDbEntity
  8
0
100
AcDbVertex
100
AcDb2dVertex
 10
7.228035365196381
 20
-0.8729650811367084
 30
0.0
 70
     8
  0
VERTEX
  5
16E70
330
16DFB
100
AcDbEntity
  8
0
100
AcDbVertex
100
AcDb2dVertex
 10
7.260334500011118
 20
-0.8914039254311372
 30
0.0
 70
     8
  0
VERTEX
  5
16E71
330
16DFB
100
AcDbEntity
  8
0
100
AcDbVertex
100
AcDb2dVertex
 10
7.293388914368556
 20
-0.9118001013331324
 30
0.0
 70
     8
  0
VERTEX
  5
16E72
330
16DFB
100
AcDbEntity
  8
0
100
AcDbVertex
100
AcDb2dVertex
 10
7.327125516743725
 20
-0.9342996783830848
 30
0.0
 70
     8
  0
VERTEX
  5
16E73
330
16DFB
100
AcDbEntity
  8
0
100
AcDbVertex
100
AcDb2dVertex
 10
7.361471215611657
 20
-0.9590487261213963
 30
0.0
 70
     8
  0
VERTEX
  5
16E74
330
16DFB
100
AcDbEntity
  8
0
100
AcDbVertex
100
AcDb2dVertex
 10
7.396352919447397
 20
-0.986193314088463
 30
0.0
 70
     8
  0
VERTEX
  5
16E75
330
16DFB
100
AcDbEntity
  8
0
100
AcDbVertex
100
AcDb2dVertex
 10
7.431697536725979
 20
-1.015879511824681
 30
0.0
 70
     8
  0
VERTEX
  5
16E76
330
16DFB
100
AcDbEntity
  8
0
100
AcDbVertex
100
AcDb2dVertex
 10
7.46739299375887
 20
-1.048199018545301
 30
0.0
 70
     8
  0
VERTEX
  5
16E77
330
16DFB
100
AcDbEntity
  8
0
100
AcDbVertex
100
AcDb2dVertex
 10
7.50317128820322
 20
-1.083026052165041
 30
0.0
 70
     8
  0
VERTEX
  5
16E78
330
16DFB
100
AcDbEntity
  8
0
100
AcDbVertex
100
AcDb2dVertex
 10
7.538725435552642
 20
-1.120180460273467
 30
0.0
 70
     8
  0
VERTEX
  5
16E79
330
16DFB
100
AcDbEntity
  8
0
100
AcDbVertex
100
AcDb2dVertex
 10
7.573748451300689
 20
-1.159482090460146
 30
0.0
 70
     8
  0
VERTEX
  5
16E7A
330
16DFB
100
AcDbEntity
  8
0
100
AcDbVertex
100
AcDb2dVertex
 10
7.607933350940978
 20
-1.20075079031465
 30
0.0
 70
     8
  0
VERTEX
  5
16E7B
330
16DFB
100
AcDbEntity
  8
0
100
AcDbVertex
100
AcDb2dVertex
 10
7.640973149967084
 20
-1.243806407426549
 30
0.0
 70
     8
  0
VERTEX
  5
16E7C
330
16DFB
100
AcDbEntity
  8
0
100
AcDbVertex
100
AcDb2dVertex
 10
7.672560863872597
 20
-1.288468789385411
 30
0.0
 70
     8
  0
VERTEX
  5
16E7D
330
16DFB
100
AcDbEntity
  8
0
100
AcDbVertex
100
AcDb2dVertex
 10
7.702389508151103
 20
-1.334557783780807
 30
0.0
 70
     8
  0
VERTEX
  5
16E7E
330
16DFB
100
AcDbEntity
  8
0
100
AcDbVertex
100
AcDb2dVertex
 10
7.730219324057932
 20
-1.381972041786537
 30
0.0
 70
     8
  0
VERTEX
  5
16E7F
330
16DFB
100
AcDbEntity
  8
0
100
AcDbVertex
100
AcDb2dVertex
 10
7.756079455895346
 20
-1.430925428913305
 30
0.0
 70
     8
  0
VERTEX
  5
16E80
330
16DFB
100
AcDbEntity
  8
0
100
AcDbVertex
100
AcDb2dVertex
 10
7.780066273727372
 20
-1.481710614256039
 30
0.0
 70
     8
  0
VERTEX
  5
16E81
330
16DFB
100
AcDbEntity
  8
0
100
AcDbVertex
100
AcDb2dVertex
 10
7.802276147618004
 20
-1.534620266909683
 30
0.0
 70
     8
  0
VERTEX
  5
16E82
330
16DFB
100
AcDbEntity
  8
0
100
AcDbVertex
100
AcDb2dVertex
 10
7.82280544763126
 20
-1.589947055969164
 30
0.0
 70
     8
  0
VERTEX
  5
16E83
330
16DFB
100
AcDbEntity
  8
0
100
AcDbVertex
100
AcDb2dVertex
 10
7.84175054383115
 20
-1.647983650529415
 30
0.0
 70
     8
  0
VERTEX
  5
16E84
330
16DFB
100
AcDbEntity
  8
0
100
AcDbVertex
100
AcDb2dVertex
 10
7.859207806281675
 20
-1.709022719685373
 30
0.0
 70
     8
  0
VERTEX
  5
16E85
330
16DFB
100
AcDbEntity
  8
0
100
AcDbVertex
100
AcDb2dVertex
 10
7.875273605046865
 20
-1.773356932531972
 30
0.0
 70
     8
  0
VERTEX
  5
16E86
330
16DFB
100
AcDbEntity
  8
0
100
AcDbVertex
100
AcDb2dVertex
 10
7.890024790909911
 20
-1.841190231878257
 30
0.0
 70
     8
  0
VERTEX
  5
16E87
330
16DFB
100
AcDbEntity
  8
0
100
AcDbVertex
100
AcDb2dVertex
 10
7.903460137530766
 20
-1.912371655389747
 30
0.0
 70
     8
  0
VERTEX
  5
16E88
330
16DFB
100
AcDbEntity
  8
0
100
AcDbVertex
100
AcDb2dVertex
 10
7.915558899288603
 20
-1.98666151444608
 30
0.0
 70
     8
  0
VERTEX
  5
16E89
330
16DFB
100
AcDbEntity
  8
0
100
AcDbVertex
100
AcDb2dVertex
 10
7.926300330562579
 20
-2.06382012042689
 30
0.0
 70
     8
  0
VERTEX
  5
16E8A
330
16DFB
100
AcDbEntity
  8
0
100
AcDbVertex
100
AcDb2dVertex
 10
7.935663685731845
 20
-2.143607784711807
 30
0.0
 70
     8
  0
VERTEX
  5
16E8B
330
16DFB
100
AcDbEntity
  8
0
100
AcDbVertex
100
AcDb2dVertex
 10
7.943628219175558
 20
-2.22578481868047
 30
0.0
 70
     8
  0
VERTEX
  5
16E8C
330
16DFB
100
AcDbEntity
  8
0
100
AcDbVertex
100
AcDb2dVertex
 10
7.950173185272879
 20
-2.310111533712506
 30
0.0
 70
     8
  0
VERTEX
  5
16E8D
330
16DFB
100
AcDbEntity
  8
0
100
AcDbVertex
100
AcDb2dVertex
 10
7.955277838402965
 20
-2.396348241187558
 30
0.0
 70
     8
  0
VERTEX
  5
16E8E
330
16DFB
100
AcDbEntity
  8
0
100
AcDbVertex
100
AcDb2dVertex
 10
7.958886579829104
 20
-2.484271851933407
 30
0.0
 70
     8
  0
VERTEX
  5
16E8F
330
16DFB
100
AcDbEntity
  8
0
100
AcDbVertex
100
AcDb2dVertex
 10
7.960804398351106
 20
-2.573725674570462
 30
0.0
 70
     8
  0
VERTEX
  5
16E90
330
16DFB
100
AcDbEntity
  8
0
100
AcDbVertex
100
AcDb2dVertex
 10
7.960801429652929
 20
-2.664569617167278
 30
0.0
 70
     8
  0
VERTEX
  5
16E91
330
16DFB
100
AcDbEntity
  8
0
100
AcDbVertex
100
AcDb2dVertex
 10
7.958647809418513
 20
-2.756663587792414
 30
0.0
 70
     8
  0
VERTEX
  5
16E92
330
16DFB
100
AcDbEntity
  8
0
100
AcDbVertex
100
AcDb2dVertex
 10
7.954113673331817
 20
-2.849867494514431
 30
0.0
 70
     8
  0
VERTEX
  5
16E93
330
16DFB
100
AcDbEntity
  8
0
100
AcDbVertex
100
AcDb2dVertex
 10
7.946969157076782
 20
-2.944041245401886
 30
0.0
 70
     8
  0
VERTEX
  5
16E94
330
16DFB
100
AcDbEntity
  8
0
100
AcDbVertex
100
AcDb2dVertex
 10
7.936984396337354
 20
-3.039044748523335
 30
0.0
 70
     8
  0
VERTEX
  5
16E95
330
16DFB
100
AcDbEntity
  8
0
100
AcDbVertex
100
AcDb2dVertex
 10
7.92392952679747
 20
-3.134737911947337
 30
0.0
 70
     8
  0
VERTEX
  5
16E96
330
16DFB
100
AcDbEntity
  8
0
100
AcDbVertex
100
AcDb2dVertex
 10
7.90760917545182
 20
-3.231015441738759
 30
0.0
 70
     8
  0
VERTEX
  5
16E97
330
16DFB
100
AcDbEntity
  8
0
100
AcDbVertex
100
AcDb2dVertex
 10
7.887965934537912
 20
-3.327911235947681
 30
0.0
 70
     8
  0
VERTEX
  5
16E98
330
16DFB
100
AcDbEntity
  8
0
100
AcDbVertex
100
AcDb2dVertex
 10
7.864976887603987
 20
-3.42549399062049
 30
0.0
 70
     8
  0
VERTEX
  5
16E99
330
16DFB
100
AcDbEntity
  8
0
100
AcDbVertex
100
AcDb2dVertex
 10
7.83861911819828
 20
-3.523832401803578
 30
0.0
 70
     8
  0
VERTEX
  5
16E9A
330
16DFB
100
AcDbEntity
  8
0
100
AcDbVertex
100
AcDb2dVertex
 10
7.808869709869029
 20
-3.62299516554334
 30
0.0
 70
     8
  0
VERTEX
  5
16E9B
330
16DFB
100
AcDbEntity
  8
0
100
AcDbVertex
100
AcDb2dVertex
 10
7.775705746164465
 20
-3.723050977886156
 30
0.0
 70
     8
  0
VERTEX
  5
16E9C
330
16DFB
100
AcDbEntity
  8
0
100
AcDbVertex
100
AcDb2dVertex
 10
7.739104310632841
 20
-3.824068534878419
 30
0.0
 70
     8
  0
VERTEX
  5
16E9D
330
16DFB
100
AcDbEntity
  8
0
100
AcDbVertex
100
AcDb2dVertex
 10
7.699042486822381
 20
-3.926116532566516
 30
0.0
 70
     8
  0
VERTEX
  5
16E9E
330
16DFB
100
AcDbEntity
  8
0
100
AcDbVertex
100
AcDb2dVertex
 10
7.655573746538503
 20
-4.029152990022388
 30
0.0
 70
     8
  0
VERTEX
  5
16E9F
330
16DFB
100
AcDbEntity
  8
0
100
AcDbVertex
100
AcDb2dVertex
 10
7.609057114615365
 20
-4.132693218420184
 30
0.0
 70
     8
  0
VERTEX
  5
16EA0
330
16DFB
100
AcDbEntity
  8
0
100
AcDbVertex
100
AcDb2dVertex
 10
7.559928004144281
 20
-4.236141851959602
 30
0.0
 70
     8
  0
VERTEX
  5
16EA1
330
16DFB
100
AcDbEntity
  8
0
100
AcDbVertex
100
AcDb2dVertex
 10
7.508621828216573
 20
-4.338903524840348
 30
0.0
 70
     8
  0
VERTEX
  5
16EA2
330
16DFB
100
AcDbEntity
  8
0
100
AcDbVertex
100
AcDb2dVertex
 10
7.455573999923561
 20
-4.440382871262114
 30
0.0
 70
     8
  0
VERTEX
  5
16EA3
330
16DFB
100
AcDbEntity
  8
0
100
AcDbVertex
100
AcDb2dVertex
 10
7.401219932356586
 20
-4.539984525424604
 30
0.0
 70
     8
  0
VERTEX
  5
16EA4
330
16DFB
100
AcDbEntity
  8
0
100
AcDbVertex
100
AcDb2dVertex
 10
7.34599503860696
 20
-4.637113121527516
 30
0.0
 70
     8
  0
VERTEX
  5
16EA5
330
16DFB
100
AcDbEntity
  8
0
100
AcDbVertex
100
AcDb2dVertex
 10
7.290334731766018
 20
-4.731173293770551
 30
0.0
 70
     8
  0
VERTEX
  5
16EA6
330
16DFB
100
AcDbEntity
  8
0
100
AcDbVertex
100
AcDb2dVertex
 10
7.234676736116296
 20
-4.821634821084295
 30
0.0
 70
     8
  0
VERTEX
  5
16EA7
330
16DFB
100
AcDbEntity
  8
0
100
AcDbVertex
100
AcDb2dVertex
 10
7.179468020705291
 20
-4.908228061322867
 30
0.0
 70
     8
  0
VERTEX
  5
16EA8
330
16DFB
100
AcDbEntity
  8
0
100
AcDbVertex
100
AcDb2dVertex
 10
7.125157865771702
 20
-4.990748517071283
 30
0.0
 70
     8
  0
VERTEX
  5
16EA9
330
16DFB
100
AcDbEntity
  8
0
100
AcDbVertex
100
AcDb2dVertex
 10
7.072195551554259
 20
-5.068991690914549
 30
0.0
 70
     8
  0
VERTEX
  5
16EAA
330
16DFB
100
AcDbEntity
  8
0
100
AcDbVertex
100
AcDb2dVertex
 10
7.021030358291663
 20
-5.142753085437674
 30
0.0
 70
     8
  0
VERTEX
  5
16EAB
330
16DFB
100
AcDbEntity
  8
0
100
AcDbVertex
100
AcDb2dVertex
 10
6.972111566222628
 20
-5.211828203225668
 30
0.0
 70
     8
  0
VERTEX
  5
16EAC
330
16DFB
100
AcDbEntity
  8
0
100
AcDbVertex
100
AcDb2dVertex
 10
6.925888455585856
 20
-5.276012546863543
 30
0.0
 70
     8
  0
VERTEX
  5
16EAD
330
16DFB
100
AcDbEntity
  8
0
100
AcDbVertex
100
AcDb2dVertex
 10
6.882810306620083
 20
-5.335101618936307
 30
0.0
 70
     8
  0
VERTEX
  5
16EAE
330
16DFB
100
AcDbEntity
  8
0
100
AcDbVertex
100
AcDb2dVertex
 10
6.843210368335358
 20
-5.388983486567139
 30
0.0
 70
     8
  0
VERTEX
  5
16EAF
330
16DFB
100
AcDbEntity
  8
0
100
AcDbVertex
100
AcDb2dVertex
 10
6.806957764827213
 20
-5.437916475031929
 30
0.0
 70
     8
  0
VERTEX
  5
16EB0
330
16DFB
100
AcDbEntity
  8
0
100
AcDbVertex
100
AcDb2dVertex
 10
6.773805588962513
 20
-5.482251474144725
 30
0.0
 70
     8
  0
VERTEX
  5
16EB1
330
16DFB
100
AcDbEntity
  8
0
100
AcDbVertex
100
AcDb2dVertex
 10
6.743506933608127
 20
-5.522339373719587
 30
0.0
 70
     8
  0
VERTEX
  5
16EB2
330
16DFB
100
AcDbEntity
  8
0
100
AcDbVertex
100
AcDb2dVertex
 10
6.71581489163094
 20
-5.558531063570575
 30
0.0
 70
     8
  0
VERTEX
  5
16EB3
330
16DFB
100
AcDbEntity
  8
0
100
AcDbVertex
100
AcDb2dVertex
 10
6.690482555897827
 20
-5.591177433511735
 30
0.0
 70
     8
  0
VERTEX
  5
16EB4
330
16DFB
100
AcDbEntity
  8
0
100
AcDbVertex
100
AcDb2dVertex
 10
6.667263019275651
 20
-5.620629373357131
 30
0.0
 70
     8
  0
VERTEX
  5
16EB5
330
16DFB
100
AcDbEntity
  8
0
100
AcDbVertex
100
AcDb2dVertex
 10
6.645909374631294
 20
-5.647237772920818
 30
0.0
 70
     8
  0
VERTEX
  5
16EB6
330
16DFB
100
AcDbEntity
  8
0
100
AcDbVertex
100
AcDb2dVertex
 10
6.626205050151106
 20
-5.671308129354064
 30
0.0
 70
     8
  0
VERTEX
  5
16EB7
330
16DFB
100
AcDbEntity
  8
0
100
AcDbVertex
100
AcDb2dVertex
 10
6.608054815299311
 20
-5.692964369157009
 30
0.0
 70
     8
  0
VERTEX
  5
16EB8
330
16DFB
100
AcDbEntity
  8
0
100
AcDbVertex
100
AcDb2dVertex
 10
6.591393774859603
 20
-5.712285026167004
 30
0.0
 70
     8
  0
VERTEX
  5
16EB9
330
16DFB
100
AcDbEntity
  8
0
100
AcDbVertex
100
AcDb2dVertex
 10
6.576157033615691
 20
-5.729348634221393
 30
0.0
 70
     8
  0
VERTEX
  5
16EBA
330
16DFB
100
AcDbEntity
  8
0
100
AcDbVertex
100
AcDb2dVertex
 10
6.562279696351277
 20
-5.744233727157537
 30
0.0
 70
     8
  0
VERTEX
  5
16EBB
330
16DFB
100
AcDbEntity
  8
0
100
AcDbVertex
100
AcDb2dVertex
 10
6.549696867850053
 20
-5.757018838812777
 30
0.0
 70
     8
  0
VERTEX
  5
16EBC
330
16DFB
100
AcDbEntity
  8
0
100
AcDbVertex
100
AcDb2dVertex
 10
6.538343652895719
 20
-5.767782503024474
 30
0.0
 70
     8
  0
VERTEX
  5
16EBD
330
16DFB
100
AcDbEntity
  8
0
100
AcDbVertex
100
AcDb2dVertex
 10
6.528155156271976
 20
-5.776603253629974
 30
0.0
 70
     8
  0
VERTEX
  5
16EBE
330
16DFB
100
AcDbEntity
  8
0
100
AcDbVertex
100
AcDb2dVertex
 10
6.519068001475209
 20
-5.783571227283244
 30
0.0
 70
     8
  0
VERTEX
  5
16EBF
330
16DFB
100
AcDbEntity
  8
0
100
AcDbVertex
100
AcDb2dVertex
 10
6.511024886852517
 20
-5.788822971904719
 30
0.0
 70
     8
  0
VERTEX
  5
16EC0
330
16DFB
100
AcDbEntity
  8
0
100
AcDbVertex
100
AcDb2dVertex
 10
6.503970029463672
 20
-5.792506638231448
 30
0.0
 70
     8
  0
VERTEX
  5
16EC1
330
16DFB
100
AcDbEntity
  8
0
100
AcDbVertex
100
AcDb2dVertex
 10
6.497847646368439
 20
-5.794770377000475
 30
0.0
 70
     8
  0
VERTEX
  5
16EC2
330
16DFB
100
AcDbEntity
  8
0
100
AcDbVertex
100
AcDb2dVertex
 10
6.492601954626615
 20
-5.795762338948854
 30
0.0
 70
     8
  0
VERTEX
  5
16EC3
330
16DFB
100
AcDbEntity
  8
0
100
AcDbVertex
100
AcDb2dVertex
 10
6.48817717129796
 20
-5.795630674813629
 30
0.0
 70
     8
  0
VERTEX
  5
16EC4
330
16DFB
100
AcDbEntity
  8
0
100
AcDbVertex
100
AcDb2dVertex
 10
6.484517513442265
 20
-5.794523535331856
 30
0.0
 70
     8
  0
VERTEX
  5
16EC5
330
16DFB
100
AcDbEntity
  8
0
100
AcDbVertex
100
AcDb2dVertex
 10
6.474595895799248
 20
-5.799833592546764
 30
0.0
 70
    16
  0
VERTEX
  5
16EC6
330
16DFB
100
AcDbEntity
  8
0
100
AcDbVertex
100
AcDb2dVertex
 10
6.474595895799248
 20
-5.759710086092073
 30
0.0
 70
    16
  0
VERTEX
  5
16EC7
330
16DFB
100
AcDbEntity
  8
0
100
AcDbVertex
100
AcDb2dVertex
 10
6.691939649977158
 20
-5.461977239559739
 30
0.0
 70
    16
  0
VERTEX
  5
16EC8
330
16DFB
100
AcDbEntity
  8
0
100
AcDbVertex
100
AcDb2dVertex
 10
6.938337599340004
 20
-5.05163277268716
 30
0.0
 70
    16
  0
VERTEX
  5
16EC9
330
16DFB
100
AcDbEntity
  8
0
100
AcDbVertex
100
AcDb2dVertex
 10
7.196468858675983
 20
-4.512322894816724
 30
0.0
 70
    16
  0
VERTEX
  5
16ECA
330
16DFB
100
AcDbEntity
  8
0
100
AcDbVertex
100
AcDb2dVertex
 10
7.313801178370838
 20
-3.961288924939464
 30
0.0
 70
    16
  0
VERTEX
  5
16ECB
330
16DFB
100
AcDbEntity
  8
0
100
AcDbVertex
100
AcDb2dVertex
 10
7.431133584736411
 20
-3.257841260319997
 30
0.0
 70
    16
  0
VERTEX
  5
16ECC
330
16DFB
100
AcDbEntity
  8
0
100
AcDbVertex
100
AcDb2dVertex
 10
7.419400274763275
 20
-2.343359291328159
 30
0.0
 70
    16
  0
VERTEX
  5
16ECD
330
16DFB
100
AcDbEntity
  8
0
100
AcDbVertex
100
AcDb2dVertex
 10
7.196468858675983
 20
-1.499222123704011
 30
0.0
 70
    16
  0
VERTEX
  5
16ECE
330
16DFB
100
AcDbEntity
  8
0
100
AcDbVertex
100
AcDb2dVertex
 10
7.028362399054812
 20
-1.101885233108355
 30
0.0
 70
    16
  0
VERTEX
  5
16ECF
330
16DFB
100
AcDbEntity
  8
0
100
AcDbVertex
100
AcDb2dVertex
 10
6.873681235381575
 20
-0.8525932341206903
 30
0.0
 70
    16
  0
VERTEX
  5
16ED0
330
16DFB
100
AcDbEntity
  8
0
100
AcDbVertex
100
AcDb2dVertex
 10
6.851227536247068
 20
-0.7977490272545336
 30
0.0
 70
    16
  0
VERTEX
  5
16ED1
330
16DFB
100
AcDbEntity
  8
0
100
AcDbVertex
100
AcDb2dVertex
 10
6.873681235381575
 20
-0.7703268739561058
 30
0.0
 70
    16
  0
VERTEX
  5
16ED2
330
16DFB
100
AcDbEntity
  8
0
100
AcDbVertex
100
AcDb2dVertex
 10
6.946032140004698
 20
-0.760355199980439
 30
0.0
 70
    16
  0
VERTEX
  5
16ED3
330
16DFB
100
AcDbEntity
  8
0
100
AcDbVertex
100
AcDb2dVertex
 10
7.155600056373942
 20
-0.8251711306876119
 30
0.0
 70
    16
  0
VERTEX
  5
16ED4
330
16DFB
100
AcDbEntity
  8
0
100
AcDbVertex
100
AcDb2dVertex
 10
7.4275394362686
 20
-0.987210932522859
 30
0.0
 70
    16
  0
VERTEX
  5
16ED5
330
16DFB
100
AcDbEntity
  8
0
100
AcDbVertex
100
AcDb2dVertex
 10
7.724427418907558
 20
-1.32126221016903
 30
0.0
 70
    16
  0
VERTEX
  5
16ED6
330
16DFB
100
AcDbEntity
  8
0
100
AcDbVertex
100
AcDb2dVertex
 10
7.889087937007788
 20
-1.735086929485865
 30
0.0
 70
    16
  0
VERTEX
  5
16ED7
330
16DFB
100
AcDbEntity
  8
0
100
AcDbVertex
100
AcDb2dVertex
 10
7.97086246334248
 20
-2.378531667079335
 30
0.0
 70
    16
  0
VERTEX
  5
16ED8
330
16DFB
100
AcDbEntity
  8
0
100
AcDbVertex
100
AcDb2dVertex
 10
7.959129240040072
 20
-3.128875849322141
 30
0.0
 70
    16
  0
VERTEX
  5
16ED9
330
16DFB
100
AcDbEntity
  8
0
100
AcDbVertex
100
AcDb2dVertex
 10
7.736197737282052
 20
-3.914392407316124
 30
0.0
 70
    16
  0
VERTEX
  5
16EDA
330
16DFB
100
AcDbEntity
  8
0
100
AcDbVertex
100
AcDb2dVertex
 10
7.290334731766013
 20
-4.770253716812447
 30
0.0
 70
    16
  0
VERTEX
  5
16EDB
330
16DFB
100
AcDbEntity
  8
0
100
AcDbVertex
100
AcDb2dVertex
 10
6.844471726249974
 20
-5.391632488057398
 30
0.0
 70
    16
  0
VERTEX
  5
16EDC
330
16DFB
100
AcDbEntity
  8
0
100
AcDbVertex
100
AcDb2dVertex
 10
6.628640202954569
 20
-5.673826044575797
 30
0.0
 70
    16
  0
SEQEND
  5
16EDD
330
16DFB
100
AcDbEntity
  8
0
  0
LINE
  5
16EDE
330
16B91
100
AcDbEntity
  8
0
100
AcDbLine
 10
0.0
 20
-0.4717392797747106
 30
0.0
 11
15.75
 21
-0.471739279774708
 31
0.0
  0
LINE
  5
16EDF
330
16B91
100
AcDbEntity
  8
0
100
AcDbLine
 10
0.0
 20
-0.7577735710270396
 30
0.0
 11
15.43973245090151
 21
-0.7577735710270396
 31
0.0
  0
LINE
  5
16EE0
330
16B91
100
AcDbEntity
  8
0
100
AcDbLine
 10
0.0
 20
0.0
 30
0.0
 11
15.75
 21
0.0
 31
0.0
  0
LINE
  5
16EE1
330
16B91
100
AcDbEntity
  8
0
100
AcDbLine
 10
0.0
 20
0.0
 30
0.0
 11
0.0
 21
-9.340715222776307
 31
0.0
  0
LWPOLYLINE
  5
16EE2
330
16B91
100
AcDbEntity
  8
0
100
AcDbPolyline
 90
       75
 70
     0
 43
0.0
 10
4.127894069284412
 20
-9.341934083580497
 10
4.048522289082278
 20
-9.340163010632586
 10
3.971493745823607
 20
-9.337105444157518
 10
3.897130312759555
 20
-9.332787113994669
 10
3.825595072349808
 20
-9.327203731837471
 10
3.756415943888046
 20
-9.320230936795613
 10
3.688962055876484
 20
-9.311714349832818
 10
3.622602536817304
 20
-9.301499591912829
 10
3.55670651521272
 20
-9.289432283999378
 10
3.490643119564929
 20
-9.275358047056204
 10
3.42378147837613
 20
-9.259122502047045
 10
3.35549072014852
 20
-9.240571269935628
 10
3.285357045049953
 20
-9.219663120988148
 10
3.213834939910839
 20
-9.196809422680573
 10
3.141595963227238
 20
-9.17253469179133
 10
3.069311673495203
 20
-9.147363445098843
 10
2.9976536292108
 20
-9.121820199381531
 10
2.92729338887009
 20
-9.096429471417822
 10
2.858902510969121
 20
-9.071715777986135
 10
2.793152554003969
 20
-9.048203635864897
 10
2.730499463198049
 20
-9.026253934542962
 10
2.670536730684269
 20
-9.005573054350907
 10
2.612642235322887
 20
-8.985703748329751
 10
2.556193855974194
 20
-8.966188769520501
 10
2.500569471498446
 20
-8.946570870964166
 10
2.445146960755923
 20
-8.926392805701761
 10
2.389304202606894
 20
-8.905197326774295
 10
2.332419075911627
 20
-8.882527187222788
 10
2.273988510889743
 20
-8.857975127180846
 10
2.213985643198266
 20
-8.831333835152527
 10
2.152502659853582
 20
-8.802445986734477
 10
2.089631747872062
 20
-8.771154257523358
 10
2.025465094270079
 20
-8.737301323115822
 10
1.960094886064016
 20
-8.700729859108518
 10
1.893613310270241
 20
-8.661282541098106
 10
1.826112553905136
 20
-8.61880204468124
 10
1.75774025155585
 20
-8.573208725915918
 10
1.688865828092621
 20
-8.524733662705502
 10
1.619914155956433
 20
-8.473685613414708
 10
1.551310107588317
 20
-8.420373336408232
 10
1.483478555429261
 20
-8.365105590050786
 10
1.416844371920265
 20
-8.308191132707079
 10
1.351832429502354
 20
-8.24993872274182
 10
1.28886760061651
 20
-8.190657118519713
 10
1.228267466648242
 20
-8.130597186193826
 10
1.169920444761009
 20
-8.069778223070644
 10
1.113607661062768
 20
-8.008161634245011
 10
1.059110241661467
 20
-7.945708824811773
 10
1.006209312665073
 20
-7.882381199865775
 10
0.9546860001815238
 20
-7.818140164501856
 10
0.9043214303187859
 20
-7.752947123814867
 10
0.8548967291848068
 20
-7.686763482899644
 10
0.8062595434057282
 20
-7.619597818304391
 10
0.7585236016803745
 20
-7.551647392390718
 10
0.7118691532257698
 20
-7.483156638973578
 10
0.6664764472589332
 20
-7.414369991867934
 10
0.6225257329968677
 20
-7.345531884888753
 10
0.5801972596565977
 20
-7.276886751850991
 10
0.5396712764551368
 20
-7.208679026569606
 10
0.5011280326095042
 20
-7.141153142859567
 10
0.4646383404188966
 20
-7.074282298865721
 10
0.4298352645112904
 20
-7.006954750052489
 10
0.3962424325968401
 20
-6.937787516214184
 10
0.3633834723857001
 20
-6.865397617145116
 10
0.3307820115880298
 20
-6.788402072639595
 10
0.2979616779139833
 20
-6.705417902491932
 10
0.2644460990737207
 20
-6.615062126496441
 10
0.2297589027774121
 20
-6.51595176444743
 10
0.1935907490892075
 20
-6.406652070126183
 10
0.156300427489342
 20
-6.285521233261837
 10
0.1184137598120682
 20
-6.150865677570504
 10
0.0804565678916274
 20
-6.000991826768297
 10
0.042954673562261
 20
-5.834206104571325
 10
0.0064338986582162
 20
-5.648814934695697
 10
-0.0000000000000053
 20
-5.611018734611452
  0
LINE
  5
16F2F
330
16B91
100
AcDbEntity
  8
0
100
AcDbLine
 10
0.0
 20
-9.340715222776307
 30
0.0
 11
4.322457837044786
 21
-9.340715222776307
 31
0.0
  0
LWPOLYLINE
  5
16F30
330
16B91
100
AcDbEntity
  8
0
100
AcDbPolyline
 90
      312
 70
     0
 43
0.0
 10
0.0
 20
-4.119308393752256
 10
0.0526794815874614
 20
-3.951855463864726
 10
0.1063886252195298
 20
-3.780402077970275
 10
0.1577348397937088
 20
-3.616953789729241
 10
0.2066514784816456
 20
-3.462943931956836
 10
0.2530718944549877
 20
-3.319805837468276
 10
0.2969294408853766
 20
-3.188972839078779
 10
0.3381574709444925
 20
-3.071878269603552
 10
0.3768632125468285
 20
-2.969296687702439
 10
0.4138493925784366
 20
-2.87936755541373
 10
0.4500926126682417
 20
-2.79957156062035
 10
0.4865694744451627
 20
-2.727389391205207
 10
0.5242565795381307
 20
-2.660301735051233
 10
0.5641305295760542
 20
-2.595789280041333
 10
0.6071679261878633
 20
-2.531332714058424
 10
0.6543453710024774
 20
-2.464412724985434
 10
0.7064001433471212
 20
-2.393119459254026
 10
0.7631122333422687
 20
-2.317980897490854
 10
0.824022308806677
 20
-2.240134478871329
 10
0.8886710375591302
 20
-2.160717642570864
 10
0.9565990874183862
 20
-2.080867827764866
 10
1.027347126203223
 20
-2.001722473628743
 10
1.100455821732415
 20
-1.924419019337905
 10
1.175465841824731
 20
-1.850094904067762
 10
1.251977243074409
 20
-1.779667975635646
 10
1.32982763717759
 20
-1.713177716426597
 10
1.408914024605859
 20
-1.650444017467583
 10
1.489133405830834
 20
-1.591286769785569
 10
1.570382781324114
 20
-1.535525864407516
 10
1.652559151557291
 20
-1.482981192360395
 10
1.735559517001982
 20
-1.433472644671174
 10
1.819280878129783
 20
-1.386820112366807
 10
1.903757568003972
 20
-1.342871360475046
 10
1.989573250054539
 20
-1.301585650026727
 10
2.07744892030316
 20
-1.262950116053463
 10
2.168105574771499
 20
-1.226951893586865
 10
2.262264209481215
 20
-1.193578117658559
 10
2.360645820453993
 20
-1.162815923300149
 10
2.463971403711478
 20
-1.134652445543254
 10
2.572961955275363
 20
-1.109074819419491
 10
2.688005868858544
 20
-1.086100198122646
 10
2.808161128938937
 20
-1.06586580749519
 10
2.932153117685679
 20
-1.048538891541777
 10
3.058707217267932
 20
-1.034286694267057
 10
3.186548809854846
 20
-1.023276459675679
 10
3.314403277615561
 20
-1.01567543177229
 10
3.44099600271924
 20
-1.01165085456154
 10
3.565052367335019
 20
-1.011369972048077
 10
3.685619626798596
 20
-1.014978586703744
 10
3.803032529111719
 20
-1.022536734869105
 10
3.917947695442713
 20
-1.034083011351933
 10
4.031021746959869
 20
-1.049656010959982
 10
4.142911304831479
 20
-1.069294328501025
 10
4.25427299022585
 20
-1.093036558782815
 10
4.365763424311289
 20
-1.120921296613126
 10
4.478039228256093
 20
-1.152987136799704
 10
4.591490941437977
 20
-1.189214781987378
 10
4.705444776072376
 20
-1.229353366169174
 10
4.818960862584117
 20
-1.273094131175163
 10
4.931099331398059
 20
-1.320128318835424
 10
5.040920312939038
 20
-1.370147170980045
 10
5.147483937631903
 20
-1.4228419294391
 10
5.24985033590149
 20
-1.477903836042664
 10
5.347079638172655
 20
-1.535024132620819
 10
5.438465869375193
 20
-1.593958385602087
 10
5.524238632458734
 20
-1.654719459808764
 10
5.604861424877881
 20
-1.717384544661586
 10
5.680797744087207
 20
-1.782030829581298
 10
5.752511087541334
 20
-1.848735503988635
 10
5.820464952694831
 20
-1.917575757304329
 10
5.885122837002289
 20
-1.988628778949131
 10
5.946948237918315
 20
-2.06197175834377
 10
6.006306290986646
 20
-2.137616774850108
 10
6.063168684107647
 20
-2.215315467594462
 10
6.117408743270839
 20
-2.294754365644275
 10
6.168899794465732
 20
-2.375619998066995
 10
6.21751516368184
 20
-2.457598893930049
 10
6.263128176908693
 20
-2.540377582300888
 10
6.305612160135807
 20
-2.623642592246946
 10
6.34484043935269
 20
-2.707080452835669
 10
6.38072607349199
 20
-2.790420788371348
 10
6.413341053258835
 20
-2.87356560410569
 10
6.442797102301489
 20
-2.956460000527266
 10
6.469205944268217
 20
-3.039049078124639
 10
6.492679302807267
 20
-3.121277937386367
 10
6.513328901566901
 20
-3.203091678801011
 10
6.531266464195382
 20
-3.284435402857147
 10
6.546603714340965
 20
-3.365254210043331
 10
6.559446975856706
 20
-3.445542304307886
 10
6.569880973414846
 20
-3.525490303438164
 10
6.577985031892412
 20
-3.605337928681271
 10
6.583838476166438
 20
-3.68532490128432
 10
6.587520631113974
 20
-3.765690942494422
 10
6.589110821612027
 20
-3.846675773558679
 10
6.588688372537652
 20
-3.928519115724208
 10
6.586332608767879
 20
-4.011460690238109
 10
6.58207744705306
 20
-4.095693832322122
 10
6.575775171636884
 20
-4.181226333096459
 10
6.567232658636377
 20
-4.268019597655976
 10
6.556256784168531
 20
-4.35603503109551
 10
6.542654424350367
 20
-4.445234038509906
 10
6.526232455298897
 20
-4.535578024994011
 10
6.506797753131142
 20
-4.627028395642666
 10
6.484157193964105
 20
-4.719546555550715
 10
6.458130528834697
 20
-4.813014576084779
 10
6.42858900845937
 20
-4.906997193698568
 10
6.395416758474477
 20
-5.000979811117572
 10
6.358497904516386
 20
-5.094447831067276
 10
6.317716572221429
 20
-5.186886656273168
 10
6.272956887225969
 20
-5.277781689460735
 10
6.224102975166359
 20
-5.366618333355462
 10
6.171038961678936
 20
-5.45288199068284
 10
6.113811975693712
 20
-5.536116203758886
 10
6.053121159315178
 20
-5.616097073261761
 10
5.989828657941501
 20
-5.69265883946015
 10
5.924796616970827
 20
-5.765635742622746
 10
5.858887181801321
 20
-5.834862023018239
 10
5.792962497831115
 20
-5.900171920915319
 10
5.727884710458368
 20
-5.961399676582673
 10
5.664515965081242
 20
-6.018379530288991
 10
5.603459000110174
 20
-6.071024313878291
 10
5.544278926004884
 20
-6.119561225495885
 10
5.486281446237343
 20
-6.164296054862405
 10
5.428772264279567
 20
-6.20553459169849
 10
5.371057083603556
 20
-6.243582625724775
 10
5.31244160768131
 20
-6.278745946661893
 10
5.252231539984822
 20
-6.311330344230489
 10
5.189732583986092
 20
-6.341641608151189
 10
5.124447621323032
 20
-6.36993052224729
 10
5.056668246297165
 20
-6.396227846752702
 10
4.986883231375911
 20
-6.420509336003999
 10
4.915581349026708
 20
-6.442750744337744
 10
4.843251371716974
 20
-6.462927826090507
 10
4.77038207191414
 20
-6.48101633559886
 10
4.697462222085635
 20
-6.496992027199367
 10
4.624980594698887
 20
-6.510830655228599
 10
4.553333771029405
 20
-6.522518447451224
 10
4.482549567585017
 20
-6.532083525344295
 10
4.412563609681627
 20
-6.539564483812973
 10
4.34331152263517
 20
-6.54499991776241
 10
4.274728931761539
 20
-6.548428422097764
 10
4.206751462376641
 20
-6.549888591724192
 10
4.139314739796402
 20
-6.549419021546847
 10
4.072354389336725
 20
-6.547058306470888
 10
4.005818911261628
 20
-6.5428471855304
 10
3.939708305627529
 20
-6.536834974275207
 10
3.874035447438975
 20
-6.529073132384067
 10
3.808813211700476
 20
-6.51961311953573
 10
3.744054473416574
 20
-6.508506395408952
 10
3.67977210759179
 20
-6.495804419682484
 10
3.615978989230659
 20
-6.481558652035089
 10
3.552687993337699
 20
-6.465820552145514
 10
3.48992272400326
 20
-6.448605129062385
 10
3.427749701660862
 20
-6.429781589313789
 10
3.366246175829858
 20
-6.409182688797687
 10
3.305489396029578
 20
-6.386641183412034
 10
3.245556611779363
 20
-6.361989829054792
 10
3.18652507259855
 20
-6.335061381623912
 10
3.128472028006487
 20
-6.305688597017355
 10
3.071474727522497
 20
-6.273704231133075
 10
3.015623295585821
 20
-6.239020373613494
 10
2.961059356315248
 20
-6.201866449078855
 10
2.907937408749458
 20
-6.162551215893872
 10
2.856411951927116
 20
-6.121383432423247
 10
2.806637484886912
 20
-6.078671857031691
 10
2.758768506667522
 20
-6.034725248083911
 10
2.71295951630762
 20
-5.989852363944614
 10
2.669365012845894
 20
-5.944361962978509
 10
2.62809228728142
 20
-5.89848775812864
 10
2.589059798454884
 20
-5.852163280651399
 10
2.552138797167403
 20
-5.805247016381513
 10
2.517200534220079
 20
-5.757597451153709
 10
2.484116260413997
 20
-5.709073070802715
 10
2.452757226550278
 20
-5.659532361163263
 10
2.422994683430013
 20
-5.608833808070079
 10
2.394699881854315
 20
-5.556835897357887
 10
2.36778269741215
 20
-5.503416412216606
 10
2.342307504844045
 20
-5.448530325256885
 10
2.318377303678389
 20
-5.392151906444557
 10
2.296095093443592
 20
-5.334255425745463
 10
2.275563873668041
 20
-5.274815153125439
 10
2.256886643880146
 20
-5.213805358550317
 10
2.240166403608284
 20
-5.151200311985935
 10
2.225506152380865
 20
-5.086974283398133
 10
2.213015327143914
 20
-5.02114657007716
 10
2.202829114513953
 20
-4.953916578610953
 10
2.195089138525132
 20
-4.885528742911872
 10
2.18993702321159
 20
-4.816227496892262
 10
2.18751439260749
 20
-4.746257274464483
 10
2.187962870746978
 20
-4.675862509540889
 10
2.191424081664191
 20
-4.605287636033835
 10
2.198039649393299
 20
-4.534777087855671
 10
2.20790184412296
 20
-4.464577443015222
 10
2.220905520659972
 20
-4.394943855907188
 10
2.236896179965658
 20
-4.326133625022735
 10
2.255719323001344
 20
-4.258404048853029
 10
2.277220450728353
 20
-4.192012425889234
 10
2.301245064107998
 20
-4.127216054622519
 10
2.327638664101605
 20
-4.064272233544049
 10
2.356246751670491
 20
-4.003438261144998
 10
2.386972764929597
 20
-3.944911399592174
 10
2.419951890608305
 20
-3.888648765755031
 10
2.455377252589586
 20
-3.83454744017866
 10
2.493441974756434
 20
-3.782504503408168
 10
2.53433918099184
 20
-3.732417035988638
 10
2.578261995178789
 20
-3.684182118465177
 10
2.625403541200262
 20
-3.637696831382875
 10
2.675956942939259
 20
-3.592858255286838
 10
2.730018762337264
 20
-3.549634227853493
 10
2.787299313569792
 20
-3.508275615284602
 10
2.847412348870873
 20
-3.469104040913253
 10
2.909971620474537
 20
-3.432441128072544
 10
2.974590880614813
 20
-3.398608500095564
 10
3.04088388152571
 20
-3.367927780315405
 10
3.108464375441268
 20
-3.340720592065166
 10
3.176946114595507
 20
-3.317308558677936
 10
3.245992205067933
 20
-3.297953267146237
 10
3.315463168319919
 20
-3.282676159100263
 10
3.385268879658318
 20
-3.271438639829657
 10
3.455319214389982
 20
-3.264202114624051
 10
3.52552404782177
 20
-3.260927988773065
 10
3.595793255260536
 20
-3.261577667566335
 10
3.666036712013119
 20
-3.266112556293493
 10
3.736164293386398
 20
-3.274494060244165
 10
3.806021500144177
 20
-3.286666431416809
 10
3.875196334878197
 20
-3.302505308645144
 10
3.943212425637187
 20
-3.321869177471728
 10
4.009593400469853
 20
-3.344616523439104
 10
4.073862887424906
 20
-3.370605832089822
 10
4.135544514551074
 20
-3.399695588966424
 10
4.194161909897053
 20
-3.43174427961147
 10
4.249238701511576
 20
-3.466610389567498
 10
4.300403662580135
 20
-3.504118097957023
 10
4.347706146835339
 20
-3.543954358222396
 10
4.391300653146596
 20
-3.58577181738594
 10
4.431341680383305
 20
-3.629223122469963
 10
4.467983727414854
 20
-3.673960920496785
 10
4.501381293110659
 20
-3.719637858488725
 10
4.531688876340118
 20
-3.765906583468096
 10
4.559060975972621
 20
-3.812419742457215
 10
4.583645653459941
 20
-3.858842847381851
 10
4.605565220583362
 20
-3.904892869781609
 10
4.624935551706529
 20
-3.950299646099535
 10
4.641872521193078
 20
-3.994793012778692
 10
4.656492003406671
 20
-4.038102806262133
 10
4.66890987271095
 20
-4.079958862992914
 10
4.679242003469565
 20
-4.12009101941409
 10
4.68760427004617
 20
-4.158229111968709
 10
4.694121130084322
 20
-4.194180166650428
 10
4.698951374347319
 20
-4.228059967655286
 10
4.702262376878362
 20
-4.260061488729914
 10
4.704221511720663
 20
-4.290377703620946
 10
4.704996152917417
 20
-4.31920158607501
 10
4.704753674511842
 20
-4.346726109838745
 10
4.703661450547149
 20
-4.373144248658785
 10
4.701886855066528
 20
-4.39864897628176
 10
4.699560783159418
 20
-4.423422545760943
 10
4.696668214100029
 20
-4.447604327376154
 10
4.693157648208814
 20
-4.471322970713855
 10
4.688977585806218
 20
-4.494707125360506
 10
4.684076527212664
 20
-4.517885440902562
 10
4.678402972748613
 20
-4.540986566926489
 10
4.671905422734491
 20
-4.564139153018741
 10
4.664532377490751
 20
-4.587471848765781
 10
4.65624521228593
 20
-4.61105541149373
 10
4.647056802180974
 20
-4.634729029487338
 10
4.636992897184957
 20
-4.658273998771028
 10
4.626079247306932
 20
-4.681471615369217
 10
4.614341602555952
 20
-4.704103175306316
 10
4.601805712941081
 20
-4.725949974606742
 10
4.588497328471381
 20
-4.746793309294916
 10
4.574442199155901
 20
-4.766414475395246
 10
4.559694227558107
 20
-4.784654881742679
 10
4.54441992645904
 20
-4.801596388414231
 10
4.528813961194153
 20
-4.817380968297451
 10
4.513070997098898
 20
-4.83215059427988
 10
4.497385699508708
 20
-4.846047239249062
 10
4.481952733759047
 20
-4.859212876092541
 10
4.466966765185348
 20
-4.871789477697866
 10
4.452622459123073
 20
-4.883919016952573
 10
4.439059589925472
 20
-4.895722332909181
 10
4.426198368017097
 20
-4.907235729280085
 10
4.413904112840291
 20
-4.91847437594265
 10
4.402042143837406
 20
-4.929453442774236
 10
4.390477780450797
 20
-4.940188099652211
 10
4.379076342122825
 20
-4.950693516453942
 10
4.367703148295824
 20
-4.960984863056786
 10
4.356223518412167
 20
-4.971077309338115
 10
4.344535212243361
 20
-4.980992291003379
 10
4.332665750877569
 20
-4.99077630707037
 10
4.320675095732135
 20
-5.000482122384969
 10
4.30862320822437
 20
-5.010162501793065
 10
4.296570049771624
 20
-5.019870210140532
 10
4.284575581791217
 20
-5.029658012273258
 10
4.272699765700477
 20
-5.039578673037119
 10
4.261002562916748
 20
-5.049684957278003
 10
4.249553467494922
 20
-5.06001338608195
 10
4.238460104040223
 20
-5.070535505495644
 10
4.227839629795434
 20
-5.081206617805942
 10
4.217809202003354
 20
-5.091982025299688
 10
4.208485977906771
 20
-5.102817030263734
 10
4.199987114748468
 20
-5.113666934984927
 10
4.192429769771241
 20
-5.124487041750116
 10
4.185931100217886
 20
-5.135232652846152
 10
4.180608349494081
 20
-5.145863025229589
 10
4.176579105657078
 20
-5.156353234535804
 10
4.173961042927034
 20
-5.166682311069882
 10
4.172871835524079
 20
-5.17682928513691
 10
4.173429157668381
 20
-5.186773187041967
 10
4.175750683580079
 20
-5.196493047090136
 10
4.179954087479325
 20
-5.205967895586509
 10
4.186157043586255
 20
-5.215176762836158
  0
LWPOLYLINE
  5
1706A
330
16B91
100
AcDbEntity
  8
0
100
AcDbPolyline
 90
      279
 70
     0
 43
0.0
 10
12.95349433534326
 20
-2.667940133391085
 10
12.95808998645261
 20
-2.620193652735891
 10
12.9641629090201
 20
-2.572293747270912
 10
12.97163185813253
 20
-2.52455663806871
 10
12.98041558887671
 20
-2.477298546201846
 10
12.99043285633945
 20
-2.430835692742884
 10
13.00160241560754
 20
-2.38548429876438
 10
13.0138430217678
 20
-2.341560585338902
 10
13.02707342990706
 20
-2.299380773539008
 10
13.04125214426227
 20
-2.259158187253331
 10
13.05649666567121
 20
-2.220694561634784
 10
13.0729642441218
 20
-2.183688734652357
 10
13.09081212960198
 20
-2.147839544275036
 10
13.11019757209969
 20
-2.112845828471807
 10
13.13127782160285
 20
-2.078406425211655
 10
13.15421012809942
 20
-2.044220172463566
 10
13.17915174157732
 20
-2.009985908196531
 10
13.20620167124119
 20
-1.9755021302848
 10
13.23522596316249
 20
-1.940965976223703
 10
13.26603242262941
 20
-1.906674243413837
 10
13.29842885493011
 20
-1.872923729255795
 10
13.33222306535274
 20
-1.840011231150177
 10
13.36722285918549
 20
-1.808233546497578
 10
13.40323604171653
 20
-1.777887472698593
 10
13.44007041823404
 20
-1.749269807153823
 10
13.47760077097633
 20
-1.722613332132511
 10
13.51596978998238
 20
-1.697894769378514
 10
13.55538714224133
 20
-1.675026825504347
 10
13.59606249474232
 20
-1.653922207122516
 10
13.6382055144745
 20
-1.634493620845526
 10
13.68202586842699
 20
-1.616653773285895
 10
13.72773322358893
 20
-1.600315371056128
 10
13.77553724694947
 20
-1.585391120768731
 10
13.82553986001338
 20
-1.57181700727613
 10
13.87741200234799
 20
-1.559622128390383
 10
13.93071686803629
 20
-1.548858860163466
 10
13.98501765116123
 20
-1.539579578647348
 10
14.0398775458058
 20
-1.531836659894009
 10
14.09485974605296
 20
-1.525682479955417
 10
14.1495274459857
 20
-1.521169414883543
 10
14.20344383968698
 20
-1.518349840730366
 10
14.2562522023415
 20
-1.517306686204259
 10
14.30791613354081
 20
-1.518245090639213
 10
14.35847931397817
 20
-1.521400746025627
 10
14.40798542434686
 20
-1.527009344353896
 10
14.45647814534015
 20
-1.535306577614413
 10
14.50400115765131
 20
-1.546528137797574
 10
14.55059814197361
 20
-1.560909716893777
 10
14.59631277900031
 20
-1.578687006893414
 10
14.64113924472363
 20
-1.599988037994255
 10
14.6848736963315
 20
-1.62451019322355
 10
14.72726278631078
 20
-1.651843193815922
 10
14.76805316714835
 20
-1.681576761005995
 10
14.80699149133108
 20
-1.713300616028393
 10
14.84382441134585
 20
-1.746604480117738
 10
14.87829857967952
 20
-1.781078074508652
 10
14.91016064881895
 20
-1.81631112043576
 10
14.93922570422431
 20
-1.851957354281263
 10
14.9655825632488
 20
-1.887926573017691
 10
14.98938847621893
 20
-1.924192588765138
 10
15.01080069346118
 20
-1.960729213643712
 10
15.02997646530205
 20
-1.997510259773516
 10
15.04707304206801
 20
-2.034509539274654
 10
15.06224767408559
 20
-2.071700864267228
 10
15.07565761168126
 20
-2.109058046871342
 10
15.08743826480666
 20
-2.146569448056319
 10
15.09763768191406
 20
-2.184281624188354
 10
15.10628207108086
 20
-2.222255680482859
 10
15.11339764038445
 20
-2.260552722155251
 10
15.11901059790226
 20
-2.299233854420944
 10
15.12314715171166
 20
-2.33836018249535
 10
15.12583350989009
 20
-2.377992811593887
 10
15.12709588051493
 20
-2.418192846931966
 10
15.12693717543491
 20
-2.458960288428427
 10
15.12526712158406
 20
-2.50005071481581
 10
15.1219721496677
 20
-2.541158599530072
 10
15.11693869039117
 20
-2.581978416007184
 10
15.11005317445979
 20
-2.622204637683099
 10
15.10120203257891
 20
-2.661531737993785
 10
15.09027169545387
 20
-2.699654190375205
 10
15.07714859378998
 20
-2.736266468263318
 10
15.06178904714791
 20
-2.771108146632175
 10
15.04442893050956
 20
-2.804099206608173
 10
15.02537400771213
 20
-2.835204730855793
 10
15.00493004259286
 20
-2.864389802039517
 10
14.98340279898896
 20
-2.891619502823827
 10
14.96109804073763
 20
-2.916858915873207
 10
14.93832153167611
 20
-2.940073123852138
 10
14.9153790356416
 20
-2.961227209425104
 10
14.89254805591708
 20
-2.980308061299921
 10
14.86999305356849
 20
-2.997389792357755
 10
14.84785022910754
 20
-3.012568321523104
 10
14.82625578304595
 20
-3.025939567720467
 10
14.8053459158954
 20
-3.037599449874343
 10
14.7852568281676
 20
-3.047643886909231
 10
14.76612472037426
 20
-3.056168797749633
 10
14.74808579302709
 20
-3.063270101320045
 10
14.73123412319632
 20
-3.069050439082532
 10
14.71549529418638
 20
-3.073639342649415
 10
14.70075276586021
 20
-3.077173066170575
 10
14.68688999808079
 20
-3.079787863795901
 10
14.67379045071107
 20
-3.081619989675278
 10
14.66133758361399
 20
-3.082805697958587
 10
14.64941485665254
 20
-3.083481242795715
 10
14.63790572968966
 20
-3.083782878336544
 10
14.62671616834156
 20
-3.08382464042194
 10
14.6158421612375
 20
-3.083631691656679
 10
14.60530220275999
 20
-3.083206976336517
 10
14.59511478729153
 20
-3.082553438757209
 10
14.58529840921463
 20
-3.08167402321451
 10
14.57587156291181
 20
-3.080571674004179
 10
14.56685274276556
 20
-3.07924933542197
 10
14.55826044315841
 20
-3.077709951763635
 10
14.55010252181325
 20
-3.075960093941665
 10
14.54234428981463
 20
-3.074020839335457
 10
14.53494042158751
 20
-3.071916891941144
 10
14.5278455915568
 20
-3.069672955754854
 10
14.52101447414746
 20
-3.067313734772722
 10
14.51440174378443
 20
-3.064863932990873
 10
14.50796207489265
 20
-3.06234825440544
 10
14.50165014189705
 20
-3.059791403012557
 10
14.49543881812903
 20
-3.057210877492377
 10
14.48937377254559
 20
-3.054595355261168
 10
14.4835188730102
 20
-3.051926308419229
 10
14.47793798738632
 20
-3.049185209066853
 10
14.47269498353741
 20
-3.046353529304334
 10
14.46785372932692
 20
-3.043412741231971
 10
14.46347809261831
 20
-3.040344316950057
 10
14.45963194127504
 20
-3.037129728558887
 10
14.45636678163497
 20
-3.033760398309083
 10
14.45368467393355
 20
-3.030267549052556
 10
14.45157531688065
 20
-3.026692353791552
 10
14.45002840918611
 20
-3.023075985528306
 10
14.4490336495598
 20
-3.019459617265061
 10
14.44858073671159
 20
-3.015884422004055
 10
14.44865936935131
 20
-3.012391572747529
 10
14.44925924618885
 20
-3.009022242497723
 10
14.45037281296167
 20
-3.005807311006317
 10
14.45200350351781
 20
-3.002736485022751
 10
14.4541574987329
 20
-2.999789178045904
 10
14.45684097948262
 20
-2.996944803574658
 10
14.4600601266426
 20
-2.994182775107889
 10
14.46382112108851
 20
-2.991482506144482
 10
14.468130143696
 20
-2.988823410183316
 10
14.47299337534071
 20
-2.986184900723269
 10
14.47840841243342
 20
-2.983544675713347
 10
14.4843385135254
 20
-2.980873570903046
 10
14.49073835270302
 20
-2.978140706491993
 10
14.49756260405269
 20
-2.97531520267981
 10
14.50476594166077
 20
-2.972366179666122
 10
14.51230303961365
 20
-2.969262757650549
 10
14.52012857199773
 20
-2.965974056832719
 10
14.52819721289938
 20
-2.96246919741225
 10
14.53647325104402
 20
-2.958721073772527
 10
14.5449594337132
 20
-2.954717677031947
 10
14.5536681228275
 20
-2.950450772492675
 10
14.56261168030753
 20
-2.945912125456865
 10
14.57180246807384
 20
-2.941093501226678
 10
14.58125284804703
 20
-2.93598666510427
 10
14.59097518214768
 20
-2.930583382391803
 10
14.60098183229638
 20
-2.924875418391432
 10
14.61128035306597
 20
-2.918847333138044
 10
14.6218590696384
 20
-2.912454865597416
 10
14.63270149984786
 20
-2.90564654946805
 10
14.64379116152857
 20
-2.898370918448454
 10
14.65511157251473
 20
-2.890576506237127
 10
14.66664625064054
 20
-2.882211846532576
 10
14.67837871374022
 20
-2.873225473033301
 10
14.69029247964797
 20
-2.863565919437807
 10
14.70237052854041
 20
-2.853185526904386
 10
14.71459368996385
 20
-2.842051866430479
 10
14.726942255807
 20
-2.830136316473316
 10
14.73939651795862
 20
-2.817410255490123
 10
14.7519367683074
 20
-2.803845061938135
 10
14.76454329874209
 20
-2.789412114274577
 10
14.77719640115139
 20
-2.774082790956679
 10
14.78987636742405
 20
-2.757828470441674
 10
14.80254807207465
 20
-2.740628825586698
 10
14.81511472012127
 20
-2.722496706848545
 10
14.82746409920785
 20
-2.703453259083911
 10
14.83948399697831
 20
-2.683519627149501
 10
14.8510622010766
 20
-2.662716955902014
 10
14.86208649914666
 20
-2.641066390198151
 10
14.87244467883243
 20
-2.618589074894611
 10
14.88202452777783
 20
-2.5953061548481
 10
14.89071614422557
 20
-2.571251593686829
 10
14.89841886881337
 20
-2.546510630125068
 10
14.90503435277771
 20
-2.521181321648604
 10
14.91046424735501
 20
-2.495361725743217
 10
14.91461020378181
 20
-2.469149899894696
 10
14.91737387329454
 20
-2.442643901588819
 10
14.91865690712968
 20
-2.415941788311377
 10
14.91836095652371
 20
-2.389141617548149
 10
14.91640843221479
 20
-2.362330923426544
 10
14.91280478294791
 20
-2.335555146640456
 10
14.90757621696975
 20
-2.308849204525403
 10
14.900748942527
 20
-2.282248014416902
 10
14.89234916786633
 20
-2.255786493650474
 10
14.88240310123444
 20
-2.229499559561632
 10
14.87093695087801
 20
-2.203422129485896
 10
14.85797692504371
 20
-2.177589120758784
 10
14.84352884771114
 20
-2.152039815394926
 10
14.82751700579146
 20
-2.12683095412541
 10
14.80984530192878
 20
-2.102023642360439
 10
14.79041763876718
 20
-2.077678985510209
 10
14.76913791895073
 20
-2.053858088984924
 10
14.74591004512353
 20
-2.030622058194782
 10
14.72063791992967
 20
-2.008031998549986
 10
14.69322544601321
 20
-1.986149015460737
 10
14.66362894273734
 20
-1.96504439852357
 10
14.63201439634147
 20
-1.944830174080372
 10
14.59860020978414
 20
-1.925628552659368
 10
14.56360478602384
 20
-1.907561744788772
 10
14.5272465280191
 20
-1.890751960996811
 10
14.48974383872842
 20
-1.875321411811706
 10
14.45131512111032
 20
-1.861392307761678
 10
14.41217877812333
 20
-1.849086859374951
 10
14.37252118030217
 20
-1.838506908758374
 10
14.33240056848658
 20
-1.829672824333318
 10
14.29184315109253
 20
-1.822584606099782
 10
14.25087513653597
 20
-1.817242254057767
 10
14.20952273323287
 20
-1.813645768207272
 10
14.16781214959918
 20
-1.8117951485483
 10
14.12576959405087
 20
-1.81169039508085
 10
14.08342127500391
 20
-1.81333150780492
 10
14.04081232909001
 20
-1.816724306308893
 10
13.99806360580405
 20
-1.821897888534693
 10
13.95531488285665
 20
-1.828887172012622
 10
13.91270593795844
 20
-1.837727074272986
 10
13.87037654882004
 20
-1.848452512846083
 10
13.82846649315207
 20
-1.861098405262224
 10
13.78711554866518
 20
-1.875699669051714
 10
13.74646349306998
 20
-1.892291221744849
 10
13.70664136796666
 20
-1.910878883027413
 10
13.66774527051365
 20
-1.931352081207073
 10
13.62986256175892
 20
-1.953571146746972
 10
13.59308060275046
 20
-1.977396410110257
 10
13.55748675453625
 20
-2.002688201760066
 10
13.52316837816428
 20
-2.029306852159544
 10
13.49021283468253
 20
-2.057112691771835
 10
13.45870748513896
 20
-2.085966051060082
 10
13.42873241057889
 20
-2.115731625199006
 10
13.40033857203683
 20
-2.146291568209639
 10
13.37356965054459
 20
-2.177532398824596
 10
13.34846932713403
 20
-2.20934063577649
 10
13.32508128283696
 20
-2.241602797797932
 10
13.30344919868521
 20
-2.274205403621539
 10
13.28361675571058
 20
-2.307034971979919
 10
13.26562763494495
 20
-2.339978021605685
 10
13.2495167811686
 20
-2.372951623887857
 10
13.23528419415584
 20
-2.405995060841064
 10
13.22292113742946
 20
-2.43917816713634
 10
13.21241887451225
 20
-2.472570777444723
 10
13.20376866892698
 20
-2.506242726437247
 10
13.19696178419647
 20
-2.540263848784947
 10
13.19198948384348
 20
-2.574703979158859
 10
13.18884303139082
 20
-2.609632952230015
 10
13.18747508461723
 20
-2.645048976644118
 10
13.18768387832542
 20
-2.68066375694553
 10
13.18922904157403
 20
-2.716117371653274
 10
13.19187020342174
 20
-2.751049899286377
 10
13.1953669929272
 20
-2.785101418363865
 10
13.19947903914907
 20
-2.817912007404761
 10
13.20396597114602
 20
-2.849121744928094
 10
13.2085874179767
 20
-2.87837070945289
 10
13.21316738899826
 20
-2.905417813629191
 10
13.2177874147619
 20
-2.930497306631122
 10
13.22259340611726
 20
-2.953962271763822
 10
13.22773127391402
 20
-2.976165792332435
 10
13.23334692900183
 20
-2.997460951642101
 10
13.23958628223039
 20
-3.018200832997964
 10
13.24659524444933
 20
-3.038738519705164
 10
13.25451972650835
 20
-3.059427095068839
 10
13.26358363735536
 20
-3.080765975772885
 10
13.27432287833135
 20
-3.103839912016179
 10
13.28735134887558
 20
-3.129879987376347
 10
13.3032829484273
 20
-3.160117285431014
 10
13.32273157642575
 20
-3.195782889757816
 10
13.328567506968
 20
-3.20625830869385
  0
POLYLINE
  5
17183
330
16B91
100
AcDbEntity
  8
0
100
AcDb2dPolyline
 66
     1
 10
0.0
 20
0.0
 30
0.0
 70
     5
 75
     6
  0
VERTEX
  5
17184
330
17183
100
AcDbEntity
  8
0
100
AcDbVertex
100
AcDb2dVertex
 10
8.296440710774596
 20
-3.090224018972323
 30
0.0
 70
    16
  0
VERTEX
  5
17185
330
17183
100
AcDbEntity
  8
0
100
AcDbVertex
100
AcDb2dVertex
 10
8.287149695278651
 20
-3.061732345314167
 30
0.0
 70
     8
  0
VERTEX
  5
17186
330
17183
100
AcDbEntity
  8
0
100
AcDbVertex
100
AcDb2dVertex
 10
8.286372522122938
 20
-3.055973733099484
 30
0.0
 70
     8
  0
VERTEX
  5
17187
330
17183
100
AcDbEntity
  8
0
100
AcDbVertex
100
AcDb2dVertex
 10
8.285738017789926
 20
-3.049457309743349
 30
0.0
 70
     8
  0
VERTEX
  5
17188
330
17183
100
AcDbEntity
  8
0
100
AcDbVertex
100
AcDb2dVertex
 10
8.285268709220938
 20
-3.042115547821145
 30
0.0
 70
     8
  0
VERTEX
  5
17189
330
17183
100
AcDbEntity
  8
0
100
AcDbVertex
100
AcDb2dVertex
 10
8.284987123357293
 20
-3.033880919908248
 30
0.0
 70
     8
  0
VERTEX
  5
1718A
330
17183
100
AcDbEntity
  8
0
100
AcDbVertex
100
AcDb2dVertex
 10
8.284915787140294
 20
-3.024685898580051
 30
0.0
 70
     8
  0
VERTEX
  5
1718B
330
17183
100
AcDbEntity
  8
0
100
AcDbVertex
100
AcDb2dVertex
 10
8.285077227511276
 20
-3.014462956411934
 30
0.0
 70
     8
  0
VERTEX
  5
1718C
330
17183
100
AcDbEntity
  8
0
100
AcDbVertex
100
AcDb2dVertex
 10
8.285493971411561
 20
-3.003144565979269
 30
0.0
 70
     8
  0
VERTEX
  5
1718D
330
17183
100
AcDbEntity
  8
0
100
AcDbVertex
100
AcDb2dVertex
 10
8.286188545782431
 20
-2.990663199857454
 30
0.0
 70
     8
  0
VERTEX
  5
1718E
330
17183
100
AcDbEntity
  8
0
100
AcDbVertex
100
AcDb2dVertex
 10
8.28716908539976
 20
-2.977001038423049
 30
0.0
 70
     8
  0
VERTEX
  5
1718F
330
17183
100
AcDbEntity
  8
0
100
AcDbVertex
100
AcDb2dVertex
 10
8.288386156377406
 20
-2.962339093257397
 30
0.0
 70
     8
  0
VERTEX
  5
17190
330
17183
100
AcDbEntity
  8
0
100
AcDbVertex
100
AcDb2dVertex
 10
8.289775932663786
 20
-2.946908083743032
 30
0.0
 70
     8
  0
VERTEX
  5
17191
330
17183
100
AcDbEntity
  8
0
100
AcDbVertex
100
AcDb2dVertex
 10
8.291274588207281
 20
-2.930938729262481
 30
0.0
 70
     8
  0
VERTEX
  5
17192
330
17183
100
AcDbEntity
  8
0
100
AcDbVertex
100
AcDb2dVertex
 10
8.292818296956294
 20
-2.914661749198272
 30
0.0
 70
     8
  0
VERTEX
  5
17193
330
17183
100
AcDbEntity
  8
0
100
AcDbVertex
100
AcDb2dVertex
 10
8.294343232859226
 20
-2.898307862932931
 30
0.0
 70
     8
  0
VERTEX
  5
17194
330
17183
100
AcDbEntity
  8
0
100
AcDbVertex
100
AcDb2dVertex
 10
8.295785569864484
 20
-2.882107789848998
 30
0.0
 70
     8
  0
VERTEX
  5
17195
330
17183
100
AcDbEntity
  8
0
100
AcDbVertex
100
AcDb2dVertex
 10
8.297081481920454
 20
-2.866292249328994
 30
0.0
 70
     8
  0
VERTEX
  5
17196
330
17183
100
AcDbEntity
  8
0
100
AcDbVertex
100
AcDb2dVertex
 10
8.298185169415104
 20
-2.85102110115017
 30
0.0
 70
     8
  0
VERTEX
  5
17197
330
17183
100
AcDbEntity
  8
0
100
AcDbVertex
100
AcDb2dVertex
 10
8.299122938494663
 20
-2.836170766668669
 30
0.0
 70
     8
  0
VERTEX
  5
17198
330
17183
100
AcDbEntity
  8
0
100
AcDbVertex
100
AcDb2dVertex
 10
8.299939121744957
 20
-2.821546807635347
 30
0.0
 70
     8
  0
VERTEX
  5
17199
330
17183
100
AcDbEntity
  8
0
100
AcDbVertex
100
AcDb2dVertex
 10
8.300678051751768
 20
-2.806954785801067
 30
0.0
 70
     8
  0
VERTEX
  5
1719A
330
17183
100
AcDbEntity
  8
0
100
AcDbVertex
100
AcDb2dVertex
 10
8.301384061100918
 20
-2.792200262916687
 30
0.0
 70
     8
  0
VERTEX
  5
1719B
330
17183
100
AcDbEntity
  8
0
100
AcDbVertex
100
AcDb2dVertex
 10
8.302101482378205
 20
-2.777088800733072
 30
0.0
 70
     8
  0
VERTEX
  5
1719C
330
17183
100
AcDbEntity
  8
0
100
AcDbVertex
100
AcDb2dVertex
 10
8.302874648169437
 20
-2.761425961001076
 30
0.0
 70
     8
  0
VERTEX
  5
1719D
330
17183
100
AcDbEntity
  8
0
100
AcDbVertex
100
AcDb2dVertex
 10
8.30374789106041
 20
-2.745017305471561
 30
0.0
 70
     8
  0
VERTEX
  5
1719E
330
17183
100
AcDbEntity
  8
0
100
AcDbVertex
100
AcDb2dVertex
 10
8.304749397715204
 20
-2.72768945223784
 30
0.0
 70
     8
  0
VERTEX
  5
1719F
330
17183
100
AcDbEntity
  8
0
100
AcDbVertex
100
AcDb2dVertex
 10
8.305842771110953
 20
-2.70935324476306
 30
0.0
 70
     8
  0
VERTEX
  5
171A0
330
17183
100
AcDbEntity
  8
0
100
AcDbVertex
100
AcDb2dVertex
 10
8.306975468303038
 20
-2.689940582852822
 30
0.0
 70
     8
  0
VERTEX
  5
171A1
330
17183
100
AcDbEntity
  8
0
100
AcDbVertex
100
AcDb2dVertex
 10
8.308094946346862
 20
-2.669383366312715
 30
0.0
 70
     8
  0
VERTEX
  5
171A2
330
17183
100
AcDbEntity
  8
0
100
AcDbVertex
100
AcDb2dVertex
 10
8.309148662297813
 20
-2.647613494948347
 30
0.0
 70
     8
  0
VERTEX
  5
171A3
330
17183
100
AcDbEntity
  8
0
100
AcDbVertex
100
AcDb2dVertex
 10
8.310084073211291
 20
-2.624562868565311
 30
0.0
 70
     8
  0
VERTEX
  5
171A4
330
17183
100
AcDbEntity
  8
0
100
AcDbVertex
100
AcDb2dVertex
 10
8.310848636142679
 20
-2.600163386969208
 30
0.0
 70
     8
  0
VERTEX
  5
171A5
330
17183
100
AcDbEntity
  8
0
100
AcDbVertex
100
AcDb2dVertex
 10
8.31138980814739
 20
-2.574346949965638
 30
0.0
 70
     8
  0
VERTEX
  5
171A6
330
17183
100
AcDbEntity
  8
0
100
AcDbVertex
100
AcDb2dVertex
 10
8.311691169833821
 20
-2.547071545347064
 30
0.0
 70
     8
  0
VERTEX
  5
171A7
330
17183
100
AcDbEntity
  8
0
100
AcDbVertex
100
AcDb2dVertex
 10
8.311880796022478
 20
-2.518399512853453
 30
0.0
 70
     8
  0
VERTEX
  5
171A8
330
17183
100
AcDbEntity
  8
0
100
AcDbVertex
100
AcDb2dVertex
 10
8.312122885086887
 20
-2.488419280211641
 30
0.0
 70
     8
  0
VERTEX
  5
171A9
330
17183
100
AcDbEntity
  8
0
100
AcDbVertex
100
AcDb2dVertex
 10
8.312581635400563
 20
-2.457219275148454
 30
0.0
 70
     8
  0
VERTEX
  5
171AA
330
17183
100
AcDbEntity
  8
0
100
AcDbVertex
100
AcDb2dVertex
 10
8.313421245337032
 20
-2.424887925390731
 30
0.0
 70
     8
  0
VERTEX
  5
171AB
330
17183
100
AcDbEntity
  8
0
100
AcDbVertex
100
AcDb2dVertex
 10
8.314805913269816
 20
-2.391513658665302
 30
0.0
 70
     8
  0
VERTEX
  5
171AC
330
17183
100
AcDbEntity
  8
0
100
AcDbVertex
100
AcDb2dVertex
 10
8.316899837572435
 20
-2.357184902699002
 30
0.0
 70
     8
  0
VERTEX
  5
171AD
330
17183
100
AcDbEntity
  8
0
100
AcDbVertex
100
AcDb2dVertex
 10
8.319867216618401
 20
-2.321990085218662
 30
0.0
 70
     8
  0
VERTEX
  5
171AE
330
17183
100
AcDbEntity
  8
0
100
AcDbVertex
100
AcDb2dVertex
 10
8.323848485286751
 20
-2.286006496122408
 30
0.0
 70
     8
  0
VERTEX
  5
171AF
330
17183
100
AcDbEntity
  8
0
100
AcDbVertex
100
AcDb2dVertex
 10
8.328889024478474
 20
-2.249266873993514
 30
0.0
 70
     8
  0
VERTEX
  5
171B0
330
17183
100
AcDbEntity
  8
0
100
AcDbVertex
100
AcDb2dVertex
 10
8.335010451600069
 20
-2.211792819586557
 30
0.0
 70
     8
  0
VERTEX
  5
171B1
330
17183
100
AcDbEntity
  8
0
100
AcDbVertex
100
AcDb2dVertex
 10
8.342234384058039
 20
-2.173605933656097
 30
0.0
 70
     8
  0
VERTEX
  5
171B2
330
17183
100
AcDbEntity
  8
0
100
AcDbVertex
100
AcDb2dVertex
 10
8.350582439258872
 20
-2.134727816956706
 30
0.0
 70
     8
  0
VERTEX
  5
171B3
330
17183
100
AcDbEntity
  8
0
100
AcDbVertex
100
AcDb2dVertex
 10
8.360076234609076
 20
-2.095180070242954
 30
0.0
 70
     8
  0
VERTEX
  5
171B4
330
17183
100
AcDbEntity
  8
0
100
AcDbVertex
100
AcDb2dVertex
 10
8.370737387515138
 20
-2.054984294269401
 30
0.0
 70
     8
  0
VERTEX
  5
171B5
330
17183
100
AcDbEntity
  8
0
100
AcDbVertex
100
AcDb2dVertex
 10
8.382587515383576
 20
-2.01416208979063
 30
0.0
 70
     8
  0
VERTEX
  5
171B6
330
17183
100
AcDbEntity
  8
0
100
AcDbVertex
100
AcDb2dVertex
 10
8.395650037170153
 20
-1.972774659382842
 30
0.0
 70
     8
  0
VERTEX
  5
171B7
330
17183
100
AcDbEntity
  8
0
100
AcDbVertex
100
AcDb2dVertex
 10
8.409955578027808
 20
-1.931041612908833
 30
0.0
 70
     8
  0
VERTEX
  5
171B8
330
17183
100
AcDbEntity
  8
0
100
AcDbVertex
100
AcDb2dVertex
 10
8.425536564658768
 20
-1.88922216205305
 30
0.0
 70
     8
  0
VERTEX
  5
171B9
330
17183
100
AcDbEntity
  8
0
100
AcDbVertex
100
AcDb2dVertex
 10
8.442425423765254
 20
-1.847575518499922
 30
0.0
 70
     8
  0
VERTEX
  5
171BA
330
17183
100
AcDbEntity
  8
0
100
AcDbVertex
100
AcDb2dVertex
 10
8.460654582049484
 20
-1.806360893933893
 30
0.0
 70
     8
  0
VERTEX
  5
171BB
330
17183
100
AcDbEntity
  8
0
100
AcDbVertex
100
AcDb2dVertex
 10
8.48025646621369
 20
-1.76583750003941
 30
0.0
 70
     8
  0
VERTEX
  5
171BC
330
17183
100
AcDbEntity
  8
0
100
AcDbVertex
100
AcDb2dVertex
 10
8.501263502960082
 20
-1.726264548500897
 30
0.0
 70
     8
  0
VERTEX
  5
171BD
330
17183
100
AcDbEntity
  8
0
100
AcDbVertex
100
AcDb2dVertex
 10
8.52370811899089
 20
-1.687901251002802
 30
0.0
 70
     8
  0
VERTEX
  5
171BE
330
17183
100
AcDbEntity
  8
0
100
AcDbVertex
100
AcDb2dVertex
 10
8.547626343937634
 20
-1.650931215825657
 30
0.0
 70
     8
  0
VERTEX
  5
171BF
330
17183
100
AcDbEntity
  8
0
100
AcDbVertex
100
AcDb2dVertex
 10
8.573068619149005
 20
-1.615235637634391
 30
0.0
 70
     8
  0
VERTEX
  5
171C0
330
17183
100
AcDbEntity
  8
0
100
AcDbVertex
100
AcDb2dVertex
 10
8.600088988903012
 20
-1.580620107690013
 30
0.0
 70
     8
  0
VERTEX
  5
171C1
330
17183
100
AcDbEntity
  8
0
100
AcDbVertex
100
AcDb2dVertex
 10
8.628741497477653
 20
-1.546890217253553
 30
0.0
 70
     8
  0
VERTEX
  5
171C2
330
17183
100
AcDbEntity
  8
0
100
AcDbVertex
100
AcDb2dVertex
 10
8.659080189150925
 20
-1.513851557586024
 30
0.0
 70
     8
  0
VERTEX
  5
171C3
330
17183
100
AcDbEntity
  8
0
100
AcDbVertex
100
AcDb2dVertex
 10
8.691159108200828
 20
-1.481309719948441
 30
0.0
 70
     8
  0
VERTEX
  5
171C4
330
17183
100
AcDbEntity
  8
0
100
AcDbVertex
100
AcDb2dVertex
 10
8.725032298905347
 20
-1.449070295601834
 30
0.0
 70
     8
  0
VERTEX
  5
171C5
330
17183
100
AcDbEntity
  8
0
100
AcDbVertex
100
AcDb2dVertex
 10
8.760753805542504
 20
-1.416938875807211
 30
0.0
 70
     8
  0
VERTEX
  5
171C6
330
17183
100
AcDbEntity
  8
0
100
AcDbVertex
100
AcDb2dVertex
 10
8.798368665067043
 20
-1.384787654793351
 30
0.0
 70
     8
  0
VERTEX
  5
171C7
330
17183
100
AcDbEntity
  8
0
100
AcDbVertex
100
AcDb2dVertex
 10
8.837885885140762
 20
-1.352755238660072
 30
0.0
 70
     8
  0
VERTEX
  5
171C8
330
17183
100
AcDbEntity
  8
0
100
AcDbVertex
100
AcDb2dVertex
 10
8.879305466102218
 20
-1.321046836474933
 30
0.0
 70
     8
  0
VERTEX
  5
171C9
330
17183
100
AcDbEntity
  8
0
100
AcDbVertex
100
AcDb2dVertex
 10
8.922627408289972
 20
-1.289867657305511
 30
0.0
 70
     8
  0
VERTEX
  5
171CA
330
17183
100
AcDbEntity
  8
0
100
AcDbVertex
100
AcDb2dVertex
 10
8.967851712042589
 20
-1.259422910219368
 30
0.0
 70
     8
  0
VERTEX
  5
171CB
330
17183
100
AcDbEntity
  8
0
100
AcDbVertex
100
AcDb2dVertex
 10
9.014978377698602
 20
-1.229917804284078
 30
0.0
 70
     8
  0
VERTEX
  5
171CC
330
17183
100
AcDbEntity
  8
0
100
AcDbVertex
100
AcDb2dVertex
 10
9.064007405596603
 20
-1.201557548567202
 30
0.0
 70
     8
  0
VERTEX
  5
171CD
330
17183
100
AcDbEntity
  8
0
100
AcDbVertex
100
AcDb2dVertex
 10
9.114938796075113
 20
-1.17454735213632
 30
0.0
 70
     8
  0
VERTEX
  5
171CE
330
17183
100
AcDbEntity
  8
0
100
AcDbVertex
100
AcDb2dVertex
 10
9.167745527164438
 20
-1.149063622809415
 30
0.0
 70
     8
  0
VERTEX
  5
171CF
330
17183
100
AcDbEntity
  8
0
100
AcDbVertex
100
AcDb2dVertex
 10
9.222292487661741
 20
-1.125167563406188
 30
0.0
 70
     8
  0
VERTEX
  5
171D0
330
17183
100
AcDbEntity
  8
0
100
AcDbVertex
100
AcDb2dVertex
 10
9.278417544055901
 20
-1.102891575496767
 30
0.0
 70
     8
  0
VERTEX
  5
171D1
330
17183
100
AcDbEntity
  8
0
100
AcDbVertex
100
AcDb2dVertex
 10
9.335958562835811
 20
-1.082268060651263
 30
0.0
 70
     8
  0
VERTEX
  5
171D2
330
17183
100
AcDbEntity
  8
0
100
AcDbVertex
100
AcDb2dVertex
 10
9.394753410490373
 20
-1.063329420439809
 30
0.0
 70
     8
  0
VERTEX
  5
171D3
330
17183
100
AcDbEntity
  8
0
100
AcDbVertex
100
AcDb2dVertex
 10
9.454639953508458
 20
-1.046108056432523
 30
0.0
 70
     8
  0
VERTEX
  5
171D4
330
17183
100
AcDbEntity
  8
0
100
AcDbVertex
100
AcDb2dVertex
 10
9.515456058378969
 20
-1.03063637019952
 30
0.0
 70
     8
  0
VERTEX
  5
171D5
330
17183
100
AcDbEntity
  8
0
100
AcDbVertex
100
AcDb2dVertex
 10
9.5770395915908
 20
-1.016946763310935
 30
0.0
 70
     8
  0
VERTEX
  5
171D6
330
17183
100
AcDbEntity
  8
0
100
AcDbVertex
100
AcDb2dVertex
 10
9.639242831603919
 20
-1.005050036338837
 30
0.0
 70
     8
  0
VERTEX
  5
171D7
330
17183
100
AcDbEntity
  8
0
100
AcDbVertex
100
AcDb2dVertex
 10
9.70197570476275
 20
-0.9948705858630814
 30
0.0
 70
     8
  0
VERTEX
  5
171D8
330
17183
100
AcDbEntity
  8
0
100
AcDbVertex
100
AcDb2dVertex
 10
9.765162549382774
 20
-0.9863112074654873
 30
0.0
 70
     8
  0
VERTEX
  5
171D9
330
17183
100
AcDbEntity
  8
0
100
AcDbVertex
100
AcDb2dVertex
 10
9.82872770377952
 20
-0.9792746967278635
 30
0.0
 70
     8
  0
VERTEX
  5
171DA
330
17183
100
AcDbEntity
  8
0
100
AcDbVertex
100
AcDb2dVertex
 10
9.892595506268484
 20
-0.9736638492320288
 30
0.0
 70
     8
  0
VERTEX
  5
171DB
330
17183
100
AcDbEntity
  8
0
100
AcDbVertex
100
AcDb2dVertex
 10
9.956690295165156
 20
-0.9693814605597971
 30
0.0
 70
     8
  0
VERTEX
  5
171DC
330
17183
100
AcDbEntity
  8
0
100
AcDbVertex
100
AcDb2dVertex
 10
10.02093640878506
 20
-0.9663303262929716
 30
0.0
 70
     8
  0
VERTEX
  5
171DD
330
17183
100
AcDbEntity
  8
0
100
AcDbVertex
100
AcDb2dVertex
 10
10.08525818544368
 20
-0.9644132420133711
 30
0.0
 70
     8
  0
VERTEX
  5
171DE
330
17183
100
AcDbEntity
  8
0
100
AcDbVertex
100
AcDb2dVertex
 10
10.14956375004899
 20
-0.9635438038099524
 30
0.0
 70
     8
  0
VERTEX
  5
171DF
330
17183
100
AcDbEntity
  8
0
100
AcDbVertex
100
AcDb2dVertex
 10
10.21369637387882
 20
-0.9636788098002339
 30
0.0
 70
     8
  0
VERTEX
  5
171E0
330
17183
100
AcDbEntity
  8
0
100
AcDbVertex
100
AcDb2dVertex
 10
10.27748311480344
 20
-0.9647858586088769
 30
0.0
 70
     8
  0
VERTEX
  5
171E1
330
17183
100
AcDbEntity
  8
0
100
AcDbVertex
100
AcDb2dVertex
 10
10.34075103069313
 20
-0.9668325488605532
 30
0.0
 70
     8
  0
VERTEX
  5
171E2
330
17183
100
AcDbEntity
  8
0
100
AcDbVertex
100
AcDb2dVertex
 10
10.40332717941816
 20
-0.9697864791799293
 30
0.0
 70
     8
  0
VERTEX
  5
171E3
330
17183
100
AcDbEntity
  8
0
100
AcDbVertex
100
AcDb2dVertex
 10
10.46503861884883
 20
-0.973615248191656
 30
0.0
 70
     8
  0
VERTEX
  5
171E4
330
17183
100
AcDbEntity
  8
0
100
AcDbVertex
100
AcDb2dVertex
 10
10.52571240685541
 20
-0.9782864545204105
 30
0.0
 70
     8
  0
VERTEX
  5
171E5
330
17183
100
AcDbEntity
  8
0
100
AcDbVertex
100
AcDb2dVertex
 10
10.58517560130818
 20
-0.9837676967908489
 30
0.0
 70
     8
  0
VERTEX
  5
171E6
330
17183
100
AcDbEntity
  8
0
100
AcDbVertex
100
AcDb2dVertex
 10
10.64323451939387
 20
-0.9900016434681203
 30
0.0
 70
     8
  0
VERTEX
  5
171E7
330
17183
100
AcDbEntity
  8
0
100
AcDbVertex
100
AcDb2dVertex
 10
10.69961251556504
 20
-0.9968312423792793
 30
0.0
 70
     8
  0
VERTEX
  5
171E8
330
17183
100
AcDbEntity
  8
0
100
AcDbVertex
100
AcDb2dVertex
 10
10.75401220359069
 20
-1.004074511191863
 30
0.0
 70
     8
  0
VERTEX
  5
171E9
330
17183
100
AcDbEntity
  8
0
100
AcDbVertex
100
AcDb2dVertex
 10
10.80613619723982
 20
-1.011549467573409
 30
0.0
 70
     8
  0
VERTEX
  5
171EA
330
17183
100
AcDbEntity
  8
0
100
AcDbVertex
100
AcDb2dVertex
 10
10.85568711028146
 20
-1.01907412919146
 30
0.0
 70
     8
  0
VERTEX
  5
171EB
330
17183
100
AcDbEntity
  8
0
100
AcDbVertex
100
AcDb2dVertex
 10
10.9023675564846
 20
-1.026466513713552
 30
0.0
 70
     8
  0
VERTEX
  5
171EC
330
17183
100
AcDbEntity
  8
0
100
AcDbVertex
100
AcDb2dVertex
 10
10.94588014961825
 20
-1.033544638807218
 30
0.0
 70
     8
  0
VERTEX
  5
171ED
330
17183
100
AcDbEntity
  8
0
100
AcDbVertex
100
AcDb2dVertex
 10
10.98592750345142
 20
-1.04012652214
 30
0.0
 70
     8
  0
VERTEX
  5
171EE
330
17183
100
AcDbEntity
  8
0
100
AcDbVertex
100
AcDb2dVertex
 10
11.02228972288967
 20
-1.046072488899574
 30
0.0
 70
     8
  0
VERTEX
  5
171EF
330
17183
100
AcDbEntity
  8
0
100
AcDbVertex
100
AcDb2dVertex
 10
11.05505687738486
 20
-1.051412094354157
 30
0.0
 70
     8
  0
VERTEX
  5
171F0
330
17183
100
AcDbEntity
  8
0
100
AcDbVertex
100
AcDb2dVertex
 10
11.08439652752539
 20
-1.056217201292111
 30
0.0
 70
     8
  0
VERTEX
  5
171F1
330
17183
100
AcDbEntity
  8
0
100
AcDbVertex
100
AcDb2dVertex
 10
11.11047623389968
 20
-1.060559672501797
 30
0.0
 70
     8
  0
VERTEX
  5
171F2
330
17183
100
AcDbEntity
  8
0
100
AcDbVertex
100
AcDb2dVertex
 10
11.13346355709612
 20
-1.064511370771571
 30
0.0
 70
     8
  0
VERTEX
  5
171F3
330
17183
100
AcDbEntity
  8
0
100
AcDbVertex
100
AcDb2dVertex
 10
11.15352605770314
 20
-1.068144158889789
 30
0.0
 70
     8
  0
VERTEX
  5
171F4
330
17183
100
AcDbEntity
  8
0
100
AcDbVertex
100
AcDb2dVertex
 10
11.17083129630914
 20
-1.071529899644819
 30
0.0
 70
     8
  0
VERTEX
  5
171F5
330
17183
100
AcDbEntity
  8
0
100
AcDbVertex
100
AcDb2dVertex
 10
11.18554683350252
 20
-1.074740455825015
 30
0.0
 70
     8
  0
VERTEX
  5
171F6
330
17183
100
AcDbEntity
  8
0
100
AcDbVertex
100
AcDb2dVertex
 10
11.19784139123691
 20
-1.07783896084427
 30
0.0
 70
     8
  0
VERTEX
  5
171F7
330
17183
100
AcDbEntity
  8
0
100
AcDbVertex
100
AcDb2dVertex
 10
11.20788833692671
 20
-1.080853630618657
 30
0.0
 70
     8
  0
VERTEX
  5
171F8
330
17183
100
AcDbEntity
  8
0
100
AcDbVertex
100
AcDb2dVertex
 10
11.21586219935154
 20
-1.083803951689766
 30
0.0
 70
     8
  0
VERTEX
  5
171F9
330
17183
100
AcDbEntity
  8
0
100
AcDbVertex
100
AcDb2dVertex
 10
11.221937507291
 20
-1.086709410599194
 30
0.0
 70
     8
  0
VERTEX
  5
171FA
330
17183
100
AcDbEntity
  8
0
100
AcDbVertex
100
AcDb2dVertex
 10
11.22628878952471
 20
-1.089589493888552
 30
0.0
 70
     8
  0
VERTEX
  5
171FB
330
17183
100
AcDbEntity
  8
0
100
AcDbVertex
100
AcDb2dVertex
 10
11.22909057483229
 20
-1.092463688099427
 30
0.0
 70
     8
  0
VERTEX
  5
171FC
330
17183
100
AcDbEntity
  8
0
100
AcDbVertex
100
AcDb2dVertex
 10
11.23051739199332
 20
-1.095351479773424
 30
0.0
 70
     8
  0
VERTEX
  5
171FD
330
17183
100
AcDbEntity
  8
0
100
AcDbVertex
100
AcDb2dVertex
 10
11.23074376978745
 20
-1.098272355452148
 30
0.0
 70
     8
  0
VERTEX
  5
171FE
330
17183
100
AcDbEntity
  8
0
100
AcDbVertex
100
AcDb2dVertex
 10
11.22985760590454
 20
-1.101250767954491
 30
0.0
 70
     8
  0
VERTEX
  5
171FF
330
17183
100
AcDbEntity
  8
0
100
AcDbVertex
100
AcDb2dVertex
 10
11.22760027367561
 20
-1.104331035208577
 30
0.0
 70
     8
  0
VERTEX
  5
17200
330
17183
100
AcDbEntity
  8
0
100
AcDbVertex
100
AcDb2dVertex
 10
11.22362651534193
 20
-1.10756244141983
 30
0.0
 70
     8
  0
VERTEX
  5
17201
330
17183
100
AcDbEntity
  8
0
100
AcDbVertex
100
AcDb2dVertex
 10
11.21759107314478
 20
-1.110994270793673
 30
0.0
 70
     8
  0
VERTEX
  5
17202
330
17183
100
AcDbEntity
  8
0
100
AcDbVertex
100
AcDb2dVertex
 10
11.20914868932545
 20
-1.114675807535529
 30
0.0
 70
     8
  0
VERTEX
  5
17203
330
17183
100
AcDbEntity
  8
0
100
AcDbVertex
100
AcDb2dVertex
 10
11.19795410612521
 20
-1.118656335850822
 30
0.0
 70
     8
  0
VERTEX
  5
17204
330
17183
100
AcDbEntity
  8
0
100
AcDbVertex
100
AcDb2dVertex
 10
11.18366206578534
 20
-1.122985139944969
 30
0.0
 70
     8
  0
VERTEX
  5
17205
330
17183
100
AcDbEntity
  8
0
100
AcDbVertex
100
AcDb2dVertex
 10
11.16592731054713
 20
-1.127711504023394
 30
0.0
 70
     8
  0
VERTEX
  5
17206
330
17183
100
AcDbEntity
  8
0
100
AcDbVertex
100
AcDb2dVertex
 10
11.14453062914594
 20
-1.132875403053805
 30
0.0
 70
     8
  0
VERTEX
  5
17207
330
17183
100
AcDbEntity
  8
0
100
AcDbVertex
100
AcDb2dVertex
 10
11.1197569962935
 20
-1.138479575053022
 30
0.0
 70
     8
  0
VERTEX
  5
17208
330
17183
100
AcDbEntity
  8
0
100
AcDbVertex
100
AcDb2dVertex
 10
11.09201743319563
 20
-1.144517448800151
 30
0.0
 70
     8
  0
VERTEX
  5
17209
330
17183
100
AcDbEntity
  8
0
100
AcDbVertex
100
AcDb2dVertex
 10
11.06172296105816
 20
-1.150982453074286
 30
0.0
 70
     8
  0
VERTEX
  5
1720A
330
17183
100
AcDbEntity
  8
0
100
AcDbVertex
100
AcDb2dVertex
 10
11.02928460108692
 20
-1.157868016654542
 30
0.0
 70
     8
  0
VERTEX
  5
1720B
330
17183
100
AcDbEntity
  8
0
100
AcDbVertex
100
AcDb2dVertex
 10
10.99511337448769
 20
-1.16516756832002
 30
0.0
 70
     8
  0
VERTEX
  5
1720C
330
17183
100
AcDbEntity
  8
0
100
AcDbVertex
100
AcDb2dVertex
 10
10.95962030246633
 20
-1.172874536849814
 30
0.0
 70
     8
  0
VERTEX
  5
1720D
330
17183
100
AcDbEntity
  8
0
100
AcDbVertex
100
AcDb2dVertex
 10
10.92321640622866
 20
-1.180982351023035
 30
0.0
 70
     8
  0
VERTEX
  5
1720E
330
17183
100
AcDbEntity
  8
0
100
AcDbVertex
100
AcDb2dVertex
 10
10.88618718671765
 20
-1.189504323849548
 30
0.0
 70
     8
  0
VERTEX
  5
1720F
330
17183
100
AcDbEntity
  8
0
100
AcDbVertex
100
AcDb2dVertex
 10
10.84831606382499
 20
-1.198533305262246
 30
0.0
 70
     8
  0
VERTEX
  5
17210
330
17183
100
AcDbEntity
  8
0
100
AcDbVertex
100
AcDb2dVertex
 10
10.80926093717955
 20
-1.208182029424801
 30
0.0
 70
     8
  0
VERTEX
  5
17211
330
17183
100
AcDbEntity
  8
0
100
AcDbVertex
100
AcDb2dVertex
 10
10.76867970641018
 20
-1.218563230500861
 30
0.0
 70
     8
  0
VERTEX
  5
17212
330
17183
100
AcDbEntity
  8
0
100
AcDbVertex
100
AcDb2dVertex
 10
10.72623027114574
 20
-1.229789642654099
 30
0.0
 70
     8
  0
VERTEX
  5
17213
330
17183
100
AcDbEntity
  8
0
100
AcDbVertex
100
AcDb2dVertex
 10
10.6815705310151
 20
-1.241974000048173
 30
0.0
 70
     8
  0
VERTEX
  5
17214
330
17183
100
AcDbEntity
  8
0
100
AcDbVertex
100
AcDb2dVertex
 10
10.63435838564711
 20
-1.255229036846741
 30
0.0
 70
     8
  0
VERTEX
  5
17215
330
17183
100
AcDbEntity
  8
0
100
AcDbVertex
100
AcDb2dVertex
 10
10.58425173467062
 20
-1.269667487213465
 30
0.0
 70
     8
  0
VERTEX
  5
17216
330
17183
100
AcDbEntity
  8
0
100
AcDbVertex
100
AcDb2dVertex
 10
10.53105166760547
 20
-1.285388156517005
 30
0.0
 70
     8
  0
VERTEX
  5
17217
330
17183
100
AcDbEntity
  8
0
100
AcDbVertex
100
AcDb2dVertex
 10
10.47513203353535
 20
-1.302434134945999
 30
0.0
 70
     8
  0
VERTEX
  5
17218
330
17183
100
AcDbEntity
  8
0
100
AcDbVertex
100
AcDb2dVertex
 10
10.41700987143488
 20
-1.320834583894067
 30
0.0
 70
     8
  0
VERTEX
  5
17219
330
17183
100
AcDbEntity
  8
0
100
AcDbVertex
100
AcDb2dVertex
 10
10.35720222027874
 20
-1.34061866475485
 30
0.0
 70
     8
  0
VERTEX
  5
1721A
330
17183
100
AcDbEntity
  8
0
100
AcDbVertex
100
AcDb2dVertex
 10
10.29622611904156
 20
-1.361815538921981
 30
0.0
 70
     8
  0
VERTEX
  5
1721B
330
17183
100
AcDbEntity
  8
0
100
AcDbVertex
100
AcDb2dVertex
 10
10.23459860669801
 20
-1.384454367789087
 30
0.0
 70
     8
  0
VERTEX
  5
1721C
330
17183
100
AcDbEntity
  8
0
100
AcDbVertex
100
AcDb2dVertex
 10
10.17283672222271
 20
-1.408564312749797
 30
0.0
 70
     8
  0
VERTEX
  5
1721D
330
17183
100
AcDbEntity
  8
0
100
AcDbVertex
100
AcDb2dVertex
 10
10.11145750459035
 20
-1.434174535197749
 30
0.0
 70
     8
  0
VERTEX
  5
1721E
330
17183
100
AcDbEntity
  8
0
100
AcDbVertex
100
AcDb2dVertex
 10
10.0508730757419
 20
-1.461304474179089
 30
0.0
 70
     8
  0
VERTEX
  5
1721F
330
17183
100
AcDbEntity
  8
0
100
AcDbVertex
100
AcDb2dVertex
 10
9.99107588948383
 20
-1.489934679350047
 30
0.0
 70
     8
  0
VERTEX
  5
17220
330
17183
100
AcDbEntity
  8
0
100
AcDbVertex
100
AcDb2dVertex
 10
9.931953482588932
 20
-1.520035978019379
 30
0.0
 70
     8
  0
VERTEX
  5
17221
330
17183
100
AcDbEntity
  8
0
100
AcDbVertex
100
AcDb2dVertex
 10
9.873393391830024
 20
-1.551579197495833
 30
0.0
 70
     8
  0
VERTEX
  5
17222
330
17183
100
AcDbEntity
  8
0
100
AcDbVertex
100
AcDb2dVertex
 10
9.815283153979885
 20
-1.58453516508815
 30
0.0
 70
     8
  0
VERTEX
  5
17223
330
17183
100
AcDbEntity
  8
0
100
AcDbVertex
100
AcDb2dVertex
 10
9.757510305811344
 20
-1.618874708105093
 30
0.0
 70
     8
  0
VERTEX
  5
17224
330
17183
100
AcDbEntity
  8
0
100
AcDbVertex
100
AcDb2dVertex
 10
9.699962384097192
 20
-1.654568653855405
 30
0.0
 70
     8
  0
VERTEX
  5
17225
330
17183
100
AcDbEntity
  8
0
100
AcDbVertex
100
AcDb2dVertex
 10
9.642526925610237
 20
-1.691587829647831
 30
0.0
 70
     8
  0
VERTEX
  5
17226
330
17183
100
AcDbEntity
  8
0
100
AcDbVertex
100
AcDb2dVertex
 10
9.585124622824514
 20
-1.729900724573658
 30
0.0
 70
     8
  0
VERTEX
  5
17227
330
17183
100
AcDbEntity
  8
0
100
AcDbVertex
100
AcDb2dVertex
 10
9.527808791019012
 20
-1.769466474854251
 30
0.0
 70
     8
  0
VERTEX
  5
17228
330
17183
100
AcDbEntity
  8
0
100
AcDbVertex
100
AcDb2dVertex
 10
9.470665901173957
 20
-1.810241878493503
 30
0.0
 70
     8
  0
VERTEX
  5
17229
330
17183
100
AcDbEntity
  8
0
100
AcDbVertex
100
AcDb2dVertex
 10
9.413782424269557
 20
-1.85218373349532
 30
0.0
 70
     8
  0
VERTEX
  5
1722A
330
17183
100
AcDbEntity
  8
0
100
AcDbVertex
100
AcDb2dVertex
 10
9.357244831286051
 20
-1.895248837863593
 30
0.0
 70
     8
  0
VERTEX
  5
1722B
330
17183
100
AcDbEntity
  8
0
100
AcDbVertex
100
AcDb2dVertex
 10
9.301139593203638
 20
-1.939393989602218
 30
0.0
 70
     8
  0
VERTEX
  5
1722C
330
17183
100
AcDbEntity
  8
0
100
AcDbVertex
100
AcDb2dVertex
 10
9.245553181002547
 20
-1.984575986715093
 30
0.0
 70
     8
  0
VERTEX
  5
1722D
330
17183
100
AcDbEntity
  8
0
100
AcDbVertex
100
AcDb2dVertex
 10
9.190572065663006
 20
-2.030751627206122
 30
0.0
 70
     8
  0
VERTEX
  5
1722E
330
17183
100
AcDbEntity
  8
0
100
AcDbVertex
100
AcDb2dVertex
 10
9.136295328502399
 20
-2.077852508004073
 30
0.0
 70
     8
  0
VERTEX
  5
1722F
330
17183
100
AcDbEntity
  8
0
100
AcDbVertex
100
AcDb2dVertex
 10
9.08287249218684
 20
-2.125709421737272
 30
0.0
 70
     8
  0
VERTEX
  5
17230
330
17183
100
AcDbEntity
  8
0
100
AcDbVertex
100
AcDb2dVertex
 10
9.030465689719598
 20
-2.174127959958908
 30
0.0
 70
     8
  0
VERTEX
  5
17231
330
17183
100
AcDbEntity
  8
0
100
AcDbVertex
100
AcDb2dVertex
 10
8.979237054103938
 20
-2.222913714222186
 30
0.0
 70
     8
  0
VERTEX
  5
17232
330
17183
100
AcDbEntity
  8
0
100
AcDbVertex
100
AcDb2dVertex
 10
8.929348718343138
 20
-2.271872276080307
 30
0.0
 70
     8
  0
VERTEX
  5
17233
330
17183
100
AcDbEntity
  8
0
100
AcDbVertex
100
AcDb2dVertex
 10
8.880962815440478
 20
-2.320809237086466
 30
0.0
 70
     8
  0
VERTEX
  5
17234
330
17183
100
AcDbEntity
  8
0
100
AcDbVertex
100
AcDb2dVertex
 10
8.834241478399233
 20
-2.369530188793855
 30
0.0
 70
     8
  0
VERTEX
  5
17235
330
17183
100
AcDbEntity
  8
0
100
AcDbVertex
100
AcDb2dVertex
 10
8.789346840222666
 20
-2.417840722755688
 30
0.0
 70
     8
  0
VERTEX
  5
17236
330
17183
100
AcDbEntity
  8
0
100
AcDbVertex
100
AcDb2dVertex
 10
8.746436126804713
 20
-2.465517820085217
 30
0.0
 70
     8
  0
VERTEX
  5
17237
330
17183
100
AcDbEntity
  8
0
100
AcDbVertex
100
AcDb2dVertex
 10
8.705646935601896
 20
-2.512224020135941
 30
0.0
 70
     8
  0
VERTEX
  5
17238
330
17183
100
AcDbEntity
  8
0
100
AcDbVertex
100
AcDb2dVertex
 10
8.667111956961383
 20
-2.557593251821441
 30
0.0
 70
     8
  0
VERTEX
  5
17239
330
17183
100
AcDbEntity
  8
0
100
AcDbVertex
100
AcDb2dVertex
 10
8.63096388123035
 20
-2.601259444055275
 30
0.0
 70
     8
  0
VERTEX
  5
1723A
330
17183
100
AcDbEntity
  8
0
100
AcDbVertex
100
AcDb2dVertex
 10
8.597335398755964
 20
-2.642856525751013
 30
0.0
 70
     8
  0
VERTEX
  5
1723B
330
17183
100
AcDbEntity
  8
0
100
AcDbVertex
100
AcDb2dVertex
 10
8.566359199885404
 20
-2.682018425822224
 30
0.0
 70
     8
  0
VERTEX
  5
1723C
330
17183
100
AcDbEntity
  8
0
100
AcDbVertex
100
AcDb2dVertex
 10
8.538167974965846
 20
-2.718379073182477
 30
0.0
 70
     8
  0
VERTEX
  5
1723D
330
17183
100
AcDbEntity
  8
0
100
AcDbVertex
100
AcDb2dVertex
 10
8.512894414344451
 20
-2.751572396745335
 30
0.0
 70
     8
  0
VERTEX
  5
1723E
330
17183
100
AcDbEntity
  8
0
100
AcDbVertex
100
AcDb2dVertex
 10
8.490585931198475
 20
-2.781374533370556
 30
0.0
 70
     8
  0
VERTEX
  5
1723F
330
17183
100
AcDbEntity
  8
0
100
AcDbVertex
100
AcDb2dVertex
 10
8.470948830025481
 20
-2.808130451702636
 30
0.0
 70
     8
  0
VERTEX
  5
17240
330
17183
100
AcDbEntity
  8
0
100
AcDbVertex
100
AcDb2dVertex
 10
8.453604138153094
 20
-2.832327328332258
 30
0.0
 70
     8
  0
VERTEX
  5
17241
330
17183
100
AcDbEntity
  8
0
100
AcDbVertex
100
AcDb2dVertex
 10
8.438172882908958
 20
-2.854452339850101
 30
0.0
 70
     8
  0
VERTEX
  5
17242
330
17183
100
AcDbEntity
  8
0
100
AcDbVertex
100
AcDb2dVertex
 10
8.424276091620697
 20
-2.874992662846865
 30
0.0
 70
     8
  0
VERTEX
  5
17243
330
17183
100
AcDbEntity
  8
0
100
AcDbVertex
100
AcDb2dVertex
 10
8.411534791615947
 20
-2.894435473913216
 30
0.0
 70
     8
  0
VERTEX
  5
17244
330
17183
100
AcDbEntity
  8
0
100
AcDbVertex
100
AcDb2dVertex
 10
8.399570010222348
 20
-2.913267949639844
 30
0.0
 70
     8
  0
VERTEX
  5
17245
330
17183
100
AcDbEntity
  8
0
100
AcDbVertex
100
AcDb2dVertex
 10
8.388002774767526
 20
-2.931977266617439
 30
0.0
 70
     8
  0
VERTEX
  5
17246
330
17183
100
AcDbEntity
  8
0
100
AcDbVertex
100
AcDb2dVertex
 10
8.37654318703858
 20
-2.95090216725277
 30
0.0
 70
     8
  0
VERTEX
  5
17247
330
17183
100
AcDbEntity
  8
0
100
AcDbVertex
100
AcDb2dVertex
 10
8.365257646660428
 20
-2.969787657216965
 30
0.0
 70
     8
  0
VERTEX
  5
17248
330
17183
100
AcDbEntity
  8
0
100
AcDbVertex
100
AcDb2dVertex
 10
8.354301627717445
 20
-2.988230307997249
 30
0.0
 70
     8
  0
VERTEX
  5
17249
330
17183
100
AcDbEntity
  8
0
100
AcDbVertex
100
AcDb2dVertex
 10
8.343830604294023
 20
-3.005826691080846
 30
0.0
 70
     8
  0
VERTEX
  5
1724A
330
17183
100
AcDbEntity
  8
0
100
AcDbVertex
100
AcDb2dVertex
 10
8.33400005047455
 20
-3.022173377954965
 30
0.0
 70
     8
  0
VERTEX
  5
1724B
330
17183
100
AcDbEntity
  8
0
100
AcDbVertex
100
AcDb2dVertex
 10
8.324965440343394
 20
-3.036866940106837
 30
0.0
 70
     8
  0
VERTEX
  5
1724C
330
17183
100
AcDbEntity
  8
0
100
AcDbVertex
100
AcDb2dVertex
 10
8.316882247984938
 20
-3.049503949023674
 30
0.0
 70
     8
  0
VERTEX
  5
1724D
330
17183
100
AcDbEntity
  8
0
100
AcDbVertex
100
AcDb2dVertex
 10
8.309905947483558
 20
-3.059680976192709
 30
0.0
 70
     8
  0
VERTEX
  5
1724E
330
17183
100
AcDbEntity
  8
0
100
AcDbVertex
100
AcDb2dVertex
 10
8.304142304241668
 20
-3.067107104656273
 30
0.0
 70
     8
  0
VERTEX
  5
1724F
330
17183
100
AcDbEntity
  8
0
100
AcDbVertex
100
AcDb2dVertex
 10
8.299498248933739
 20
-3.071941463677221
 30
0.0
 70
     8
  0
VERTEX
  5
17250
330
17183
100
AcDbEntity
  8
0
100
AcDbVertex
100
AcDb2dVertex
 10
8.295831003552249
 20
-3.074455694073515
 30
0.0
 70
     8
  0
VERTEX
  5
17251
330
17183
100
AcDbEntity
  8
0
100
AcDbVertex
100
AcDb2dVertex
 10
8.292997790089696
 20
-3.074921436663132
 30
0.0
 70
     8
  0
VERTEX
  5
17252
330
17183
100
AcDbEntity
  8
0
100
AcDbVertex
100
AcDb2dVertex
 10
8.290855830538573
 20
-3.073610332264036
 30
0.0
 70
     8
  0
VERTEX
  5
17253
330
17183
100
AcDbEntity
  8
0
100
AcDbVertex
100
AcDb2dVertex
 10
8.289262346891362
 20
-3.070794021694194
 30
0.0
 70
     8
  0
VERTEX
  5
17254
330
17183
100
AcDbEntity
  8
0
100
AcDbVertex
100
AcDb2dVertex
 10
8.288074561140559
 20
-3.066744145771583
 30
0.0
 70
     8
  0
VERTEX
  5
17255
330
17183
100
AcDbEntity
  8
0
100
AcDbVertex
100
AcDb2dVertex
 10
8.285868181877193
 20
-3.069095371627072
 30
0.0
 70
    16
  0
VERTEX
  5
17256
330
17183
100
AcDbEntity
  8
0
100
AcDbVertex
100
AcDb2dVertex
 10
8.28298473338854
 20
-3.003788566404391
 30
0.0
 70
    16
  0
VERTEX
  5
17257
330
17183
100
AcDbEntity
  8
0
100
AcDbVertex
100
AcDb2dVertex
 10
8.299324159263251
 20
-2.859729561900077
 30
0.0
 70
    16
  0
VERTEX
  5
17258
330
17183
100
AcDbEntity
  8
0
100
AcDbVertex
100
AcDb2dVertex
 10
8.302207521081168
 20
-2.755046681969254
 30
0.0
 70
    16
  0
VERTEX
  5
17259
330
17183
100
AcDbEntity
  8
0
100
AcDbVertex
100
AcDb2dVertex
 10
8.314333102774527
 20
-2.590187543052262
 30
0.0
 70
    16
  0
VERTEX
  5
1725A
330
17183
100
AcDbEntity
  8
0
100
AcDbVertex
100
AcDb2dVertex
 10
8.308798916705034
 20
-2.330284845615516
 30
0.0
 70
    16
  0
VERTEX
  5
1725B
330
17183
100
AcDbEntity
  8
0
100
AcDbVertex
100
AcDb2dVertex
 10
8.369674530115744
 20
-2.020613585797644
 30
0.0
 70
    16
  0
VERTEX
  5
1725C
330
17183
100
AcDbEntity
  8
0
100
AcDbVertex
100
AcDb2dVertex
 10
8.508028055133438
 20
-1.672233349937673
 30
0.0
 70
    16
  0
VERTEX
  5
1725D
330
17183
100
AcDbEntity
  8
0
100
AcDbVertex
100
AcDb2dVertex
 10
8.740461963295844
 20
-1.417860520468466
 30
0.0
 70
    16
  0
VERTEX
  5
1725E
330
17183
100
AcDbEntity
  8
0
100
AcDbVertex
100
AcDb2dVertex
 10
9.094646924938214
 20
-1.15795782303172
 30
0.0
 70
    16
  0
VERTEX
  5
1725F
330
17183
100
AcDbEntity
  8
0
100
AcDbVertex
100
AcDb2dVertex
 10
9.570583113402003
 20
-0.9975923002225664
 30
0.0
 70
    16
  0
VERTEX
  5
17260
330
17183
100
AcDbEntity
  8
0
100
AcDbVertex
100
AcDb2dVertex
 10
10.08525817099856
 20
-0.9533535559436392
 30
0.0
 70
    16
  0
VERTEX
  5
17261
330
17183
100
AcDbEntity
  8
0
100
AcDbVertex
100
AcDb2dVertex
 10
10.59993331526583
 20
-0.9754729280831028
 30
0.0
 70
    16
  0
VERTEX
  5
17262
330
17183
100
AcDbEntity
  8
0
100
AcDbVertex
100
AcDb2dVertex
 10
11.02606217578716
 20
-1.047360912469042
 30
0.0
 70
    16
  0
VERTEX
  5
17263
330
17183
100
AcDbEntity
  8
0
100
AcDbVertex
100
AcDb2dVertex
 10
11.21138300229398
 20
-1.075842554880744
 30
0.0
 70
    16
  0
VERTEX
  5
17264
330
17183
100
AcDbEntity
  8
0
100
AcDbVertex
100
AcDb2dVertex
 10
11.24168681605205
 20
-1.09771160295806
 30
0.0
 70
    16
  0
VERTEX
  5
17265
330
17183
100
AcDbEntity
  8
0
100
AcDbVertex
100
AcDb2dVertex
 10
11.20633235222252
 20
-1.122945165999894
 30
0.0
 70
    16
  0
VERTEX
  5
17266
330
17183
100
AcDbEntity
  8
0
100
AcDbVertex
100
AcDb2dVertex
 10
10.92854763834067
 20
-1.176776757182731
 30
0.0
 70
    16
  0
VERTEX
  5
17267
330
17183
100
AcDbEntity
  8
0
100
AcDbVertex
100
AcDb2dVertex
 10
10.6187755317867
 20
-1.255841911407402
 30
0.0
 70
    16
  0
VERTEX
  5
17268
330
17183
100
AcDbEntity
  8
0
100
AcDbVertex
100
AcDb2dVertex
 10
10.10186064253629
 20
-1.417860520468466
 30
0.0
 70
    16
  0
VERTEX
  5
17269
330
17183
100
AcDbEntity
  8
0
100
AcDbVertex
100
AcDb2dVertex
 10
9.642526925610232
 20
-1.677763217905222
 30
0.0
 70
    16
  0
VERTEX
  5
1726A
330
17183
100
AcDbEntity
  8
0
100
AcDbVertex
100
AcDb2dVertex
 10
9.183193208684173
 20
-2.020613585797644
 30
0.0
 70
    16
  0
VERTEX
  5
1726B
330
17183
100
AcDbEntity
  8
0
100
AcDbVertex
100
AcDb2dVertex
 10
8.768132633631093
 20
-2.424292202140919
 30
0.0
 70
    16
  0
VERTEX
  5
1726C
330
17183
100
AcDbEntity
  8
0
100
AcDbVertex
100
AcDb2dVertex
 10
8.48035729812746
 20
-2.789261942172805
 30
0.0
 70
    16
  0
VERTEX
  5
1726D
330
17183
100
AcDbEntity
  8
0
100
AcDbVertex
100
AcDb2dVertex
 10
8.387804659925775
 20
-2.928094409639879
 30
0.0
 70
    16
  0
SEQEND
  5
1726E
330
17183
100
AcDbEntity
  8
0
  0
LWPOLYLINE
  5
1726F
330
16B91
100
AcDbEntity
  8
0
100
AcDbPolyline
 90
       95
 70
     0
 43
0.0
 10
15.75
 20
-0.4717392797747106
 10
15.74541838652299
 20
-0.4834454450113411
 10
15.73885562774597
 20
-0.4980227998259104
 10
15.73262889180913
 20
-0.5099043084188014
 10
15.72672032242627
 20
-0.5194889951794153
 10
15.7211120633112
 20
-0.527175884497137
 10
15.71578625817773
 20
-0.5333640007613676
 10
15.71072505073967
 20
-0.5384523683614923
 10
15.70590571481458
 20
-0.542789187401815
 10
15.70128604463511
 20
-0.5465193608462098
 10
15.69681896453764
 20
-0.5497369673734588
 10
15.69245739885859
 20
-0.5525360856623499
 10
15.68815427193436
 20
-0.5550107943916542
 10
15.68386250810134
 20
-0.5572551722401653
 10
15.67953503169594
 20
-0.5593632978866491
 10
15.67512476705454
 20
-0.5614292500098986
 10
15.67059356665666
 20
-0.5635341309186476
 10
15.66593899555417
 20
-0.5657071374414351
 10
15.66116754694206
 20
-0.5679644900367677
 10
15.65628571401529
 20
-0.5703224091631469
 10
15.65129998996886
 20
-0.5727971152790682
 10
15.64621686799774
 20
-0.5754048288430331
 10
15.64104284129691
 20
-0.5781617703135426
 10
15.63578440306136
 20
-0.5810841601491036
 10
15.63045345751007
 20
-0.5841806492901239
 10
15.6250835529582
 20
-0.587429610604703
 10
15.61971364874487
 20
-0.5908018474428417
 10
15.61438270420927
 20
-0.5942681631545464
 10
15.60912967869053
 20
-0.5977993610898231
 10
15.6039935315278
 20
-0.6013662445986835
 10
15.59901322206026
 20
-0.6049396170311339
 10
15.59422770962703
 20
-0.6084902817371804
 10
15.58965485054256
 20
-0.6120041811029943
 10
15.58522808902222
 20
-0.6155278136594068
 10
15.5808597662567
 20
-0.6191228169734088
 10
15.57646222343666
 20
-0.6228508286119913
 10
15.57194780175276
 20
-0.6267734861421556
 10
15.56722884239568
 20
-0.6309524271308929
 10
15.56221768655606
 20
-0.6354492891451939
 10
15.55682667542458
 20
-0.6403257097520548
 10
15.55099682872365
 20
-0.6456222399678686
 10
15.54478388030265
 20
-0.6512950846066256
 10
15.53827224254269
 20
-0.6572793619317232
 10
15.5315463278249
 20
-0.663510190206543
 10
15.52469054853043
 20
-0.6699226876944877
 10
15.51778931704037
 20
-0.6764519726589393
 10
15.51092704573587
 20
-0.6830331633632949
 10
15.50418814699803
 20
-0.6896013780709416
 10
15.49764080002305
 20
-0.6961020079731123
 10
15.49128825126735
 20
-0.7025215359723493
 10
15.48511751400242
 20
-0.7088567178990413
 10
15.47911560149973
 20
-0.7151043095835819
 10
15.47326952703078
 20
-0.7212610668563436
 10
15.46756630386705
 20
-0.7273237455477146
 10
15.46199294528001
 20
-0.7332891014880891
 10
15.45653646454116
 20
-0.7391538905078445
 10
15.45118982710201
 20
-0.744925141430131
 10
15.44596980713424
 20
-0.7506509750491336
 10
15.44089913098955
 20
-0.7563897851518094
 10
15.43600052501964
 20
-0.7621999655251104
 10
15.43129671557623
 20
-0.7681399099559884
 10
15.42681042901101
 20
-0.7742680122313953
 10
15.42256439167571
 20
-0.7806426661382831
 10
15.41858132992201
 20
-0.7873222654636036
 10
15.41487910020539
 20
-0.7943527682704993
 10
15.41145607939639
 20
-0.8017303897268865
 10
15.40830577446931
 20
-0.8094389092768723
 10
15.40542169239844
 20
-0.8174621063645638
 10
15.4027973401581
 20
-0.8257837604340673
 10
15.40042622472256
 20
-0.8343876509294853
 10
15.39830185306614
 20
-0.8432575572949241
 10
15.39641773216313
 20
-0.8523772589744909
 10
15.3947641222775
 20
-0.8617251285927977
 10
15.39331829683182
 20
-0.8712579114964441
 10
15.39205428253836
 20
-0.8809269462125344
 10
15.39094610610934
 20
-0.8906835712681786
 10
15.38996779425703
 20
-0.900479125190481
 10
15.38909337369367
 20
-0.9102649465065411
 10
15.3882968711315
 20
-0.9199923737434739
 10
15.38755231328276
 20
-0.9296127454283785
 10
15.38683589139911
 20
-0.9391003791442829
 10
15.38613245488974
 20
-0.9485215086978916
 10
15.38542901770326
 20
-0.9579653469518436
 10
15.38471259378826
 20
-0.9675211067687563
 10
15.38397019709334
 20
-0.9772780010112628
 10
15.3831888415671
 20
-0.9873252425419915
 10
15.38235554115815
 20
-0.9977520442235757
 10
15.38145730981509
 20
-1.008647618918637
 10
15.3804687159422
 20
-1.020134701699287
 10
15.37931454576661
 20
-1.032470116475553
 10
15.37790713997116
 20
-1.045944209366934
 10
15.37615883923869
 20
-1.060847326492935
 10
15.373981984252
 20
-1.07746981397306
 10
15.37128891569394
 20
-1.096102017926819
 10
15.36984592439344
 20
-1.10526356326091
  0
LINE
  5
172D0
330
16B91
100
AcDbEntity
  8
0
100
AcDbLine
 10
15.75
 20
0.0
 30
0.0
 11
15.75
 21
-0.471739279774708
 31
0.0
  0
ENDBLK
  5
16B93
330
16B91
100
AcDbEntity
  8
0
100
AcDbBlockEnd
  0
BLOCK
  5
172D4
330
172D3
100
AcDbEntity
  8
0
100
AcDbBlockBegin
  2
2219f
 70
     0
 10
0.0
 20
0.0
 30
0.0
  3
2219f
  1

  0
LINE
  5
172D6
330
172D3
100
AcDbEntity
  8
0
100
AcDbLine
 10
-0.0000000000000036
 20
-9.340715222776307
 30
0.0
 11
-0.0000000000000036
 21
-3.448303349577709
 31
0.0
  0
ARC
  5
172D7
330
172D3
100
AcDbEntity
  8
0
100
AcDbCircle
 10
1.805664365745776
 20
-9.164902535796258
 30
0.0
 40
2.10102408010406
100
AcDbArc
 50
105.3356470717284
 51
149.2516428243024
  0
ARC
  5
172D8
330
172D3
100
AcDbEntity
  8
0
100
AcDbCircle
 10
-1.805664365745775
 20
-9.164902535796258
 30
0.0
 40
2.10102408010406
100
AcDbArc
 50
30.74835717569758
 51
74.66435292827156
  0
ARC
  5
172D9
330
172D3
100
AcDbEntity
  8
0
100
AcDbCircle
 10
1.805664365745776
 20
-9.414902535796258
 30
0.0
 40
2.10102408010406
100
AcDbArc
 50
105.3356470717284
 51
149.2516428243024
  0
ARC
  5
172DA
330
172D3
100
AcDbEntity
  8
0
100
AcDbCircle
 10
-1.805664365745775
 20
-9.414902535796258
 30
0.0
 40
2.10102408010406
100
AcDbArc
 50
30.74835717569758
 51
74.66435292827156
  0
ARC
  5
172DB
330
172D3
100
AcDbEntity
  8
0
100
AcDbCircle
 10
1.805664365745776
 20
-9.664902535796258
 30
0.0
 40
2.10102408010406
100
AcDbArc
 50
105.3356470717284
 51
149.2516428243024
  0
ARC
  5
172DC
330
172D3
100
AcDbEntity
  8
0
100
AcDbCircle
 10
-1.805664365745775
 20
-9.664902535796258
 30
0.0
 40
2.10102408010406
100
AcDbArc
 50
30.74835717569758
 51
74.66435292827156
  0
ARC
  5
172DD
330
172D3
100
AcDbEntity
  8
0
100
AcDbCircle
 10
1.805664365745776
 20
-9.914902535796258
 30
0.0
 40
2.10102408010406
100
AcDbArc
 50
105.3356470717284
 51
149.2516428243024
  0
ARC
  5
172DE
330
172D3
100
AcDbEntity
  8
0
100
AcDbCircle
 10
-1.805664365745775
 20
-9.914902535796258
 30
0.0
 40
2.10102408010406
100
AcDbArc
 50
30.74835717569758
 51
74.66435292827156
  0
LINE
  5
172DF
330
172D3
100
AcDbEntity
  8
0
100
AcDbLine
 10
1.25
 20
-0.7577735710270401
 30
0.0
 11
1.25
 21
-9.340715222776307
 31
0.0
  0
LINE
  5
172E0
330
172D3
100
AcDbEntity
  8
0
100
AcDbLine
 10
-1.249999999999998
 20
-0.7577735710270401
 30
0.0
 11
-1.250000000000001
 21
-9.340715222776307
 31
0.0
  0
LINE
  5
172E1
330
172D3
100
AcDbEntity
  8
0
100
AcDbLine
 10
-1.875000000000001
 20
-0.7577735710270395
 30
0.0
 11
-1.875000000000003
 21
-9.340715222776307
 31
0.0
  0
LINE
  5
172E2
330
172D3
100
AcDbEntity
  8
0
100
AcDbLine
 10
1.875000000000003
 20
-0.7577735710270424
 30
0.0
 11
1.874999999999996
 21
-9.340715222776307
 31
0.0
  0
LINE
  5
172E3
330
172D3
100
AcDbEntity
  8
0
100
AcDbLine
 10
-1.875000000000003
 20
-9.340715222776307
 30
0.0
 11
1.874999999999996
 21
-9.340715222776307
 31
0.0
  0
ARC
  5
172E4
330
172D3
100
AcDbEntity
  8
0
100
AcDbCircle
 10
1.805664365745776
 20
-10.41490253579626
 30
0.0
 40
2.10102408010406
100
AcDbArc
 50
105.3356470717284
 51
149.2516428243024
  0
ARC
  5
172E5
330
172D3
100
AcDbEntity
  8
0
100
AcDbCircle
 10
-1.805664365745775
 20
-10.41490253579626
 30
0.0
 40
2.10102408010406
100
AcDbArc
 50
30.74835717569758
 51
74.66435292827156
  0
ARC
  5
172E6
330
172D3
100
AcDbEntity
  8
0
100
AcDbCircle
 10
1.805664365745776
 20
-10.16490253579626
 30
0.0
 40
2.10102408010406
100
AcDbArc
 50
105.3356470717284
 51
149.2516428243024
  0
ARC
  5
172E7
330
172D3
100
AcDbEntity
  8
0
100
AcDbCircle
 10
-1.805664365745775
 20
-10.16490253579626
 30
0.0
 40
2.10102408010406
100
AcDbArc
 50
30.74835717569758
 51
74.66435292827156
  0
LINE
  5
172E8
330
172D3
100
AcDbEntity
  8
0
100
AcDbLine
 10
-1.5625
 20
-0.7577735710270398
 30
0.0
 11
1.562499999999996
 21
-0.7577735710270421
 31
0.0
  0
LINE
  5
172E9
330
172D3
100
AcDbEntity
  8
0
100
AcDbLine
 10
-1.750000000000001
 20
-3.63106256790761
 30
0.0
 11
-1.375
 21
-3.63106256790761
 31
0.0
  0
LINE
  5
172EA
330
172D3
100
AcDbEntity
  8
0
100
AcDbLine
 10
-1.874999999999998
 20
-0.471739279774708
 30
0.0
 11
1.875000000000003
 21
-0.4717392797747109
 31
0.0
  0
LINE
  5
172EB
330
172D3
100
AcDbEntity
  8
0
100
AcDbLine
 10
-1.875
 20
0.0
 30
0.0
 11
1.875000000000003
 21
0.0
 31
0.0
  0
ARC
  5
172EC
330
172D3
100
AcDbEntity
  8
0
100
AcDbCircle
 10
-1.750000000000001
 20
-3.50606256790761
 30
0.0
 40
0.125
100
AcDbArc
 50
180.0
 51
270.0
  0
LINE
  5
172ED
330
172D3
100
AcDbEntity
  8
0
100
AcDbLine
 10
-1.875
 20
0.0
 30
0.0
 11
-1.875000000000001
 21
-0.471739279774708
 31
0.0
  0
ARC
  5
172EE
330
172D3
100
AcDbEntity
  8
0
100
AcDbCircle
 10
-2.008606097580484
 20
-0.9314318495163444
 30
0.0
 40
0.4787147877247547
100
AcDbArc
 50
21.2697558707232
 51
73.79390155663613
  0
ARC
  5
172EF
330
172D3
100
AcDbEntity
  8
0
100
AcDbCircle
 10
-1.428893902419515
 20
-0.9314318495163444
 30
0.0
 40
0.4787147877247547
100
AcDbArc
 50
127.2639719101909
 51
158.7302441292768
  0
LINE
  5
172F0
330
172D3
100
AcDbEntity
  8
0
100
AcDbLine
 10
0.1249999999999964
 20
-0.7577735710270411
 30
0.0
 11
0.1249999999999929
 21
-3.506062567907608
 31
0.0
  0
LINE
  5
172F1
330
172D3
100
AcDbEntity
  8
0
100
AcDbLine
 10
1.875
 20
-0.7577735710270395
 30
0.0
 11
1.875
 21
-3.50606256790761
 31
0.0
  0
LINE
  5
172F2
330
172D3
100
AcDbEntity
  8
0
100
AcDbLine
 10
-0.1249999999999964
 20
-0.7577735710270411
 30
0.0
 11
-0.1249999999999929
 21
-3.506062567907608
 31
0.0
  0
ARC
  5
172F3
330
172D3
100
AcDbEntity
  8
0
100
AcDbCircle
 10
-1.805664365745775
 20
-6.212978252399953
 30
0.0
 40
2.10102408010406
100
AcDbArc
 50
30.74835717569758
 51
74.66435292827156
  0
ARC
  5
172F4
330
172D3
100
AcDbEntity
  8
0
100
AcDbCircle
 10
1.805664365745776
 20
-6.212978252399953
 30
0.0
 40
2.10102408010406
100
AcDbArc
 50
105.3356470717284
 51
149.2516428243024
  0
ARC
  5
172F5
330
172D3
100
AcDbEntity
  8
0
100
AcDbCircle
 10
-1.805664365745775
 20
-6.967967837072079
 30
0.0
 40
2.10102408010406
100
AcDbArc
 50
30.74835717569758
 51
74.66435292827156
  0
ARC
  5
172F6
330
172D3
100
AcDbEntity
  8
0
100
AcDbCircle
 10
1.805664365745776
 20
-6.967967837072079
 30
0.0
 40
2.10102408010406
100
AcDbArc
 50
105.3356470717284
 51
149.2516428243024
  0
ARC
  5
172F7
330
172D3
100
AcDbEntity
  8
0
100
AcDbCircle
 10
1.805664365745776
 20
-7.815029323471692
 30
0.0
 40
2.10102408010406
100
AcDbArc
 50
105.3356470717284
 51
149.2516428243024
  0
ARC
  5
172F8
330
172D3
100
AcDbEntity
  8
0
100
AcDbCircle
 10
-1.805664365745775
 20
-7.815029323471692
 30
0.0
 40
2.10102408010406
100
AcDbArc
 50
30.74835717569758
 51
74.66435292827156
  0
ARC
  5
172F9
330
172D3
100
AcDbEntity
  8
0
100
AcDbCircle
 10
1.805664365745776
 20
-8.164902535796258
 30
0.0
 40
2.10102408010406
100
AcDbArc
 50
105.3356470717284
 51
149.2516428243024
  0
ARC
  5
172FA
330
172D3
100
AcDbEntity
  8
0
100
AcDbCircle
 10
-1.805664365745775
 20
-8.164902535796258
 30
0.0
 40
2.10102408010406
100
AcDbArc
 50
30.74835717569758
 51
74.66435292827156
  0
ARC
  5
172FB
330
172D3
100
AcDbEntity
  8
0
100
AcDbCircle
 10
1.805664365745776
 20
-8.414902535796258
 30
0.0
 40
2.10102408010406
100
AcDbArc
 50
105.3356470717284
 51
149.2516428243024
  0
ARC
  5
172FC
330
172D3
100
AcDbEntity
  8
0
100
AcDbCircle
 10
-1.805664365745775
 20
-8.414902535796258
 30
0.0
 40
2.10102408010406
100
AcDbArc
 50
30.74835717569758
 51
74.66435292827156
  0
ARC
  5
172FD
330
172D3
100
AcDbEntity
  8
0
100
AcDbCircle
 10
1.805664365745776
 20
-8.664902535796258
 30
0.0
 40
2.10102408010406
100
AcDbArc
 50
105.3356470717284
 51
149.2516428243024
  0
ARC
  5
172FE
330
172D3
100
AcDbEntity
  8
0
100
AcDbCircle
 10
-1.805664365745775
 20
-8.664902535796258
 30
0.0
 40
2.10102408010406
100
AcDbArc
 50
30.74835717569758
 51
74.66435292827156
  0
ARC
  5
172FF
330
172D3
100
AcDbEntity
  8
0
100
AcDbCircle
 10
1.805664365745776
 20
-8.914902535796258
 30
0.0
 40
2.10102408010406
100
AcDbArc
 50
105.3356470717284
 51
149.2516428243024
  0
ARC
  5
17300
330
172D3
100
AcDbEntity
  8
0
100
AcDbCircle
 10
-1.805664365745775
 20
-8.914902535796258
 30
0.0
 40
2.10102408010406
100
AcDbArc
 50
30.74835717569758
 51
74.66435292827156
  0
ARC
  5
17301
330
172D3
100
AcDbEntity
  8
0
100
AcDbCircle
 10
-1.805664365745775
 20
-7.501984852851616
 30
0.0
 40
2.10102408010406
100
AcDbArc
 50
30.74835717569758
 51
74.66435292827156
  0
ARC
  5
17302
330
172D3
100
AcDbEntity
  8
0
100
AcDbCircle
 10
1.805664365745776
 20
-7.501984852851616
 30
0.0
 40
2.10102408010406
100
AcDbArc
 50
105.3356470717284
 51
149.2516428243024
  0
ARC
  5
17303
330
172D3
100
AcDbEntity
  8
0
100
AcDbCircle
 10
1.375
 20
-3.50606256790761
 30
0.0
 40
0.125
100
AcDbArc
 50
180.0
 51
270.0
  0
ARC
  5
17304
330
172D3
100
AcDbEntity
  8
0
100
AcDbCircle
 10
-1.805664365745775
 20
-5.38433118431885
 30
0.0
 40
2.10102408010406
100
AcDbArc
 50
30.74835717569758
 51
71.29127808424418
  0
ARC
  5
17305
330
172D3
100
AcDbEntity
  8
0
100
AcDbCircle
 10
1.805664365745776
 20
-5.38433118431885
 30
0.0
 40
2.10102408010406
100
AcDbArc
 50
108.7087219157558
 51
149.2516428243024
  0
ARC
  5
17306
330
172D3
100
AcDbEntity
  8
0
100
AcDbCircle
 10
0.0000000000000036
 20
-3.612442753211781
 30
0.0
 40
0.1641394036340724
100
AcDbArc
 50
40.39916176224932
 51
139.6008382377537
  0
ARC
  5
17307
330
172D3
100
AcDbEntity
  8
0
100
AcDbCircle
 10
-0.6874999999999965
 20
-3.982908748387405
 30
0.0
 40
0.7374201854019004
100
AcDbArc
 50
40.28882933916245
 51
139.7111706608376
  0
ARC
  5
17308
330
172D3
100
AcDbEntity
  8
0
100
AcDbCircle
 10
-1.375
 20
-3.50606256790761
 30
0.0
 40
0.125
100
AcDbArc
 50
270.0
 51
0.0
  0
ARC
  5
17309
330
172D3
100
AcDbEntity
  8
0
100
AcDbCircle
 10
0.6874999999999965
 20
-3.982908748387405
 30
0.0
 40
0.7374201854019004
100
AcDbArc
 50
40.28882933916235
 51
139.7111706608375
  0
LINE
  5
1730A
330
172D3
100
AcDbEntity
  8
0
100
AcDbLine
 10
1.75
 20
-3.63106256790761
 30
0.0
 11
1.375
 21
-3.63106256790761
 31
0.0
  0
ARC
  5
1730B
330
172D3
100
AcDbEntity
  8
0
100
AcDbCircle
 10
1.75
 20
-3.50606256790761
 30
0.0
 40
0.125
100
AcDbArc
 50
270.0
 51
0.0000000000000127
  0
LINE
  5
1730C
330
172D3
100
AcDbEntity
  8
0
100
AcDbLine
 10
1.875000000000003
 20
0.0
 30
0.0
 11
1.875000000000003
 21
-0.4717392797747109
 31
0.0
  0
ARC
  5
1730D
330
172D3
100
AcDbEntity
  8
0
100
AcDbCircle
 10
2.008606097580482
 20
-0.9314318495163444
 30
0.0
 40
0.4787147877247547
100
AcDbArc
 50
106.2060984433639
 51
158.7302441292768
  0
ARC
  5
1730E
330
172D3
100
AcDbEntity
  8
0
100
AcDbCircle
 10
1.428893902419517
 20
-0.9314318495163444
 30
0.0
 40
0.4787147877247547
100
AcDbArc
 50
21.26975587072321
 51
52.73602808980905
  0
ENDBLK
  5
172D5
330
172D3
100
AcDbEntity
  8
0
100
AcDbBlockEnd
  0
BLOCK
  5
17568
330
1755D
100
AcDbEntity
  8
0
 62
     6
100
AcDbBlockBegin
  2
*D3
 70
     1
 10
0.0
 20
0.0
 30
0.0
  3
*D3
  1

  0
LINE
  5
1755E
330
1755D
100
AcDbEntity
  8
0
 62
     0
370
    -2
100
AcDbLine
 10
58.43447902731512
 20
29.39091171177802
 30
0.0
 11
47.94895641803348
 21
29.39091171177802
 31
0.0
  0
LINE
  5
1755F
330
1755D
100
AcDbEntity
  8
0
 62
     0
370
    -2
100
AcDbLine
 10
54.74987309659953
 20
20.04897762819752
 30
0.0
 11
47.94895641803348
 21
20.04897762819752
 31
0.0
  0
LINE
  5
17560
330
1755D
100
AcDbEntity
  8
0
 62
     0
370
    -2
100
AcDbLine
 10
48.12895641803348
 20
29.21091171177802
 30
0.0
 11
48.12895641803348
 21
24.89994466998777
 31
0.0
  0
LINE
  5
17561
330
1755D
100
AcDbEntity
  8
0
 62
     0
370
    -2
100
AcDbLine
 10
48.12895641803348
 20
20.22897762819752
 30
0.0
 11
48.12895641803348
 21
24.53994466998777
 31
0.0
  0
SOLID
  5
17562
330
1755D
100
AcDbEntity
  8
0
 62
     0
100
AcDbTrace
 10
48.09895641803348
 20
29.21091171177802
 30
0.0
 11
48.15895641803348
 21
29.21091171177802
 31
0.0
 12
48.12895641803348
 22
29.39091171177802
 32
0.0
 13
48.12895641803348
 23
29.39091171177802
 33
0.0
  0
SOLID
  5
17563
330
1755D
100
AcDbEntity
  8
0
 62
     0
100
AcDbTrace
 10
48.09895641803348
 20
20.22897762819752
 30
0.0
 11
48.15895641803348
 21
20.22897762819752
 31
0.0
 12
48.12895641803348
 22
20.04897762819752
 32
0.0
 13
48.12895641803348
 23
20.04897762819752
 33
0.0
  0
MTEXT
  5
17564
330
1755D
100
AcDbEntity
  8
0
 62
     0
100
AcDbMText
 10
48.12895641803347
 20
24.71994466998778
 30
0.0
 40
0.18
 41
0.0
 71
     5
 72
     1
  1
\A1;9.3419
 73
     1
 44
1.0
  0
POINT
  5
17565
330
1755D
100
AcDbEntity
  8
Defpoints
 62
     0
100
AcDbPoint
 10
58.49697902731512
 20
29.39091171177802
 30
0.0
  0
POINT
  5
17566
330
1755D
100
AcDbEntity
  8
Defpoints
 62
     0
100
AcDbPoint
 10
54.81237309659952
 20
20.04897762819752
 30
0.0
  0
POINT
  5
17567
330
1755D
100
AcDbEntity
  8
Defpoints
 62
     0
100
AcDbPoint
 10
48.12895641803348
 20
20.04897762819752
 30
0.0
  0
ENDBLK
  5
17569
330
1755D
100
AcDbEntity
  8
0
 62
     6
100
AcDbBlockEnd
  0
BLOCK
  5
17577
330
1756C
100
AcDbEntity
  8
0
 62
     6
100
AcDbBlockBegin
  2
*D4
 70
     1
 10
0.0
 20
0.0
 30
0.0
  3
*D4
  1

  0
LINE
  5
17583
330
1756C
100
AcDbEntity
  8
DIM
 62
     0
370
    -2
100
AcDbLine
 10
58.43447902731512
 20
29.39091171177802
 30
0.0
 11
47.37353884967641
 21
29.39091171177802
 31
0.0
  0
LINE
  5
17584
330
1756C
100
AcDbEntity
  8
DIM
 62
     0
370
    -2
100
AcDbLine
 10
54.56987924006353
 20
20.01591171177802
 30
0.0
 11
47.37353884967641
 21
20.01591171177802
 31
0.0
  0
LINE
  5
17585
330
1756C
100
AcDbEntity
  8
DIM
 62
     0
370
    -2
100
AcDbLine
 10
47.55353884967641
 20
29.21091171177802
 30
0.0
 11
47.55353884967641
 21
25.37674504511135
 31
0.0
  0
LINE
  5
17586
330
1756C
100
AcDbEntity
  8
DIM
 62
     0
370
    -2
100
AcDbLine
 10
47.55353884967641
 20
20.19591171177802
 30
0.0
 11
47.55353884967641
 21
24.03007837844469
 31
0.0
  0
SOLID
  5
17587
330
1756C
100
AcDbEntity
  8
DIM
 62
     0
100
AcDbTrace
 10
47.52353884967641
 20
29.21091171177802
 30
0.0
 11
47.58353884967641
 21
29.21091171177802
 31
0.0
 12
47.55353884967641
 22
29.39091171177802
 32
0.0
 13
47.55353884967641
 23
29.39091171177802
 33
0.0
  0
SOLID
  5
17588
330
1756C
100
AcDbEntity
  8
DIM
 62
     0
100
AcDbTrace
 10
47.52353884967641
 20
20.19591171177802
 30
0.0
 11
47.58353884967641
 21
20.19591171177802
 31
0.0
 12
47.55353884967641
 22
20.01591171177802
 32
0.0
 13
47.55353884967641
 23
20.01591171177802
 33
0.0
  0
MTEXT
  5
17589
330
1756C
100
AcDbEntity
  8
DIM
 62
     0
100
AcDbMText
 10
47.5535388496764
 20
24.70341171177803
 30
0.0
 40
0.5
 41
0.0
 71
     5
 72
     1
  1
\A1;9{\H1.000000x;\S3/8;}
 73
     1
 44
1.0
  0
POINT
  5
1758A
330
1756C
100
AcDbEntity
  8
Defpoints
 62
     0
100
AcDbPoint
 10
58.49697902731512
 20
29.39091171177802
 30
0.0
  0
POINT
  5
1758B
330
1756C
100
AcDbEntity
  8
Defpoints
 62
     0
100
AcDbPoint
 10
54.63237924006353
 20
20.01591171177802
 30
0.0
  0
POINT
  5
1758C
330
1756C
100
AcDbEntity
  8
Defpoints
 62
     0
100
AcDbPoint
 10
47.55353884967641
 20
20.01591171177802
 30
0.0
  0
ENDBLK
  5
17578
330
1756C
100
AcDbEntity
  8
0
 62
     6
100
AcDbBlockEnd
  0
BLOCK
  5
17599
330
1758E
100
AcDbEntity
  8
0
100
AcDbBlockBegin
  2
*D5
 70
     1
 10
0.0
 20
0.0
 30
0.0
  3
*D5
  1

  0
LINE
  5
175BF
330
1758E
100
AcDbEntity
  8
DIM
 62
     0
370
    -2
100
AcDbLine
 10
50.68447902731512
 20
29.45341171177802
 30
0.0
 11
50.68447902731512
 21
32.43422117860529
 31
0.0
  0
LINE
  5
175C0
330
1758E
100
AcDbEntity
  8
DIM
 62
     0
370
    -2
100
AcDbLine
 10
66.30947902731512
 20
29.45341171177802
 30
0.0
 11
66.30947902731512
 21
32.43422117860529
 31
0.0
  0
LINE
  5
175C1
330
1758E
100
AcDbEntity
  8
DIM
 62
     0
370
    -2
100
AcDbLine
 10
50.86447902731512
 20
32.25422117860529
 30
0.0
 11
57.43399749540557
 21
32.25422117860529
 31
0.0
  0
LINE
  5
175C2
330
1758E
100
AcDbEntity
  8
DIM
 62
     0
370
    -2
100
AcDbLine
 10
66.12947902731511
 20
32.25422117860529
 30
0.0
 11
59.9473308287389
 21
32.25422117860529
 31
0.0
  0
SOLID
  5
175C3
330
1758E
100
AcDbEntity
  8
DIM
 62
     0
100
AcDbTrace
 10
50.86447902731512
 20
32.28422117860529
 30
0.0
 11
50.86447902731512
 21
32.22422117860529
 31
0.0
 12
50.68447902731512
 22
32.25422117860529
 32
0.0
 13
50.68447902731512
 23
32.25422117860529
 33
0.0
  0
SOLID
  5
175C4
330
1758E
100
AcDbEntity
  8
DIM
 62
     0
100
AcDbTrace
 10
66.12947902731511
 20
32.28422117860529
 30
0.0
 11
66.12947902731511
 21
32.22422117860529
 31
0.0
 12
66.30947902731512
 22
32.25422117860529
 32
0.0
 13
66.30947902731512
 23
32.25422117860529
 33
0.0
  0
MTEXT
  5
175C5
330
1758E
100
AcDbEntity
  8
DIM
 62
     0
100
AcDbMText
 10
58.69066416207224
 20
32.25422117860529
 30
0.0
 40
1.0
 41
0.0
 71
     5
 72
     1
  1
\A1;15{\H1.000000x;\S5/8;}
 73
     1
 44
1.0
  0
POINT
  5
175C6
330
1758E
100
AcDbEntity
  8
Defpoints
 62
     0
100
AcDbPoint
 10
50.68447902731512
 20
29.39091171177802
 30
0.0
  0
POINT
  5
175C7
330
1758E
100
AcDbEntity
  8
Defpoints
 62
     0
100
AcDbPoint
 10
66.30947902731512
 20
29.39091171177802
 30
0.0
  0
POINT
  5
175C8
330
1758E
100
AcDbEntity
  8
Defpoints
 62
     0
100
AcDbPoint
 10
66.30947902731512
 20
32.25422117860529
 30
0.0
  0
ENDBLK
  5
1759A
330
1758E
100
AcDbEntity
  8
0
100
AcDbBlockEnd
  0
BLOCK
  5
175B2
330
175A7
100
AcDbEntity
  8
0
100
AcDbBlockBegin
  2
*D6
 70
     1
 10
0.0
 20
0.0
 30
0.0
  3
*D6
  1

  0
LINE
  5
175C9
330
175A7
100
AcDbEntity
  8
DIM
 62
     0
370
    -2
100
AcDbLine
 10
50.62197902731512
 20
29.39091171177802
 30
0.0
 11
46.61870139209643
 21
29.39091171177802
 31
0.0
  0
LINE
  5
175CA
330
175A7
100
AcDbEntity
  8
DIM
 62
     0
370
    -2
100
AcDbLine
 10
50.62197902731512
 20
20.01591171177802
 30
0.0
 11
46.61870139209643
 21
20.01591171177802
 31
0.0
  0
LINE
  5
175CB
330
175A7
100
AcDbEntity
  8
DIM
 62
     0
370
    -2
100
AcDbLine
 10
46.79870139209643
 20
29.21091171177802
 30
0.0
 11
46.79870139209643
 21
25.96007837844469
 31
0.0
  0
LINE
  5
175CC
330
175A7
100
AcDbEntity
  8
DIM
 62
     0
370
    -2
100
AcDbLine
 10
46.79870139209643
 20
20.19591171177802
 30
0.0
 11
46.79870139209643
 21
23.44674504511135
 31
0.0
  0
SOLID
  5
175CD
330
175A7
100
AcDbEntity
  8
DIM
 62
     0
100
AcDbTrace
 10
46.76870139209643
 20
29.21091171177802
 30
0.0
 11
46.82870139209643
 21
29.21091171177802
 31
0.0
 12
46.79870139209643
 22
29.39091171177802
 32
0.0
 13
46.79870139209643
 23
29.39091171177802
 33
0.0
  0
SOLID
  5
175CE
330
175A7
100
AcDbEntity
  8
DIM
 62
     0
100
AcDbTrace
 10
46.76870139209643
 20
20.19591171177802
 30
0.0
 11
46.82870139209643
 21
20.19591171177802
 31
0.0
 12
46.79870139209643
 22
20.01591171177802
 32
0.0
 13
46.79870139209643
 23
20.01591171177802
 33
0.0
  0
MTEXT
  5
175CF
330
175A7
100
AcDbEntity
  8
DIM
 62
     0
100
AcDbMText
 10
46.79870139209643
 20
24.70341171177802
 30
0.0
 40
1.0
 41
0.0
 71
     5
 72
     1
  1
\A1;9{\H1.000000x;\S3/8;}
 73
     1
 44
1.0
  0
POINT
  5
175D0
330
175A7
100
AcDbEntity
  8
Defpoints
 62
     0
100
AcDbPoint
 10
50.68447902731512
 20
29.39091171177802
 30
0.0
  0
POINT
  5
175D1
330
175A7
100
AcDbEntity
  8
Defpoints
 62
     0
100
AcDbPoint
 10
50.68447902731512
 20
20.01591171177802
 30
0.0
  0
POINT
  5
175D2
330
175A7
100
AcDbEntity
  8
Defpoints
 62
     0
100
AcDbPoint
 10
46.79870139209643
 20
20.01591171177802
 30
0.0
  0
ENDBLK
  5
175B3
330
175A7
100
AcDbEntity
  8
0
100
AcDbBlockEnd
  0
BLOCK
  5
175EE
330
175ED
100
AcDbEntity
  8
0
100
AcDbBlockBegin
  2
*D7
 70
     1
 10
0.0
 20
0.0
 30
0.0
  3
*D7
  1

  0
LINE
  5
175EF
330
175ED
100
AcDbEntity
  8
DIM
 62
     0
370
    -2
100
AcDbLine
 10
50.68447902731512
 20
29.45341171177802
 30
0.0
 11
50.68447902731512
 21
32.43422117860529
 31
0.0
  0
LINE
  5
175F0
330
175ED
100
AcDbEntity
  8
DIM
 62
     0
370
    -2
100
AcDbLine
 10
66.30947902731512
 20
29.45341171177802
 30
0.0
 11
66.30947902731512
 21
32.43422117860529
 31
0.0
  0
LINE
  5
175F1
330
175ED
100
AcDbEntity
  8
DIM
 62
     0
370
    -2
100
AcDbLine
 10
50.86447902731512
 20
32.25422117860529
 30
0.0
 11
57.43399749540557
 21
32.25422117860529
 31
0.0
  0
LINE
  5
175F2
330
175ED
100
AcDbEntity
  8
DIM
 62
     0
370
    -2
100
AcDbLine
 10
66.12947902731511
 20
32.25422117860529
 30
0.0
 11
59.9473308287389
 21
32.25422117860529
 31
0.0
  0
SOLID
  5
175F3
330
175ED
100
AcDbEntity
  8
DIM
 62
     0
100
AcDbTrace
 10
50.86447902731512
 20
32.28422117860529
 30
0.0
 11
50.86447902731512
 21
32.22422117860529
 31
0.0
 12
50.68447902731512
 22
32.25422117860529
 32
0.0
 13
50.68447902731512
 23
32.25422117860529
 33
0.0
  0
SOLID
  5
175F4
330
175ED
100
AcDbEntity
  8
DIM
 62
     0
100
AcDbTrace
 10
66.12947902731511
 20
32.28422117860529
 30
0.0
 11
66.12947902731511
 21
32.22422117860529
 31
0.0
 12
66.30947902731512
 22
32.25422117860529
 32
0.0
 13
66.30947902731512
 23
32.25422117860529
 33
0.0
  0
MTEXT
  5
175F5
330
175ED
100
AcDbEntity
  8
DIM
 62
     0
100
AcDbMText
 10
58.69066416207224
 20
32.25422117860529
 30
0.0
 40
1.0
 41
0.0
 71
     5
 72
     1
  1
\A1;15{\H1.000000x;\S5/8;}
 73
     1
 44
1.0
  0
POINT
  5
175F6
330
175ED
100
AcDbEntity
  8
Defpoints
 62
     0
100
AcDbPoint
 10
50.68447902731512
 20
29.39091171177802
 30
0.0
  0
POINT
  5
175F7
330
175ED
100
AcDbEntity
  8
Defpoints
 62
     0
100
AcDbPoint
 10
66.30947902731512
 20
29.39091171177802
 30
0.0
  0
POINT
  5
175F8
330
175ED
100
AcDbEntity
  8
Defpoints
 62
     0
100
AcDbPoint
 10
66.30947902731512
 20
32.25422117860529
 30
0.0
  0
ENDBLK
  5
175F9
330
175ED
100
AcDbEntity
  8
0
100
AcDbBlockEnd
  0
BLOCK
  5
175FB
330
175FA
100
AcDbEntity
  8
0
100
AcDbBlockBegin
  2
*D8
 70
     1
 10
0.0
 20
0.0
 30
0.0
  3
*D8
  1

  0
LINE
  5
175FC
330
175FA
100
AcDbEntity
  8
DIM
 62
     0
370
    -2
100
AcDbLine
 10
50.62197902731512
 20
29.39091171177802
 30
0.0
 11
46.61870139209643
 21
29.39091171177802
 31
0.0
  0
LINE
  5
175FD
330
175FA
100
AcDbEntity
  8
DIM
 62
     0
370
    -2
100
AcDbLine
 10
50.62197902731512
 20
20.01591171177802
 30
0.0
 11
46.61870139209643
 21
20.01591171177802
 31
0.0
  0
LINE
  5
175FE
330
175FA
100
AcDbEntity
  8
DIM
 62
     0
370
    -2
100
AcDbLine
 10
46.79870139209643
 20
29.21091171177802
 30
0.0
 11
46.79870139209643
 21
25.96007837844469
 31
0.0
  0
LINE
  5
175FF
330
175FA
100
AcDbEntity
  8
DIM
 62
     0
370
    -2
100
AcDbLine
 10
46.79870139209643
 20
20.19591171177802
 30
0.0
 11
46.79870139209643
 21
23.44674504511135
 31
0.0
  0
SOLID
  5
17600
330
175FA
100
AcDbEntity
  8
DIM
 62
     0
100
AcDbTrace
 10
46.76870139209643
 20
29.21091171177802
 30
0.0
 11
46.82870139209643
 21
29.21091171177802
 31
0.0
 12
46.79870139209643
 22
29.39091171177802
 32
0.0
 13
46.79870139209643
 23
29.39091171177802
 33
0.0
  0
SOLID
  5
17601
330
175FA
100
AcDbEntity
  8
DIM
 62
     0
100
AcDbTrace
 10
46.76870139209643
 20
20.19591171177802
 30
0.0
 11
46.82870139209643
 21
20.19591171177802
 31
0.0
 12
46.79870139209643
 22
20.01591171177802
 32
0.0
 13
46.79870139209643
 23
20.01591171177802
 33
0.0
  0
MTEXT
  5
17602
330
175FA
100
AcDbEntity
  8
DIM
 62
     0
100
AcDbMText
 10
46.79870139209643
 20
24.70341171177802
 30
0.0
 40
1.0
 41
0.0
 71
     5
 72
     1
  1
\A1;9{\H1.000000x;\S3/8;}
 73
     1
 44
1.0
  0
POINT
  5
17603
330
175FA
100
AcDbEntity
  8
Defpoints
 62
     0
100
AcDbPoint
 10
50.68447902731512
 20
29.39091171177802
 30
0.0
  0
POINT
  5
17604
330
175FA
100
AcDbEntity
  8
Defpoints
 62
     0
100
AcDbPoint
 10
50.68447902731512
 20
20.01591171177802
 30
0.0
  0
POINT
  5
17605
330
175FA
100
AcDbEntity
  8
Defpoints
 62
     0
100
AcDbPoint
 10
46.79870139209643
 20
20.01591171177802
 30
0.0
  0
ENDBLK
  5
17606
330
175FA
100
AcDbEntity
  8
0
100
AcDbBlockEnd
  0
BLOCK
  5
17640
330
17635
100
AcDbEntity
  8
0
 62
     6
100
AcDbBlockBegin
  2
*D10
 70
     1
 10
0.0
 20
0.0
 30
0.0
  3
*D10
  1

  0
LINE
  5
1764F
330
17635
100
AcDbEntity
  8
DIM
 62
     0
370
    -2
100
AcDbLine
 10
130.0203035744516
 20
27.70161885895664
 30
0.0
 11
130.0203035744516
 21
30.68242832578391
 31
0.0
  0
LINE
  5
17650
330
17635
100
AcDbEntity
  8
DIM
 62
     0
370
    -2
100
AcDbLine
 10
145.6453035744516
 20
27.70161885895664
 30
0.0
 11
145.6453035744516
 21
30.68242832578391
 31
0.0
  0
LINE
  5
17651
330
17635
100
AcDbEntity
  8
DIM
 62
     0
370
    -2
100
AcDbLine
 10
130.2003035744516
 20
30.50242832578391
 30
0.0
 11
136.769822042542
 21
30.50242832578391
 31
0.0
  0
LINE
  5
17652
330
17635
100
AcDbEntity
  8
DIM
 62
     0
370
    -2
100
AcDbLine
 10
145.4653035744516
 20
30.50242832578391
 30
0.0
 11
139.2831553758754
 21
30.50242832578391
 31
0.0
  0
SOLID
  5
17653
330
17635
100
AcDbEntity
  8
DIM
 62
     0
100
AcDbTrace
 10
130.2003035744516
 20
30.53242832578391
 30
0.0
 11
130.2003035744516
 21
30.47242832578391
 31
0.0
 12
130.0203035744516
 22
30.50242832578391
 32
0.0
 13
130.0203035744516
 23
30.50242832578391
 33
0.0
  0
SOLID
  5
17654
330
17635
100
AcDbEntity
  8
DIM
 62
     0
100
AcDbTrace
 10
145.4653035744516
 20
30.53242832578391
 30
0.0
 11
145.4653035744516
 21
30.47242832578391
 31
0.0
 12
145.6453035744516
 22
30.50242832578391
 32
0.0
 13
145.6453035744516
 23
30.50242832578391
 33
0.0
  0
MTEXT
  5
17655
330
17635
100
AcDbEntity
  8
DIM
 62
     0
100
AcDbMText
 10
138.0264887092087
 20
30.50242832578391
 30
0.0
 40
1.0
 41
0.0
 71
     5
 72
     1
  1
\A1;15{\H1.000000x;\S5/8;}
 73
     1
 44
1.0
  0
POINT
  5
17656
330
17635
100
AcDbEntity
  8
Defpoints
 62
     0
100
AcDbPoint
 10
130.0203035744516
 20
27.63911885895664
 30
0.0
  0
POINT
  5
17657
330
17635
100
AcDbEntity
  8
Defpoints
 62
     0
100
AcDbPoint
 10
145.6453035744516
 20
27.63911885895664
 30
0.0
  0
POINT
  5
17658
330
17635
100
AcDbEntity
  8
Defpoints
 62
     0
100
AcDbPoint
 10
145.6453035744516
 20
30.50242832578391
 30
0.0
  0
ENDBLK
  5
17641
330
17635
100
AcDbEntity
  8
0
 62
     6
100
AcDbBlockEnd
  0
BLOCK
  5
1764D
330
17642
100
AcDbEntity
  8
0
 62
     6
100
AcDbBlockBegin
  2
*D11
 70
     1
 10
0.0
 20
0.0
 30
0.0
  3
*D11
  1

  0
LINE
  5
17659
330
17642
100
AcDbEntity
  8
DIM
 62
     0
370
    -2
100
AcDbLine
 10
129.9578035744516
 20
27.63911885895664
 30
0.0
 11
125.9545259392329
 21
27.63911885895664
 31
0.0
  0
LINE
  5
1765A
330
17642
100
AcDbEntity
  8
DIM
 62
     0
370
    -2
100
AcDbLine
 10
129.9578035744516
 20
18.26411885895663
 30
0.0
 11
125.9545259392329
 21
18.26411885895663
 31
0.0
  0
LINE
  5
1765B
330
17642
100
AcDbEntity
  8
DIM
 62
     0
370
    -2
100
AcDbLine
 10
126.1345259392329
 20
27.45911885895664
 30
0.0
 11
126.1345259392329
 21
24.2082855256233
 31
0.0
  0
LINE
  5
1765C
330
17642
100
AcDbEntity
  8
DIM
 62
     0
370
    -2
100
AcDbLine
 10
126.1345259392329
 20
18.44411885895663
 30
0.0
 11
126.1345259392329
 21
21.69495219228997
 31
0.0
  0
SOLID
  5
1765D
330
17642
100
AcDbEntity
  8
DIM
 62
     0
100
AcDbTrace
 10
126.1045259392329
 20
27.45911885895664
 30
0.0
 11
126.1645259392329
 21
27.45911885895664
 31
0.0
 12
126.1345259392329
 22
27.63911885895664
 32
0.0
 13
126.1345259392329
 23
27.63911885895664
 33
0.0
  0
SOLID
  5
1765E
330
17642
100
AcDbEntity
  8
DIM
 62
     0
100
AcDbTrace
 10
126.1045259392329
 20
18.44411885895663
 30
0.0
 11
126.1645259392329
 21
18.44411885895663
 31
0.0
 12
126.1345259392329
 22
18.26411885895663
 32
0.0
 13
126.1345259392329
 23
18.26411885895663
 33
0.0
  0
MTEXT
  5
1765F
330
17642
100
AcDbEntity
  8
DIM
 62
     0
100
AcDbMText
 10
126.1345259392329
 20
22.95161885895666
 30
0.0
 40
1.0
 41
0.0
 71
     5
 72
     1
  1
\A1;9{\H1.000000x;\S3/8;}
 73
     1
 44
1.0
  0
POINT
  5
17660
330
17642
100
AcDbEntity
  8
Defpoints
 62
     0
100
AcDbPoint
 10
130.0203035744516
 20
27.63911885895664
 30
0.0
  0
POINT
  5
17661
330
17642
100
AcDbEntity
  8
Defpoints
 62
     0
100
AcDbPoint
 10
130.0203035744516
 20
18.26411885895663
 30
0.0
  0
POINT
  5
17662
330
17642
100
AcDbEntity
  8
Defpoints
 62
     0
100
AcDbPoint
 10
126.1345259392329
 20
18.26411885895663
 30
0.0
  0
ENDBLK
  5
1764E
330
17642
100
AcDbEntity
  8
0
 62
     6
100
AcDbBlockEnd
  0
BLOCK
  5
176F8
330
176ED
100
AcDbEntity
  8
0
100
AcDbBlockBegin
  2
*D14
 70
     1
 10
0.0
 20
0.0
 30
0.0
  3
*D14
  1

  0
LINE
  5
176FB
330
176ED
100
AcDbEntity
  8
DIM
 62
     0
370
    -2
100
AcDbLine
 10
70.49119588725671
 20
29.45341171177802
 30
0.0
 11
70.49119588725671
 21
32.71932343908281
 31
0.0
  0
LINE
  5
176FC
330
176ED
100
AcDbEntity
  8
DIM
 62
     0
370
    -2
100
AcDbLine
 10
74.24119588725671
 20
29.45341171177802
 30
0.0
 11
74.24119588725671
 21
32.71932343908281
 31
0.0
  0
LINE
  5
176FD
330
176ED
100
AcDbEntity
  8
DIM
 62
     0
370
    -2
100
AcDbLine
 10
70.67119588725671
 20
32.53932343908281
 30
0.0
 11
71.44286255392337
 21
32.53932343908281
 31
0.0
  0
LINE
  5
176FE
330
176ED
100
AcDbEntity
  8
DIM
 62
     0
370
    -2
100
AcDbLine
 10
74.0611958872567
 20
32.53932343908281
 30
0.0
 11
73.28952922059004
 21
32.53932343908281
 31
0.0
  0
SOLID
  5
176FF
330
176ED
100
AcDbEntity
  8
DIM
 62
     0
100
AcDbTrace
 10
70.67119588725671
 20
32.56932343908281
 30
0.0
 11
70.67119588725671
 21
32.50932343908281
 31
0.0
 12
70.49119588725671
 22
32.53932343908281
 32
0.0
 13
70.49119588725671
 23
32.53932343908281
 33
0.0
  0
SOLID
  5
17700
330
176ED
100
AcDbEntity
  8
DIM
 62
     0
100
AcDbTrace
 10
74.0611958872567
 20
32.56932343908281
 30
0.0
 11
74.0611958872567
 21
32.50932343908281
 31
0.0
 12
74.24119588725671
 22
32.53932343908281
 32
0.0
 13
74.24119588725671
 23
32.53932343908281
 33
0.0
  0
MTEXT
  5
17701
330
176ED
100
AcDbEntity
  8
DIM
 62
     0
100
AcDbMText
 10
72.36619588725671
 20
32.53932343908281
 30
0.0
 40
1.0
 41
0.0
 71
     5
 72
     1
  1
\A1;3{\H1.000000x;\S3/4;}
 73
     1
 44
1.0
  0
POINT
  5
17702
330
176ED
100
AcDbEntity
  8
Defpoints
 62
     0
100
AcDbPoint
 10
70.49119588725671
 20
29.39091171177802
 30
0.0
  0
POINT
  5
17703
330
176ED
100
AcDbEntity
  8
Defpoints
 62
     0
100
AcDbPoint
 10
74.24119588725671
 20
29.39091171177802
 30
0.0
  0
POINT
  5
17704
330
176ED
100
AcDbEntity
  8
Defpoints
 62
     0
100
AcDbPoint
 10
74.24119588725671
 20
32.53932343908281
 30
0.0
  0
ENDBLK
  5
176F9
330
176ED
100
AcDbEntity
  8
0
100
AcDbBlockEnd
  0
ENDSEC
  0
SECTION
  2
ENTITIES
  0
LINE
  5
17348
330
18
100
AcDbEntity
  8
0
100
AcDbLine
 10
50.68447902731512
 20
29.39091171177802
 30
0.0
 11
66.30947902731512
 21
29.39091171177802
 31
0.0
  0
LINE
  5
17349
330
18
100
AcDbEntity
  8
0
100
AcDbLine
 10
50.68447902731512
 20
29.39091171177802
 30
0.0
 11
50.68447902731512
 21
20.01591171177802
 31
0.0
  0
LINE
  5
1734A
330
18
100
AcDbEntity
  8
0
100
AcDbLine
 10
50.68447902731512
 20
20.01591171177802
 30
0.0
 11
54.63237924006353
 21
20.01591171177802
 31
0.0
  0
LINE
  5
1734B
330
18
100
AcDbEntity
  8
0
100
AcDbLine
 10
66.30947902731512
 20
28.63313814075099
 30
0.0
 11
66.30947902731512
 21
29.39091171177802
 31
0.0
  0
LINE
  5
17457
330
18
100
AcDbEntity
  8
0
100
AcDbLine
 10
50.68447902731512
 20
28.63313814075098
 30
0.0
 11
66.30947902731512
 21
28.63313814075099
 31
0.0
  0
LINE
  5
17459
330
18
100
AcDbEntity
  8
0
100
AcDbLine
 10
50.68447902731512
 20
29.39091171177802
 30
0.0
 11
50.68447902731512
 21
20.05019648900171
 31
0.0
  0
SPLINE
  5
1754C
330
18
100
AcDbEntity
  8
0
100
AcDbSpline
210
0.0
220
0.0
230
1.0
 70
     8
 71
     3
 72
    77
 73
    73
 74
    71
 42
0.0000000001
 43
0.0000000001
 44
0.0000000001
 40
0.0
 40
0.0
 40
0.0
 40
0.0
 40
0.9754273732168991
 40
2.233101973651682
 40
3.419447759286513
 40
4.491628398855164
 40
5.892764561491317
 40
7.160104591389616
 40
8.285711594830841
 40
9.44089940404369
 40
10.8465988043446
 40
11.71054878498726
 40
12.8188295182019
 40
14.23838792717637
 40
15.21403799959469
 40
16.04423299891081
 40
17.00315683137204
 40
17.90935299428791
 40
18.93542620471839
 40
19.71553435376766
 40
20.40621691846495
 40
20.75011515617616
 40
21.18580406389993
 40
21.25720802400175
 40
21.35443026734401
 40
21.63763352840179
 40
22.13459505570094
 40
22.84635992503182
 40
23.6722682007799
 40
24.36354459230548
 40
25.23387297817998
 40
26.18052606256835
 40
27.19621263131074
 40
28.32869349797566
 40
29.29186268623832
 40
30.25504463021595
 40
31.16265262990941
 40
32.48930967892704
 40
33.56996466312893
 40
35.00666106530216
 40
36.44183599323584
 40
38.01646737182581
 40
39.29905970097779
 40
40.63734021020317
 40
41.87045346378145
 40
43.30002764280576
 40
44.4668465686336
 40
45.45268928447838
 40
45.87807285495118
 40
46.48098045182922
 40
47.36815770735107
 40
48.32062211323333
 40
49.41697462514326
 40
50.219419661586
 40
50.74649739840964
 40
51.43429378754847
 40
52.08646493543342
 40
52.8459685266466
 40
53.36796986967672
 40
53.77494565364422
 40
54.1073969290176
 40
54.27039217334007
 40
54.33815961765867
 40
54.44045153973115
 40
54.79209559639087
 40
55.28953957874659
 40
55.88013610058827
 40
56.50026191789812
 40
57.2337398462966
 40
57.93708300469894
 40
58.62063308704998
 40
59.18639157391639
 40
59.18639157391639
 40
59.18639157391639
 40
59.18639157391639
 10
50.6839765281073
 20
25.77006059612346
 30
0.0
 10
50.78363258513814
 20
26.08130773075064
 30
0.0
 10
51.01178092683164
 20
26.79386369310504
 30
0.0
 10
51.78388693711919
 20
27.69312967919356
 30
0.0
 10
52.85385152745781
 20
28.21435332199412
 30
0.0
 10
54.0681076136169
 20
28.45766151407645
 30
0.0
 10
55.32290139044004
 20
28.19197331980448
 30
0.0
 10
56.42793475529164
 20
27.49987457029113
 30
0.0
 10
57.0436475327438
 20
26.45179147138896
 30
0.0
 10
57.30568231443744
 20
25.22970112950563
 30
0.0
 10
57.00689047192113
 20
24.05763563152784
 30
0.0
 10
56.23930753868442
 20
23.20483770042219
 30
0.0
 10
55.1779376691481
 20
22.70129800899293
 30
0.0
 10
53.93794276874457
 20
22.8695615114857
 30
0.0
 10
53.05710973207072
 20
23.57517017454295
 30
0.0
 10
52.72280416303828
 20
24.44256314196039
 30
0.0
 10
52.67365322712223
 20
25.43545023599382
 30
0.0
 10
53.51925322824143
 20
26.06699388539996
 30
0.0
 10
54.49756885567416
 20
26.21744370127125
 30
0.0
 10
55.18338059448535
 20
25.58607211072652
 30
0.0
 10
55.25912212170235
 20
24.9568175267443
 30
0.0
 10
55.08371637049616
 20
24.45643232639843
 30
0.0
 10
54.8520679246544
 20
24.34976624089359
 30
0.0
 10
54.69888903632366
 20
24.13133534415196
 30
0.0
 10
54.92086410863867
 20
24.13546543893084
 30
0.0
 10
55.15271797282432
 20
24.21923492462001
 30
0.0
 10
55.53750674403235
 20
24.6068601146235
 30
0.0
 10
55.71490764722767
 20
25.29317419109956
 30
0.0
 10
55.40826758568023
 20
26.0441564735212
 30
0.0
 10
54.70600343528019
 20
26.47640219784044
 30
0.0
 10
53.84744835587248
 20
26.59065809099326
 30
0.0
 10
52.92701411733176
 20
26.22419242498182
 30
0.0
 10
52.27550988104357
 20
25.34922713524359
 30
0.0
 10
52.23094286169159
 20
24.25436982393019
 30
0.0
 10
52.6254857989761
 20
23.30020584751219
 30
0.0
 10
53.22967509884081
 20
22.54350450879233
 30
0.0
 10
54.22010817354109
 20
22.06967948360107
 30
0.0
 10
55.37530365035698
 20
22.08878321722898
 30
0.0
 10
56.55824058240439
 20
22.62796830741244
 30
0.0
 10
57.54932277894994
 20
23.53584211973398
 30
0.0
 10
58.31440401916726
 20
24.81111902910202
 30
0.0
 10
59.16536239960795
 20
25.96259533398278
 30
0.0
 10
60.13303672312102
 20
26.9841176222712
 30
0.0
 10
61.22504946440269
 20
27.68184994487604
 30
0.0
 10
62.4580301084044
 20
28.20360934590593
 30
0.0
 10
63.73665657580977
 20
28.41883189276265
 30
0.0
 10
64.90706263046646
 20
28.42631109087414
 30
0.0
 10
65.82835587092166
 20
28.28623832678929
 30
0.0
 10
66.25558311927672
 20
27.73197248259211
 30
0.0
 10
66.40249796512579
 20
27.10138612880611
 30
0.0
 10
66.31630636421324
 20
26.2458299517704
 30
0.0
 10
65.57379412247321
 20
25.51401611907116
 30
0.0
 10
64.53590900596063
 20
25.3164509982418
 30
0.0
 10
63.82593744706151
 20
25.8757976423786
 30
0.0
 10
63.67939071797839
 20
26.56330501388614
 30
0.0
 10
63.93373636947925
 20
27.19102121835318
 30
0.0
 10
64.55265853415392
 20
27.55770547174061
 30
0.0
 10
65.33441846828063
 20
27.52452769789334
 30
0.0
 10
65.54744010731652
 20
26.9290688268572
 30
0.0
 10
65.49621136314714
 20
26.49310247687708
 30
0.0
 10
65.2175582068361
 20
26.27860110419337
 30
0.0
 10
65.03394526721425
 20
26.30038233346163
 30
0.0
 10
64.92146621259145
 20
26.20907544843543
 30
0.0
 10
65.14082622215638
 20
26.09741564487232
 30
0.0
 10
65.43924085163991
 20
26.12208676848427
 30
0.0
 10
65.80832274084428
 20
26.53517862886987
 30
0.0
 10
65.76841030565384
 20
27.13791685323774
 30
0.0
 10
65.39719178597948
 20
27.73312435494329
 30
0.0
 10
64.64492965780189
 20
27.82999183900185
 30
0.0
 10
63.96007342104605
 20
27.57349885475967
 30
0.0
 10
63.55324005512763
 20
27.0197094724878
 30
0.0
 10
63.46094863265403
 20
26.61220998926967
 30
0.0
 10
63.4191537896377
 20
26.4276708796334
 30
0.0
 11
50.6839765281073
 21
25.77006059612346
 31
0.0
 11
51.03562058476703
 21
26.6798985035755
 31
0.0
 11
51.8507954539352
 21
27.63762254172817
 31
0.0
 11
52.90572762391438
 21
28.1803328141909
 31
0.0
 11
53.96065979389354
 21
28.37187769302843
 31
0.0
 11
55.33526844230502
 21
28.10052255679709
 31
0.0
 11
56.39020061228419
 21
27.39819153218999
 31
0.0
 11
56.98160196975496
 21
26.44046737535898
 31
0.0
 11
57.2053754814523
 21
25.30716058105454
 31
0.0
 11
56.83774763567888
 21
23.95038478121938
 31
0.0
 11
56.26239829081194
 21
23.30588288020308
 31
0.0
 11
55.25541772022657
 21
22.84298298381255
 31
0.0
 11
53.84884149358768
 21
23.03452774397171
 31
0.0
 11
53.09760178087438
 21
23.65704839250661
 31
0.0
 11
52.77792530244207
 21
24.42322767050009
 31
0.0
 11
52.82587690183593
 21
25.38095182733112
 31
0.0
 11
53.51318122604166
 21
25.97154834917284
 31
0.0
 11
54.53614581779342
 21
26.05135860656664
 31
0.0
 11
55.11156315409781
 21
25.52461045678969
 31
0.0
 11
55.19934121042067
 21
24.83952840476599
 31
0.0
 11
55.07147043340555
 21
24.52028701915563
 31
0.0
 11
54.75991909743808
 21
24.21572078765512
 31
0.0
 11
54.72795151921062
 21
24.15187253426872
 31
0.0
 11
54.82385448594559
 21
24.13591053026132
 31
0.0
 11
55.0955793649841
 21
24.21572078765512
 31
0.0
 11
55.44722342164383
 21
24.56688629995866
 31
0.0
 11
55.63090421264892
 21
25.25454217045592
 31
0.0
 11
55.31935287668145
 21
26.01943447987343
 31
0.0
 11
54.74393530832438
 21
26.40252411887018
 31
0.0
 11
53.88080907181509
 21
26.51425862163557
 31
0.0
 11
53.00169881413942
 21
26.163093109332
 31
0.0
 11
52.39431366755494
 21
25.34902770063794
 31
0.0
 11
52.31622097663685
 21
24.21924256841708
 31
0.0
 11
52.66603877864608
 21
23.32184500288885
 31
0.0
 11
53.28940771434432
 21
22.58758985158859
 31
0.0
 11
54.10458258351244
 21
22.18853820858444
 31
0.0
 11
55.43123963253006
 21
22.18853820858444
 31
0.0
 11
56.42223664605442
 21
22.61951397828178
 31
0.0
 11
57.49315260514729
 21
23.57723813511281
 31
0.0
 11
58.30832747431546
 21
24.75843117879622
 31
0.0
 11
59.25137288844595
 21
26.01943447987343
 31
0.0
 11
60.15327118413765
 21
26.93136789138323
 31
0.0
 11
61.27213851057163
 21
27.66562304268353
 31
0.0
 11
62.41217298699964
 21
28.13561207309373
 31
0.0
 11
63.81874921363859
 21
28.39100520531769
 31
0.0
 11
64.98556813946644
 21
28.39100520531769
 31
0.0
 11
65.92861355359693
 21
28.10368794640055
 31
0.0
 11
66.19409825415104
 21
27.77131909136162
 31
0.0
 11
66.35337620215327
 21
27.18983125343769
 31
0.0
 11
66.22550565719089
 21
26.31191747267883
 31
0.0
 11
65.5609857078235
 21
25.62956735626834
 31
0.0
 11
64.47408595961687
 21
25.48590884548814
 31
0.0
 11
63.85190833275086
 21
25.9926760870685
 31
0.0
 11
63.73883003601733
 21
26.5074811370272
 31
0.0
 11
63.99457135799477
 21
27.14596390824788
 31
0.0
 11
64.55400490518545
 21
27.48116729786564
 31
0.0
 11
65.3052446178987
 21
27.36943279510026
 31
0.0
 11
65.51303434048233
 21
26.89057077602392
 31
0.0
 11
65.43311516286113
 21
26.49151913301977
 31
0.0
 11
65.16139028382261
 21
26.29997425418224
 31
0.0
 11
65.00155192858014
 21
26.26805012748902
 31
0.0
 11
64.95360056123897
 21
26.22016387811003
 31
0.0
 11
65.03351950680755
 21
26.15631562472366
 31
0.0
 11
65.38516356346727
 21
26.15631562472366
 31
0.0
 11
65.72082383101329
 21
26.52344325971298
 31
0.0
 11
65.72082383101329
 21
27.11403978155467
 31
0.0
 11
65.36917977435357
 21
27.62482592732422
 31
0.0
 11
64.64990787192042
 21
27.76848455678278
 31
0.0
 11
63.99457135799477
 21
27.51309142455883
 31
0.0
 11
63.57899191282749
 21
26.9703811520961
 31
0.0
 11
63.4191537896377
 21
26.4276708796334
 31
0.0
  0
SPLINE
  5
1754E
330
18
100
AcDbEntity
  8
0
100
AcDbSpline
210
0.0
220
0.0
230
1.0
 70
     8
 71
     3
 72
    21
 73
    17
 74
    15
 42
0.0000000001
 43
0.0000000001
 44
0.0000000001
 40
0.0
 40
0.0
 40
0.0
 40
0.0
 40
0.5360904445450811
 40
1.72609278762679
 40
3.180634845797412
 40
4.466409929274385
 40
5.89329956283602
 40
7.551139152364059
 40
8.903210625160067
 40
10.1436532622242
 40
10.70359316504294
 40
11.20256427576106
 40
12.99276664901117
 40
14.35317571784963
 40
15.80012211931393
 40
16.87641665930297
 40
16.87641665930297
 40
16.87641665930297
 40
16.87641665930297
 10
63.41915378963769
 20
26.4276708796334
 30
0.0
 10
63.24241462224139
 20
26.40015334885307
 30
0.0
 10
62.67335355197216
 20
26.31155297946291
 30
0.0
 10
61.67731483204843
 20
25.89575093067106
 30
0.0
 10
60.65676747140675
 20
25.048911444703
 30
0.0
 10
59.79604710930162
 20
23.94902549662555
 30
0.0
 10
59.06836959199653
 20
22.69320621036236
 30
0.0
 10
58.27278208782725
 20
21.41379870427748
 30
0.0
 10
57.07026949440462
 20
20.61849309570049
 30
0.0
 10
56.09690935609756
 20
20.19998735785364
 30
0.0
 10
55.34077225808744
 20
20.06528047763925
 30
0.0
 10
54.39550243559686
 20
19.94760366188415
 30
0.0
 10
53.17075366187134
 20
20.29941345689468
 30
0.0
 10
51.87525104591342
 20
21.13444395273257
 30
0.0
 10
51.05641578641211
 20
22.18755808782352
 30
0.0
 10
50.79513094926297
 20
22.99024620420014
 30
0.0
 10
50.68367926861466
 20
23.33263476598079
 30
0.0
 11
63.41915378963769
 21
26.4276708796334
 31
0.0
 11
62.89168758862174
 21
26.33189838087542
 31
0.0
 11
61.78880405130147
 21
25.8849604884923
 31
0.0
 11
60.65395270370103
 21
24.97512258104026
 31
0.0
 11
59.84960123598241
 21
23.97200928650712
 31
0.0
 11
59.09836175532186
 21
22.75889211613053
 31
0.0
 11
58.12334853091122
 21
21.41807843898114
 31
0.0
 11
57.02046499359088
 21
20.63593703830187
 31
0.0
 11
55.86962985687674
 21
20.17303702323297
 31
0.0
 11
55.31985551785566
 21
20.066825578828
 31
0.0
 11
54.82348877091013
 21
20.01591171177802
 31
0.0
 11
53.08125227672523
 21
20.42753840615125
 31
0.0
 11
51.94640116117748
 21
21.17775556145894
 31
0.0
 11
51.0672909035018
 21
22.32702447844916
 31
0.0
 11
50.68367926861466
 21
23.33263476598079
 31
0.0
  0
SPLINE
  5
1754F
330
18
100
AcDbEntity
  8
0
100
AcDbSpline
210
0.0
220
0.0
230
1.0
 70
     8
 71
     3
 72
    61
 73
    57
 74
    55
 42
0.0000000001
 43
0.0000000001
 44
0.0000000001
 40
0.0
 40
0.0
 40
0.0
 40
0.0
 40
0.1128719656188357
 40
0.2099689805087848
 40
0.392195509750489
 40
0.6279448524057242
 40
1.127947755143631
 40
1.775572973584254
 40
2.360633282937137
 40
2.974726618114144
 40
3.696652526345946
 40
4.440858051521735
 40
5.218749091286985
 40
6.022464905542349
 40
7.084426547489258
 40
8.168241529665015
 40
9.376527981675383
 40
10.38227042449209
 40
11.66643567575452
 40
13.1439478456193
 40
14.57368799640638
 40
15.88066280863674
 40
17.28532485785089
 40
18.68372762314298
 40
19.85630212749195
 40
20.84031861798262
 40
22.11406291597671
 40
23.36335295224557
 40
24.52573615503409
 40
25.01027134382415
 40
25.47990777821572
 40
25.55978785572689
 40
25.68865081332496
 40
26.00817068075857
 40
26.95150877067725
 40
28.17890305663643
 40
29.47983173595758
 40
30.84495156187282
 40
32.0452506899545
 40
33.72488943577759
 40
35.11137262208279
 40
36.34385326125016
 40
37.4378365037319
 40
38.6826059406477
 40
39.55299445064532
 40
40.28134259177445
 40
41.09556502107166
 40
41.87848574682813
 40
42.60460046043013
 40
43.40950960513197
 40
44.23992425778566
 40
44.76849158353633
 40
45.29138844989185
 40
45.6273451590347
 40
45.95636667487402
 40
46.15056082171326
 40
46.15056082171326
 40
46.15056082171326
 40
46.15056082171326
 10
54.37779120743468
 20
24.83904358332298
 30
0.0
 10
54.37099052082657
 20
24.80397588909636
 30
0.0
 10
54.35833960945069
 20
24.73874155065645
 30
0.0
 10
54.36326797143043
 20
24.57467448720138
 30
0.0
 10
54.60769475402468
 20
24.68348660864901
 30
0.0
 10
54.71190327646954
 20
24.96110860760028
 30
0.0
 10
54.56850652818991
 20
25.4845745692886
 30
0.0
 10
53.89446825063576
 20
25.63973968934675
 30
0.0
 10
53.32882168886172
 20
25.24080972262789
 30
0.0
 10
53.28587450976314
 20
24.55050195034003
 30
0.0
 10
53.49417099846178
 20
23.87937946429702
 30
0.0
 10
54.06412560606419
 20
23.32381148540385
 30
0.0
 10
54.87764511981302
 20
23.21476906441471
 30
0.0
 10
55.72418678242799
 20
23.4969815839345
 30
0.0
 10
56.52421266683377
 20
24.19331822457442
 30
0.0
 10
56.62648064838626
 20
25.3699109341091
 30
0.0
 10
56.37239301842885
 20
26.47310585741688
 30
0.0
 10
55.52520791951462
 20
27.3370927887337
 30
0.0
 10
54.33954362477074
 20
27.83314971830961
 30
0.0
 10
52.85185788643393
 20
27.72800705038456
 30
0.0
 10
51.75433522637172
 20
26.74465116944849
 30
0.0
 10
51.1227660552354
 20
25.47105871457401
 30
0.0
 10
51.18680413118517
 20
24.06551341148086
 30
0.0
 10
51.56868091910161
 20
22.77011392783933
 30
0.0
 10
52.38090587219847
 20
21.86114152830936
 30
0.0
 10
53.3562460051784
 20
21.26021717253566
 30
0.0
 10
54.4914841304078
 20
20.86286704552072
 30
0.0
 10
55.71956244045837
 20
20.98589563358876
 30
0.0
 10
56.70139689794193
 20
21.28590739199598
 30
0.0
 10
57.22273356395179
 20
21.6218553001764
 30
0.0
 10
57.59912164314908
 20
21.99727612676948
 30
0.0
 10
57.40242089321352
 20
22.15727835288416
 30
0.0
 10
57.21393152289795
 20
22.10711931227617
 30
0.0
 10
56.8958498908147
 20
21.76561230079998
 30
0.0
 10
56.09700452612065
 20
21.44466619063526
 30
0.0
 10
54.94691566997284
 20
21.26667752145568
 30
0.0
 10
53.64259042766639
 20
21.50526779766209
 30
0.0
 10
52.50725252416195
 20
22.2026889731604
 30
0.0
 10
51.73208162686942
 20
23.42878009044846
 30
0.0
 10
51.50366018562931
 20
24.88681166492862
 30
0.0
 10
51.92977581909187
 20
26.30849174277296
 30
0.0
 10
52.88177422618129
 20
27.20710181297723
 30
0.0
 10
54.09428571704792
 20
27.43539933928178
 30
0.0
 10
55.17998926223155
 20
27.15169408069531
 30
0.0
 10
55.88817728932918
 20
26.48888499653722
 30
0.0
 10
56.27047813587258
 20
25.7544826242332
 30
0.0
 10
56.25630003102067
 20
24.95841582444843
 30
0.0
 10
56.01917347052104
 20
24.19555958464401
 30
0.0
 10
55.3909155512881
 20
23.67693096227689
 30
0.0
 10
54.56328411583644
 20
23.57109939726084
 30
0.0
 10
53.87971811287431
 20
23.95656021144859
 30
0.0
 10
53.59040843731917
 20
24.53379185438042
 30
0.0
 10
53.65564014053708
 20
25.05812278850589
 30
0.0
 10
54.04855642409154
 20
25.26996122349892
 30
0.0
 10
54.37125267561891
 20
25.10778216968413
 30
0.0
 10
54.37627110258176
 20
24.92541260852308
 30
0.0
 10
54.37813371720139
 20
24.85772522095939
 30
0.0
 11
54.37779120743468
 21
24.83904358332298
 31
0.0
 11
54.36180741832098
 21
24.72730908055759
 31
0.0
 11
54.37779120743468
 21
24.63153670047801
 31
0.0
 11
54.55361335179086
 21
24.67942283117861
 31
0.0
 11
54.66550010763953
 21
24.88692971402357
 31
0.0
 11
54.52164577356345
 21
25.3657917330999
 31
0.0
 11
53.89827660581258
 21
25.54137448925168
 31
0.0
 11
53.41876200419043
 21
25.20617109963393
 31
0.0
 11
53.32285903745551
 21
24.5996125737848
 31
0.0
 11
53.54663254915286
 21
23.91324355318513
 31
0.0
 11
54.09042504904923
 21
23.40517704104462
 31
0.0
 11
54.85730580905678
 21
23.27476090064282
 31
0.0
 11
55.62452931088379
 21
23.514191910181
 31
0.0
 11
56.39175281271073
 21
24.24844706148126
 31
0.0
 11
56.56757472501428
 21
25.31790560239931
 31
0.0
 11
56.24789824658197
 21
26.48313652339691
 31
0.0
 11
55.56059392237623
 21
27.2173916746972
 31
0.0
 11
54.37637568604102
 21
27.71408832385145
 31
0.0
 11
52.90586407089458
 21
27.57042969439288
 31
0.0
 11
51.8029805335743
 21
26.66059190561921
 31
0.0
 11
51.24354675433093
 21
25.4793988619358
 31
0.0
 11
51.24354675433093
 21
24.07473681272164
 31
0.0
 11
51.69109377772563
 21
22.74988513957966
 31
0.0
 11
52.45959588986059
 21
21.86425797655149
 31
0.0
 11
53.29075454814248
 21
21.3375097080962
 31
0.0
 11
54.50552484131143
 21
20.95442006909944
 31
0.0
 11
55.75226294476053
 21
21.03423044517162
 31
0.0
 11
56.85514648208087
 21
21.40135796148259
 31
0.0
 11
57.25535847007236
 21
21.67449659632526
 31
0.0
 11
57.47851564983173
 21
22.08772686340389
 31
0.0
 11
57.41458026132423
 21
22.13561311278285
 31
0.0
 11
57.2867097163618
 21
22.11965110877545
 31
0.0
 11
57.03096862643704
 21
21.92810622993789
 31
0.0
 11
56.18382617904152
 21
21.51309246424795
 31
0.0
 11
54.96905565381982
 21
21.3375097080962
 31
0.0
 11
53.69034997214331
 21
21.57694071763435
 31
0.0
 11
52.53951483542917
 21
22.31119586893464
 31
0.0
 11
51.88417832150353
 21
23.31680615646626
 31
0.0
 11
51.62843723157877
 21
24.976861219226
 31
0.0
 11
52.06047965465941
 21
26.29431139686675
 31
0.0
 11
52.9715574905625
 21
27.12433892824662
 31
0.0
 11
54.04247344965537
 21
27.34780781509899
 31
0.0
 11
55.24126018576336
 21
27.01260442548123
 31
0.0
 11
55.88061291057525
 21
26.42200790363955
 31
0.0
 11
56.20028938900756
 21
25.76756312841143
 31
0.0
 11
56.21627317812126
 21
24.95349760103897
 31
0.0
 11
55.94454829908281
 21
24.21924256841708
 31
0.0
 11
55.38511451983945
 21
23.75634255334815
 31
0.0
 11
54.58592343978503
 21
23.66057017326857
 31
0.0
 11
53.86665153735188
 21
24.07558393895851
 31
0.0
 11
53.64287802565454
 21
24.55444595803484
 31
0.0
 11
53.75476478150321
 21
25.06523210380435
 31
0.0
 11
54.05845723876907
 21
25.20889073326292
 31
0.0
 11
54.34616613897398
 21
25.04927009979695
 31
0.0
 11
54.37813371720139
 21
24.85772522095939
 31
0.0
  0
SPLINE
  5
17550
330
18
100
AcDbEntity
  8
0
100
AcDbSpline
210
0.0
220
0.0
230
1.0
 70
     8
 71
     3
 72
     9
 73
     5
 74
     3
 42
0.0000000001
 43
0.0000000001
 44
0.0000000001
 40
0.0
 40
0.0
 40
0.0
 40
0.0
 40
0.1278705449623771
 40
0.4805003027851042
 40
0.4805003027851042
 40
0.4805003027851042
 40
0.4805003027851042
 10
63.43609572429804
 20
26.42584216456142
 30
0.0
 10
63.48065939578543
 20
26.43011333485679
 30
0.0
 10
63.64811670699975
 20
26.44616315008808
 30
0.0
 10
63.73338679321473
 20
26.28128135795306
 30
0.0
 10
63.79596483880018
 20
26.16027784121655
 30
0.0
 11
63.43609572429804
 21
26.42584216456142
 31
0.0
 11
63.56396626926041
 21
26.42584216456142
 31
0.0
 11
63.79596483880018
 21
26.16027784121655
 31
0.0
  0
SPLINE
  5
17551
330
18
100
AcDbEntity
  8
0
100
AcDbSpline
210
0.0
220
0.0
230
1.0
 70
     8
 71
     3
 72
    13
 73
     9
 74
     7
 42
0.0000000001
 43
0.0000000001
 44
0.0000000001
 40
0.0
 40
0.0
 40
0.0
 40
0.0
 40
1.15202357059557
 40
2.804742207890165
 40
4.576785938694422
 40
5.762134481368981
 40
6.648778282264398
 40
7.347067826391616
 40
7.347067826391616
 40
7.347067826391616
 40
7.347067826391616
 10
55.17887699768235
 20
22.19045438961838
 30
0.0
 10
55.54683517489746
 20
22.31866004727791
 30
0.0
 10
56.44267433714656
 20
22.63079239292261
 30
0.0
 10
57.43112074794547
 20
23.89730972114469
 30
0.0
 10
57.9375197722414
 20
25.37019114428975
 30
0.0
 10
57.97659754089219
 20
26.65906475064134
 30
0.0
 10
57.79774961841833
 20
27.58827926926949
 30
0.0
 10
57.48958797467842
 20
28.02340293508653
 30
0.0
 10
57.35381819331795
 20
28.21510961297084
 30
0.0
 11
55.17887699768235
 21
22.19045438961838
 31
0.0
 11
56.23380916766151
 21
22.65335440468731
 31
0.0
 11
57.32070891586815
 21
23.89839570175711
 31
0.0
 11
57.89612648422522
 21
25.57441288720263
 31
0.0
 11
57.92896170745112
 21
26.75930655995829
 31
0.0
 11
57.72117198486748
 21
27.62125821803135
 31
0.0
 11
57.35381819331795
 21
28.21510961297084
 31
0.0
  0
SPLINE
  5
17552
330
18
100
AcDbEntity
  8
0
100
AcDbSpline
210
0.0
220
0.0
230
1.0
 70
     8
 71
     3
 72
    10
 73
     6
 74
     4
 42
0.0000000001
 43
0.0000000001
 44
0.0000000001
 40
0.0
 40
0.0
 40
0.0
 40
0.0
 40
0.6930365420042564
 40
1.472891845886639
 40
1.856907496410926
 40
1.856907496410926
 40
1.856907496410926
 40
1.856907496410926
 10
56.76241660379449
 20
26.89025793982886
 30
0.0
 10
56.78576968178687
 20
27.11889718934769
 30
0.0
 10
56.83540134774762
 20
27.60481801149081
 30
0.0
 10
57.04513794513867
 20
28.21999824825093
 30
0.0
 10
57.33732944874635
 20
28.4803671913417
 30
0.0
 10
57.43373713888653
 20
28.56627512527438
 30
0.0
 11
56.76241660379449
 21
26.89025793982886
 31
0.0
 11
56.85831957052946
 21
27.57662684175016
 31
0.0
 11
57.16201225984807
 21
28.29491998904304
 31
0.0
 11
57.43373713888653
 21
28.56627512527438
 31
0.0
  0
SPLINE
  5
17554
330
18
100
AcDbEntity
  8
0
100
AcDbSpline
210
0.0
220
0.0
230
1.0
 70
     8
 71
     3
 72
    11
 73
     7
 74
     5
 42
0.0000000001
 43
0.0000000001
 44
0.0000000001
 40
0.0
 40
0.0
 40
0.0
 40
0.0
 40
0.8911596199168851
 40
1.884604713286985
 40
2.987603987133961
 40
3.869007061631942
 40
3.869007061631942
 40
3.869007061631942
 40
3.869007061631942
 10
58.71244282056305
 20
27.2414234521324
 30
0.0
 10
58.86729192116259
 20
27.50221112722357
 30
0.0
 10
59.19476338454125
 20
28.05371915189126
 30
0.0
 10
60.15997417930782
 20
28.4737655994958
 30
0.0
 10
61.18796110952876
 20
28.46438866130432
 30
0.0
 10
61.78699242645885
 20
28.17019675426752
 30
0.0
 10
62.05306147485678
 20
28.03952685681908
 30
0.0
 11
58.71244282056305
 21
27.2414234521324
 31
0.0
 11
59.239909021579
 21
27.95971648074691
 31
0.0
 11
60.13500283631569
 21
28.39069236912262
 31
0.0
 11
61.23788660568866
 21
28.37473024643685
 31
0.0
 11
62.05306147485678
 21
28.03952685681908
 31
0.0
  0
SPLINE
  5
17555
330
18
100
AcDbEntity
  8
0
100
AcDbSpline
210
0.0
220
0.0
230
1.0
 70
     8
 71
     3
 72
    11
 73
     7
 74
     5
 42
0.0000000001
 43
0.0000000001
 44
0.0000000001
 40
0.0
 40
0.0
 40
0.0
 40
0.0
 40
1.030621238059621
 40
2.180001180588432
 40
3.241392951568451
 40
3.552663718102079
 40
3.552663718102079
 40
3.552663718102079
 40
3.552663718102079
 10
57.38551171732146
 20
24.74808598489502
 30
0.0
 10
57.50049608075597
 20
25.07435008346334
 30
0.0
 10
57.74371448028013
 20
25.76447376207266
 30
0.0
 10
57.72452858150239
 20
26.86282292601969
 30
0.0
 10
57.56271116806065
 20
27.69363779037272
 30
0.0
 10
57.39243152569599
 20
28.11871687962702
 30
0.0
 10
57.35381819331795
 20
28.21510961297084
 30
0.0
 11
57.38551171732146
 21
24.74808598489502
 31
0.0
 11
57.67322061752636
 21
25.73773426841924
 31
0.0
 11
57.68920440664007
 21
26.88700306673106
 31
0.0
 11
57.46543089494273
 21
27.9245375996343
 31
0.0
 11
57.35381819331795
 21
28.21510961297084
 31
0.0
  0
SPLINE
  5
17556
330
18
100
AcDbEntity
  8
0
100
AcDbSpline
210
0.0
220
0.0
230
1.0
 70
     8
 71
     3
 72
    12
 73
     8
 74
     6
 42
0.0000000001
 43
0.0000000001
 44
0.0000000001
 40
0.0
 40
0.0
 40
0.0
 40
0.0
 40
0.616657073012885
 40
1.385954706825861
 40
1.986885750406819
 40
2.885891477652244
 40
4.006788279233388
 40
4.006788279233388
 40
4.006788279233388
 40
4.006788279233388
 10
57.43373713888653
 20
28.56627512527437
 30
0.0
 10
57.62815192838376
 20
28.49357686363952
 30
0.0
 10
58.06510482225676
 20
28.33018540621472
 30
0.0
 10
58.52272591375842
 20
27.804539742833
 30
0.0
 10
58.74932584748624
 20
27.06395702488307
 30
0.0
 10
58.59102349983207
 20
26.1806967606662
 30
0.0
 10
58.37132876363794
 20
25.54699408826315
 30
0.0
 10
58.24941440212305
 20
25.19533588272457
 30
0.0
 11
57.43373713888653
 21
28.56627512527437
 31
0.0
 11
57.9936733121983
 21
28.30793924407745
 31
0.0
 11
58.5051554920478
 21
27.73330472624317
 31
0.0
 11
58.68097763640403
 21
27.15867032708726
 31
0.0
 11
58.58507466966907
 21
26.26479454232099
 31
0.0
 11
58.24941440212305
 21
25.19533588272457
 31
0.0
  0
SPLINE
  5
17557
330
18
100
AcDbEntity
  8
0
100
AcDbSpline
210
0.0
220
0.0
230
1.0
 70
     8
 71
     3
 72
    10
 73
     6
 74
     4
 42
0.0000000001
 43
0.0000000001
 44
0.0000000001
 40
0.0
 40
0.0
 40
0.0
 40
0.0
 40
1.284700698697833
 40
2.594808626570741
 40
3.369342858804245
 40
3.369342858804245
 40
3.369342858804245
 40
3.369342858804245
 10
58.68097763640403
 20
25.72208415117989
 30
0.0
 10
58.90555676558823
 20
26.0889073758007
 30
0.0
 10
59.35915647355567
 20
26.82980840328312
 30
0.0
 10
60.27402781873103
 20
27.54303753479998
 30
0.0
 10
60.93053350832761
 20
27.77486680558654
 30
0.0
 10
61.17445361124956
 20
27.86100135169433
 30
0.0
 11
58.68097763640403
 21
25.72208415117989
 31
0.0
 11
59.41623332795089
 21
26.7755806880905
 31
0.0
 11
60.45518170881635
 21
27.57368409277719
 31
0.0
 11
61.17445361124956
 21
27.86100135169433
 31
0.0
  0
SPLINE
  5
17558
330
18
100
AcDbEntity
  8
0
100
AcDbSpline
210
0.0
220
0.0
230
1.0
 70
     8
 71
     3
 72
    11
 73
     7
 74
     5
 42
0.0000000001
 43
0.0000000001
 44
0.0000000001
 40
0.0
 40
0.0
 40
0.0
 40
0.0
 40
0.7753168028563725
 40
1.803471531403214
 40
2.771348719710114
 40
3.524411318711079
 40
3.524411318711079
 40
3.524411318711079
 40
3.524411318711079
 10
61.17445361124956
 20
27.86100135169433
 30
0.0
 10
60.91229802638379
 20
27.84435653231165
 30
0.0
 10
60.30249551422109
 20
27.80563886517038
 30
0.0
 10
59.52542968386343
 20
27.23229891696748
 30
0.0
 10
58.9392719406848
 20
26.51181213573805
 30
0.0
 10
58.75959994540635
 20
25.96246977564264
 30
0.0
 10
58.68097763640404
 20
25.72208415117989
 30
0.0
 11
61.17445361124956
 21
27.86100135169433
 31
0.0
 11
60.40723034147524
 21
27.74926684892895
 31
0.0
 11
59.54410387291327
 21
27.19059445378044
 31
0.0
 11
58.9527025154425
 21
26.42441517578697
 31
0.0
 11
58.68097763640404
 21
25.72208415117989
 31
0.0
  0
ARC
  5
17559
330
18
100
AcDbEntity
  8
0
100
AcDbCircle
 10
66.50193461939998
 20
28.05649081268795
 30
0.0
 40
0.6079155335134774
100
AcDbArc
 50
108.456391496144
 51
173.7819045758884
  0
DIMENSION
  5
1758D
330
18
100
AcDbEntity
  8
DIM
100
AcDbDimension
  2
*D5
 10
66.30947902731512
 20
32.25422117860529
 30
0.0
 11
58.69066416207224
 21
32.25422117860529
 31
0.0
 70
   160
 71
     5
 42
15.625
  3
STANDARD
100
AcDbAlignedDimension
 13
50.68447902731512
 23
29.39091171177802
 33
0.0
 14
66.30947902731512
 24
29.39091171177802
 34
0.0
100
AcDbRotatedDimension
  0
DIMENSION
  5
175A6
330
18
100
AcDbEntity
  8
DIM
100
AcDbDimension
  2
*D6
 10
46.79870139209643
 20
20.01591171177802
 30
0.0
 11
46.79870139209643
 21
24.70341171177802
 31
0.0
 70
    32
 71
     5
 42
9.375
  3
STANDARD
100
AcDbAlignedDimension
 13
50.68447902731512
 23
29.39091171177802
 33
0.0
 14
50.68447902731512
 24
20.01591171177802
 34
0.0
 50
90.0
100
AcDbRotatedDimension
  0
LINE
  5
175D3
330
18
100
AcDbEntity
  8
0
100
AcDbLine
 10
70.49119588725671
 20
29.39091171177802
 30
0.0
 11
74.24119588725671
 21
29.39091171177802
 31
0.0
  0
LINE
  5
175D4
330
18
100
AcDbEntity
  8
0
100
AcDbLine
 10
74.24119588725671
 20
29.39091171177802
 30
0.0
 11
74.24119588725671
 21
28.890911711778
 31
0.0
  0
LINE
  5
175D6
330
18
100
AcDbEntity
  8
0
100
AcDbLine
 10
74.24119588725671
 20
20.01591171177802
 30
0.0
 11
73.61619588725671
 21
20.01591171177802
 31
0.0
  0
LINE
  5
175D7
330
18
100
AcDbEntity
  8
0
100
AcDbLine
 10
70.49119588725671
 20
20.01591171177802
 30
0.0
 11
70.49119588725671
 21
28.39091171177802
 31
0.0
  0
LINE
  5
175E5
330
18
100
AcDbEntity
  8
0
100
AcDbLine
 10
70.49119588725671
 20
29.39091171177802
 30
0.0
 11
70.49119588725671
 21
28.89091171177802
 31
0.0
  0
LINE
  5
175E6
330
18
100
AcDbEntity
  8
0
100
AcDbLine
 10
70.49119588725671
 20
28.89091171177802
 30
0.0
 11
74.24119588725671
 21
28.89091171177802
 31
0.0
  0
LINE
  5
175E8
330
18
100
AcDbEntity
  8
0
100
AcDbLine
 10
71.76476574430385
 20
28.39091171177802
 30
0.0
 11
72.02566620532923
 21
28.39091171177801
 31
0.0
  0
LINE
  5
175EA
330
18
100
AcDbEntity
  8
0
100
AcDbLine
 10
70.49119588725671
 20
29.39091171177802
 30
0.0
 11
70.49119588725671
 21
28.89091171177805
 31
0.0
  0
LINE
  5
175EB
330
18
100
AcDbEntity
  8
0
100
AcDbLine
 10
70.49119588725671
 20
25.07063540202464
 30
0.0
 11
71.1161958872567
 21
25.07063540202464
 31
0.0
  0
ARC
  5
1766C
330
18
100
AcDbEntity
  8
0
100
AcDbCircle
 10
74.50744417035878
 20
28.41389758313689
 30
0.0
 40
0.5462880441470947
100
AcDbArc
 50
119.1683313156642
 51
181.0534100210733
  0
LINE
  5
17677
330
18
100
AcDbEntity
  8
0
100
AcDbLine
 10
71.11619588725671
 20
28.39091171177802
 30
0.0
 11
71.1161958872567
 21
20.01591171177802
 31
0.0
  0
LINE
  5
17678
330
18
100
AcDbEntity
  8
0
100
AcDbLine
 10
73.61619588725671
 20
28.39091171177802
 30
0.0
 11
73.61619588725671
 21
20.01591171177802
 31
0.0
  0
LINE
  5
17679
330
18
100
AcDbEntity
  8
0
100
AcDbLine
 10
71.6161958872567
 20
28.3515397946413
 30
0.0
 11
71.61619588725669
 21
25.12313241675406
 31
0.0
  0
LINE
  5
1767A
330
18
100
AcDbEntity
  8
0
100
AcDbLine
 10
73.11619588725671
 20
28.35127319152553
 30
0.0
 11
73.11619588725671
 21
25.12313246674699
 31
0.0
  0
LINE
  5
1767D
330
18
100
AcDbEntity
  8
0
100
AcDbLine
 10
72.17869588725671
 20
28.34894643124262
 30
0.0
 11
72.17869588725669
 21
25.10749862348897
 31
0.0
  0
LINE
  5
1767E
330
18
100
AcDbEntity
  8
0
100
AcDbLine
 10
72.5536958872567
 20
28.34922265072512
 30
0.0
 11
72.5536958872567
 21
25.10749695100446
 31
0.0
  0
LINE
  5
1767F
330
18
100
AcDbEntity
  8
0
100
AcDbLine
 10
70.49119588725671
 20
25.07063540202464
 30
0.0
 11
70.49119588725671
 21
25.32063540202464
 31
0.0
  0
LINE
  5
17683
330
18
100
AcDbEntity
  8
0
100
AcDbLine
 10
73.61619588725671
 20
25.07063540202464
 30
0.0
 11
74.24119588725671
 21
25.07063540202464
 31
0.0
  0
SPLINE
  5
176A1
330
18
100
AcDbEntity
  8
0
100
AcDbSpline
210
0.0
220
0.0
230
1.0
 70
     8
 71
     3
 72
    18
 73
    14
 74
    12
 42
0.0000000001
 43
0.0000000001
 44
0.0000000001
 40
0.0
 40
0.0
 40
0.0
 40
0.0
 40
0.113319244715721
 40
0.2550073607578249
 40
0.4025612879638439
 40
0.5334450120355783
 40
0.7020354013305801
 40
0.8988666716568276
 40
1.170405286253924
 40
1.273531536914097
 40
1.357281845322431
 40
1.417980545216899
 40
1.464100456387882
 40
1.464100456387882
 40
1.464100456387882
 40
1.464100456387882
 10
73.61619588725672
 20
25.07063540202464
 30
0.0
 10
73.59985496552919
 20
25.10441859727954
 30
0.0
 10
73.56308225907018
 20
25.18044243137349
 30
0.0
 10
73.47262062062589
 20
25.29062839306876
 30
0.0
 10
73.31116373764675
 20
25.29577882464187
 30
0.0
 10
73.20035814194402
 20
25.19139318131689
 30
0.0
 10
73.07358026564236
 20
25.07554208335938
 30
0.0
 10
72.85220263418423
 20
25.07384016876772
 30
0.0
 10
72.65942469702196
 20
25.04879237138443
 30
0.0
 10
72.5167065013152
 20
25.12421210554864
 30
0.0
 10
72.47701872868043
 20
25.19983007043482
 30
0.0
 10
72.41848061349071
 20
25.23186727007972
 30
0.0
 10
72.38291880125363
 20
25.23536775373635
 30
0.0
 10
72.36756466394462
 20
25.23687911953383
 30
0.0
 11
73.61619588725672
 21
25.07063540202464
 31
0.0
 11
73.5631187945236
 21
25.17075569692003
 31
0.0
 11
73.46286197858733
 21
25.27087608987712
 31
0.0
 11
73.31542563118863
 21
25.27676547861028
 31
0.0
 11
73.20927144572235
 21
25.20020283670918
 31
0.0
 11
73.07362983738369
 21
25.10008254181377
 31
0.0
 11
72.87901376678189
 21
25.07063540202464
 31
0.0
 11
72.60773074184537
 21
25.08241417949095
 31
0.0
 11
72.51926885670989
 21
25.13541907033607
 31
0.0
 11
72.46619176397672
 21
25.20020283670918
 31
0.0
 11
72.41311447950288
 21
25.22964997649832
 31
0.0
 11
72.36756466394462
 21
25.23687911953383
 31
0.0
  0
SPLINE
  5
176A2
330
18
100
AcDbEntity
  8
0
100
AcDbSpline
210
0.0
220
0.0
230
1.0
 70
     8
 71
     3
 72
    18
 73
    14
 74
    12
 42
0.0000000001
 43
0.0000000001
 44
0.0000000001
 40
0.0
 40
0.0
 40
0.0
 40
0.0
 40
0.1133192447157143
 40
0.2550073607578182
 40
0.4025612879638655
 40
0.5334450120355884
 40
0.7020354013305788
 40
0.8988666716568545
 40
1.170405286253937
 40
1.27353153691411
 40
1.357281845322434
 40
1.417980545216903
 40
1.466806056044803
 40
1.466806056044803
 40
1.466806056044803
 40
1.466806056044803
 10
71.1161958872567
 20
25.07063540202464
 30
0.0
 10
71.13253680898731
 20
25.10441859711976
 30
0.0
 10
71.16930951545324
 20
25.18044243085415
 30
0.0
 10
71.25977115383446
 20
25.29062839581387
 30
0.0
 10
71.42122803706346
 20
25.29577881446558
 30
0.0
 10
71.53203363185037
 20
25.19139321849989
 30
0.0
 10
71.65881151270338
 20
25.07554188516938
 30
0.0
 10
71.88018912073985
 20
25.07384118183497
 30
0.0
 10
72.07296715325042
 20
25.04878845348252
 30
0.0
 10
72.21568518351792
 20
25.12421674339897
 30
0.0
 10
72.25537328736489
 20
25.19981757951995
 30
0.0
 10
72.31474167110139
 20
25.23235232060573
 30
0.0
 10
72.35127723644692
 20
25.23548332756201
 30
0.0
 10
72.36756466394462
 20
25.23687911953383
 30
0.0
 11
71.1161958872567
 21
25.07063540202464
 31
0.0
 11
71.1692729799898
 21
25.17075569692004
 31
0.0
 11
71.26952979592608
 21
25.27087608987712
 31
0.0
 11
71.4169661433248
 21
25.27676547861028
 31
0.0
 11
71.52312032879106
 21
25.20020283670918
 31
0.0
 11
71.65876193712971
 21
25.10008254181378
 31
0.0
 11
71.85337800773154
 21
25.07063540202464
 31
0.0
 11
72.12466103266804
 21
25.08241417949096
 31
0.0
 11
72.21312291780352
 21
25.13541907033607
 31
0.0
 11
72.26620001053667
 21
25.20020283670918
 31
0.0
 11
72.31927729501052
 21
25.22964997649832
 31
0.0
 11
72.36756466394462
 21
25.23687911953383
 31
0.0
  0
SPLINE
  5
176A6
330
18
100
AcDbEntity
  8
0
100
AcDbSpline
210
0.0
220
0.0
230
1.0
 70
     8
 71
     3
 72
    11
 73
     7
 74
     5
 42
0.0000000001
 43
0.0000000001
 44
0.0000000001
 40
0.0
 40
0.0
 40
0.0
 40
0.0
 40
0.5806955598203335
 40
1.369427397050503
 40
2.09366474145775
 40
2.746194957282334
 40
2.746194957282334
 40
2.746194957282334
 40
2.746194957282334
 10
73.59140079150808
 20
25.10612249087575
 30
0.0
 10
73.43048485422542
 20
24.99680953376956
 30
0.0
 10
73.05100426511069
 20
24.73902185865779
 30
0.0
 10
72.63085060571644
 20
24.16366562189522
 30
0.0
 10
72.36145545145223
 20
23.48269220192221
 30
0.0
 10
72.33397623798713
 20
23.02216570893381
 30
0.0
 10
72.32095224061021
 20
22.80389542094702
 30
0.0
 11
73.59140079150808
 21
25.10612249087575
 31
0.0
 11
73.12747316890408
 21
24.75686829379279
 31
0.0
 11
72.64927059317705
 21
24.12963611379203
 31
0.0
 11
72.39232584596226
 21
23.45251047706515
 31
0.0
 11
72.32095224061021
 21
22.80389542094702
 31
0.0
  0
SPLINE
  5
176A7
330
18
100
AcDbEntity
  8
0
100
AcDbSpline
210
0.0
220
0.0
230
1.0
 70
     8
 71
     3
 72
    11
 73
     7
 74
     5
 42
0.0000000001
 43
0.0000000001
 44
0.0000000001
 40
0.0
 40
0.0
 40
0.0
 40
0.0
 40
0.5821968433569259
 40
1.285326374654623
 40
1.921184203160736
 40
2.73526958085429
 40
2.73526958085429
 40
2.73526958085429
 40
2.73526958085429
 10
73.4700660104886
 20
25.27005815135854
 30
0.0
 10
73.30570517664765
 20
25.16446246617246
 30
0.0
 10
72.94284282672847
 20
24.93133698504341
 30
0.0
 10
72.56087048502227
 20
24.39827881762285
 30
0.0
 10
72.31007396280761
 20
23.71478017616281
 30
0.0
 10
72.31246981851679
 20
23.22728494996896
 30
0.0
 10
72.31381499610137
 20
22.95357579112542
 30
0.0
 11
73.4700660104886
 21
25.27005815135854
 31
0.0
 11
72.9990006792704
 21
24.9279315400886
 31
0.0
 11
72.57789698782494
 21
24.36484822579672
 31
0.0
 11
72.36377640382148
 21
23.76612662640471
 31
0.0
 11
72.31381499610137
 21
22.95357579112542
 31
0.0
  0
SPLINE
  5
176A8
330
18
100
AcDbEntity
  8
0
100
AcDbSpline
210
0.0
220
0.0
230
1.0
 70
     8
 71
     3
 72
     9
 73
     5
 74
     3
 42
0.0000000001
 43
0.0000000001
 44
0.0000000001
 40
0.0
 40
0.0
 40
0.0
 40
0.0
 40
0.4140261179961193
 40
0.8353154326212086
 40
0.8353154326212086
 40
0.8353154326212086
 40
0.8353154326212086
 10
72.88480314275978
 20
25.06335673864098
 30
0.0
 10
72.78292949462103
 20
24.96712261535146
 30
0.0
 10
72.57739504457337
 20
24.77296614832089
 30
0.0
 10
72.48283908054124
 20
24.50641183414945
 30
0.0
 10
72.43515000917352
 20
24.37197581160973
 30
0.0
 11
72.88480314275978
 21
25.06335673864098
 31
0.0
 11
72.60644642996578
 21
24.75686829379279
 31
0.0
 11
72.43515000917352
 21
24.37197581160973
 31
0.0
  0
SPLINE
  5
176A9
330
18
100
AcDbEntity
  8
0
100
AcDbSpline
210
0.0
220
0.0
230
1.0
 70
     8
 71
     3
 72
     9
 73
     5
 74
     3
 42
0.0000000001
 43
0.0000000001
 44
0.0000000001
 40
0.0
 40
0.0
 40
0.0
 40
0.0
 40
0.2078448064728666
 40
0.4568203308213056
 40
0.4568203308213056
 40
0.4568203308213056
 40
0.4568203308213056
 10
72.51366085903447
 20
25.09186720057136
 30
0.0
 10
72.48515161493322
 20
25.02846611076753
 30
0.0
 10
72.42249139001438
 20
24.88911739520367
 30
0.0
 10
72.39372780849665
 20
24.73893406911038
 30
0.0
 10
72.3780511248919
 20
24.65708138034051
 30
0.0
 11
72.51366085903447
 21
25.09186720057136
 31
0.0
 11
72.43515000917352
 21
24.89942107815821
 31
0.0
 11
72.3780511248919
 21
24.65708138034051
 31
0.0
  0
SPLINE
  5
176AA
330
18
100
AcDbEntity
  8
0
100
AcDbSpline
210
0.0
220
0.0
230
1.0
 70
     8
 71
     3
 72
    10
 73
     6
 74
     4
 42
0.0000000001
 43
0.0000000001
 44
0.0000000001
 40
0.0
 40
0.0
 40
0.0
 40
0.0
 40
0.3922716520113144
 40
0.884544532849571
 40
1.240997895898511
 40
1.240997895898511
 40
1.240997895898511
 40
1.240997895898511
 10
72.15679329637953
 20
25.08473961475838
 30
0.0
 10
72.20836006564283
 20
24.96289663035951
 30
0.0
 10
72.32463944396318
 20
24.6881494107644
 30
0.0
 10
72.30067310644392
 20
24.26624386371833
 30
0.0
 10
72.30992804785048
 20
23.98431837300349
 30
0.0
 10
72.31381499610137
 20
23.86591353985699
 30
0.0
 11
72.15679329637953
 21
25.08473961475838
 31
0.0
 11
72.28526555396053
 21
24.71410242287968
 31
0.0
 11
72.30667775159253
 21
24.2222954414313
 31
0.0
 11
72.31381499610137
 21
23.86591353985699
 31
0.0
  0
SPLINE
  5
176AB
330
18
100
AcDbEntity
  8
0
100
AcDbSpline
210
0.0
220
0.0
230
1.0
 70
     8
 71
     3
 72
     9
 73
     5
 74
     3
 42
0.0000000001
 43
0.0000000001
 44
0.0000000001
 40
0.0
 40
0.0
 40
0.0
 40
0.0
 40
0.30407443136773
 40
0.7422614940706368
 40
0.7422614940706368
 40
0.7422614940706368
 40
0.7422614940706368
 10
71.87843658358554
 20
25.06335673864098
 30
0.0
 10
71.94805237244203
 20
24.9881424183858
 30
0.0
 10
72.1179881319701
 20
24.80454035267776
 30
0.0
 10
72.19175598871491
 20
24.56391825256896
 30
0.0
 10
72.23530414624042
 20
24.42186926833585
 30
0.0
 11
71.87843658358554
 21
25.06335673864098
 31
0.0
 11
72.07114496995706
 21
24.82814462663632
 31
0.0
 11
72.23530414624042
 21
24.42186926833585
 31
0.0
  0
SPLINE
  5
176AC
330
18
100
AcDbEntity
  8
0
100
AcDbSpline
210
0.0
220
0.0
230
1.0
 70
     8
 71
     3
 72
    10
 73
     6
 74
     4
 42
0.0000000001
 43
0.0000000001
 44
0.0000000001
 40
0.0
 40
0.0
 40
0.0
 40
0.0
 40
0.6611395552770658
 40
1.231030348509787
 40
1.853469163920635
 40
1.853469163920635
 40
1.853469163920635
 40
1.853469163920635
 10
71.21466286599576
 20
25.19165423270201
 30
0.0
 10
71.42475671527617
 20
25.10578658313
 30
0.0
 10
71.81594780713431
 20
24.9459025136705
 30
0.0
 10
72.13268113758585
 20
24.37558429323944
 30
0.0
 10
72.20010596718123
 20
23.98452747917477
 30
0.0
 10
72.23530414624042
 20
23.78038179803073
 30
0.0
 11
71.21466286599576
 21
25.19165423270201
 31
0.0
 11
71.79278825716306
 21
24.87091049754946
 31
0.0
 11
72.092557167589
 21
24.38623110191409
 31
0.0
 11
72.23530414624042
 21
23.78038179803073
 31
0.0
  0
SPLINE
  5
176AD
330
18
100
AcDbEntity
  8
0
100
AcDbSpline
210
0.0
220
0.0
230
1.0
 70
     8
 71
     3
 72
    10
 73
     6
 74
     4
 42
0.0000000001
 43
0.0000000001
 44
0.0000000001
 40
0.0
 40
0.0
 40
0.0
 40
0.0
 40
0.490833795894523
 40
1.162491269148386
 40
1.847806173189685
 40
1.847806173189685
 40
1.847806173189685
 40
1.847806173189685
 10
71.1718387027845
 20
24.86378279305808
 30
0.0
 10
71.31310653644376
 20
24.78164709636081
 30
0.0
 10
71.64768541958918
 20
24.58711682747015
 30
0.0
 10
72.09179750874063
 20
24.12351917261234
 30
0.0
 10
72.20137562290979
 20
23.67767579244569
 30
0.0
 10
72.25671611181974
 20
23.45251047706515
 30
0.0
 11
71.1718387027845
 21
24.86378279305808
 31
0.0
 11
71.58580514972107
 21
24.60006021912301
 31
0.0
 11
72.03545828330738
 21
24.10112553318328
 31
0.0
 11
72.25671611181974
 21
23.45251047706515
 31
0.0
  0
SPLINE
  5
176AE
330
18
100
AcDbEntity
  8
0
100
AcDbSpline
210
0.0
220
0.0
230
1.0
 70
     8
 71
     3
 72
     9
 73
     5
 74
     3
 42
0.0000000001
 43
0.0000000001
 44
0.0000000001
 40
0.0
 40
0.0
 40
0.0
 40
0.0
 40
0.9132052775179751
 40
1.824081449725041
 40
1.824081449725041
 40
1.824081449725041
 40
1.824081449725041
 10
71.22825604832303
 20
24.50719890089039
 30
0.0
 10
71.46700305630066
 20
24.30731517509018
 30
0.0
 10
71.94388815448249
 20
23.90805752151523
 30
0.0
 10
72.12872767329642
 20
23.31424946174839
 30
0.0
 10
72.22102942517006
 20
23.01772453815593
 30
0.0
 11
71.22825604832303
 21
24.50719890089039
 31
0.0
 11
71.87129910702395
 21
23.85878583536561
 31
0.0
 11
72.22102942517006
 21
23.01772453815593
 31
0.0
  0
SPLINE
  5
176AF
330
18
100
AcDbEntity
  8
0
100
AcDbSpline
210
0.0
220
0.0
230
1.0
 70
     8
 71
     3
 72
    10
 73
     6
 74
     4
 42
0.0000000001
 43
0.0000000001
 44
0.0000000001
 40
0.0
 40
0.0
 40
0.0
 40
0.0
 40
0.9333379700081
 40
1.689002965573059
 40
2.65090928892435
 40
2.65090928892435
 40
2.65090928892435
 40
2.65090928892435
 10
73.4447555597597
 20
24.45962085924987
 30
0.0
 10
73.2136161952497
 20
24.24874255879014
 30
0.0
 10
72.79533783878822
 20
23.86712937439521
 30
0.0
 10
72.38456622320675
 20
23.05545771184077
 30
0.0
 10
72.36208311439849
 20
22.47721007546235
 30
0.0
 10
72.3494917044855
 20
22.1533690496083
 30
0.0
 11
73.4447555597597
 21
24.45962085924987
 31
0.0
 11
72.79914483807175
 21
23.7855981873015
 31
0.0
 11
72.46368924099607
 21
23.10847255057462
 31
0.0
 11
72.3494917044855
 21
22.1533690496083
 31
0.0
  0
SPLINE
  5
176B0
330
18
100
AcDbEntity
  8
0
100
AcDbSpline
210
0.0
220
0.0
230
1.0
 70
     8
 71
     3
 72
    10
 73
     6
 74
     4
 42
0.0000000001
 43
0.0000000001
 44
0.0000000001
 40
0.0
 40
0.0
 40
0.0
 40
0.0
 40
0.8021401671593375
 40
1.538185323744931
 40
2.11589624060416
 40
2.11589624060416
 40
2.11589624060416
 40
2.11589624060416
 10
71.2931637375911
 20
23.89251280524516
 30
0.0
 10
71.52915077084566
 20
23.74798793699838
 30
0.0
 10
71.98167989980294
 20
23.47084680835919
 30
0.0
 10
72.20014346516608
 20
22.75900783122555
 30
0.0
 10
72.25925977684596
 20
22.32844805616515
 30
0.0
 10
72.28525557569497
 20
22.13911375930391
 30
0.0
 11
71.2931637375911
 21
23.89251280524516
 31
0.0
 11
71.92125053647851
 21
23.39357811930543
 31
0.0
 11
72.19247000476366
 21
22.70932489676554
 31
0.0
 11
72.28525557569497
 21
22.13911375930391
 31
0.0
  0
SPLINE
  5
176B1
330
18
100
AcDbEntity
  8
0
100
AcDbSpline
210
0.0
220
0.0
230
1.0
 70
     8
 71
     3
 72
    10
 73
     6
 74
     4
 42
0.0000000001
 43
0.0000000001
 44
0.0000000001
 40
0.0
 40
0.0
 40
0.0
 40
0.0
 40
0.6106491302182238
 40
1.286767582523138
 40
1.910881822969585
 40
1.910881822969585
 40
1.910881822969585
 40
1.910881822969585
 10
73.59151264090349
 20
23.97033935360994
 30
0.0
 10
73.40737600667053
 20
23.88071760231025
 30
0.0
 10
73.01936095848532
 20
23.69186551269835
 30
0.0
 10
72.60302712190749
 20
23.16332728376707
 30
0.0
 10
72.53307509658949
 20
22.73096406395882
 30
0.0
 10
72.4994979873594
 20
22.52342887119528
 30
0.0
 11
73.59151264090349
 21
23.97033935360994
 31
0.0
 11
73.06334865745629
 21
23.66385090876176
 31
0.0
 11
72.6493824425724
 21
23.12927805640027
 31
0.0
 11
72.4994979873594
 21
22.52342887119528
 31
0.0
  0
SPLINE
  5
176B2
330
18
100
AcDbEntity
  8
0
100
AcDbSpline
210
0.0
220
0.0
230
1.0
 70
     8
 71
     3
 72
    11
 73
     7
 74
     5
 42
0.0000000001
 43
0.0000000001
 44
0.0000000001
 40
0.0
 40
0.0
 40
0.0
 40
0.0
 40
0.5055221105055138
 40
1.076474794137435
 40
1.631662586146922
 40
2.429994010174985
 40
2.429994010174985
 40
2.429994010174985
 40
2.429994010174985
 10
71.15053858660059
 20
23.56406399530948
 30
0.0
 10
71.31772189163166
 20
23.52511570956751
 30
0.0
 10
71.67372731676839
 20
23.44217799625132
 30
0.0
 10
72.05287213070787
 20
22.99280474282113
 30
0.0
 10
72.17087282719558
 20
22.35646570048384
 30
0.0
 10
72.25945729452719
 20
21.91506471614748
 30
0.0
 10
72.31170610127754
 20
21.65471800498349
 30
0.0
 11
71.15053858660059
 21
23.56406399530948
 31
0.0
 11
71.62874116232768
 21
23.40012833482672
 31
0.0
 11
72.00702069056188
 21
22.97247010040885
 31
0.0
 11
72.15690514577488
 21
22.43789724804739
 31
0.0
 11
72.31170610127754
 21
21.65471800498349
 31
0.0
  0
SPLINE
  5
176B3
330
18
100
AcDbEntity
  8
0
100
AcDbSpline
210
0.0
220
0.0
230
1.0
 70
     8
 71
     3
 72
    10
 73
     6
 74
     4
 42
0.0000000001
 43
0.0000000001
 44
0.0000000001
 40
0.0
 40
0.0
 40
0.0
 40
0.0
 40
0.6391605019613723
 40
1.332259664959234
 40
2.234481230733841
 40
2.234481230733841
 40
2.234481230733841
 40
2.234481230733841
 10
73.58437539639459
 20
23.49991524827897
 30
0.0
 10
73.40024112736867
 20
23.39272603288828
 30
0.0
 10
73.01643352535442
 20
23.16930191993787
 30
0.0
 10
72.4973236461345
 20
22.59282194284979
 30
0.0
 10
72.41021650144062
 20
22.05643119874262
 30
0.0
 10
72.36095371493099
 20
21.75307947248018
 30
0.0
 11
73.58437539639459
 21
23.49991524827897
 31
0.0
 11
73.04907393638586
 21
23.15066105119604
 31
0.0
 11
72.59942080279961
 21
22.62321578464756
 31
0.0
 11
72.36095371493099
 21
21.75307947248018
 31
0.0
  0
SPLINE
  5
176B4
330
18
100
AcDbEntity
  8
0
100
AcDbSpline
210
0.0
220
0.0
230
1.0
 70
     8
 71
     3
 72
    10
 73
     6
 74
     4
 42
0.0000000001
 43
0.0000000001
 44
0.0000000001
 40
0.0
 40
0.0
 40
0.0
 40
0.0
 40
0.6902224060408085
 40
1.395950154486708
 40
1.515445679106437
 40
1.515445679106437
 40
1.515445679106437
 40
1.515445679106437
 10
71.26108779075867
 20
23.16292634251752
 30
0.0
 10
71.44139787870658
 20
23.01815481800577
 30
0.0
 10
71.80606858907973
 20
22.72535958238498
 30
0.0
 10
72.06629683051213
 20
22.27270204900701
 30
0.0
 10
72.14542644991505
 20
22.00936798807893
 30
0.0
 10
72.15688472513841
 20
21.97123619661363
 30
0.0
 11
71.26108779075867
 21
23.16292634251752
 31
0.0
 11
71.77146772034262
 21
22.69825517138827
 31
0.0
 11
72.12119780643599
 21
22.08527840037027
 31
0.0
 11
72.15688472513841
 21
21.97123619661363
 31
0.0
  0
SPLINE
  5
176B6
330
18
100
AcDbEntity
  8
0
100
AcDbSpline
210
0.0
220
0.0
230
1.0
 70
     8
 71
     3
 72
     9
 73
     5
 74
     3
 42
0.0000000001
 43
0.0000000001
 44
0.0000000001
 40
0.0
 40
0.0
 40
0.0
 40
0.0
 40
0.6475953101402761
 40
1.349252278450951
 40
1.349252278450951
 40
1.349252278450951
 40
1.349252278450951
 10
73.31313550747296
 20
22.94772257369732
 30
0.0
 10
73.13382114389428
 20
22.81968848602263
 30
0.0
 10
72.76022314244318
 20
22.55293194561925
 30
0.0
 10
72.58398822652949
 20
22.12804373607136
 30
0.0
 10
72.49234009016134
 20
21.90708744958312
 30
0.0
 11
73.31313550747296
 21
22.94772257369732
 31
0.0
 11
72.82065844272813
 21
22.5271919250925
 31
0.0
 11
72.49234009016134
 21
21.90708744958312
 31
0.0
  0
SPLINE
  5
176B7
330
18
100
AcDbEntity
  8
0
100
AcDbSpline
210
0.0
220
0.0
230
1.0
 70
     8
 71
     3
 72
    11
 73
     7
 74
     5
 42
0.0000000001
 43
0.0000000001
 44
0.0000000001
 40
0.0
 40
0.0
 40
0.0
 40
0.0
 40
0.3438150148732773
 40
0.8362390541028503
 40
1.514969087818513
 40
1.986998871717583
 40
1.986998871717583
 40
1.986998871717583
 40
1.986998871717583
 10
73.52683491584873
 20
22.6727219938378
 30
0.0
 10
73.42876502455116
 20
22.61361786308125
 30
0.0
 10
73.19023596215732
 20
22.46986270330255
 30
0.0
 10
72.77953405009231
 20
22.16810510725862
 30
0.0
 10
72.4861884711093
 20
21.68089960946532
 30
0.0
 10
72.40450927231837
 20
21.30553036152523
 30
0.0
 10
72.37100530914188
 20
21.15155777552133
 30
0.0
 11
73.52683491584873
 21
22.6727219938378
 31
0.0
 11
73.23462465761202
 21
22.49155375867073
 31
0.0
 11
72.84920765281629
 21
22.18506531382255
 31
0.0
 11
72.49234009016134
 21
21.60772659054791
 31
0.0
 11
72.37100530914188
 21
21.15155777552133
 31
0.0
  0
SPLINE
  5
176B8
330
18
100
AcDbEntity
  8
0
100
AcDbSpline
210
0.0
220
0.0
230
1.0
 70
     8
 71
     3
 72
    10
 73
     6
 74
     4
 42
0.0000000001
 43
0.0000000001
 44
0.0000000001
 40
0.0
 40
0.0
 40
0.0
 40
0.0
 40
0.724905769255345
 40
1.380339526468808
 40
2.028697735022846
 40
2.028697735022846
 40
2.028697735022846
 40
2.028697735022846
 10
71.1862048526138
 20
22.61272354824038
 30
0.0
 10
71.41815352687761
 20
22.51992758044117
 30
0.0
 10
71.85982186058018
 20
22.34322883188278
 30
0.0
 10
72.18589673193436
 20
21.70589141024447
 30
0.0
 10
72.2761579697957
 20
21.28330184509772
 30
0.0
 10
72.32104366936908
 20
21.07315373818645
 30
0.0
 11
71.1862048526138
 21
22.61272354824038
 31
0.0
 11
71.82142912806273
 21
22.26346935115742
 31
0.0
 11
72.15688472513841
 21
21.70038591818718
 31
0.0
 11
72.32104366936908
 21
21.07315373818645
 31
0.0
  0
SPLINE
  5
176B9
330
18
100
AcDbEntity
  8
0
100
AcDbSpline
210
0.0
220
0.0
230
1.0
 70
     8
 71
     3
 72
     9
 73
     5
 74
     3
 42
0.0000000001
 43
0.0000000001
 44
0.0000000001
 40
0.0
 40
0.0
 40
0.0
 40
0.0
 40
0.7806119427537326
 40
1.555784765721241
 40
1.555784765721241
 40
1.555784765721241
 40
1.555784765721241
 10
71.17900820261695
 20
22.29406724701608
 30
0.0
 10
71.44024472619384
 20
22.2029449646633
 30
0.0
 10
71.96089753890532
 20
22.02133531851558
 30
0.0
 10
72.11858048976658
 20
21.49322164546015
 30
0.0
 10
72.19714633052177
 20
21.23008796796824
 30
0.0
 11
71.17900820261695
 21
22.29406724701608
 31
0.0
 11
71.87133971624428
 21
21.93346763469202
 31
0.0
 11
72.19714633052177
 21
21.23008796796824
 31
0.0
  0
SPLINE
  5
176BA
330
18
100
AcDbEntity
  8
0
100
AcDbSpline
210
0.0
220
0.0
230
1.0
 70
     8
 71
     3
 72
    10
 73
     6
 74
     4
 42
0.0000000001
 43
0.0000000001
 44
0.0000000001
 40
0.0
 40
0.0
 40
0.0
 40
0.0
 40
0.657711169587355
 40
1.292715133323068
 40
1.908218385542447
 40
1.908218385542447
 40
1.908218385542447
 40
1.908218385542447
 10
73.45583166658582
 20
22.22570078923585
 30
0.0
 10
73.25009061599847
 20
22.13922239076454
 30
0.0
 10
72.8457116394229
 20
21.96925122472895
 30
0.0
 10
72.47174733165699
 20
21.40938853564693
 30
0.0
 10
72.40420083680179
 20
20.99634621607303
 30
0.0
 10
72.37095425755064
 20
20.79304559712554
 30
0.0
 11
73.45583166658582
 21
22.22570078923585
 31
0.0
 11
72.87770627541857
 21
21.91208475857465
 31
0.0
 11
72.51370123620205
 21
21.39176719651755
 31
0.0
 11
72.37095425755064
 21
20.79304559712554
 31
0.0
  0
SPLINE
  5
176BB
330
18
100
AcDbEntity
  8
0
100
AcDbSpline
210
0.0
220
0.0
230
1.0
 70
     8
 71
     3
 72
    10
 73
     6
 74
     4
 42
0.0000000001
 43
0.0000000001
 44
0.0000000001
 40
0.0
 40
0.0
 40
0.0
 40
0.0
 40
0.6591141271549445
 40
1.35226273403355
 40
1.749035228873685
 40
1.749035228873685
 40
1.749035228873685
 40
1.749035228873685
 10
71.28893179272949
 20
21.87038817981534
 30
0.0
 10
71.46726772809753
 20
21.74255512608885
 30
0.0
 10
71.83314827837212
 20
21.48028814134343
 30
0.0
 10
72.21472242766582
 20
21.01124750855786
 30
0.0
 10
72.3083286213308
 20
20.65794023175744
 30
0.0
 10
72.34240481540979
 20
20.5293230231905
 30
0.0
 11
71.28893179272949
 21
21.87038817981534
 31
0.0
 11
71.80710335540107
 21
21.46304352936104
 31
0.0
 11
72.22106980233764
 21
20.90708780088218
 31
0.0
 11
72.34240481540979
 21
20.5293230231905
 31
0.0
  0
SPLINE
  5
176BC
330
18
100
AcDbEntity
  8
0
100
AcDbSpline
210
0.0
220
0.0
230
1.0
 70
     8
 71
     3
 72
    10
 73
     6
 74
     4
 42
0.0000000001
 43
0.0000000001
 44
0.0000000001
 40
0.0
 40
0.0
 40
0.0
 40
0.0
 40
0.4900085852157793
 40
1.049994427405491
 40
1.632901632651038
 40
1.632901632651038
 40
1.632901632651038
 40
1.632901632651038
 10
71.15046711437287
 20
21.31336315918265
 30
0.0
 10
71.31164044156171
 20
21.28812133209748
 30
0.0
 10
71.65700397293768
 20
21.23403293737011
 30
0.0
 10
72.15612708989434
 20
20.92720639418892
 30
0.0
 10
72.27002889006721
 20
20.5513323339906
 30
0.0
 10
72.32812197249535
 20
20.35962612101977
 30
0.0
 11
71.15046711437287
 21
21.31336315918265
 31
0.0
 11
71.62866969009996
 21
21.20644865991739
 31
0.0
 11
72.09259754475664
 21
20.89283251057782
 31
0.0
 11
72.32812197249535
 21
20.35962612101977
 31
0.0
  0
SPLINE
  5
176BD
330
18
100
AcDbEntity
  8
0
100
AcDbSpline
210
0.0
220
0.0
230
1.0
 70
     8
 71
     3
 72
     9
 73
     5
 74
     3
 42
0.0000000001
 43
0.0000000001
 44
0.0000000001
 40
0.0
 40
0.0
 40
0.0
 40
0.0
 40
0.9702710043703705
 40
1.686208553610685
 40
1.686208553610685
 40
1.686208553610685
 40
1.686208553610685
 10
73.53791125472753
 20
21.85399454256003
 30
0.0
 10
73.26572156047824
 20
21.6691585422394
 30
0.0
 10
72.79269022327401
 20
21.34793690070628
 30
0.0
 10
72.51167910889694
 20
20.8533563331403
 30
0.0
 10
72.3923662231299
 20
20.64336522694714
 30
0.0
 11
73.53791125472753
 21
21.85399454256003
 31
0.0
 11
72.7849207044872
 21
21.24208682633915
 31
0.0
 11
72.3923662231299
 21
20.64336522694714
 31
0.0
  0
SPLINE
  5
176BE
330
18
100
AcDbEntity
  8
0
100
AcDbSpline
210
0.0
220
0.0
230
1.0
 70
     8
 71
     3
 72
     9
 73
     5
 74
     3
 42
0.0000000001
 43
0.0000000001
 44
0.0000000001
 40
0.0
 40
0.0
 40
0.0
 40
0.0
 40
0.8049179471533966
 40
1.464533389109597
 40
1.464533389109597
 40
1.464533389109597
 40
1.464533389109597
 10
71.18222839776109
 20
21.04251299943459
 30
0.0
 10
71.45026023063336
 20
20.96439484727173
 30
0.0
 10
71.93793921701192
 20
20.82226030729451
 30
0.0
 10
72.20917794016218
 20
20.39767242697622
 30
0.0
 10
72.3313419355868
 20
20.20644105976535
 30
0.0
 11
71.18222839776109
 21
21.04251299943459
 31
0.0
 11
71.920944226931
 21
20.72283843775748
 31
0.0
 11
72.3313419355868
 21
20.20644105976535
 31
0.0
  0
SPLINE
  5
176BF
330
18
100
AcDbEntity
  8
0
100
AcDbSpline
210
0.0
220
0.0
230
1.0
 70
     8
 71
     3
 72
    10
 73
     6
 74
     4
 42
0.0000000001
 43
0.0000000001
 44
0.0000000001
 40
0.0
 40
0.0
 40
0.0
 40
0.0
 40
0.7877698408982213
 40
1.297866364417237
 40
1.679645804281009
 40
1.679645804281009
 40
1.679645804281009
 40
1.679645804281009
 10
73.43120785975912
 20
21.41136823552086
 30
0.0
 10
73.20759639647178
 20
21.2730745953355
 30
0.0
 10
72.83919209634288
 20
21.04523309304501
 30
0.0
 10
72.46995808201623
 20
20.59532033631596
 30
0.0
 10
72.41312561489802
 20
20.30004882516075
 30
0.0
 10
72.38879771690182
 20
20.17365390393314
 30
0.0
 11
73.43120785975912
 21
21.41136823552086
 31
0.0
 11
72.79098748994875
 21
20.95234840990471
 31
0.0
 11
72.48729317626135
 21
20.5425091400194
 31
0.0
 11
72.38879771690182
 21
20.17365390393314
 31
0.0
  0
SPLINE
  5
176C0
330
18
100
AcDbEntity
  8
0
100
AcDbSpline
210
0.0
220
0.0
230
1.0
 70
     8
 71
     3
 72
     9
 73
     5
 74
     3
 42
0.0000000001
 43
0.0000000001
 44
0.0000000001
 40
0.0
 40
0.0
 40
0.0
 40
0.0
 40
0.6955903434284818
 40
1.296296184048276
 40
1.296296184048276
 40
1.296296184048276
 40
1.296296184048276
 10
73.55432712594534
 20
21.05890651801153
 30
0.0
 10
73.31582392022784
 20
21.01026217237536
 30
0.0
 10
72.87135139645612
 20
20.91960898804148
 30
0.0
 10
72.63134451352428
 20
20.53869578326495
 30
0.0
 10
72.52012491869692
 20
20.36217996095968
 30
0.0
 11
73.55432712594534
 21
21.05890651801153
 31
0.0
 11
72.89769088491715
 21
20.82939666454263
 31
0.0
 11
72.52012491869692
 21
20.36217996095968
 31
0.0
  0
SPLINE
  5
176C1
330
18
100
AcDbEntity
  8
0
100
AcDbSpline
210
0.0
220
0.0
230
1.0
 70
     8
 71
     3
 72
     9
 73
     5
 74
     3
 42
0.0000000001
 43
0.0000000001
 44
0.0000000001
 40
0.0
 40
0.0
 40
0.0
 40
0.0
 40
0.5807884208208859
 40
1.268017575283195
 40
1.268017575283195
 40
1.268017575283195
 40
1.268017575283195
 10
71.18222839776109
 20
20.71464167846901
 30
0.0
 10
71.36372777924233
 20
20.64494335061093
 30
0.0
 10
71.75998982127126
 20
20.49277312557963
 30
0.0
 10
72.1039083044749
 20
20.24329148527555
 30
0.0
 10
72.29030225754235
 20
20.10807959226867
 30
0.0
 11
71.18222839776109
 21
20.71464167846901
 31
0.0
 11
71.71574537260312
 21
20.48513170632177
 31
0.0
 11
72.29030225754235
 21
20.10807959226867
 31
0.0
  0
SPLINE
  5
176C2
330
18
100
AcDbEntity
  8
0
100
AcDbSpline
210
0.0
220
0.0
230
1.0
 70
     8
 71
     3
 72
     9
 73
     5
 74
     3
 42
0.0000000001
 43
0.0000000001
 44
0.0000000001
 40
0.0
 40
0.0
 40
0.0
 40
0.0
 40
0.6644033033111818
 40
0.9728432750127888
 40
0.9728432750127888
 40
0.9728432750127888
 40
0.9728432750127888
 10
71.14118871971664
 20
20.48513170632177
 30
0.0
 10
71.3573861590188
 20
20.42967573760379
 30
0.0
 10
71.67395024569914
 20
20.34847510847124
 30
0.0
 10
71.95496727329083
 20
20.18462019199453
 30
0.0
 10
72.04406372516991
 20
20.13266998881244
 30
0.0
 11
71.14118871971664
 21
20.48513170632177
 31
0.0
 11
71.77320115391814
 21
20.2802121307183
 31
0.0
 11
72.04406372516991
 21
20.13266998881244
 31
0.0
  0
SPLINE
  5
176C3
330
18
100
AcDbEntity
  8
0
100
AcDbSpline
210
0.0
220
0.0
230
1.0
 70
     8
 71
     3
 72
     9
 73
     5
 74
     3
 42
0.0000000001
 43
0.0000000001
 44
0.0000000001
 40
0.0
 40
0.0
 40
0.0
 40
0.0
 40
0.4205636042635201
 40
0.839490128682285
 40
0.839490128682285
 40
0.839490128682285
 40
0.839490128682285
 10
71.1576045909344
 20
20.21463781905382
 30
0.0
 10
71.29016060698916
 20
20.16201380501864
 30
0.0
 10
71.55475665345467
 20
20.05697062042938
 30
0.0
 10
71.83736926315972
 20
20.09106543095215
 30
0.0
 10
71.97840000824601
 20
20.10807959226867
 30
0.0
 11
71.1576045909344
 21
20.21463781905382
 31
0.0
 11
71.55979436398133
 21
20.09168607369173
 31
0.0
 11
71.97840000824601
 21
20.10807959226867
 31
0.0
  0
SPLINE
  5
176C4
330
18
100
AcDbEntity
  8
0
100
AcDbSpline
210
0.0
220
0.0
230
1.0
 70
     8
 71
     3
 72
     9
 73
     5
 74
     3
 42
0.0000000001
 43
0.0000000001
 44
0.0000000001
 40
0.0
 40
0.0
 40
0.0
 40
0.0
 40
0.418503290864501
 40
0.699493229095496
 40
0.699493229095496
 40
0.699493229095496
 40
0.699493229095496
 10
71.14939665532552
 20
20.33758956441591
 30
0.0
 10
71.2856727022778
 20
20.30696286980665
 30
0.0
 10
71.51344671077868
 20
20.25577291269903
 30
0.0
 10
71.7456055149015
 20
20.23227414940761
 30
0.0
 10
71.83886487084203
 20
20.22283457834229
 30
0.0
 11
71.14939665532552
 21
20.33758956441591
 31
0.0
 11
71.55979436398133
 21
20.25562173417453
 31
0.0
 11
71.83886487084203
 21
20.22283457834229
 31
0.0
  0
SPLINE
  5
176C5
330
18
100
AcDbEntity
  8
0
100
AcDbSpline
210
0.0
220
0.0
230
1.0
 70
     8
 71
     3
 72
     9
 73
     5
 74
     3
 42
0.0000000001
 43
0.0000000001
 44
0.0000000001
 40
0.0
 40
0.0
 40
0.0
 40
0.0
 40
0.753223352890635
 40
1.35410203015397
 40
1.35410203015397
 40
1.35410203015397
 40
1.35410203015397
 10
73.56253506155423
 20
20.82119978657579
 30
0.0
 10
73.32316370920854
 20
20.73580802422915
 30
0.0
 10
72.89283552975406
 20
20.58229557893884
 30
0.0
 10
72.55508802226732
 20
20.27654336678744
 30
0.0
 10
72.40521358811964
 20
20.14086674810091
 30
0.0
 11
73.56253506155423
 21
20.82119978657579
 31
0.0
 11
72.8730670780904
 21
20.51791886215401
 31
0.0
 11
72.40521358811964
 21
20.14086674810091
 31
0.0
  0
SPLINE
  5
176C6
330
18
100
AcDbEntity
  8
0
100
AcDbSpline
210
0.0
220
0.0
230
1.0
 70
     8
 71
     3
 72
     9
 73
     5
 74
     3
 42
0.0000000001
 43
0.0000000001
 44
0.0000000001
 40
0.0
 40
0.0
 40
0.0
 40
0.0
 40
0.5244544791317399
 40
1.236451247326291
 40
1.236451247326291
 40
1.236451247326291
 40
1.236451247326291
 10
73.59536703604255
 20
20.65726412609302
 30
0.0
 10
73.42930352354421
 20
20.60147941783303
 30
0.0
 10
73.03779302008942
 20
20.46996166966927
 30
0.0
 10
72.6780381601118
 20
20.26632527298068
 30
0.0
 10
72.47087730504353
 20
20.14906350738937
 30
0.0
 11
73.59536703604255
 21
20.65726412609302
 31
0.0
 11
73.10288973924503
 21
20.4769349470333
 31
0.0
 11
72.47087730504353
 21
20.14906350738937
 31
0.0
  0
SPLINE
  5
176C7
330
18
100
AcDbEntity
  8
0
100
AcDbSpline
210
0.0
220
0.0
230
1.0
 70
     8
 71
     3
 72
     9
 73
     5
 74
     3
 42
0.0000000001
 43
0.0000000001
 44
0.0000000001
 40
0.0
 40
0.0
 40
0.0
 40
0.0
 40
0.5652302654011731
 40
1.054927302102166
 40
1.054927302102166
 40
1.054927302102166
 40
1.054927302102166
 10
73.56253506155423
 20
20.48513170632177
 30
0.0
 10
73.3999984774523
 20
20.38610445489419
 30
0.0
 10
73.09664550671595
 20
20.20128322790461
 30
0.0
 10
72.74774717121369
 20
20.13762822945773
 30
0.0
 10
72.58578863562082
 20
20.10807959226867
 30
0.0
 11
73.56253506155423
 21
20.48513170632177
 31
0.0
 11
73.06185006120052
 21
20.22283457834229
 31
0.0
 11
72.58578863562082
 21
20.10807959226867
 31
0.0
  0
SPLINE
  5
176C8
330
18
100
AcDbEntity
  8
0
100
AcDbSpline
210
0.0
220
0.0
230
1.0
 70
     8
 71
     3
 72
    18
 73
    14
 74
    12
 42
0.0000000001
 43
0.0000000001
 44
0.0000000001
 40
0.0
 40
0.0
 40
0.0
 40
0.0
 40
0.0987775855049567
 40
0.1693525204298794
 40
0.2600113523650325
 40
0.4067999255964487
 40
0.5184270373809488
 40
0.8492932785669125
 40
1.046454661363232
 40
1.169846486516429
 40
1.250667391210019
 40
1.293223698313365
 40
1.342677227483898
 40
1.342677227483898
 40
1.342677227483898
 40
1.342677227483898
 10
73.60574170053556
 20
20.02503075755572
 30
0.0
 10
73.58130167278216
 20
20.04634159922942
 30
0.0
 10
73.53939965342977
 20
20.08287868131616
 30
0.0
 10
73.47257714497357
 20
20.1463844330339
 30
0.0
 10
73.36027064006572
 20
20.12300251334946
 30
0.0
 10
73.26719518922958
 20
20.05746537068123
 30
0.0
 10
73.07459123730521
 20
19.99597645884955
 30
0.0
 10
72.86206272831744
 20
20.06955754859836
 30
0.0
 10
72.6460633673334
 20
20.08503415460523
 30
0.0
 10
72.51027533286929
 20
20.05294819244124
 30
0.0
 10
72.43273112616305
 20
20.08773239404679
 30
0.0
 10
72.38850581638851
 20
20.13062237913207
 30
0.0
 10
72.35635087385474
 20
20.1233477408381
 30
0.0
 10
72.33906820655555
 20
20.11943776173538
 30
0.0
 11
73.60574170053556
 21
20.02503075755572
 31
0.0
 11
73.53187004800279
 21
20.09060506922017
 31
0.0
 11
73.47441449874046
 21
20.13158898434087
 31
0.0
 11
73.38412697498987
 21
20.12339222505241
 31
0.0
 11
73.25279954114208
 21
20.05781791338793
 31
0.0
 11
73.14609614617367
 21
20.02503075755572
 31
0.0
 11
72.81777802565958
 21
20.06601467267639
 31
0.0
 11
72.62078710694058
 21
20.07421155064323
 31
0.0
 11
72.49766784075436
 21
20.06601467267639
 31
0.0
 11
72.42379618822159
 21
20.09880182850864
 31
0.0
 11
72.38842869126859
 21
20.12246993856317
 31
0.0
 11
72.33906820655555
 21
20.11943776173538
 31
0.0
  0
SPLINE
  5
176C9
330
18
100
AcDbEntity
  8
0
100
AcDbSpline
210
0.0
220
0.0
230
1.0
 70
     8
 71
     3
 72
    18
 73
    14
 74
    12
 42
0.0000000001
 43
0.0000000001
 44
0.0000000001
 40
0.0
 40
0.0
 40
0.0
 40
0.0
 40
0.0987775855049567
 40
0.1693525204298794
 40
0.2600113523650325
 40
0.4067999255964487
 40
0.5184270373809488
 40
0.8492932785669125
 40
1.046454661363232
 40
1.169846486516429
 40
1.250667391210019
 40
1.30126741399196
 40
1.350720943162478
 40
1.350720943162478
 40
1.350720943162478
 40
1.350720943162478
 10
71.1161958872567
 20
20.01591171177802
 30
0.0
 10
71.14063592101462
 20
20.03722255086977
 30
0.0
 10
71.18253795066173
 20
20.07375962852978
 30
0.0
 10
71.24936039362771
 20
20.13726540840832
 30
0.0
 10
71.36166726099467
 20
20.11388333286639
 30
0.0
 10
71.45474062945836
 20
20.04834708561874
 30
0.0
 10
71.64735505137745
 20
19.98685367168734
 30
0.0
 10
71.85978576640454
 20
20.06047681285747
 30
0.0
 10
72.07602969748515
 20
20.07584825367724
 30
0.0
 10
72.21136215229012
 20
20.04395819085163
 30
0.0
 10
72.29233557178194
 20
20.07948854681637
 30
0.0
 10
72.3359931300293
 20
20.12647217225185
 30
0.0
 10
72.37108420472089
 20
20.1237937860959
 30
0.0
 10
72.38842869126857
 20
20.12246993856317
 30
0.0
 11
71.1161958872567
 21
20.01591171177802
 31
0.0
 11
71.19006753978947
 21
20.08148602344247
 31
0.0
 11
71.24752308905179
 21
20.12246993856317
 31
0.0
 11
71.33781061280238
 21
20.1142731792747
 31
0.0
 11
71.46913804665017
 21
20.04869886761023
 31
0.0
 11
71.57584144161858
 21
20.01591171177802
 31
0.0
 11
71.90415956213268
 21
20.0568956268987
 31
0.0
 11
72.10115048085167
 21
20.06509250486553
 31
0.0
 11
72.2242697470379
 21
20.0568956268987
 31
0.0
 11
72.29814139957067
 21
20.08968278273093
 31
0.0
 11
72.33906820655555
 21
20.11943776173538
 31
0.0
 11
72.38842869126857
 21
20.12246993856317
 31
0.0
  0
LINE
  5
176CA
330
18
100
AcDbEntity
  8
0
100
AcDbLine
 10
71.1161958872567
 20
20.01591171177802
 30
0.0
 11
70.49119588725671
 21
20.01591171177802
 31
0.0
  0
LINE
  5
176CE
330
18
100
AcDbEntity
  8
0
100
AcDbLine
 10
74.24119588725672
 20
28.64091171177802
 30
0.0
 11
74.24119588725671
 21
20.01591171177802
 31
0.0
  0
LINE
  5
176D1
330
18
100
AcDbEntity
  8
0
100
AcDbLine
 10
70.49119588725668
 20
28.64091171177801
 30
0.0
 11
70.49119588725671
 21
25.76591171177802
 31
0.0
  0
LINE
  5
176D2
330
18
100
AcDbEntity
  8
0
100
AcDbLine
 10
70.49119588725671
 20
28.89091171177802
 30
0.0
 11
70.49119588725671
 21
29.39091171177802
 31
0.0
  0
SPLINE
  5
176DB
330
18
100
AcDbEntity
  8
0
100
AcDbSpline
210
0.0
220
0.0
230
1.0
 70
     8
 71
     3
 72
     9
 73
     5
 74
     3
 42
0.0000000001
 43
0.0000000001
 44
0.0000000001
 40
0.0
 40
0.0
 40
0.0
 40
0.0
 40
0.1426605117869872
 40
0.2855460606634211
 40
0.2855460606634211
 40
0.2855460606634211
 40
0.2855460606634211
 10
74.24119588725672
 20
28.64091171177802
 30
0.0
 10
74.20672075591397
 20
28.6825305464879
 30
0.0
 10
74.13771611109345
 20
28.76583386674061
 30
0.0
 10
74.20668451067884
 20
28.84919719738995
 30
0.0
 10
74.24119588725671
 20
28.890911711778
 30
0.0
 11
74.24119588725672
 21
28.64091171177802
 31
0.0
 11
74.17220940790077
 21
28.76578319486922
 31
0.0
 11
74.24119588725671
 21
28.890911711778
 31
0.0
  0
ARC
  5
176DD
330
18
100
AcDbEntity
  8
0
100
AcDbCircle
 10
70.22494760415462
 20
28.41389758313689
 30
0.0
 40
0.5462880441470947
100
AcDbArc
 50
358.9465899789266
 51
60.83166868433582
  0
SPLINE
  5
176DE
330
18
100
AcDbEntity
  8
0
100
AcDbSpline
210
0.0
220
0.0
230
1.0
 70
     8
 71
     3
 72
     9
 73
     5
 74
     3
 42
0.0000000001
 43
0.0000000001
 44
0.0000000001
 40
0.0
 40
0.0
 40
0.0
 40
0.0
 40
0.1426605117869872
 40
0.2855460606634211
 40
0.2855460606634211
 40
0.2855460606634211
 40
0.2855460606634211
 10
70.49119588725668
 20
28.64091171177802
 30
0.0
 10
70.52567101859942
 20
28.6825305464879
 30
0.0
 10
70.59467566341995
 20
28.76583386674061
 30
0.0
 10
70.52570726383456
 20
28.84919719738995
 30
0.0
 10
70.4911958872567
 20
28.890911711778
 30
0.0
 11
70.49119588725668
 21
28.64091171177802
 31
0.0
 11
70.56018236661263
 21
28.76578319486922
 31
0.0
 11
70.4911958872567
 21
28.890911711778
 31
0.0
  0
ARC
  5
176E0
330
18
100
AcDbEntity
  8
0
100
AcDbCircle
 10
71.36619588725655
 20
28.50520042862912
 30
0.0
 40
0.2748852684295418
100
AcDbArc
 50
204.5677405067074
 51
313.8921663409058
  0
ARC
  5
176E2
330
18
100
AcDbEntity
  8
0
100
AcDbCircle
 10
71.76476574430385
 20
28.09091171177801
 30
0.0
 40
0.3
100
AcDbArc
 50
90.0
 51
133.892166340907
  0
ARC
  5
176E3
330
18
100
AcDbEntity
  8
0
100
AcDbCircle
 10
72.36596252966257
 20
28.45502943984807
 30
0.0
 40
0.1983806860720966
100
AcDbArc
 50
226.9368522759391
 51
313.063147724063
  0
ARC
  5
176E4
330
18
100
AcDbEntity
  8
0
100
AcDbCircle
 10
72.02566620532923
 20
28.09091171177801
 30
0.0
 40
0.3
100
AcDbArc
 50
46.93685227593698
 51
90.0
  0
LINE
  5
176E5
330
18
100
AcDbEntity
  8
0
100
AcDbLine
 10
73.96163992257766
 20
28.3909117117775
 30
0.0
 11
70.77075185193575
 21
28.39091171177797
 31
0.0
  0
ARC
  5
176E6
330
18
100
AcDbEntity
  8
0
100
AcDbCircle
 10
73.36572917206858
 20
28.50520042862912
 30
0.0
 40
0.2748852684295418
100
AcDbArc
 50
226.1078336590942
 51
335.4322594932926
  0
ARC
  5
176E7
330
18
100
AcDbEntity
  8
0
100
AcDbCircle
 10
72.96715931502129
 20
28.09091171177801
 30
0.0
 40
0.3
100
AcDbArc
 50
46.10783365909301
 51
90.0
  0
ARC
  5
176E8
330
18
100
AcDbEntity
  8
0
100
AcDbCircle
 10
72.36596252966257
 20
28.45502943984807
 30
0.0
 40
0.1983806860720966
100
AcDbArc
 50
226.936852275937
 51
313.0631477240608
  0
ARC
  5
176E9
330
18
100
AcDbEntity
  8
0
100
AcDbCircle
 10
72.7062588539959
 20
28.09091171177801
 30
0.0
 40
0.3
100
AcDbArc
 50
90.0
 51
133.063147724063
  0
SPLINE
  5
176EA
330
18
100
AcDbEntity
  8
0
100
AcDbSpline
210
0.0
220
0.0
230
1.0
 70
     8
 71
     3
 72
     9
 73
     5
 74
     3
 42
0.0000000001
 43
0.0000000001
 44
0.0000000001
 40
0.0
 40
0.0
 40
0.0
 40
0.0
 40
0.3302739518461881
 40
0.5765124842186329
 40
0.5765124842186329
 40
0.5765124842186329
 40
0.5765124842186329
 10
73.47758730219528
 20
20.26286740497008
 30
0.0
 10
73.38241337526222
 20
20.19959930416972
 30
0.0
 10
73.21628172381856
 20
20.08916113682312
 30
0.0
 10
73.01978820087299
 20
20.10749468501996
 30
0.0
 10
72.93586239174437
 20
20.11532526306422
 30
0.0
 11
73.47758730219528
 21
20.26286740497008
 31
0.0
 11
73.18210092411681
 21
20.11532526306422
 31
0.0
 11
72.93586239174437
 21
20.11532526306422
 31
0.0
  0
DIMENSION
  5
176EC
330
18
100
AcDbEntity
  8
DIM
100
AcDbDimension
  2
*D14
 10
74.24119588725671
 20
32.53932343908281
 30
0.0
 11
72.36619588725671
 21
32.53932343908281
 31
0.0
 70
    32
 71
     5
 42
3.75
  3
STANDARD
100
AcDbAlignedDimension
 13
70.49119588725671
 23
29.39091171177802
 33
0.0
 14
74.24119588725671
 24
29.39091171177802
 34
0.0
100
AcDbRotatedDimension
  0
VIEWPORT
  5
17709
330
15
100
AcDbEntity
 67
     1
  8
0
100
AcDbViewport
 10
5.249999639556163
 20
3.999999883606677
 30
0.0
 40
17.58407771518677
 41
8.992999745766947
 68
     2
 69
     1
 12
5.249999639556163
 22
3.999999883606677
 13
0.0
 23
0.0
 14
10.0
 24
10.0
 15
10.0
 25
10.0
 16
0.0
 26
0.0
 36
1.0
 17
0.0
 27
0.0
 37
0.0
 42
50.0
 43
0.0
 44
0.0
 45
8.992999745766947
 50
0.0
 51
0.0
 72
   100
 90
    32800
  1

281
     0
 71
     1
 74
     0
110
0.0
120
0.0
130
0.0
111
1.0
121
0.0
131
0.0
112
0.0
122
1.0
132
0.0
 79
     0
146
0.0
170
     0
  0
VIEWPORT
  5
1770B
330
15
100
AcDbEntity
 67
     1
  8
0
100
AcDbViewport
 10
5.24999976158142
 20
3.99999976158142
 30
0.0
 40
8.399999618530271
 41
6.399999618530272
 68
     1
 69
     2
 12
62.79793323508624
 22
24.10526781065882
 13
0.0
 23
0.0
 14
0.5
 24
0.5
 15
0.5
 25
0.5
 16
0.0
 26
0.0
 36
1.0
 17
0.0
 27
0.0
 37
0.0
 42
50.0
 43
0.0
 44
0.0
 45
23.7050161145515
 50
0.0
 51
0.0
 72
   100
 90
    32800
  1

281
     0
 71
     1
 74
     0
110
0.0
120
0.0
130
0.0
111
1.0
121
0.0
131
0.0
112
0.0
122
1.0
132
0.0
 79
     0
146
0.0
170
     0
  0
ENDSEC
  0
SECTION
  2
OBJECTS
  0
DICTIONARY
  5
C
330
0
100
AcDbDictionary
281
     1
  3
ACAD_COLOR
350
1733F
  3
ACAD_GROUP
350
D
  3
ACAD_IMAGE_DICT
350
21
  3
ACAD_IMAGE_VARS
350
20
  3
ACAD_LAYOUT
350
1544A
  3
ACAD_MATERIAL
350
1733E
  3
ACAD_MLINESTYLE
350
1B
  3
ACAD_PLOTSETTINGS
350
1544B
  3
ACAD_PLOTSTYLENAME
350
15448
  0
DICTIONARY
  5
15481
330
18
100
AcDbDictionary
280
     1
281
     1
  3
ACAD_LAYOUTSELFREF
360
17338
  3
ACAD_SORTENTS
360
17370
  0
DICTIONARY
  5
1547F
330
15
100
AcDbDictionary
280
     1
281
     1
  3
ACAD_LAYOUTSELFREF
360
17337
  0
DICTIONARY
  5
1733F
102
{ACAD_REACTORS
330
C
102
}
330
C
100
AcDbDictionary
281
     1
  0
DICTIONARY
  5
D
102
{ACAD_REACTORS
330
C
102
}
330
C
100
AcDbDictionary
281
     1
  0
DICTIONARY
  5
21
102
{ACAD_REACTORS
330
C
102
}
330
C
100
AcDbDictionary
281
     1
  3
1001T
350
14E25
  3
2219
350
15451
  3
rien 004
350
175D9
  3
rien 005
350
1734C
  3
rien 005_2
350
17351
  3
rien 006
350
17343
  3
rien 013
350
1736B
  3
rien 018
350
175DE
  3
rien 019
350
175E1
  0
RASTERVARIABLES
  5
20
102
{ACAD_REACTORS
330
C
102
}
330
C
100
AcDbRasterVariables
 90
        0
 70
     1
 71
     1
 72
     0
  0
DICTIONARY
  5
1544A
102
{ACAD_REACTORS
330
C
102
}
330
C
100
AcDbDictionary
281
     1
  3
Layout1
350
1544D
  3
Model
350
1544C
  0
DICTIONARY
  5
1733E
102
{ACAD_REACTORS
330
C
102
}
330
C
100
AcDbDictionary
281
     1
  0
DICTIONARY
  5
1B
102
{ACAD_REACTORS
330
C
102
}
330
C
100
AcDbDictionary
281
     1
  3
STANDARD
350
1C
  0
DICTIONARY
  5
1544B
102
{ACAD_REACTORS
330
C
102
}
330
C
100
AcDbDictionary
281
     1
  0
ACDBDICTIONARYWDFLT
  5
15448
102
{ACAD_REACTORS
330
C
102
}
330
C
100
AcDbDictionary
281
     1
  3
Normal
350
15449
100
AcDbDictionaryWithDefault
340
15449
  0
XRECORD
  5
17338
102
{ACAD_REACTORS
330
15481
102
}
330
15481
100
AcDbXrecord
280
     1
340
18
  0
SORTENTSTABLE
  5
17370
102
{ACAD_REACTORS
330
15481
102
}
330
15481
100
AcDbSortentsTable
330
18
331
1734A
  5
17366
331
176AE
  5
176AF
331
1779D
  5
1779D
331
17783
  5
17783
331
17683
  5
176A1
331
17772
  5
17772
331
176BF
  5
176C0
331
17794
  5
17794
331
17348
  5
1734B
331
176CE
  5
176D1
331
176AC
  5
176AD
331
1779B
  5
1779B
331
17781
  5
17781
331
1758D
  5
175D3
331
176BD
  5
176BE
331
175EB
  5
17621
331
17792
  5
17792
331
17770
  5
17770
331
1762F
  5
17630
331
176AA
  5
176AB
331
17799
  5
17799
331
1767F
  5
17683
331
1776E
  5
1776E
331
176DD
  5
176DE
331
176BB
  5
176BC
331
176A1
  5
176A2
331
1762D
  5
1762E
331
17790
  5
17790
331
17346
  5
1734A
331
1777F
  5
1777F
331
17558
  5
1758D
331
176EC
  5
17711
331
176CA
  5
176CE
331
176A8
  5
176A9
331
1767D
  5
1767E
331
1776C
  5
1776C
331
175E7
  5
175E8
331
1778E
  5
1778E
331
176DB
  5
176DD
331
176B9
  5
176BA
331
1762B
  5
1762C
331
1766C
  5
17675
331
17556
  5
17558
331
177A8
  5
177A8
331
175D6
  5
175E3
331
1777D
  5
1777D
331
176EA
  5
176EC
331
176C8
  5
176C9
331
1730F
  5
17349
331
175E5
  5
175E6
331
1778C
  5
1778C
331
1776A
  5
1776A
331
176B7
  5
176B8
331
17629
  5
1762A
331
175D4
  5
175D7
331
1777B
  5
1777B
331
17554
  5
17556
331
177A6
  5
177A6
331
176E8
  5
176E9
331
172D1
  5
17348
331
17679
  5
1767A
331
175E3
  5
1730F
331
1778A
  5
1778A
331
17768
  5
17768
331
17627
  5
17628
331
177A4
  5
177A4
331
176C6
  5
176C7
331
17779
  5
17779
331
17552
  5
17555
331
17677
  5
17678
331
1734F
  5
17368
331
17766
  5
17766
331
17369
  5
17459
331
176B3
  5
176B4
331
17625
  5
17626
331
177A2
  5
177A2
331
17788
  5
17788
331
176E6
  5
176E7
331
176C4
  5
176C5
331
17777
  5
17777
331
17550
  5
17552
331
17631
  5
17632
331
17675
  5
17676
331
17764
  5
17764
331
17367
  5
1736E
331
176B1
  5
176B2
331
17623
  5
17624
331
177A0
  5
177A0
331
17786
  5
17786
331
176E4
  5
176E5
331
176C2
  5
176C3
331
17797
  5
17797
331
17775
  5
17775
331
1754E
  5
17550
331
1734B
  5
17367
331
17762
  5
17762
331
176D1
  5
176D2
331
176AF
  5
176B0
331
1779E
  5
1779E
331
17621
  5
17622
331
17784
  5
17784
331
176E2
  5
176E3
331
176C0
  5
176C1
331
176A6
  5
176A7
331
17795
  5
17795
331
17773
  5
17773
331
1754C
  5
1754F
331
17349
  5
1734F
331
176AD
  5
176AE
331
1779C
  5
1779C
331
17782
  5
17782
331
176E0
  5
176E2
331
176BE
  5
176BF
331
17793
  5
17793
331
17771
  5
17771
331
176AB
  5
176AC
331
1779A
  5
1779A
331
17780
  5
17780
331
17459
  5
1754E
331
17711
  5
172D1
331
176A2
  5
176A6
331
17791
  5
17791
331
176DE
  5
176E0
331
176BC
  5
176BD
331
175EA
  5
175EB
331
1776F
  5
1776F
331
17559
  5
175A6
331
1762E
  5
1762F
331
176A9
  5
176AA
331
17798
  5
17798
331
17457
  5
1754C
331
1767E
  5
1767F
331
175E8
  5
175EA
331
1778F
  5
1778F
331
1776D
  5
1776D
331
176BA
  5
176BB
331
1762C
  5
1762D
331
175D7
  5
175E5
331
1777E
  5
1777E
331
17557
  5
17559
331
177A9
  5
177A9
331
176C9
  5
176CA
331
175E6
  5
175E7
331
1736E
  5
17346
331
1778D
  5
1778D
331
1776B
  5
1776B
331
176B8
  5
176B9
331
1762A
  5
1762B
331
1777C
  5
1777C
331
17555
  5
17557
331
177A7
  5
177A7
331
176E9
  5
176EA
331
1767A
  5
1767D
331
17769
  5
17769
331
176B6
  5
176B7
331
177A5
  5
177A5
331
17628
  5
17629
331
1778B
  5
1778B
331
176C7
  5
176C8
331
175D3
  5
175D6
331
1777A
  5
1777A
331
175A6
  5
175D4
331
17678
  5
17679
331
17767
  5
17767
331
176B4
  5
176B6
331
177A3
  5
177A3
331
17626
  5
17627
331
17789
  5
17789
331
176E7
  5
176E8
331
176C5
  5
176C6
331
17778
  5
17778
331
17551
  5
17554
331
17632
  5
1766C
331
17676
  5
17677
331
17765
  5
17765
331
17368
  5
17457
331
176B2
  5
176B3
331
17624
  5
17625
331
177A1
  5
177A1
331
17787
  5
17787
331
176E5
  5
176E6
331
176C3
  5
176C4
331
17776
  5
17776
331
1754F
  5
17551
331
17630
  5
17631
331
17366
  5
17369
331
17785
  5
17785
331
17763
  5
17763
331
176D2
  5
176DB
331
176B0
  5
176B1
331
17622
  5
17623
331
1779F
  5
1779F
331
176E3
  5
176E4
331
176C1
  5
176C2
331
176A7
  5
176A8
331
17796
  5
17796
331
17774
  5
17774
  0
XRECORD
  5
17337
102
{ACAD_REACTORS
330
1547F
102
}
330
1547F
100
AcDbXrecord
280
     1
340
15
  0
IMAGEDEF
  5
14E25
102
{ACAD_REACTORS
330
21
102
}
330
21
100
AcDbRasterImageDef
 90
        0
  1
U:\TPDWG\MichelQ\1001t.tif
 10
3054.0
 20
3298.0
 11
0.0705555555555556
 21
0.0705555555555556
280
     1
281
     5
  0
IMAGEDEF
  5
15451
102
{ACAD_REACTORS
330
21
102
}
330
21
100
AcDbRasterImageDef
 90
        0
  1
C:\Michel\TEMP\GPL\TIF\2219.tif
 10
1792.0
 20
2510.0
 11
0.1693333333333333
 21
0.1693333333333333
280
     1
281
     5
  0
IMAGEDEF
  5
175D9
102
{ACAD_REACTORS
330
21
330
175DA
330
1770F
330
17712
102
}
330
21
100
AcDbRasterImageDef
 90
        0
  1
C:\Documents and Settings\USAGER\Mes documents\Mes images\rien\rien 004.jpg
 10
2272.0
 20
1704.0
 11
0.0004401408450704
 21
0.0004401408450704
280
     1
281
     0
  0
IMAGEDEF
  5
1734C
102
{ACAD_REACTORS
330
21
330
1734D
330
17350
330
17357
330
17359
102
}
330
21
100
AcDbRasterImageDef
 90
        0
  1
C:\Documents and Settings\USAGER\Mes documents\Mes images\rien\rien 005.jpg
 10
2272.0
 20
1704.0
 11
0.0004401408450704
 21
0.0004401408450704
280
     1
281
     0
  0
IMAGEDEF
  5
17351
102
{ACAD_REACTORS
330
21
330
17352
330
17355
330
1735B
102
}
330
21
100
AcDbRasterImageDef
 90
        0
  1
C:\Documents and Settings\USAGER\Mes documents\Mes images\rien\rien 005_2.jpg
 10
2181.0
 20
1636.0
 11
0.0846666666666667
 21
0.0846666666666667
280
     1
281
     5
  0
IMAGEDEF
  5
17343
102
{ACAD_REACTORS
330
21
330
17344
330
17347
102
}
330
21
100
AcDbRasterImageDef
 90
        0
  1
C:\Documents and Settings\USAGER\Mes documents\Mes images\rien\rien 006.jpg
 10
2272.0
 20
1704.0
 11
0.0004401408450704
 21
0.0004401408450704
280
     1
281
     0
  0
IMAGEDEF
  5
1736B
102
{ACAD_REACTORS
330
21
330
1736C
330
1736F
102
}
330
21
100
AcDbRasterImageDef
 90
        0
  1
C:\Documents and Settings\USAGER\Mes documents\Mes images\rien\rien 013.jpg
 10
2272.0
 20
1704.0
 11
0.0004401408450704
 21
0.0004401408450704
280
     1
281
     0
  0
IMAGEDEF
  5
175DE
102
{ACAD_REACTORS
330
21
330
175DF
102
}
330
21
100
AcDbRasterImageDef
 90
        0
  1
C:\Documents and Settings\USAGER\Mes documents\Mes images\rien\rien 018.jpg
 10
2272.0
 20
1704.0
 11
0.0004401408450704
 21
0.0004401408450704
280
     1
281
     0
  0
IMAGEDEF
  5
175E1
102
{ACAD_REACTORS
330
21
330
175E2
102
}
330
21
100
AcDbRasterImageDef
 90
        0
  1
C:\Documents and Settings\USAGER\Mes documents\Mes images\rien\rien 019.jpg
 10
2272.0
 20
1704.0
 11
0.0004401408450704
 21
0.0004401408450704
280
     1
281
     0
  0
LAYOUT
  5
1544D
102
{ACAD_REACTORS
330
1544A
102
}
330
1544A
100
AcDbPlotSettings
  1

  2
none_device
  4
Letter_(8.50_x_11.00_Inches)
  6

 40
6.349999904632568
 41
6.349999904632568
 42
6.350006103515625
 43
6.350006103515625
 44
215.8999938964844
 45
279.3999938964844
 46
0.0
 47
0.0
 48
0.0
 49
0.0
140
0.0
141
0.0
142
1.0
143
1.0
 70
   688
 72
     0
 73
     1
 74
     5
  7
pen2000.ctb
 75
    16
147
1.0
 76
     0
 77
     2
 78
   300
148
0.0
149
0.0
100
AcDbLayout
  1
Layout1
 70
     1
 71
     1
 10
-0.2500002402958907
 20
-0.2499999962453767
 11
10.74999951940821
 21
8.249999763458731
 12
0.0
 22
0.0
 32
0.0
 14
1.049636599258096
 24
0.7996597240971113
 34
-0.0015258207003583
 15
9.450362731076971
 25
7.200340082697458
 35
0.0000000349246037
146
0.0
 13
0.0
 23
0.0
 33
0.0
 16
1.0
 26
0.0
 36
0.0
 17
0.0
 27
1.0
 37
0.0
 76
     0
330
15
331
1770B
  0
LAYOUT
  5
1544C
102
{ACAD_REACTORS
330
1544A
102
}
330
1544A
100
AcDbPlotSettings
  1

  2
C:\Program Files\AutoCAD 2000i\plotters\HP DesignJet 430 (D_A1) by HP.pc3
  4

  6

 40
0.0
 41
0.0
 42
0.0
 43
0.0
 44
0.0
 45
0.0
 46
0.0
 47
0.0
 48
0.0
 49
0.0
140
0.0
141
0.0
142
1.0
143
1.0
 70
  1712
 72
     0
 73
     0
 74
     0
  7
pen2000.ctb
 75
     0
147
1.0
 76
     0
 77
     2
 78
   300
148
0.0
149
0.0
100
AcDbLayout
  1
Model
 70
     1
 71
     0
 10
0.0
 20
0.0
 11
12.0
 21
9.0
 12
0.0
 22
0.0
 32
0.0
 14
0.0
 24
0.0
 34
0.0
 15
0.0
 25
0.0
 35
0.0
146
0.0
 13
0.0
 23
0.0
 33
0.0
 16
1.0
 26
0.0
 36
0.0
 17
0.0
 27
1.0
 37
0.0
 76
     0
330
18
  0
MLINESTYLE
  5
1C
102
{ACAD_REACTORS
330
1B
102
}
330
1B
100
AcDbMlineStyle
  2
STANDARD
 70
     0
  3

 62
   256
 51
90.0
 52
90.0
 71
     2
 49
0.5
 62
   256
  6
BYLAYER
 49
-0.5
 62
   256
  6
BYLAYER
  0
ACDBPLACEHOLDER
  5
15449
102
{ACAD_REACTORS
330
15448
102
}
330
15448
  0
ENDSEC
  0
EOF
