  0
SECTION
  2
HEADER
  9
$ACADVER
  1
AC1018
  9
$ACADMAINTVER
 70
     0
  9
$DWGCODEPAGE
  3
ANSI_1252
  9
$INSBASE
 10
0.0
 20
0.0
 30
0.0
  9
$EXTMIN
 10
2.043358711441582
 20
2.854571427368075
 30
0.0
  9
$EXTMAX
 10
21.11315527164253
 20
17.06461921674175
 30
0.0
  9
$LIMMIN
 10
0.0
 20
0.0
  9
$LIMMAX
 10
12.0
 20
9.0
  9
$ORTHOMODE
 70
     0
  9
$REGENMODE
 70
     1
  9
$FILLMODE
 70
     1
  9
$QTEXTMODE
 70
     0
  9
$MIRRTEXT
 70
     1
  9
$LTSCALE
 40
1.0
  9
$ATTMODE
 70
     1
  9
$TEXTSIZE
 40
0.2
  9
$TRACEWID
 40
0.05
  9
$TEXTSTYLE
  7
STANDARD
  9
$CLAYER
  8
0
  9
$CELTYPE
  6
BYLAYER
  9
$CECOLOR
 62
   256
  9
$CELTSCALE
 40
1.0
  9
$DISPSILH
 70
     0
  9
$DIMSCALE
 40
1.0
  9
$DIMASZ
 40
0.18
  9
$DIMEXO
 40
0.0625
  9
$DIMDLI
 40
0.38
  9
$DIMRND
 40
0.0
  9
$DIMDLE
 40
0.0
  9
$DIMEXE
 40
0.18
  9
$DIMTP
 40
0.0
  9
$DIMTM
 40
0.0
  9
$DIMTXT
 40
1.5
  9
$DIMCEN
 40
0.09
  9
$DIMTSZ
 40
0.0
  9
$DIMTOL
 70
     0
  9
$DIMLIM
 70
     0
  9
$DIMTIH
 70
     1
  9
$DIMTOH
 70
     1
  9
$DIMSE1
 70
     0
  9
$DIMSE2
 70
     0
  9
$DIMTAD
 70
     0
  9
$DIMZIN
 70
     0
  9
$DIMBLK
  1

  9
$DIMASO
 70
     1
  9
$DIMSHO
 70
     1
  9
$DIMPOST
  1

  9
$DIMAPOST
  1

  9
$DIMALT
 70
     0
  9
$DIMALTD
 70
     2
  9
$DIMALTF
 40
25.4
  9
$DIMLFAC
 40
1.0
  9
$DIMTOFL
 70
     0
  9
$DIMTVP
 40
0.0
  9
$DIMTIX
 70
     0
  9
$DIMSOXD
 70
     0
  9
$DIMSAH
 70
     0
  9
$DIMBLK1
  1

  9
$DIMBLK2
  1

  9
$DIMSTYLE
  2
STANDARD
  9
$DIMCLRD
 70
     0
  9
$DIMCLRE
 70
     0
  9
$DIMCLRT
 70
     0
  9
$DIMTFAC
 40
1.0
  9
$DIMGAP
 40
0.09
  9
$DIMJUST
 70
     0
  9
$DIMSD1
 70
     0
  9
$DIMSD2
 70
     0
  9
$DIMTOLJ
 70
     1
  9
$DIMTZIN
 70
     0
  9
$DIMALTZ
 70
     0
  9
$DIMALTTZ
 70
     0
  9
$DIMUPT
 70
     0
  9
$DIMDEC
 70
     4
  9
$DIMTDEC
 70
     4
  9
$DIMALTU
 70
     2
  9
$DIMALTTD
 70
     2
  9
$DIMTXSTY
  7
STANDARD
  9
$DIMAUNIT
 70
     0
  9
$DIMADEC
 70
     0
  9
$DIMALTRND
 40
0.0
  9
$DIMAZIN
 70
     0
  9
$DIMDSEP
 70
    46
  9
$DIMATFIT
 70
     3
  9
$DIMFRAC
 70
     0
  9
$DIMLDRBLK
  1

  9
$DIMLUNIT
 70
     5
  9
$DIMLWD
 70
    -2
  9
$DIMLWE
 70
    -2
  9
$DIMTMOVE
 70
     0
  9
$LUNITS
 70
     4
  9
$LUPREC
 70
     4
  9
$SKETCHINC
 40
0.1
  9
$FILLETRAD
 40
0.0
  9
$AUNITS
 70
     0
  9
$AUPREC
 70
     0
  9
$MENU
  1
.
  9
$ELEVATION
 40
0.0
  9
$PELEVATION
 40
0.0
  9
$THICKNESS
 40
0.0
  9
$LIMCHECK
 70
     0
  9
$CHAMFERA
 40
0.5
  9
$CHAMFERB
 40
0.5
  9
$CHAMFERC
 40
1.0
  9
$CHAMFERD
 40
0.0
  9
$SKPOLY
 70
     0
  9
$TDCREATE
 40
2451160.360457639
  9
$TDUCREATE
 40
2451160.527124306
  9
$TDUPDATE
 40
2453488.684188450
  9
$TDUUPDATE
 40
2453488.850855116
  9
$TDINDWG
 40
0.3213088426
  9
$TDUSRTIMER
 40
0.3213088426
  9
$USRTIMER
 70
     1
  9
$ANGBASE
 50
0.0
  9
$ANGDIR
 70
     0
  9
$PDMODE
 70
     3
  9
$PDSIZE
 40
1.0
  9
$PLINEWID
 40
0.0
  9
$SPLFRAME
 70
     0
  9
$SPLINETYPE
 70
     6
  9
$SPLINESEGS
 70
     8
  9
$HANDSEED
  5
10074
  9
$SURFTAB1
 70
     6
  9
$SURFTAB2
 70
     6
  9
$SURFTYPE
 70
     6
  9
$SURFU
 70
     6
  9
$SURFV
 70
     6
  9
$UCSBASE
  2

  9
$UCSNAME
  2

  9
$UCSORG
 10
0.0
 20
0.0
 30
0.0
  9
$UCSXDIR
 10
1.0
 20
0.0
 30
0.0
  9
$UCSYDIR
 10
0.0
 20
1.0
 30
0.0
  9
$UCSORTHOREF
  2

  9
$UCSORTHOVIEW
 70
     0
  9
$UCSORGTOP
 10
0.0
 20
0.0
 30
0.0
  9
$UCSORGBOTTOM
 10
0.0
 20
0.0
 30
0.0
  9
$UCSORGLEFT
 10
0.0
 20
0.0
 30
0.0
  9
$UCSORGRIGHT
 10
0.0
 20
0.0
 30
0.0
  9
$UCSORGFRONT
 10
0.0
 20
0.0
 30
0.0
  9
$UCSORGBACK
 10
0.0
 20
0.0
 30
0.0
  9
$PUCSBASE
  2

  9
$PUCSNAME
  2

  9
$PUCSORG
 10
0.0
 20
0.0
 30
0.0
  9
$PUCSXDIR
 10
1.0
 20
0.0
 30
0.0
  9
$PUCSYDIR
 10
0.0
 20
1.0
 30
0.0
  9
$PUCSORTHOREF
  2

  9
$PUCSORTHOVIEW
 70
     0
  9
$PUCSORGTOP
 10
0.0
 20
0.0
 30
0.0
  9
$PUCSORGBOTTOM
 10
0.0
 20
0.0
 30
0.0
  9
$PUCSORGLEFT
 10
0.0
 20
0.0
 30
0.0
  9
$PUCSORGRIGHT
 10
0.0
 20
0.0
 30
0.0
  9
$PUCSORGFRONT
 10
0.0
 20
0.0
 30
0.0
  9
$PUCSORGBACK
 10
0.0
 20
0.0
 30
0.0
  9
$USERI1
 70
     0
  9
$USERI2
 70
     0
  9
$USERI3
 70
     0
  9
$USERI4
 70
     0
  9
$USERI5
 70
     0
  9
$USERR1
 40
0.0
  9
$USERR2
 40
0.0
  9
$USERR3
 40
0.0
  9
$USERR4
 40
0.0
  9
$USERR5
 40
0.0
  9
$WORLDVIEW
 70
     1
  9
$SHADEDGE
 70
     3
  9
$SHADEDIF
 70
    70
  9
$TILEMODE
 70
     1
  9
$MAXACTVP
 70
    48
  9
$PINSBASE
 10
0.0
 20
0.0
 30
0.0
  9
$PLIMCHECK
 70
     0
  9
$PEXTMIN
 10
1.049743681505489
 20
0.7996673802841308
 30
-0.0015258207003583
  9
$PEXTMAX
 10
9.450622583565561
 20
7.200576801086516
 30
0.0000000349246037
  9
$PLIMMIN
 10
-0.2500002402958907
 20
-0.2499999962453767
  9
$PLIMMAX
 10
10.74999951940821
 20
8.249999763458731
  9
$UNITMODE
 70
     0
  9
$VISRETAIN
 70
     1
  9
$PLINEGEN
 70
     0
  9
$PSLTSCALE
 70
     1
  9
$TREEDEPTH
 70
  3020
  9
$CMLSTYLE
  2
STANDARD
  9
$CMLJUST
 70
     0
  9
$CMLSCALE
 40
1.0
  9
$PROXYGRAPHICS
 70
     1
  9
$MEASUREMENT
 70
     0
  9
$CELWEIGHT
370
    -1
  9
$ENDCAPS
280
     0
  9
$JOINSTYLE
280
     0
  9
$LWDISPLAY
290
     0
  9
$INSUNITS
 70
     0
  9
$HYPERLINKBASE
  1

  9
$STYLESHEET
  1

  9
$XEDIT
290
     1
  9
$CEPSNTYPE
380
     0
  9
$PSTYLEMODE
290
     1
  9
$FINGERPRINTGUID
  2
{C6D4FD0E-76E2-421F-AE9D-064F6C377EDE}
  9
$VERSIONGUID
  2
{37584B15-67C3-4382-B7B8-CCE1D2A6F5AA}
  9
$EXTNAMES
290
     1
  9
$PSVPSCALE
 40
0.0
  9
$OLESTARTUP
290
     0
  9
$SORTENTS
280
   127
  9
$INDEXCTL
280
     0
  9
$HIDETEXT
280
     0
  9
$XCLIPFRAME
290
     0
  9
$HALOGAP
280
     0
  9
$OBSCOLOR
 70
   257
  9
$OBSLTYPE
280
     0
  9
$INTERSECTIONDISPLAY
280
     0
  9
$INTERSECTIONCOLOR
 70
   257
  9
$DIMASSOC
280
     1
  9
$PROJECTNAME
  1

  0
ENDSEC
  0
SECTION
  2
CLASSES
  0
CLASS
  1
RASTERVARIABLES
  2
AcDbRasterVariables
  3
ISM
 90
        0
 91
        1
280
     0
281
     0
  0
CLASS
  1
IMAGEDEF
  2
AcDbRasterImageDef
  3
ISM
 90
        0
 91
        2
280
     0
281
     0
  0
CLASS
  1
IMAGEDEF_REACTOR
  2
AcDbRasterImageDefReactor
  3
ISM
 90
        1
 91
        0
280
     0
281
     0
  0
CLASS
  1
IMAGE
  2
AcDbRasterImage
  3
ISM
 90
      127
 91
        0
280
     0
281
     1
  0
CLASS
  1
ACDBDICTIONARYWDFLT
  2
AcDbDictionaryWithDefault
  3
ObjectDBX Classes
 90
        0
 91
        1
280
     0
281
     0
  0
ENDSEC
  0
SECTION
  2
TABLES
  0
TABLE
  2
VPORT
  5
8
330
0
100
AcDbSymbolTable
 70
     2
  0
VPORT
  5
10073
330
8
100
AcDbSymbolTableRecord
100
AcDbViewportTableRecord
  2
*Active
 70
     0
 10
0.0
 20
0.0
 11
1.0
 21
1.0
 12
10.66792152492844
 22
8.25130507087303
 13
0.0
 23
0.0
 14
0.5
 24
0.5
 15
0.5
 25
0.5
 16
0.0
 26
0.0
 36
1.0
 17
0.0
 27
0.0
 37
0.0
 40
20.81330235384259
 41
1.977142857142857
 42
50.0
 43
0.0
 44
0.0
 50
0.0
 51
0.0
 71
     0
 72
   100
 73
     1
 74
     1
 75
     0
 76
     0
 77
     0
 78
     0
281
     0
 65
     1
110
0.0
120
0.0
130
0.0
111
1.0
121
0.0
131
0.0
112
0.0
122
1.0
132
0.0
 79
     0
146
0.0
  0
ENDTAB
  0
TABLE
  2
LTYPE
  5
5
330
0
100
AcDbSymbolTable
 70
     1
  0
LTYPE
  5
12
330
5
100
AcDbSymbolTableRecord
100
AcDbLinetypeTableRecord
  2
BYBLOCK
 70
     0
  3

 72
    65
 73
     0
 40
0.0
  0
LTYPE
  5
13
330
5
100
AcDbSymbolTableRecord
100
AcDbLinetypeTableRecord
  2
BYLAYER
 70
     0
  3

 72
    65
 73
     0
 40
0.0
  0
LTYPE
  5
14
330
5
100
AcDbSymbolTableRecord
100
AcDbLinetypeTableRecord
  2
CONTINUOUS
 70
     0
  3
Solid line
 72
    65
 73
     0
 40
0.0
  0
ENDTAB
  0
TABLE
  2
LAYER
  5
2
330
0
100
AcDbSymbolTable
 70
     3
  0
LAYER
  5
E
330
2
100
AcDbSymbolTableRecord
100
AcDbLayerTableRecord
  2
0
 70
     0
 62
     7
  6
CONTINUOUS
370
    -3
390
FFA7
  0
LAYER
  5
FFB3
330
2
100
AcDbSymbolTableRecord
100
AcDbLayerTableRecord
  2
Defpoints
 70
     0
 62
     7
  6
CONTINUOUS
290
     0
370
    -3
390
FFA7
  0
LAYER
  5
1002E
330
2
100
AcDbSymbolTableRecord
100
AcDbLayerTableRecord
  2
DIM
 70
     0
 62
    -3
  6
CONTINUOUS
370
    -3
390
FFA7
  0
ENDTAB
  0
TABLE
  2
STYLE
  5
3
330
0
100
AcDbSymbolTable
 70
     1
  0
STYLE
  5
F
330
3
100
AcDbSymbolTableRecord
100
AcDbTextStyleTableRecord
  2
STANDARD
 70
     0
 40
0.0
 41
1.0
 50
0.0
 71
     0
 42
0.2
  3
txt
  4

  0
ENDTAB
  0
TABLE
  2
VIEW
  5
6
330
0
100
AcDbSymbolTable
 70
     0
  0
ENDTAB
  0
TABLE
  2
UCS
  5
7
330
0
100
AcDbSymbolTable
 70
     0
  0
ENDTAB
  0
TABLE
  2
APPID
  5
9
330
0
100
AcDbSymbolTable
 70
     1
  0
APPID
  5
10
330
9
100
AcDbSymbolTableRecord
100
AcDbRegAppTableRecord
  2
ACAD
 70
     0
  0
ENDTAB
  0
TABLE
  2
DIMSTYLE
  5
A
330
0
100
AcDbSymbolTable
 70
     1
100
AcDbDimStyleTable
 71
     1
340
1D
  0
DIMSTYLE
105
1D
102
{ACAD_REACTORS
330
FFB2
330
FFD9
330
FFF5
102
}
330
A
100
AcDbSymbolTableRecord
100
AcDbDimStyleTableRecord
  2
STANDARD
 70
     0
140
1.5
277
     5
340
F
  0
ENDTAB
  0
TABLE
  2
BLOCK_RECORD
  5
1
330
0
100
AcDbSymbolTable
 70
     4
  0
BLOCK_RECORD
  5
18
330
1
100
AcDbSymbolTableRecord
100
AcDbBlockTableRecord
  2
*MODEL_SPACE
340
FFAC
  0
BLOCK_RECORD
  5
15
330
1
100
AcDbSymbolTableRecord
100
AcDbBlockTableRecord
  2
*PAPER_SPACE
340
FFAD
  0
BLOCK_RECORD
  5
FAB9
330
1
100
AcDbSymbolTableRecord
100
AcDbBlockTableRecord
  2
3307_E
340
0
  0
BLOCK_RECORD
  5
FFB4
330
1
100
AcDbSymbolTableRecord
100
AcDbBlockTableRecord
  2
*D1
340
0
  0
BLOCK_RECORD
  5
FFDA
330
1
100
AcDbSymbolTableRecord
100
AcDbBlockTableRecord
  2
*D2
340
0
  0
BLOCK_RECORD
  5
FFF6
330
1
100
AcDbSymbolTableRecord
100
AcDbBlockTableRecord
  2
*D3
340
0
  0
ENDTAB
  0
ENDSEC
  0
SECTION
  2
BLOCKS
  0
BLOCK
  5
19
330
18
100
AcDbEntity
  8
0
100
AcDbBlockBegin
  2
*MODEL_SPACE
 70
     0
 10
0.0
 20
0.0
 30
0.0
  3
*MODEL_SPACE
  1

  0
ENDBLK
  5
1A
330
18
100
AcDbEntity
  8
0
100
AcDbBlockEnd
  0
BLOCK
  5
16
330
15
100
AcDbEntity
 67
     1
  8
0
100
AcDbBlockBegin
  2
*PAPER_SPACE
 70
     0
 10
0.0
 20
0.0
 30
0.0
  3
*PAPER_SPACE
  1

  0
ENDBLK
  5
17
330
15
100
AcDbEntity
 67
     1
  8
0
100
AcDbBlockEnd
  0
BLOCK
  5
FABA
330
FAB9
100
AcDbEntity
  8
0
100
AcDbBlockBegin
  2
3307_E
 70
     0
 10
0.0
 20
0.0
 30
0.0
  3
3307_E
  1

  0
LWPOLYLINE
  5
FABB
330
FAB9
100
AcDbEntity
  8
0
100
AcDbPolyline
 90
      647
 70
     0
 43
0.0
 10
9.310343502480122
 20
0.0
 10
9.3177194892935
 20
-0.0172761758425235
 10
9.32499601293107
 20
-0.0388963633710962
 10
9.330942637659129
 20
-0.0612344720775262
 10
9.335751848909529
 20
-0.0839972043243727
 10
9.339616132114123
 20
-0.1068912624741696
 10
9.342727972704757
 20
-0.1296233488894849
 10
9.345230276596216
 20
-0.1519526968683635
 10
9.347067631634947
 20
-0.1738486634508778
 10
9.348135046150318
 20
-0.1953331366126214
 10
9.348327528471703
 20
-0.216428004329158
 10
9.347540086928466
 20
-0.237155154576083
 10
9.345667729849974
 20
-0.2575364753289691
 10
9.342605465565606
 20
-0.2775938545633991
 10
9.33824830240473
 20
-0.297349180254951
 10
9.332521871258947
 20
-0.3167988044077017
 10
9.325474293268829
 20
-0.3358369351396711
 10
9.317184312137177
 20
-0.3543322445973764
 10
9.307730671566794
 20
-0.3721534049273441
 10
9.297192115260486
 20
-0.3891690882760681
 10
9.285647386921057
 20
-0.4052479667900784
 10
9.273175230251311
 20
-0.4202587126158868
 10
9.259854388954048
 20
-0.4340699979000125
 10
9.245792771218813
 20
-0.4465825972289963
 10
9.231214943182086
 20
-0.4578256949495696
 10
9.216374635467097
 20
-0.4678605778484588
 10
9.20152557869707
 20
-0.4767485327124366
 10
9.186921503495224
 20
-0.4845508463282258
 10
9.172816140484778
 20
-0.4913288054825867
 10
9.159463220288966
 20
-0.4971436969622758
 10
9.147116473531001
 20
-0.5020568075540286
 10
9.135966927232777
 20
-0.5061410974473617
 10
9.125954794010869
 20
-0.5095162204428139
 10
9.116957582880498
 20
-0.5123135037437141
 10
9.108852802856899
 20
-0.5146642745533505
 10
9.101517962955314
 20
-0.5166998600750503
 10
9.094830572190968
 20
-0.5185515875121141
 10
9.088668139579096
 20
-0.5203507840678601
 10
9.082908174134933
 20
-0.52222877694558
 10
9.077444225443427
 20
-0.5242993830548315
 10
9.072234005368391
 20
-0.5266063781300386
 10
9.067251266343349
 20
-0.5291760276118627
 10
9.062469760801818
 20
-0.5320345969409673
 10
9.057863241177331
 20
-0.5352083515580173
 10
9.053405459903407
 20
-0.5387235569036673
 10
9.049070169413582
 20
-0.5426064784185983
 10
9.044831122141365
 20
-0.5468833815434469
 10
9.040669361533275
 20
-0.5515703174169762
 10
9.036595095087761
 20
-0.5566424799702734
 10
9.032625821316255
 20
-0.5620648488325131
 10
9.028779038730192
 20
-0.5678024036328644
 10
9.025072245841002
 20
-0.5738201240005214
 10
9.021522941160128
 20
-0.5800829895646427
 10
9.018148623198991
 20
-0.5865559799544045
 10
9.014966790469037
 20
-0.593204074798992
 10
9.011983275707063
 20
-0.5999864168365612
 10
9.009157248551375
 20
-0.6068388012412154
 10
9.00643621286564
 20
-0.6136911862960428
 10
9.003767672513529
 20
-0.6204735302841371
 10
9.001099131358717
 20
-0.6271157914885866
 10
8.998378093264873
 20
-0.6335479281924759
 10
8.995552062095674
 20
-0.6396998986788916
 10
8.992568541714785
 20
-0.6455016612309361
 10
8.989376494328945
 20
-0.6509021437972056
 10
8.985930715517184
 20
-0.6559261529884406
 10
8.982187459201584
 20
-0.6606174650808843
 10
8.978102979304248
 20
-0.6650198563507761
 10
8.973633529747253
 20
-0.6691771030743788
 10
8.968735364452696
 20
-0.673132981527937
 10
8.963364737342667
 20
-0.6769312679876994
 10
8.95747790233926
 20
-0.6806157387299088
 10
8.950939245343388
 20
-0.6842155779387369
 10
8.943245680171258
 20
-0.6877016014300228
 10
8.933802252617908
 20
-0.691030032927511
 10
8.922014008478361
 20
-0.6941570961549477
 10
8.907285993547663
 20
-0.6970390148360935
 10
8.889023253620839
 20
-0.6996320126946963
 10
8.866630834492921
 20
-0.7018923134545095
 10
8.839513781958947
 20
-0.7037761408392793
 10
8.807399408507745
 20
-0.705260147393302
 10
8.77130409340331
 20
-0.7064027009431229
 10
8.732566482603447
 20
-0.7072825981357909
 10
8.692525222065949
 20
-0.7079786356183853
 10
8.65251895774862
 20
-0.7085696100379853
 10
8.613886335609251
 20
-0.7091343180416576
 10
8.577966001605643
 20
-0.7097515562764834
 10
8.546096601695595
 20
-0.7105001213895293
 10
8.519285765954286
 20
-0.7114485956717829
 10
8.497217060926411
 20
-0.7126247039898228
 10
8.479243037274057
 20
-0.7140459568541591
 10
8.464716245659312
 20
-0.7157298647752893
 10
8.452989236744249
 20
-0.7176939382637162
 10
8.443414561190955
 20
-0.7199556878299341
 10
8.435344769661512
 20
-0.7225326239844457
 10
8.428132412818005
 20
-0.7254422572377575
 10
8.421245240591927
 20
-0.728697720472729
 10
8.414611799992457
 20
-0.732294636061738
 10
8.408275837298168
 20
-0.7362242487495472
 10
8.402281098787648
 20
-0.7404778032808963
 10
8.39667133073949
 20
-0.7450465444005428
 10
8.391490279432264
 20
-0.7499217168532351
 10
8.386781691144571
 20
-0.7550945653837112
 10
8.382589312154983
 20
-0.760556334736739
 10
8.378939390163763
 20
-0.7663172392142191
 10
8.375788178557868
 20
-0.7724633713467295
 10
8.373074432145932
 20
-0.7790997932220006
 10
8.370736905736581
 20
-0.7863315669277764
 10
8.368714354138441
 20
-0.7942637545517908
 10
8.366945532160148
 20
-0.8030014181817719
 10
8.36536919461033
 20
-0.8126496199054571
 10
8.363924096297617
 20
-0.823313421810587
 10
8.362546075612071
 20
-0.8350584877155338
 10
8.361159305269451
 20
-0.8477928883612619
 10
8.359685041566962
 20
-0.8613852962193746
 10
8.358044540801795
 20
-0.8757043837614659
 10
8.356159059271151
 20
-0.8906188234591478
 10
8.353949853272224
 20
-0.9059972877840181
 10
8.351338179102208
 20
-0.921708449207685
 10
8.348245293058305
 20
-0.9376209802017463
 10
8.344596826065563
 20
-0.9536020940285983
 10
8.34033590756047
 20
-0.9695131671137957
 10
8.335410041607383
 20
-0.9852141166737027
 10
8.329766732270641
 20
-1.000564859924665
 10
8.323353483614591
 20
-1.015425314083032
 10
8.316117799703587
 20
-1.029655396365168
 10
8.308007184601965
 20
-1.04311502398742
 10
8.298969142374085
 20
-1.055664114166145
 10
8.28898763255056
 20
-1.067196145604388
 10
8.278192436527115
 20
-1.077738842952031
 10
8.266749791165759
 20
-1.087353492345638
 10
8.254825933328477
 20
-1.096101379921794
 10
8.242587099877283
 20
-1.104043791817069
 10
8.230199527674171
 20
-1.111242014168027
 10
8.217829453581138
 20
-1.117757333111262
 10
8.205643114460192
 20
-1.123651034783328
 10
8.193781957481677
 20
-1.128985864475831
 10
8.182288271049356
 20
-1.133830404100484
 10
8.171179553875337
 20
-1.138254694724023
 10
8.160473304671729
 20
-1.142328777413188
 10
8.150187022150641
 20
-1.146122693234699
 10
8.140338205024185
 20
-1.149706483255307
 10
8.130944352004467
 20
-1.153150188541745
 10
8.122022961803601
 20
-1.156523850160748
 10
8.113572576279189
 20
-1.159893131713973
 10
8.105515909870822
 20
-1.163306186942742
 10
8.097756720163584
 20
-1.166806792123312
 10
8.09019876474257
 20
-1.170438723531928
 10
8.08274580119286
 20
-1.174245757444838
 10
8.075301587099543
 20
-1.178271670138293
 10
8.067769880047704
 20
-1.18256023788855
 10
8.060054437622431
 20
-1.187155236971847
 10
8.052084029549373
 20
-1.192100567251848
 10
8.043887474116392
 20
-1.197440622941867
 10
8.035518601751919
 20
-1.203219921842631
 10
8.027031242884385
 20
-1.209482981754865
 10
8.018479227942219
 20
-1.2162743204793
 10
8.009916387353847
 20
-1.223638455816658
 10
8.001396551547697
 20
-1.231619905567661
 10
7.9929735509522
 20
-1.24026318753305
 10
7.984703069736685
 20
-1.249569266247283
 10
7.976648207034108
 20
-1.2593648931798
 10
7.968873915718319
 20
-1.269433266533789
 10
7.961445148663166
 20
-1.27955758451243
 10
7.954426858742511
 20
-1.289521045318917
 10
7.947883998830207
 20
-1.299106847156419
 10
7.941881521800109
 20
-1.308098188228132
 10
7.936484380526065
 20
-1.316278266737226
 10
7.931731180947586
 20
-1.323490948761318
 10
7.927555141266799
 20
-1.329822771875695
 10
7.923863132751485
 20
-1.335420941530074
 10
7.920562026669415
 20
-1.340432663174171
 10
7.917558694288373
 20
-1.345005142257697
 10
7.914760006876143
 20
-1.34928558423036
 10
7.912072835700495
 20
-1.353421194541885
 10
7.909404052029215
 20
-1.357559178641992
 10
7.90667449150998
 20
-1.361811300892208
 10
7.903860847310088
 20
-1.366147561301417
 10
7.900953776976724
 20
-1.370502518790324
 10
7.897943938057085
 20
-1.374810732279641
 10
7.894821988098364
 20
-1.379006760690064
 10
7.891578584647763
 20
-1.383025162942306
 10
7.888204385252462
 20
-1.386800497957072
 10
7.884690047459663
 20
-1.390267324655056
 10
7.881021557623604
 20
-1.393382015650086
 10
7.877166217326685
 20
-1.396188198328333
 10
7.873086656958367
 20
-1.398751313769105
 10
7.868745506908087
 20
-1.401136803051695
 10
7.864105397565307
 20
-1.403410107255391
 10
7.859128959319473
 20
-1.405636667459498
 10
7.853778822560034
 20
-1.407881924743294
 10
7.848017617676443
 20
-1.410211320186091
 10
7.841820431594996
 20
-1.412677829930647
 10
7.835212177389397
 20
-1.415284570373636
 10
7.828230224670194
 20
-1.418022192975218
 10
7.820911943047933
 20
-1.420881349195539
 10
7.813294702133177
 20
-1.423852690494753
 10
7.805415871536455
 20
-1.426926868333
 10
7.797312820868334
 20
-1.430094534170443
 10
7.789022919739355
 20
-1.433346339467227
 10
7.780569524080863
 20
-1.436682284385893
 10
7.771919935107355
 20
-1.440139763898567
 10
7.763027440354132
 20
-1.443765521679745
 10
7.753845327356479
 20
-1.447606301403943
 10
7.744326883649694
 20
-1.451708846745667
 10
7.734425396769061
 20
-1.456119901379425
 10
7.724094154249886
 20
-1.460886208979731
 10
7.713286443627453
 20
-1.466054513221083
 10
7.701988251222553
 20
-1.471657534643135
 10
7.69031635849797
 20
-1.477671901246097
 10
7.67842024570198
 20
-1.484060217895292
 10
7.666449393082864
 20
-1.490785089456066
 10
7.654553280888901
 20
-1.497809120793768
 10
7.642881389368373
 20
-1.505094916773741
 10
7.631583198769552
 20
-1.512605082261307
 10
7.620808189340724
 20
-1.520302222121829
 10
7.61064667206104
 20
-1.528178545580326
 10
7.600952280833157
 20
-1.536344679300642
 10
7.591519480290607
 20
-1.544940854306295
 10
7.582142735066922
 20
-1.554107301620806
 10
7.572616509795629
 20
-1.563984252267699
 10
7.562735269110273
 20
-1.574711937270508
 10
7.552293477644369
 20
-1.586430587652758
 10
7.541085600031461
 20
-1.599280434437966
 10
7.528959041872328
 20
-1.613334709426213
 10
7.515972972636774
 20
-1.628398647523763
 10
7.502239502761852
 20
-1.644210484413449
 10
7.487870742684609
 20
-1.660508455778087
 10
7.472978802842115
 20
-1.677030797300515
 10
7.457675793671409
 20
-1.693515744663539
 10
7.442073825609549
 20
-1.709701533549994
 10
7.426285009093593
 20
-1.725326399642694
 10
7.410390312783665
 20
-1.740159740965779
 10
7.394346138232222
 20
-1.754095604908622
 10
7.378077745214772
 20
-1.767059201201906
 10
7.361510393506847
 20
-1.778975739576301
 10
7.344569342883964
 20
-1.789770429762501
 10
7.32717985312165
 20
-1.79936848149118
 10
7.30926718399543
 20
-1.807695104493026
 10
7.290756595280821
 20
-1.81467550849871
 10
7.271584246348513
 20
-1.820259833220337
 10
7.251729894949859
 20
-1.82449793829563
 10
7.231184198431375
 20
-1.827464613343744
 10
7.20993781413958
 20
-1.829234647983808
 10
7.187981399420992
 20
-1.829882831834973
 10
7.165305611622134
 20
-1.829483954516383
 10
7.14190110808952
 20
-1.828112805647178
 10
7.117758546169664
 20
-1.825844174846507
 10
7.092938652006488
 20
-1.822754410040209
 10
7.067782426933504
 20
-1.818926092380921
 10
7.042700941081617
 20
-1.814443361328001
 10
7.018105264581741
 20
-1.809390356340776
 10
6.994406467564783
 20
-1.803851216878598
 10
6.972015620161656
 20
-1.797910082400809
 10
6.951343792503262
 20
-1.791651092366745
 10
6.932802054720518
 20
-1.785158386235748
 10
6.916681581497838
 20
-1.77849584759314
 10
6.902793965733703
 20
-1.771646336528108
 10
6.890830904880102
 20
-1.764572457255823
 10
6.880484096389015
 20
-1.757236813991443
 10
6.87144523771243
 20
-1.749602010950143
 10
6.863406026302333
 20
-1.741630652347092
 10
6.856058159610718
 20
-1.733285342397438
 10
6.84909333508957
 20
-1.724528685316366
 10
6.842253076873401
 20
-1.715348215571347
 10
6.835478215826876
 20
-1.705831188639139
 10
6.828759409497191
 20
-1.6960897902488
 10
6.822087315431534
 20
-1.6862362061294
 10
6.815452591177111
 20
-1.676382622009993
 10
6.8088458942811
 20
-1.666641223619654
 10
6.802257882290703
 20
-1.657124196687446
 10
6.79567921275311
 20
-1.647943726942425
 10
6.789091200695821
 20
-1.639204209230348
 10
6.782437791067541
 20
-1.630978874863641
 10
6.775653586297261
 20
-1.623333164271445
 10
6.768673188814004
 20
-1.616332517882849
 10
6.761431201046759
 20
-1.610042376127005
 10
6.753862225424537
 20
-1.604528179433005
 10
6.745900864376348
 20
-1.599855368229988
 10
6.737481720331189
 20
-1.596089382947058
 10
6.728567423243715
 20
-1.593280083005236
 10
6.719232713171169
 20
-1.591415003793072
 10
6.709580357696458
 20
-1.590466099691029
 10
6.699713124402471
 20
-1.590405325079569
 10
6.689733780872106
 20
-1.591204634339121
 10
6.679745094688259
 20
-1.592835981850145
 10
6.669849833433826
 20
-1.595271321993104
 10
6.660150764691705
 20
-1.598482609148446
 10
6.650728856887901
 20
-1.602438681299942
 10
6.641577881820893
 20
-1.607095910844678
 10
6.632669812132245
 20
-1.612407553783054
 10
6.623976620463555
 20
-1.618326866115481
 10
6.615470279456388
 20
-1.624807103842352
 10
6.607122761752341
 20
-1.631801522964076
 10
6.598906039992979
 20
-1.639263379481056
 10
6.590792086819897
 20
-1.647145929393703
 10
6.58276221729403
 20
-1.65538996382007
 10
6.574835116153758
 20
-1.663886414348855
 10
6.567038810556832
 20
-1.672513747686396
 10
6.559401327660992
 20
-1.681150430539055
 10
6.551950694623975
 20
-1.689674929613177
 10
6.544714938603533
 20
-1.697965711615097
 10
6.537722086757408
 20
-1.705901243251179
 10
6.531000166243341
 20
-1.713359991227767
 10
6.524547619751743
 20
-1.720250026394177
 10
6.518244552103695
 20
-1.726597836171631
 10
6.51194148365294
 20
-1.732459512124297
 10
6.505488934753234
 20
-1.737891145816364
 10
6.498737425758323
 20
-1.742948828812014
 10
6.491537477021955
 20
-1.747688652675433
 10
6.48373960889787
 20
-1.752166708970795
 10
6.475194341739827
 20
-1.756439089262297
 10
6.465546679532383
 20
-1.760600473753166
 10
6.453619560783415
 20
-1.764899897202871
 10
6.43803040763159
 20
-1.769624983009949
 10
6.417396642215603
 20
-1.775063354572905
 10
6.390335686674127
 20
-1.781502635290275
 10
6.355464963145848
 20
-1.789230448560575
 10
6.311401893769449
 20
-1.798534417782338
 10
6.25676390068361
 20
-1.809702166354075
 10
6.190657756199751
 20
-1.822955733990001
 10
6.114147633320175
 20
-1.838254825667016
 10
6.028787055219936
 20
-1.855493562677708
 10
5.936129545074079
 20
-1.874566066314667
 10
5.837728626057646
 20
-1.895366457870467
 10
5.735137821345684
 20
-1.917788858637715
 10
5.629910654113245
 20
-1.941727389908972
 10
5.523600647535364
 20
-1.967076172976842
 10
5.417542622692808
 20
-1.993735444191418
 10
5.312196592289192
 20
-2.021629900132838
 10
5.207803866933854
 20
-2.050690352438751
 10
5.104605757236122
 20
-2.080847612746804
 10
5.002843573805332
 20
-2.112032492694654
 10
4.902758627250815
 20
-2.144175803919941
 10
4.804592228181906
 20
-2.177208358060331
 10
4.708585687207939
 20
-2.211060966753452
 10
4.614874439525703
 20
-2.245729159505051
 10
4.523170418681768
 20
-2.281467337293149
 10
4.433079682810179
 20
-2.318594618963858
 10
4.34420829004496
 20
-2.357430123363293
 10
4.256162298520148
 20
-2.39829296933755
 10
4.168547766369769
 20
-2.44150227573275
 10
4.080970751727871
 20
-2.487377161394997
 10
3.993037312728466
 20
-2.5362367451704
 10
3.904509833668374
 20
-2.588290644423095
 10
3.815776003495479
 20
-2.643310470589311
 10
3.727379837320439
 20
-2.700958333623299
 10
3.639865350253922
 20
-2.760896343479316
 10
3.553776557406569
 20
-2.822786610111615
 10
3.469657473889066
 20
-2.886291243474436
 10
3.388052114812055
 20
-2.951072353522055
 10
3.3095044952862
 20
-3.016792050208708
 10
3.234405430751881
 20
-3.083200044533368
 10
3.162532937968322
 20
-3.150396451673836
 10
3.093511834024468
 20
-3.218568987852608
 10
3.026966936009259
 20
-3.287905369292216
 10
2.962523061011642
 20
-3.35859331221515
 10
2.899805026120567
 20
-3.430820532843943
 10
2.838437648424967
 20
-3.504774747401091
 10
2.778045745013796
 20
-3.580643672109102
 10
2.718347928720469
 20
-3.658589994490858
 10
2.65943799535638
 20
-3.738676287270713
 10
2.601503536477396
 20
-3.820940094473362
 10
2.544732143639365
 20
-3.905418960123538
 10
2.489311408398169
 20
-3.992150428245933
 10
2.435428922309673
 20
-4.081172042865267
 10
2.383272276929737
 20
-4.172521348006252
 10
2.333029063814223
 20
-4.266235887693603
 10
2.284861862278118
 20
-4.362271861811315
 10
2.2388332026728
 20
-4.460260093680579
 10
2.194980603108774
 20
-4.559750062481844
 10
2.153341581696539
 20
-4.660291247395588
 10
2.113953656546582
 20
-4.761433127602275
 10
2.076854345769412
 20
-4.862725182282373
 10
2.042081167475522
 20
-4.963716890616349
 10
2.009671639775414
 20
-5.06395773178467
 10
1.979635778555769
 20
-5.163000975162405
 10
1.951873590808061
 20
-5.260415050903013
 10
1.926257581299959
 20
-5.355772179354573
 10
1.902660254799124
 20
-5.44864458086513
 10
1.880954116073216
 20
-5.53860447578276
 10
1.861011669889903
 20
-5.625224084455536
 10
1.842705421016837
 20
-5.7080756272315
 10
1.825907874221696
 20
-5.786731324458741
 10
1.810504491360838
 20
-5.860806523236828
 10
1.796432562645438
 20
-5.930089077671441
 10
1.783642335375355
 20
-5.994409968619756
 10
1.772084056850472
 20
-6.053600176938969
 10
1.761707974370664
 20
-6.107490683486259
 10
1.752464335235789
 20
-6.155912469118821
 10
1.744303386745738
 20
-6.198696514693843
 10
1.73717537620036
 20
-6.235673801068509
 10
1.731007831143326
 20
-6.266831486313215
 10
1.725637400093368
 20
-6.292781437351184
 10
1.720878011813004
 20
-6.314291698318841
 10
1.716543595064755
 20
-6.332130313352618
 10
1.712448078611148
 20
-6.347065326588948
 10
1.708405391214701
 20
-6.35986478216426
 10
1.704229461637925
 20
-6.371296724214971
 10
1.699734218643357
 20
-6.38212919687753
 10
1.694764602899855
 20
-6.392981165142919
 10
1.689289602701755
 20
-6.403875277420477
 10
1.683309218249716
 20
-6.414685102974065
 10
1.67682344974443
 20
-6.425284211067591
 10
1.669832297386557
 20
-6.435546170964926
 10
1.662335761376787
 20
-6.445344551929975
 10
1.654333841915781
 20
-6.45455292322662
 10
1.645826539204223
 20
-6.463044854118747
 10
1.636841930267751
 20
-6.470741325382738
 10
1.627520399431803
 20
-6.477752963844967
 10
1.618030407846797
 20
-6.484237807844307
 10
1.608540416663141
 20
-6.490353895719614
 10
1.599218887031247
 20
-6.496259265809772
 10
1.590234280101523
 20
-6.502111956453635
 10
1.581755057024387
 20
-6.508070005990077
 10
1.57394967895023
 20
-6.514291452757973
 10
1.566951510973201
 20
-6.52089745945126
 10
1.560753533962301
 20
-6.527861686184271
 10
1.555313632730269
 20
-6.535120917426401
 10
1.550589692089848
 20
-6.542611937647038
 10
1.546539596853766
 20
-6.550271531315596
 10
1.543121231834764
 20
-6.55803648290147
 10
1.540292481845565
 20
-6.565843576874057
 10
1.538011231698916
 20
-6.573629597702764
 10
1.536240630597601
 20
-6.581341865832934
 10
1.534964885304582
 20
-6.588969845613707
 10
1.53417346697287
 20
-6.596513537370178
 10
1.533855846755487
 20
-6.603972941427427
 10
1.53400149580545
 20
-6.611348058110539
 10
1.534599885275768
 20
-6.618638887744605
 10
1.535640486319454
 20
-6.625845430654718
 10
1.537112770089526
 20
-6.632967687165958
 10
1.539018491360376
 20
-6.639996877641515
 10
1.541408539391865
 20
-6.646889102597002
 10
1.544346087065219
 20
-6.653591682586123
 10
1.547894307261677
 20
-6.660051938162603
 10
1.552116372862484
 20
-6.66621718988013
 10
1.55707545674886
 20
-6.672034758292436
 10
1.562834731802048
 20
-6.677451963953219
 10
1.56945737090328
 20
-6.682416127416191
 10
1.576997772961527
 20
-6.686914956745546
 10
1.585475240996721
 20
-6.691097710047329
 10
1.594900304056513
 20
-6.695154032938097
 10
1.605283491188562
 20
-6.699273571034373
 10
1.616635331440537
 20
-6.703645969952704
 10
1.628966353860097
 20
-6.708460875309613
 10
1.642287087494894
 20
-6.71390793272165
 10
1.656608061392595
 20
-6.720176787805345
 10
1.671880141134614
 20
-6.72740089491956
 10
1.687815538437368
 20
-6.735488943392513
 10
1.704066801551026
 20
-6.744293431294711
 10
1.720286478725751
 20
-6.753666856696704
 10
1.736127118211721
 20
-6.763461717669006
 10
1.751241268259097
 20
-6.77353051228215
 10
1.765281477118051
 20
-6.783725738606667
 10
1.777900293038753
 20
-6.793899894713099
 10
1.788832740172532
 20
-6.80397571777113
 10
1.798143746275346
 20
-6.814156901347178
 10
1.805980715004304
 20
-6.824717378106832
 10
1.812491050016522
 20
-6.83593108071566
 10
1.817822154969118
 20
-6.848071941839242
 10
1.822121433519209
 20
-6.861413894143183
 10
1.825536289323903
 20
-6.876230870293037
 10
1.828214126040318
 20
-6.892796802954406
 10
1.830270760851512
 20
-6.911290801930418
 10
1.831695665044282
 20
-6.931512685574405
 10
1.832446723431352
 20
-6.953167449377251
 10
1.832481820825471
 20
-6.975960088829834
 10
1.831758842039368
 20
-6.999595599423054
 10
1.830235671885777
 20
-7.02377897664779
 10
1.827870195177435
 20
-7.048215215994923
 10
1.824620296727076
 20
-7.072609312955334
 10
1.820417539163091
 20
-7.096732990199357
 10
1.815088196376429
 20
-7.12062487911503
 10
1.808432220073713
 20
-7.144390338269864
 10
1.800249561961535
 20
-7.168134726231332
 10
1.79034017374651
 20
-7.191963401566935
 10
1.778504007135257
 20
-7.215981722844166
 10
1.764541013834361
 20
-7.240295048630507
 10
1.748251145550461
 20
-7.265008737493459
 10
1.72955543573047
 20
-7.290189516504081
 10
1.708859244782645
 20
-7.315749586747783
 10
1.686689014855557
 20
-7.341562517813533
 10
1.663571188097792
 20
-7.367501879290306
 10
1.640032206657923
 20
-7.393441240767078
 10
1.616598512684523
 20
-7.419254171832827
 10
1.593796548326178
 20
-7.444814242076529
 10
1.572152755731459
 20
-7.469995021087152
 10
1.55209355310292
 20
-7.494677102293167
 10
1.533645262859036
 20
-7.518769174480951
 10
1.516734183472273
 20
-7.542186950276362
 10
1.501286613415077
 20
-7.56484614230529
 10
1.487228851159909
 20
-7.586662463193581
 10
1.474487195179227
 20
-7.60755162556711
 10
1.462987943945475
 20
-7.627429342051741
 10
1.452657395931126
 20
-7.646211325273347
 10
1.443404301396524
 20
-7.663851919516763
 10
1.435067217753685
 20
-7.680459995702652
 10
1.427467154202494
 20
-7.696183056410667
 10
1.420425119942865
 20
-7.711168604220468
 10
1.413762124174701
 20
-7.72556414171168
 10
1.407299176097891
 20
-7.739517171463956
 10
1.400857284912354
 20
-7.753175196056945
 10
1.394257459817995
 20
-7.766685718070291
 10
1.387355806271659
 20
-7.780155852464802
 10
1.380148814758024
 20
-7.793531163725955
 10
1.372668072018726
 20
-7.806716828720402
 10
1.364945164795394
 20
-7.819618024314776
 10
1.357011679829662
 20
-7.832139927375729
 10
1.348899203863151
 20
-7.844187714769896
 10
1.340639323637504
 20
-7.855666563363935
 10
1.33226362589434
 20
-7.866481650024489
 10
1.323780884873499
 20
-7.876596099106634
 10
1.315108624807606
 20
-7.886204824919246
 10
1.306141557427478
 20
-7.895560689259635
 10
1.296774394463952
 20
-7.904916553925113
 10
1.286901847647837
 20
-7.914525280712988
 10
1.276418628709979
 20
-7.924639731420569
 10
1.265219449381179
 20
-7.935512767845176
 10
1.253199021392282
 20
-7.947397251784111
 10
1.240316984263509
 20
-7.960458245795004
 10
1.226792688672699
 20
-7.974509615476693
 10
1.212910413087094
 20
-7.989277427188335
 10
1.198954435973952
 20
-8.004487747289083
 10
1.185209035800507
 20
-8.019866642138108
 10
1.171958491034009
 20
-8.035140178094543
 10
1.159487080141707
 20
-8.05003442151756
 10
1.148079081590836
 20
-8.064275438766305
 10
1.137916995128239
 20
-8.077643731768652
 10
1.128776205619145
 20
-8.09013754472725
 10
1.12033031920836
 20
-8.101809557413497
 10
1.112252942040695
 20
-8.11271244959876
 10
1.104217680260976
 20
-8.122898901054419
 10
1.095898140014007
 20
-8.132421591551857
 10
1.086967927444609
 20
-8.141333200862437
 10
1.077100648697598
 20
-8.149686408757542
 10
1.066047121328558
 20
-8.157528626966396
 10
1.053867008536174
 20
-8.164886195049598
 10
1.040697184929889
 20
-8.171780184525587
 10
1.026674525119177
 20
-8.178231666912822
 10
1.011935903713478
 20
-8.184261713729748
 10
0.9966181953222488
 20
-8.1898913964948
 10
0.9808582745549472
 20
-8.195141786726424
 10
0.9647930160210229
 20
-8.200033955943077
 10
0.9485610492715466
 20
-8.204590731677249
 10
0.9323080236240572
 20
-8.208841965517644
 10
0.9161813433376728
 20
-8.212819265067022
 10
0.9003284126715538
 20
-8.216554237928136
 10
0.8848966358848375
 20
-8.220078491703741
 10
0.8700334172366668
 20
-8.223423633996592
 10
0.8558861609861763
 20
-8.226621272409451
 10
0.8426022713925203
 20
-8.229703014545076
 10
0.8303028304635837
 20
-8.23272505182367
 10
0.819003631202273
 20
-8.23584191093527
 10
0.8086941443602695
 20
-8.239232702387361
 10
0.7993638406892201
 20
-8.243076536687436
 10
0.7910021909407999
 20
-8.247552524342989
 10
0.7835986658666628
 20
-8.252839775861502
 10
0.7771427362184831
 20
-8.259117401750462
 10
0.7716238727479184
 20
-8.266564512517359
 10
0.7670245270756447
 20
-8.275318075036798
 10
0.7632990742984048
 20
-8.285346481651842
 10
0.7603948703819388
 20
-8.296575981072665
 10
0.75825927129201
 20
-8.308932822009451
 10
0.7568396329943568
 20
-8.322343253172364
 10
0.756083311454745
 20
-8.336733523271606
 10
0.7559376626389023
 20
-8.352029881017331
 10
0.7563500425125956
 20
-8.368158575119725
 10
0.7572590329689693
 20
-8.385038830341123
 10
0.7585681196107777
 20
-8.402561775652474
 10
0.7601720139681616
 20
-8.420611516076895
 10
0.7619654275712842
 20
-8.439072156637493
 10
0.7638430719502863
 20
-8.457827802357385
 10
0.7656996586353113
 20
-8.476762558259675
 10
0.7674298991565216
 20
-8.49576052936748
 10
0.7689285050440571
 20
-8.514705820703913
 10
0.7701130003298787
 20
-8.533519412936982
 10
0.7709921590531295
 20
-8.552269789314369
 10
0.771597567754764
 20
-8.571062308728652
 10
0.771960812975749
 20
-8.590002330072396
 10
0.7721134812570299
 20
-8.609195212238196
 10
0.7720871591395655
 20
-8.628746314118622
 10
0.7719134331643174
 20
-8.648760994606254
 10
0.7716238898722283
 20
-8.669344612593665
 10
0.7712413417651041
 20
-8.6905340436716
 10
0.7707535051881314
 20
-8.712092230223378
 10
0.7701393224473341
 20
-8.733713631330497
 10
0.7693777358487531
 20
-8.755092706074439
 10
0.7684476876984104
 20
-8.775923913536695
 10
0.7673281203023317
 20
-8.795901712798752
 10
0.7659979759665561
 20
-8.814720562942088
 10
0.7644361969971066
 20
-8.832074923048192
 10
0.7626182160843502
 20
-8.847734759502438
 10
0.7605054274560157
 20
-8.861772067905674
 10
0.7580557157241615
 20
-8.874334351162627
 10
0.7552269655008486
 20
-8.885569112178039
 10
0.7519770613981267
 20
-8.895623853856641
 10
0.7482638880280668
 20
-8.904646079103164
 10
0.7440453300027246
 20
-8.912783290822346
 10
0.7392792719341648
 20
-8.92018299191891
 10
0.7339464109362313
 20
-8.926976881333672
 10
0.7281186941300089
 20
-8.933233442151752
 10
0.7218908811383518
 20
-8.939005353494357
 10
0.7153577315841347
 20
-8.944345294482685
 10
0.7086140050902117
 20
-8.949305944237941
 10
0.7017544612794487
 20
-8.953939981881326
 10
0.6948738597747255
 20
-8.958300086534043
 10
0.6880669601988912
 20
-8.962438937317291
 10
0.681419748169108
 20
-8.966421505288087
 10
0.6749831132797058
 20
-8.970361929246731
 10
0.6687991711192956
 20
-8.974386639929337
 10
0.6629100372764887
 20
-8.978622068072004
 10
0.6573578273399061
 20
-8.983194644410863
 10
0.6521846568981671
 20
-8.988230799682007
 10
0.6474326415398837
 20
-8.993856964621564
 10
0.6431438968536752
 20
-9.000199569965639
 10
0.6393307065946843
 20
-9.007369242648959
 10
0.6358860271842293
 20
-9.015413394400756
 10
0.6326729832101412
 20
-9.024363633148867
 10
0.629554699260277
 20
-9.034251566821144
 10
0.6263942999224686
 20
-9.045108803345419
 10
0.6230549097845639
 20
-9.056966950649542
 10
0.6193996534344031
 20
-9.069857616661357
 10
0.6152916554598358
 20
-9.083812409308706
 10
0.6105975501981434
 20
-9.09882606076616
 10
0.6051980109844033
 20
-9.114745800195198
 10
0.5989772209031159
 20
-9.131381981004004
 10
0.5918193630388187
 20
-9.148544956600794
 10
0.5836086204760136
 20
-9.166045080393768
 10
0.5742291762992187
 20
-9.183692705791131
 10
0.5635652135929448
 20
-9.201298186201071
 10
0.5515009154417188
 20
-9.218671875031796
 10
0.5379257292699258
 20
-9.235642563676506
 10
0.5227501598614817
 20
-9.252112795468399
 10
0.5058899763401508
 20
-9.268003551725669
 10
0.4872609478297259
 20
-9.283235813766522
 10
0.4667788434539864
 20
-9.297730562909146
 10
0.4443594323367064
 20
-9.311408780471744
 10
0.4199184836016859
 20
-9.324191447772506
 10
0.393371766372697
 20
-9.335999546129638
 10
0.36439990562452
 20
-9.346752300738918
 10
0.3317429497359683
 20
-9.356361912306471
 10
0.2939058029368517
 20
-9.364738825416015
 10
0.2493933694569907
 20
-9.371793484651258
 10
0.1967105535261879
 20
-9.377436334595909
 10
0.1343622593742548
 20
-9.381577819833683
 10
0.0608533912310101
 20
-9.384128384948292
 10
0.0
 20
-9.384742882543365
  0
LINE
  5
FD44
330
FAB9
100
AcDbEntity
  8
0
100
AcDbLine
 10
0.0
 20
0.0
 30
0.0
 11
9.310343502480122
 21
0.0
 31
0.0
  0
POLYLINE
  5
FD45
330
FAB9
100
AcDbEntity
  8
0
100
AcDb2dPolyline
 66
     1
 10
0.0
 20
0.0
 30
0.0
 70
     5
 75
     6
  0
VERTEX
  5
FD46
330
FD45
100
AcDbEntity
  8
0
100
AcDbVertex
100
AcDb2dVertex
 10
1.30675279254464
 20
-5.108131564847009
 30
0.0
 70
    16
  0
VERTEX
  5
FD47
330
FD45
100
AcDbEntity
  8
0
100
AcDbVertex
100
AcDb2dVertex
 10
1.274235099121303
 20
-5.152873362964251
 30
0.0
 70
     8
  0
VERTEX
  5
FD48
330
FD45
100
AcDbEntity
  8
0
100
AcDbVertex
100
AcDb2dVertex
 10
1.270646726110872
 20
-5.157258558733387
 30
0.0
 70
     8
  0
VERTEX
  5
FD49
330
FD45
100
AcDbEntity
  8
0
100
AcDbVertex
100
AcDb2dVertex
 10
1.267172674380647
 20
-5.161262430172532
 30
0.0
 70
     8
  0
VERTEX
  5
FD4A
330
FD45
100
AcDbEntity
  8
0
100
AcDbVertex
100
AcDb2dVertex
 10
1.263774836837209
 20
-5.164884977931852
 30
0.0
 70
     8
  0
VERTEX
  5
FD4B
330
FD45
100
AcDbEntity
  8
0
100
AcDbVertex
100
AcDb2dVertex
 10
1.26041510638718
 20
-5.168126202661524
 30
0.0
 70
     8
  0
VERTEX
  5
FD4C
330
FD45
100
AcDbEntity
  8
0
100
AcDbVertex
100
AcDb2dVertex
 10
1.25705537593715
 20
-5.170986105011721
 30
0.0
 70
     8
  0
VERTEX
  5
FD4D
330
FD45
100
AcDbEntity
  8
0
100
AcDbVertex
100
AcDb2dVertex
 10
1.253657538393713
 20
-5.173464685632628
 30
0.0
 70
     8
  0
VERTEX
  5
FD4E
330
FD45
100
AcDbEntity
  8
0
100
AcDbVertex
100
AcDb2dVertex
 10
1.250183486663487
 20
-5.17556194517441
 30
0.0
 70
     8
  0
VERTEX
  5
FD4F
330
FD45
100
AcDbEntity
  8
0
100
AcDbVertex
100
AcDb2dVertex
 10
1.246595113653056
 20
-5.177277884287245
 30
0.0
 70
     8
  0
VERTEX
  5
FD50
330
FD45
100
AcDbEntity
  8
0
100
AcDbVertex
100
AcDb2dVertex
 10
1.24286066351816
 20
-5.178610914648033
 30
0.0
 70
     8
  0
VERTEX
  5
FD51
330
FD45
100
AcDbEntity
  8
0
100
AcDbVertex
100
AcDb2dVertex
 10
1.23897378541102
 20
-5.179553092040513
 30
0.0
 70
     8
  0
VERTEX
  5
FD52
330
FD45
100
AcDbEntity
  8
0
100
AcDbVertex
100
AcDb2dVertex
 10
1.234934479732979
 20
-5.180094883275185
 30
0.0
 70
     8
  0
VERTEX
  5
FD53
330
FD45
100
AcDbEntity
  8
0
100
AcDbVertex
100
AcDb2dVertex
 10
1.230742746885398
 20
-5.180226755162526
 30
0.0
 70
     8
  0
VERTEX
  5
FD54
330
FD45
100
AcDbEntity
  8
0
100
AcDbVertex
100
AcDb2dVertex
 10
1.226398587269618
 20
-5.179939174512999
 30
0.0
 70
     8
  0
VERTEX
  5
FD55
330
FD45
100
AcDbEntity
  8
0
100
AcDbVertex
100
AcDb2dVertex
 10
1.221902001286999
 20
-5.17922260813709
 30
0.0
 70
     8
  0
VERTEX
  5
FD56
330
FD45
100
AcDbEntity
  8
0
100
AcDbVertex
100
AcDb2dVertex
 10
1.217252989338894
 20
-5.178067522845289
 30
0.0
 70
     8
  0
VERTEX
  5
FD57
330
FD45
100
AcDbEntity
  8
0
100
AcDbVertex
100
AcDb2dVertex
 10
1.212451551826653
 20
-5.176464385448054
 30
0.0
 70
     8
  0
VERTEX
  5
FD58
330
FD45
100
AcDbEntity
  8
0
100
AcDbVertex
100
AcDb2dVertex
 10
1.207508803469689
 20
-5.17438777437758
 30
0.0
 70
     8
  0
VERTEX
  5
FD59
330
FD45
100
AcDbEntity
  8
0
100
AcDbVertex
100
AcDb2dVertex
 10
1.202480316259663
 20
-5.171748714552858
 30
0.0
 70
     8
  0
VERTEX
  5
FD5A
330
FD45
100
AcDbEntity
  8
0
100
AcDbVertex
100
AcDb2dVertex
 10
1.197432776506317
 20
-5.168442342514581
 30
0.0
 70
     8
  0
VERTEX
  5
FD5B
330
FD45
100
AcDbEntity
  8
0
100
AcDbVertex
100
AcDb2dVertex
 10
1.192432870519389
 20
-5.164363794803453
 30
0.0
 70
     8
  0
VERTEX
  5
FD5C
330
FD45
100
AcDbEntity
  8
0
100
AcDbVertex
100
AcDb2dVertex
 10
1.187547284608594
 20
-5.159408207960174
 30
0.0
 70
     8
  0
VERTEX
  5
FD5D
330
FD45
100
AcDbEntity
  8
0
100
AcDbVertex
100
AcDb2dVertex
 10
1.182842705083682
 20
-5.15347071852543
 30
0.0
 70
     8
  0
VERTEX
  5
FD5E
330
FD45
100
AcDbEntity
  8
0
100
AcDbVertex
100
AcDb2dVertex
 10
1.178385818254385
 20
-5.146446463039932
 30
0.0
 70
     8
  0
VERTEX
  5
FD5F
330
FD45
100
AcDbEntity
  8
0
100
AcDbVertex
100
AcDb2dVertex
 10
1.174243310430425
 20
-5.138230578044366
 30
0.0
 70
     8
  0
VERTEX
  5
FD60
330
FD45
100
AcDbEntity
  8
0
100
AcDbVertex
100
AcDb2dVertex
 10
1.170469165791192
 20
-5.127993689270567
 30
0.0
 70
     8
  0
VERTEX
  5
FD61
330
FD45
100
AcDbEntity
  8
0
100
AcDbVertex
100
AcDb2dVertex
 10
1.167066559994701
 20
-5.112008379214897
 30
0.0
 70
     8
  0
VERTEX
  5
FD62
330
FD45
100
AcDbEntity
  8
0
100
AcDbVertex
100
AcDb2dVertex
 10
1.164025966568615
 20
-5.085822719564822
 30
0.0
 70
     8
  0
VERTEX
  5
FD63
330
FD45
100
AcDbEntity
  8
0
100
AcDbVertex
100
AcDb2dVertex
 10
1.161337859040599
 20
-5.044984782007836
 30
0.0
 70
     8
  0
VERTEX
  5
FD64
330
FD45
100
AcDbEntity
  8
0
100
AcDbVertex
100
AcDb2dVertex
 10
1.158992710938306
 20
-4.985042638231418
 30
0.0
 70
     8
  0
VERTEX
  5
FD65
330
FD45
100
AcDbEntity
  8
0
100
AcDbVertex
100
AcDb2dVertex
 10
1.15698099578941
 20
-4.901544359923061
 30
0.0
 70
     8
  0
VERTEX
  5
FD66
330
FD45
100
AcDbEntity
  8
0
100
AcDbVertex
100
AcDb2dVertex
 10
1.155293187121574
 20
-4.790038018770242
 30
0.0
 70
     8
  0
VERTEX
  5
FD67
330
FD45
100
AcDbEntity
  8
0
100
AcDbVertex
100
AcDb2dVertex
 10
1.153919758462454
 20
-4.646071686460446
 30
0.0
 70
     8
  0
VERTEX
  5
FD68
330
FD45
100
AcDbEntity
  8
0
100
AcDbVertex
100
AcDb2dVertex
 10
1.152852771085109
 20
-4.467457530945326
 30
0.0
 70
     8
  0
VERTEX
  5
FD69
330
FD45
100
AcDbEntity
  8
0
100
AcDbVertex
100
AcDb2dVertex
 10
1.152090637244144
 20
-4.261064105233223
 30
0.0
 70
     8
  0
VERTEX
  5
FD6A
330
FD45
100
AcDbEntity
  8
0
100
AcDbVertex
100
AcDb2dVertex
 10
1.151633356939567
 20
-4.036024058596636
 30
0.0
 70
     8
  0
VERTEX
  5
FD6B
330
FD45
100
AcDbEntity
  8
0
100
AcDbVertex
100
AcDb2dVertex
 10
1.151480930171377
 20
-3.801470040308069
 30
0.0
 70
     8
  0
VERTEX
  5
FD6C
330
FD45
100
AcDbEntity
  8
0
100
AcDbVertex
100
AcDb2dVertex
 10
1.151633356939567
 20
-3.566534699640035
 30
0.0
 70
     8
  0
VERTEX
  5
FD6D
330
FD45
100
AcDbEntity
  8
0
100
AcDbVertex
100
AcDb2dVertex
 10
1.152090637244144
 20
-3.340350685865027
 30
0.0
 70
     8
  0
VERTEX
  5
FD6E
330
FD45
100
AcDbEntity
  8
0
100
AcDbVertex
100
AcDb2dVertex
 10
1.152852771085109
 20
-3.132050648255562
 30
0.0
 70
     8
  0
VERTEX
  5
FD6F
330
FD45
100
AcDbEntity
  8
0
100
AcDbVertex
100
AcDb2dVertex
 10
1.153919758462454
 20
-2.950767236084148
 30
0.0
 70
     8
  0
VERTEX
  5
FD70
330
FD45
100
AcDbEntity
  8
0
100
AcDbVertex
100
AcDb2dVertex
 10
1.155307477097641
 20
-2.803372180088944
 30
0.0
 70
     8
  0
VERTEX
  5
FD71
330
FD45
100
AcDbEntity
  8
0
100
AcDbVertex
100
AcDb2dVertex
 10
1.157095315597985
 20
-2.687693536870821
 30
0.0
 70
     8
  0
VERTEX
  5
FD72
330
FD45
100
AcDbEntity
  8
0
100
AcDbVertex
100
AcDb2dVertex
 10
1.15937854029225
 20
-2.599298444496303
 30
0.0
 70
     8
  0
VERTEX
  5
FD73
330
FD45
100
AcDbEntity
  8
0
100
AcDbVertex
100
AcDb2dVertex
 10
1.162252417509214
 20
-2.533754041031917
 30
0.0
 70
     8
  0
VERTEX
  5
FD74
330
FD45
100
AcDbEntity
  8
0
100
AcDbVertex
100
AcDb2dVertex
 10
1.165812213577625
 20
-2.486627464544186
 30
0.0
 70
     8
  0
VERTEX
  5
FD75
330
FD45
100
AcDbEntity
  8
0
100
AcDbVertex
100
AcDb2dVertex
 10
1.17015319482627
 20
-2.453485853099644
 30
0.0
 70
     8
  0
VERTEX
  5
FD76
330
FD45
100
AcDbEntity
  8
0
100
AcDbVertex
100
AcDb2dVertex
 10
1.175370627583916
 20
-2.429896344764818
 30
0.0
 70
     8
  0
VERTEX
  5
FD77
330
FD45
100
AcDbEntity
  8
0
100
AcDbVertex
100
AcDb2dVertex
 10
1.181559778179329
 20
-2.411426077606238
 30
0.0
 70
     8
  0
VERTEX
  5
FD78
330
FD45
100
AcDbEntity
  8
0
100
AcDbVertex
100
AcDb2dVertex
 10
1.188800035286703
 20
-2.394403243796466
 30
0.0
 70
     8
  0
VERTEX
  5
FD79
330
FD45
100
AcDbEntity
  8
0
100
AcDbVertex
100
AcDb2dVertex
 10
1.197107276961965
 20
-2.378200251932243
 30
0.0
 70
     8
  0
VERTEX
  5
FD7A
330
FD45
100
AcDbEntity
  8
0
100
AcDbVertex
100
AcDb2dVertex
 10
1.206481503606472
 20
-2.362950564716346
 30
0.0
 70
     8
  0
VERTEX
  5
FD7B
330
FD45
100
AcDbEntity
  8
0
100
AcDbVertex
100
AcDb2dVertex
 10
1.216922715621558
 20
-2.348787644851562
 30
0.0
 70
     8
  0
VERTEX
  5
FD7C
330
FD45
100
AcDbEntity
  8
0
100
AcDbVertex
100
AcDb2dVertex
 10
1.228430913408594
 20
-2.335844955040668
 30
0.0
 70
     8
  0
VERTEX
  5
FD7D
330
FD45
100
AcDbEntity
  8
0
100
AcDbVertex
100
AcDb2dVertex
 10
1.241006097368911
 20
-2.324255957986441
 30
0.0
 70
     8
  0
VERTEX
  5
FD7E
330
FD45
100
AcDbEntity
  8
0
100
AcDbVertex
100
AcDb2dVertex
 10
1.254648267903879
 20
-2.314154116391668
 30
0.0
 70
     8
  0
VERTEX
  5
FD7F
330
FD45
100
AcDbEntity
  8
0
100
AcDbVertex
100
AcDb2dVertex
 10
1.26935742541484
 20
-2.305672892959117
 30
0.0
 70
     8
  0
VERTEX
  5
FD80
330
FD45
100
AcDbEntity
  8
0
100
AcDbVertex
100
AcDb2dVertex
 10
1.285097051356486
 20
-2.298907618121123
 30
0.0
 70
     8
  0
VERTEX
  5
FD81
330
FD45
100
AcDbEntity
  8
0
100
AcDbVertex
100
AcDb2dVertex
 10
1.301684551396871
 20
-2.293801093228191
 30
0.0
 70
     8
  0
VERTEX
  5
FD82
330
FD45
100
AcDbEntity
  8
0
100
AcDbVertex
100
AcDb2dVertex
 10
1.318900812257407
 20
-2.290257987360346
 30
0.0
 70
     8
  0
VERTEX
  5
FD83
330
FD45
100
AcDbEntity
  8
0
100
AcDbVertex
100
AcDb2dVertex
 10
1.336526720659478
 20
-2.288182969597658
 30
0.0
 70
     8
  0
VERTEX
  5
FD84
330
FD45
100
AcDbEntity
  8
0
100
AcDbVertex
100
AcDb2dVertex
 10
1.354343163324498
 20
-2.287480709020146
 30
0.0
 70
     8
  0
VERTEX
  5
FD85
330
FD45
100
AcDbEntity
  8
0
100
AcDbVertex
100
AcDb2dVertex
 10
1.372131026973861
 20
-2.288055874707872
 30
0.0
 70
     8
  0
VERTEX
  5
FD86
330
FD45
100
AcDbEntity
  8
0
100
AcDbVertex
100
AcDb2dVertex
 10
1.389671198328961
 20
-2.28981313574088
 30
0.0
 70
     8
  0
VERTEX
  5
FD87
330
FD45
100
AcDbEntity
  8
0
100
AcDbVertex
100
AcDb2dVertex
 10
1.406744564111209
 20
-2.29265716119921
 30
0.0
 70
     8
  0
VERTEX
  5
FD88
330
FD45
100
AcDbEntity
  8
0
100
AcDbVertex
100
AcDb2dVertex
 10
1.423162178772969
 20
-2.296516452919979
 30
0.0
 70
     8
  0
VERTEX
  5
FD89
330
FD45
100
AcDbEntity
  8
0
100
AcDbVertex
100
AcDb2dVertex
 10
1.438855767690549
 20
-2.301414843768649
 30
0.0
 70
     8
  0
VERTEX
  5
FD8A
330
FD45
100
AcDbEntity
  8
0
100
AcDbVertex
100
AcDb2dVertex
 10
1.453787223971225
 20
-2.307399999367719
 30
0.0
 70
     8
  0
VERTEX
  5
FD8B
330
FD45
100
AcDbEntity
  8
0
100
AcDbVertex
100
AcDb2dVertex
 10
1.467918440722268
 20
-2.314519585339727
 30
0.0
 70
     8
  0
VERTEX
  5
FD8C
330
FD45
100
AcDbEntity
  8
0
100
AcDbVertex
100
AcDb2dVertex
 10
1.481211311050953
 20
-2.322821267307181
 30
0.0
 70
     8
  0
VERTEX
  5
FD8D
330
FD45
100
AcDbEntity
  8
0
100
AcDbVertex
100
AcDb2dVertex
 10
1.493627728064566
 20
-2.332352710892612
 30
0.0
 70
     8
  0
VERTEX
  5
FD8E
330
FD45
100
AcDbEntity
  8
0
100
AcDbVertex
100
AcDb2dVertex
 10
1.505129584870374
 20
-2.343161581718545
 30
0.0
 70
     8
  0
VERTEX
  5
FD8F
330
FD45
100
AcDbEntity
  8
0
100
AcDbVertex
100
AcDb2dVertex
 10
1.515678774575657
 20
-2.355295545407487
 30
0.0
 70
     8
  0
VERTEX
  5
FD90
330
FD45
100
AcDbEntity
  8
0
100
AcDbVertex
100
AcDb2dVertex
 10
1.525291174768093
 20
-2.368865821040971
 30
0.0
 70
     8
  0
VERTEX
  5
FD91
330
FD45
100
AcDbEntity
  8
0
100
AcDbVertex
100
AcDb2dVertex
 10
1.534198600956959
 20
-2.384237841536554
 30
0.0
 70
     8
  0
VERTEX
  5
FD92
330
FD45
100
AcDbEntity
  8
0
100
AcDbVertex
100
AcDb2dVertex
 10
1.542686853131953
 20
-2.401840593270788
 30
0.0
 70
     8
  0
VERTEX
  5
FD93
330
FD45
100
AcDbEntity
  8
0
100
AcDbVertex
100
AcDb2dVertex
 10
1.551041731282745
 20
-2.422103062620232
 30
0.0
 70
     8
  0
VERTEX
  5
FD94
330
FD45
100
AcDbEntity
  8
0
100
AcDbVertex
100
AcDb2dVertex
 10
1.559549035399033
 20
-2.445454235961427
 30
0.0
 70
     8
  0
VERTEX
  5
FD95
330
FD45
100
AcDbEntity
  8
0
100
AcDbVertex
100
AcDb2dVertex
 10
1.568494565470497
 20
-2.472323099670949
 30
0.0
 70
     8
  0
VERTEX
  5
FD96
330
FD45
100
AcDbEntity
  8
0
100
AcDbVertex
100
AcDb2dVertex
 10
1.578164121486816
 20
-2.503138640125344
 30
0.0
 70
     8
  0
VERTEX
  5
FD97
330
FD45
100
AcDbEntity
  8
0
100
AcDbVertex
100
AcDb2dVertex
 10
1.58884350343768
 20
-2.538329843701168
 30
0.0
 70
     8
  0
VERTEX
  5
FD98
330
FD45
100
AcDbEntity
  8
0
100
AcDbVertex
100
AcDb2dVertex
 10
1.600756588005086
 20
-2.578146158018954
 30
0.0
 70
     8
  0
VERTEX
  5
FD99
330
FD45
100
AcDbEntity
  8
0
100
AcDbVertex
100
AcDb2dVertex
 10
1.613879558640286
 20
-2.622118875675123
 30
0.0
 70
     8
  0
VERTEX
  5
FD9A
330
FD45
100
AcDbEntity
  8
0
100
AcDbVertex
100
AcDb2dVertex
 10
1.628126675486848
 20
-2.669599750510094
 30
0.0
 70
     8
  0
VERTEX
  5
FD9B
330
FD45
100
AcDbEntity
  8
0
100
AcDbVertex
100
AcDb2dVertex
 10
1.643412198688349
 20
-2.719940536364275
 30
0.0
 70
     8
  0
VERTEX
  5
FD9C
330
FD45
100
AcDbEntity
  8
0
100
AcDbVertex
100
AcDb2dVertex
 10
1.659650388388342
 20
-2.772492987078047
 30
0.0
 70
     8
  0
VERTEX
  5
FD9D
330
FD45
100
AcDbEntity
  8
0
100
AcDbVertex
100
AcDb2dVertex
 10
1.676755504730403
 20
-2.826608856491835
 30
0.0
 70
     8
  0
VERTEX
  5
FD9E
330
FD45
100
AcDbEntity
  8
0
100
AcDbVertex
100
AcDb2dVertex
 10
1.694641807858094
 20
-2.881639898446044
 30
0.0
 70
     8
  0
VERTEX
  5
FD9F
330
FD45
100
AcDbEntity
  8
0
100
AcDbVertex
100
AcDb2dVertex
 10
1.71322355791499
 20
-2.936937866781077
 30
0.0
 70
     8
  0
VERTEX
  5
FDA0
330
FD45
100
AcDbEntity
  8
0
100
AcDbVertex
100
AcDb2dVertex
 10
1.732380083910284
 20
-2.991857692904634
 30
0.0
 70
     8
  0
VERTEX
  5
FDA1
330
FD45
100
AcDbEntity
  8
0
100
AcDbVertex
100
AcDb2dVertex
 10
1.751850990315643
 20
-3.045767018493597
 30
0.0
 70
     8
  0
VERTEX
  5
FDA2
330
FD45
100
AcDbEntity
  8
0
100
AcDbVertex
100
AcDb2dVertex
 10
1.771340950468378
 20
-3.098036662792162
 30
0.0
 70
     8
  0
VERTEX
  5
FDA3
330
FD45
100
AcDbEntity
  8
0
100
AcDbVertex
100
AcDb2dVertex
 10
1.790554637705787
 20
-3.148037445044517
 30
0.0
 70
     8
  0
VERTEX
  5
FDA4
330
FD45
100
AcDbEntity
  8
0
100
AcDbVertex
100
AcDb2dVertex
 10
1.809196725365179
 20
-3.195140184494848
 30
0.0
 70
     8
  0
VERTEX
  5
FDA5
330
FD45
100
AcDbEntity
  8
0
100
AcDbVertex
100
AcDb2dVertex
 10
1.826971886783861
 20
-3.23871570038734
 30
0.0
 70
     8
  0
VERTEX
  5
FDA6
330
FD45
100
AcDbEntity
  8
0
100
AcDbVertex
100
AcDb2dVertex
 10
1.843584795299126
 20
-3.278134811966173
 30
0.0
 70
     8
  0
VERTEX
  5
FDA7
330
FD45
100
AcDbEntity
  8
0
100
AcDbVertex
100
AcDb2dVertex
 10
1.85874012424829
 20
-3.312768338475542
 30
0.0
 70
     8
  0
VERTEX
  5
FDA8
330
FD45
100
AcDbEntity
  8
0
100
AcDbVertex
100
AcDb2dVertex
 10
1.872213996949346
 20
-3.342200003753902
 30
0.0
 70
     8
  0
VERTEX
  5
FDA9
330
FD45
100
AcDbEntity
  8
0
100
AcDbVertex
100
AcDb2dVertex
 10
1.884068336643081
 20
-3.366865150016741
 30
0.0
 70
     8
  0
VERTEX
  5
FDAA
330
FD45
100
AcDbEntity
  8
0
100
AcDbVertex
100
AcDb2dVertex
 10
1.894436516551004
 20
-3.387412024073851
 30
0.0
 70
     8
  0
VERTEX
  5
FDAB
330
FD45
100
AcDbEntity
  8
0
100
AcDbVertex
100
AcDb2dVertex
 10
1.903451909894597
 20
-3.404488872734981
 30
0.0
 70
     8
  0
VERTEX
  5
FDAC
330
FD45
100
AcDbEntity
  8
0
100
AcDbVertex
100
AcDb2dVertex
 10
1.911247889895357
 20
-3.418743942809916
 30
0.0
 70
     8
  0
VERTEX
  5
FDAD
330
FD45
100
AcDbEntity
  8
0
100
AcDbVertex
100
AcDb2dVertex
 10
1.917957829774777
 20
-3.430825481108415
 30
0.0
 70
     8
  0
VERTEX
  5
FDAE
330
FD45
100
AcDbEntity
  8
0
100
AcDbVertex
100
AcDb2dVertex
 10
1.923715102754337
 20
-3.44138173444025
 30
0.0
 70
     8
  0
VERTEX
  5
FDAF
330
FD45
100
AcDbEntity
  8
0
100
AcDbVertex
100
AcDb2dVertex
 10
1.928653082055545
 20
-3.451060949615198
 30
0.0
 70
     8
  0
VERTEX
  5
FDB0
330
FD45
100
AcDbEntity
  8
0
100
AcDbVertex
100
AcDb2dVertex
 10
1.932894026514937
 20
-3.460406509929534
 30
0.0
 70
     8
  0
VERTEX
  5
FDB1
330
FD45
100
AcDbEntity
  8
0
100
AcDbVertex
100
AcDb2dVertex
 10
1.936515737429217
 20
-3.469542344625617
 30
0.0
 70
     8
  0
VERTEX
  5
FDB2
330
FD45
100
AcDbEntity
  8
0
100
AcDbVertex
100
AcDb2dVertex
 10
1.939584901710152
 20
-3.478487519432311
 30
0.0
 70
     8
  0
VERTEX
  5
FDB3
330
FD45
100
AcDbEntity
  8
0
100
AcDbVertex
100
AcDb2dVertex
 10
1.942168206269501
 20
-3.487261100078496
 30
0.0
 70
     8
  0
VERTEX
  5
FDB4
330
FD45
100
AcDbEntity
  8
0
100
AcDbVertex
100
AcDb2dVertex
 10
1.944332338019032
 20
-3.495882152293019
 30
0.0
 70
     8
  0
VERTEX
  5
FDB5
330
FD45
100
AcDbEntity
  8
0
100
AcDbVertex
100
AcDb2dVertex
 10
1.946143983870493
 20
-3.504369741804771
 30
0.0
 70
     8
  0
VERTEX
  5
FDB6
330
FD45
100
AcDbEntity
  8
0
100
AcDbVertex
100
AcDb2dVertex
 10
1.947669830735644
 20
-3.512742934342606
 30
0.0
 70
     8
  0
VERTEX
  5
FDB7
330
FD45
100
AcDbEntity
  8
0
100
AcDbVertex
100
AcDb2dVertex
 10
1.948976565526242
 20
-3.521020795635404
 30
0.0
 70
     8
  0
VERTEX
  5
FDB8
330
FD45
100
AcDbEntity
  8
0
100
AcDbVertex
100
AcDb2dVertex
 10
1.950111821774595
 20
-3.529228746817517
 30
0.0
 70
     8
  0
VERTEX
  5
FDB9
330
FD45
100
AcDbEntity
  8
0
100
AcDbVertex
100
AcDb2dVertex
 10
1.951047019495096
 20
-3.537417630645336
 30
0.0
 70
     8
  0
VERTEX
  5
FDBA
330
FD45
100
AcDbEntity
  8
0
100
AcDbVertex
100
AcDb2dVertex
 10
1.951734525322684
 20
-3.545644645280711
 30
0.0
 70
     8
  0
VERTEX
  5
FDBB
330
FD45
100
AcDbEntity
  8
0
100
AcDbVertex
100
AcDb2dVertex
 10
1.95212670589231
 20
-3.55396698888552
 30
0.0
 70
     8
  0
VERTEX
  5
FDBC
330
FD45
100
AcDbEntity
  8
0
100
AcDbVertex
100
AcDb2dVertex
 10
1.952175927838905
 20
-3.562441859621623
 30
0.0
 70
     8
  0
VERTEX
  5
FDBD
330
FD45
100
AcDbEntity
  8
0
100
AcDbVertex
100
AcDb2dVertex
 10
1.95183455779742
 20
-3.571126455650899
 30
0.0
 70
     8
  0
VERTEX
  5
FDBE
330
FD45
100
AcDbEntity
  8
0
100
AcDbVertex
100
AcDb2dVertex
 10
1.951054962402785
 20
-3.580077975135205
 30
0.0
 70
     8
  0
VERTEX
  5
FDBF
330
FD45
100
AcDbEntity
  8
0
100
AcDbVertex
100
AcDb2dVertex
 10
1.949789508289935
 20
-3.589353616236424
 30
0.0
 70
     8
  0
VERTEX
  5
FDC0
330
FD45
100
AcDbEntity
  8
0
100
AcDbVertex
100
AcDb2dVertex
 10
1.947988974281544
 20
-3.599004221819274
 30
0.0
 70
     8
  0
VERTEX
  5
FDC1
330
FD45
100
AcDbEntity
  8
0
100
AcDbVertex
100
AcDb2dVertex
 10
1.945597787951133
 20
-3.609055213559942
 30
0.0
 70
     8
  0
VERTEX
  5
FDC2
330
FD45
100
AcDbEntity
  8
0
100
AcDbVertex
100
AcDb2dVertex
 10
1.942558789059959
 20
-3.619525657837469
 30
0.0
 70
     8
  0
VERTEX
  5
FDC3
330
FD45
100
AcDbEntity
  8
0
100
AcDbVertex
100
AcDb2dVertex
 10
1.938814817369278
 20
-3.630434621030895
 30
0.0
 70
     8
  0
VERTEX
  5
FDC4
330
FD45
100
AcDbEntity
  8
0
100
AcDbVertex
100
AcDb2dVertex
 10
1.934308712640335
 20
-3.64180116951927
 30
0.0
 70
     8
  0
VERTEX
  5
FDC5
330
FD45
100
AcDbEntity
  8
0
100
AcDbVertex
100
AcDb2dVertex
 10
1.928983314634382
 20
-3.65364436968163
 30
0.0
 70
     8
  0
VERTEX
  5
FDC6
330
FD45
100
AcDbEntity
  8
0
100
AcDbVertex
100
AcDb2dVertex
 10
1.922781463112681
 20
-3.665983287897033
 30
0.0
 70
     8
  0
VERTEX
  5
FDC7
330
FD45
100
AcDbEntity
  8
0
100
AcDbVertex
100
AcDb2dVertex
 10
1.915645997836477
 20
-3.678836990544505
 30
0.0
 70
     8
  0
VERTEX
  5
FDC8
330
FD45
100
AcDbEntity
  8
0
100
AcDbVertex
100
AcDb2dVertex
 10
1.907532460864596
 20
-3.69225155421911
 30
0.0
 70
     8
  0
VERTEX
  5
FDC9
330
FD45
100
AcDbEntity
  8
0
100
AcDbVertex
100
AcDb2dVertex
 10
1.898447203446171
 20
-3.706381096379965
 30
0.0
 70
     8
  0
VERTEX
  5
FDCA
330
FD45
100
AcDbEntity
  8
0
100
AcDbVertex
100
AcDb2dVertex
 10
1.888409279127888
 20
-3.721406744702187
 30
0.0
 70
     8
  0
VERTEX
  5
FDCB
330
FD45
100
AcDbEntity
  8
0
100
AcDbVertex
100
AcDb2dVertex
 10
1.877437741456462
 20
-3.737509626860921
 30
0.0
 70
     8
  0
VERTEX
  5
FDCC
330
FD45
100
AcDbEntity
  8
0
100
AcDbVertex
100
AcDb2dVertex
 10
1.865551643978583
 20
-3.754870870531275
 30
0.0
 70
     8
  0
VERTEX
  5
FDCD
330
FD45
100
AcDbEntity
  8
0
100
AcDbVertex
100
AcDb2dVertex
 10
1.852770040240959
 20
-3.773671603388381
 30
0.0
 70
     8
  0
VERTEX
  5
FDCE
330
FD45
100
AcDbEntity
  8
0
100
AcDbVertex
100
AcDb2dVertex
 10
1.839111983790274
 20
-3.794092953107364
 30
0.0
 70
     8
  0
VERTEX
  5
FDCF
330
FD45
100
AcDbEntity
  8
0
100
AcDbVertex
100
AcDb2dVertex
 10
1.824596528173241
 20
-3.816316047363363
 30
0.0
 70
     8
  0
VERTEX
  5
FDD0
330
FD45
100
AcDbEntity
  8
0
100
AcDbVertex
100
AcDb2dVertex
 10
1.809255429100351
 20
-3.840480704047918
 30
0.0
 70
     8
  0
VERTEX
  5
FDD1
330
FD45
100
AcDbEntity
  8
0
100
AcDbVertex
100
AcDb2dVertex
 10
1.793171250937248
 20
-3.866561501918306
 30
0.0
 70
     8
  0
VERTEX
  5
FDD2
330
FD45
100
AcDbEntity
  8
0
100
AcDbVertex
100
AcDb2dVertex
 10
1.776439260213384
 20
-3.894491709948225
 30
0.0
 70
     8
  0
VERTEX
  5
FDD3
330
FD45
100
AcDbEntity
  8
0
100
AcDbVertex
100
AcDb2dVertex
 10
1.759154723458202
 20
-3.924204597111367
 30
0.0
 70
     8
  0
VERTEX
  5
FDD4
330
FD45
100
AcDbEntity
  8
0
100
AcDbVertex
100
AcDb2dVertex
 10
1.741412907201146
 20
-3.955633432381427
 30
0.0
 70
     8
  0
VERTEX
  5
FDD5
330
FD45
100
AcDbEntity
  8
0
100
AcDbVertex
100
AcDb2dVertex
 10
1.723309077971657
 20
-3.988711484732119
 30
0.0
 70
     8
  0
VERTEX
  5
FDD6
330
FD45
100
AcDbEntity
  8
0
100
AcDbVertex
100
AcDb2dVertex
 10
1.704938502299187
 20
-4.023372023137124
 30
0.0
 70
     8
  0
VERTEX
  5
FDD7
330
FD45
100
AcDbEntity
  8
0
100
AcDbVertex
100
AcDb2dVertex
 10
1.686396446713171
 20
-4.059548316570142
 30
0.0
 70
     8
  0
VERTEX
  5
FDD8
330
FD45
100
AcDbEntity
  8
0
100
AcDbVertex
100
AcDb2dVertex
 10
1.66777500221884
 20
-4.097148212437057
 30
0.0
 70
     8
  0
VERTEX
  5
FDD9
330
FD45
100
AcDbEntity
  8
0
100
AcDbVertex
100
AcDb2dVertex
 10
1.649153557724507
 20
-4.135977871872468
 30
0.0
 70
     8
  0
VERTEX
  5
FDDA
330
FD45
100
AcDbEntity
  8
0
100
AcDbVertex
100
AcDb2dVertex
 10
1.630608326614269
 20
-4.175818034443169
 30
0.0
 70
     8
  0
VERTEX
  5
FDDB
330
FD45
100
AcDbEntity
  8
0
100
AcDbVertex
100
AcDb2dVertex
 10
1.612215522272221
 20
-4.216449439715935
 30
0.0
 70
     8
  0
VERTEX
  5
FDDC
330
FD45
100
AcDbEntity
  8
0
100
AcDbVertex
100
AcDb2dVertex
 10
1.594051358082467
 20
-4.257652827257561
 30
0.0
 70
     8
  0
VERTEX
  5
FDDD
330
FD45
100
AcDbEntity
  8
0
100
AcDbVertex
100
AcDb2dVertex
 10
1.57619204742909
 20
-4.29920893663484
 30
0.0
 70
     8
  0
VERTEX
  5
FDDE
330
FD45
100
AcDbEntity
  8
0
100
AcDbVertex
100
AcDb2dVertex
 10
1.558713803696198
 20
-4.340898507414538
 30
0.0
 70
     8
  0
VERTEX
  5
FDDF
330
FD45
100
AcDbEntity
  8
0
100
AcDbVertex
100
AcDb2dVertex
 10
1.541692840267882
 20
-4.382502279163454
 30
0.0
 70
     8
  0
VERTEX
  5
FDE0
330
FD45
100
AcDbEntity
  8
0
100
AcDbVertex
100
AcDb2dVertex
 10
1.52519584382178
 20
-4.423810524637898
 30
0.0
 70
     8
  0
VERTEX
  5
FDE1
330
FD45
100
AcDbEntity
  8
0
100
AcDbVertex
100
AcDb2dVertex
 10
1.5092513942097
 20
-4.464651649352255
 30
0.0
 70
     8
  0
VERTEX
  5
FDE2
330
FD45
100
AcDbEntity
  8
0
100
AcDbVertex
100
AcDb2dVertex
 10
1.493878544576996
 20
-4.504863592010457
 30
0.0
 70
     8
  0
VERTEX
  5
FDE3
330
FD45
100
AcDbEntity
  8
0
100
AcDbVertex
100
AcDb2dVertex
 10
1.479096348069
 20
-4.544284291316407
 30
0.0
 70
     8
  0
VERTEX
  5
FDE4
330
FD45
100
AcDbEntity
  8
0
100
AcDbVertex
100
AcDb2dVertex
 10
1.464923857831069
 20
-4.58275168597403
 30
0.0
 70
     8
  0
VERTEX
  5
FDE5
330
FD45
100
AcDbEntity
  8
0
100
AcDbVertex
100
AcDb2dVertex
 10
1.451380127008558
 20
-4.620103714687235
 30
0.0
 70
     8
  0
VERTEX
  5
FDE6
330
FD45
100
AcDbEntity
  8
0
100
AcDbVertex
100
AcDb2dVertex
 10
1.438484208746809
 20
-4.65617831615995
 30
0.0
 70
     8
  0
VERTEX
  5
FDE7
330
FD45
100
AcDbEntity
  8
0
100
AcDbVertex
100
AcDb2dVertex
 10
1.426255156191178
 20
-4.690813429096083
 30
0.0
 70
     8
  0
VERTEX
  5
FDE8
330
FD45
100
AcDbEntity
  8
0
100
AcDbVertex
100
AcDb2dVertex
 10
1.414705671438551
 20
-4.723899423820845
 30
0.0
 70
     8
  0
VERTEX
  5
FDE9
330
FD45
100
AcDbEntity
  8
0
100
AcDbVertex
100
AcDb2dVertex
 10
1.403823052392032
 20
-4.755536397144596
 30
0.0
 70
     8
  0
VERTEX
  5
FDEA
330
FD45
100
AcDbEntity
  8
0
100
AcDbVertex
100
AcDb2dVertex
 10
1.393588245906284
 20
-4.785876877498981
 30
0.0
 70
     8
  0
VERTEX
  5
FDEB
330
FD45
100
AcDbEntity
  8
0
100
AcDbVertex
100
AcDb2dVertex
 10
1.383982198835949
 20
-4.815073393315652
 30
0.0
 70
     8
  0
VERTEX
  5
FDEC
330
FD45
100
AcDbEntity
  8
0
100
AcDbVertex
100
AcDb2dVertex
 10
1.374985858035677
 20
-4.843278473026254
 30
0.0
 70
     8
  0
VERTEX
  5
FDED
330
FD45
100
AcDbEntity
  8
0
100
AcDbVertex
100
AcDb2dVertex
 10
1.366580170360123
 20
-4.87064464506244
 30
0.0
 70
     8
  0
VERTEX
  5
FDEE
330
FD45
100
AcDbEntity
  8
0
100
AcDbVertex
100
AcDb2dVertex
 10
1.358746082663945
 20
-4.897324437855854
 30
0.0
 70
     8
  0
VERTEX
  5
FDEF
330
FD45
100
AcDbEntity
  8
0
100
AcDbVertex
100
AcDb2dVertex
 10
1.351464541801779
 20
-4.92347037983815
 30
0.0
 70
     8
  0
VERTEX
  5
FDF0
330
FD45
100
AcDbEntity
  8
0
100
AcDbVertex
100
AcDb2dVertex
 10
1.344705380109547
 20
-4.94917303473853
 30
0.0
 70
     8
  0
VERTEX
  5
FDF1
330
FD45
100
AcDbEntity
  8
0
100
AcDbVertex
100
AcDb2dVertex
 10
1.338393971848206
 20
-4.974275107476393
 30
0.0
 70
     8
  0
VERTEX
  5
FDF2
330
FD45
100
AcDbEntity
  8
0
100
AcDbVertex
100
AcDb2dVertex
 10
1.332444576759972
 20
-4.998557338268708
 30
0.0
 70
     8
  0
VERTEX
  5
FDF3
330
FD45
100
AcDbEntity
  8
0
100
AcDbVertex
100
AcDb2dVertex
 10
1.326771454587055
 20
-5.021800467332433
 30
0.0
 70
     8
  0
VERTEX
  5
FDF4
330
FD45
100
AcDbEntity
  8
0
100
AcDbVertex
100
AcDb2dVertex
 10
1.321288865071682
 20
-5.043785234884532
 30
0.0
 70
     8
  0
VERTEX
  5
FDF5
330
FD45
100
AcDbEntity
  8
0
100
AcDbVertex
100
AcDb2dVertex
 10
1.315911067956061
 20
-5.064292381141966
 30
0.0
 70
     8
  0
VERTEX
  5
FDF6
330
FD45
100
AcDbEntity
  8
0
100
AcDbVertex
100
AcDb2dVertex
 10
1.31055232298241
 20
-5.083102646321701
 30
0.0
 70
     8
  0
VERTEX
  5
FDF7
330
FD45
100
AcDbEntity
  8
0
100
AcDbVertex
100
AcDb2dVertex
 10
1.305126889892946
 20
-5.099996770640687
 30
0.0
 70
     8
  0
VERTEX
  5
FDF8
330
FD45
100
AcDbEntity
  8
0
100
AcDbVertex
100
AcDb2dVertex
 10
1.299556967457841
 20
-5.114806337234797
 30
0.0
 70
     8
  0
VERTEX
  5
FDF9
330
FD45
100
AcDbEntity
  8
0
100
AcDbVertex
100
AcDb2dVertex
 10
1.293796510559122
 20
-5.127566300915565
 30
0.0
 70
     8
  0
VERTEX
  5
FDFA
330
FD45
100
AcDbEntity
  8
0
100
AcDbVertex
100
AcDb2dVertex
 10
1.287807413106766
 20
-5.13836245941342
 30
0.0
 70
     8
  0
VERTEX
  5
FDFB
330
FD45
100
AcDbEntity
  8
0
100
AcDbVertex
100
AcDb2dVertex
 10
1.281551569010746
 20
-5.147280610458792
 30
0.0
 70
     8
  0
VERTEX
  5
FDFC
330
FD45
100
AcDbEntity
  8
0
100
AcDbVertex
100
AcDb2dVertex
 10
1.274990872181049
 20
-5.154406551782114
 30
0.0
 70
     8
  0
VERTEX
  5
FDFD
330
FD45
100
AcDbEntity
  8
0
100
AcDbVertex
100
AcDb2dVertex
 10
1.268087216527646
 20
-5.159826081113824
 30
0.0
 70
     8
  0
VERTEX
  5
FDFE
330
FD45
100
AcDbEntity
  8
0
100
AcDbVertex
100
AcDb2dVertex
 10
1.260802495960517
 20
-5.163624996184354
 30
0.0
 70
     8
  0
VERTEX
  5
FDFF
330
FD45
100
AcDbEntity
  8
0
100
AcDbVertex
100
AcDb2dVertex
 10
1.25309860438964
 20
-5.165889094724141
 30
0.0
 70
     8
  0
VERTEX
  5
FE00
330
FD45
100
AcDbEntity
  8
0
100
AcDbVertex
100
AcDb2dVertex
 10
1.245019999923421
 20
-5.166718473814441
 30
0.0
 70
     8
  0
VERTEX
  5
FE01
330
FD45
100
AcDbEntity
  8
0
100
AcDbVertex
100
AcDb2dVertex
 10
1.236941397463958
 20
-5.166270427939863
 30
0.0
 70
     8
  0
VERTEX
  5
FE02
330
FD45
100
AcDbEntity
  8
0
100
AcDbVertex
100
AcDb2dVertex
 10
1.229320076111775
 20
-5.164716550935829
 30
0.0
 70
     8
  0
VERTEX
  5
FE03
330
FD45
100
AcDbEntity
  8
0
100
AcDbVertex
100
AcDb2dVertex
 10
1.222613314967396
 20
-5.162228436637774
 30
0.0
 70
     8
  0
VERTEX
  5
FE04
330
FD45
100
AcDbEntity
  8
0
100
AcDbVertex
100
AcDb2dVertex
 10
1.217278393131343
 20
-5.158977678881122
 30
0.0
 70
     8
  0
VERTEX
  5
FE05
330
FD45
100
AcDbEntity
  8
0
100
AcDbVertex
100
AcDb2dVertex
 10
1.213772589704134
 20
-5.155135871501302
 30
0.0
 70
     8
  0
VERTEX
  5
FE06
330
FD45
100
AcDbEntity
  8
0
100
AcDbVertex
100
AcDb2dVertex
 10
1.212553183786291
 20
-5.15087460833376
 30
0.0
 70
     8
  0
VERTEX
  5
FE07
330
FD45
100
AcDbEntity
  8
0
100
AcDbVertex
100
AcDb2dVertex
 10
1.214077454478347
 20
-5.146365483213898
 30
0.0
 70
     8
  0
VERTEX
  5
FE08
330
FD45
100
AcDbEntity
  8
0
100
AcDbVertex
100
AcDb2dVertex
 10
1.218607384485421
 20
-5.141781679113003
 30
0.0
 70
     8
  0
VERTEX
  5
FE09
330
FD45
100
AcDbEntity
  8
0
100
AcDbVertex
100
AcDb2dVertex
 10
1.225623770931066
 20
-5.137302735545616
 30
0.0
 70
     8
  0
VERTEX
  5
FE0A
330
FD45
100
AcDbEntity
  8
0
100
AcDbVertex
100
AcDb2dVertex
 10
1.234412114543436
 20
-5.133109781162127
 30
0.0
 70
     8
  0
VERTEX
  5
FE0B
330
FD45
100
AcDbEntity
  8
0
100
AcDbVertex
100
AcDb2dVertex
 10
1.244257916050681
 20
-5.129383944612938
 30
0.0
 70
     8
  0
VERTEX
  5
FE0C
330
FD45
100
AcDbEntity
  8
0
100
AcDbVertex
100
AcDb2dVertex
 10
1.254446676180948
 20
-5.126306354548429
 30
0.0
 70
     8
  0
VERTEX
  5
FE0D
330
FD45
100
AcDbEntity
  8
0
100
AcDbVertex
100
AcDb2dVertex
 10
1.264263895662401
 20
-5.124058139618994
 30
0.0
 70
     8
  0
VERTEX
  5
FE0E
330
FD45
100
AcDbEntity
  8
0
100
AcDbVertex
100
AcDb2dVertex
 10
1.272995075223189
 20
-5.12282042847502
 30
0.0
 70
     8
  0
VERTEX
  5
FE0F
330
FD45
100
AcDbEntity
  8
0
100
AcDbVertex
100
AcDb2dVertex
 10
1.279925715591458
 20
-5.122774349766895
 30
0.0
 70
     8
  0
VERTEX
  5
FE10
330
FD45
100
AcDbEntity
  8
0
100
AcDbVertex
100
AcDb2dVertex
 10
1.284515972933134
 20
-5.124034300576886
 30
0.0
 70
     8
  0
VERTEX
  5
FE11
330
FD45
100
AcDbEntity
  8
0
100
AcDbVertex
100
AcDb2dVertex
 10
1.286924625165188
 20
-5.126447751714827
 30
0.0
 70
     8
  0
VERTEX
  5
FE12
330
FD45
100
AcDbEntity
  8
0
100
AcDbVertex
100
AcDb2dVertex
 10
1.287485105642374
 20
-5.129795442422392
 30
0.0
 70
     8
  0
VERTEX
  5
FE13
330
FD45
100
AcDbEntity
  8
0
100
AcDbVertex
100
AcDb2dVertex
 10
1.286530847719433
 20
-5.133858111941305
 30
0.0
 70
     8
  0
VERTEX
  5
FE14
330
FD45
100
AcDbEntity
  8
0
100
AcDbVertex
100
AcDb2dVertex
 10
1.284395284751113
 20
-5.138416499513244
 30
0.0
 70
     8
  0
VERTEX
  5
FE15
330
FD45
100
AcDbEntity
  8
0
100
AcDbVertex
100
AcDb2dVertex
 10
1.281411850092153
 20
-5.143251344379914
 30
0.0
 70
     8
  0
VERTEX
  5
FE16
330
FD45
100
AcDbEntity
  8
0
100
AcDbVertex
100
AcDb2dVertex
 10
1.2779139770973
 20
-5.148143385783017
 30
0.0
 70
     8
  0
VERTEX
  5
FE17
330
FD45
100
AcDbEntity
  8
0
100
AcDbVertex
100
AcDb2dVertex
 10
1.2726091964696
 20
-5.156940829419417
 30
0.0
 70
    16
  0
VERTEX
  5
FE18
330
FD45
100
AcDbEntity
  8
0
100
AcDbVertex
100
AcDb2dVertex
 10
1.24822101630476
 20
-5.181345295260814
 30
0.0
 70
    16
  0
VERTEX
  5
FE19
330
FD45
100
AcDbEntity
  8
0
100
AcDbVertex
100
AcDb2dVertex
 10
1.214077420229719
 20
-5.181345295260814
 30
0.0
 70
    16
  0
VERTEX
  5
FE1A
330
FD45
100
AcDbEntity
  8
0
100
AcDbVertex
100
AcDb2dVertex
 10
1.170178613736282
 20
-5.152059836384253
 30
0.0
 70
    16
  0
VERTEX
  5
FE1B
330
FD45
100
AcDbEntity
  8
0
100
AcDbVertex
100
AcDb2dVertex
 10
1.150667987407685
 20
-5.039798827468367
 30
0.0
 70
    16
  0
VERTEX
  5
FE1C
330
FD45
100
AcDbEntity
  8
0
100
AcDbVertex
100
AcDb2dVertex
 10
1.150667987407685
 20
-2.565174972504953
 30
0.0
 70
    16
  0
VERTEX
  5
FE1D
330
FD45
100
AcDbEntity
  8
0
100
AcDbVertex
100
AcDb2dVertex
 10
1.170178613736282
 20
-2.404104699016695
 30
0.0
 70
    16
  0
VERTEX
  5
FE1E
330
FD45
100
AcDbEntity
  8
0
100
AcDbVertex
100
AcDb2dVertex
 10
1.257976226723156
 20
-2.28696269706568
 30
0.0
 70
    16
  0
VERTEX
  5
FE1F
330
FD45
100
AcDbEntity
  8
0
100
AcDbVertex
100
AcDb2dVertex
 10
1.414061031860113
 20
-2.282081870475289
 30
0.0
 70
    16
  0
VERTEX
  5
FE20
330
FD45
100
AcDbEntity
  8
0
100
AcDbVertex
100
AcDb2dVertex
 10
1.526247030503648
 20
-2.34065278822841
 30
0.0
 70
    16
  0
VERTEX
  5
FE21
330
FD45
100
AcDbEntity
  8
0
100
AcDbVertex
100
AcDb2dVertex
 10
1.575023493579238
 20
-2.487080249055985
 30
0.0
 70
    16
  0
VERTEX
  5
FE22
330
FD45
100
AcDbEntity
  8
0
100
AcDbVertex
100
AcDb2dVertex
 10
1.70672001580546
 20
-2.941005277754655
 30
0.0
 70
    16
  0
VERTEX
  5
FE23
330
FD45
100
AcDbEntity
  8
0
100
AcDbVertex
100
AcDb2dVertex
 10
1.877437790688877
 20
-3.370525840611858
 30
0.0
 70
    16
  0
VERTEX
  5
FE24
330
FD45
100
AcDbEntity
  8
0
100
AcDbVertex
100
AcDb2dVertex
 10
1.935969566928775
 20
-3.453501390651183
 30
0.0
 70
    16
  0
VERTEX
  5
FE25
330
FD45
100
AcDbEntity
  8
0
100
AcDbVertex
100
AcDb2dVertex
 10
1.950602433929308
 20
-3.521834294474595
 30
0.0
 70
    16
  0
VERTEX
  5
FE26
330
FD45
100
AcDbEntity
  8
0
100
AcDbVertex
100
AcDb2dVertex
 10
1.955480090511462
 20
-3.585286205262844
 30
0.0
 70
    16
  0
VERTEX
  5
FE27
330
FD45
100
AcDbEntity
  8
0
100
AcDbVertex
100
AcDb2dVertex
 10
1.926214253764467
 20
-3.673142581892561
 30
0.0
 70
    16
  0
VERTEX
  5
FE28
330
FD45
100
AcDbEntity
  8
0
100
AcDbVertex
100
AcDb2dVertex
 10
1.83353888144953
 20
-3.795165410433932
 30
0.0
 70
    16
  0
VERTEX
  5
FE29
330
FD45
100
AcDbEntity
  8
0
100
AcDbVertex
100
AcDb2dVertex
 10
1.687209389476864
 20
-4.044092060551873
 30
0.0
 70
    16
  0
VERTEX
  5
FE2A
330
FD45
100
AcDbEntity
  8
0
100
AcDbVertex
100
AcDb2dVertex
 10
1.536002240922044
 20
-4.385756246779428
 30
0.0
 70
    16
  0
VERTEX
  5
FE2B
330
FD45
100
AcDbEntity
  8
0
100
AcDbVertex
100
AcDb2dVertex
 10
1.418938688442265
 20
-4.707896627311138
 30
0.0
 70
    16
  0
VERTEX
  5
FE2C
330
FD45
100
AcDbEntity
  8
0
100
AcDbVertex
100
AcDb2dVertex
 10
1.345773942455942
 20
-4.927537818552517
 30
0.0
 70
    16
  0
VERTEX
  5
FE2D
330
FD45
100
AcDbEntity
  8
0
100
AcDbVertex
100
AcDb2dVertex
 10
1.30675279254464
 20
-5.122774377507693
 30
0.0
 70
    16
  0
VERTEX
  5
FE2E
330
FD45
100
AcDbEntity
  8
0
100
AcDbVertex
100
AcDb2dVertex
 10
1.257976226723156
 20
-5.181345295260814
 30
0.0
 70
    16
  0
VERTEX
  5
FE2F
330
FD45
100
AcDbEntity
  8
0
100
AcDbVertex
100
AcDb2dVertex
 10
1.179933926900572
 20
-5.147179009793896
 30
0.0
 70
    16
  0
SEQEND
  5
FE30
330
FD45
100
AcDbEntity
  8
0
  0
POLYLINE
  5
FE31
330
FAB9
100
AcDbEntity
  8
0
100
AcDb2dPolyline
 66
     1
 10
0.0
 20
0.0
 30
0.0
 70
     5
 75
     6
  0
VERTEX
  5
FE32
330
FE31
100
AcDbEntity
  8
0
100
AcDbVertex
100
AcDb2dVertex
 10
1.200774701779132
 20
-1.835699952547686
 30
0.0
 70
    16
  0
VERTEX
  5
FE33
330
FE31
100
AcDbEntity
  8
0
100
AcDbVertex
100
AcDb2dVertex
 10
1.208165112334558
 20
-1.464454562818692
 30
0.0
 70
     8
  0
VERTEX
  5
FE34
330
FE31
100
AcDbEntity
  8
0
100
AcDbVertex
100
AcDb2dVertex
 10
1.209706702100612
 20
-1.435247067660975
 30
0.0
 70
     8
  0
VERTEX
  5
FE35
330
FE31
100
AcDbEntity
  8
0
100
AcDbVertex
100
AcDb2dVertex
 10
1.211463074365028
 20
-1.410889289199756
 30
0.0
 70
     8
  0
VERTEX
  5
FE36
330
FE31
100
AcDbEntity
  8
0
100
AcDbVertex
100
AcDb2dVertex
 10
1.21345501450498
 20
-1.390767646650783
 30
0.0
 70
     8
  0
VERTEX
  5
FE37
330
FE31
100
AcDbEntity
  8
0
100
AcDbVertex
100
AcDb2dVertex
 10
1.215703307897635
 20
-1.374268559229772
 30
0.0
 70
     8
  0
VERTEX
  5
FE38
330
FE31
100
AcDbEntity
  8
0
100
AcDbVertex
100
AcDb2dVertex
 10
1.218228739920177
 20
-1.360778446152465
 30
0.0
 70
     8
  0
VERTEX
  5
FE39
330
FE31
100
AcDbEntity
  8
0
100
AcDbVertex
100
AcDb2dVertex
 10
1.221052095949777
 20
-1.349683726634593
 30
0.0
 70
     8
  0
VERTEX
  5
FE3A
330
FE31
100
AcDbEntity
  8
0
100
AcDbVertex
100
AcDb2dVertex
 10
1.224194161363606
 20
-1.340370819891889
 30
0.0
 70
     8
  0
VERTEX
  5
FE3B
330
FE31
100
AcDbEntity
  8
0
100
AcDbVertex
100
AcDb2dVertex
 10
1.227675721538837
 20
-1.332226145140086
 30
0.0
 70
     8
  0
VERTEX
  5
FE3C
330
FE31
100
AcDbEntity
  8
0
100
AcDbVertex
100
AcDb2dVertex
 10
1.231511210770751
 20
-1.324741273786054
 30
0.0
 70
     8
  0
VERTEX
  5
FE3D
330
FE31
100
AcDbEntity
  8
0
100
AcDbVertex
100
AcDb2dVertex
 10
1.235689659027046
 20
-1.317828386001224
 30
0.0
 70
     8
  0
VERTEX
  5
FE3E
330
FE31
100
AcDbEntity
  8
0
100
AcDbVertex
100
AcDb2dVertex
 10
1.240193745193516
 20
-1.311504814148186
 30
0.0
 70
     8
  0
VERTEX
  5
FE3F
330
FE31
100
AcDbEntity
  8
0
100
AcDbVertex
100
AcDb2dVertex
 10
1.245006148155974
 20
-1.305787890589497
 30
0.0
 70
     8
  0
VERTEX
  5
FE40
330
FE31
100
AcDbEntity
  8
0
100
AcDbVertex
100
AcDb2dVertex
 10
1.250109546800215
 20
-1.300694947687755
 30
0.0
 70
     8
  0
VERTEX
  5
FE41
330
FE31
100
AcDbEntity
  8
0
100
AcDbVertex
100
AcDb2dVertex
 10
1.255486620012036
 20
-1.296243317805517
 30
0.0
 70
     8
  0
VERTEX
  5
FE42
330
FE31
100
AcDbEntity
  8
0
100
AcDbVertex
100
AcDb2dVertex
 10
1.261120046677239
 20
-1.292450333305371
 30
0.0
 70
     8
  0
VERTEX
  5
FE43
330
FE31
100
AcDbEntity
  8
0
100
AcDbVertex
100
AcDb2dVertex
 10
1.266992505681632
 20
-1.289333326549881
 30
0.0
 70
     8
  0
VERTEX
  5
FE44
330
FE31
100
AcDbEntity
  8
0
100
AcDbVertex
100
AcDb2dVertex
 10
1.273181942540795
 20
-1.286892297213981
 30
0.0
 70
     8
  0
VERTEX
  5
FE45
330
FE31
100
AcDbEntity
  8
0
100
AcDbVertex
100
AcDb2dVertex
 10
1.280147369289442
 20
-1.285057914221903
 30
0.0
 70
     8
  0
VERTEX
  5
FE46
330
FE31
100
AcDbEntity
  8
0
100
AcDbVertex
100
AcDb2dVertex
 10
1.288443064592063
 20
-1.283743513810257
 30
0.0
 70
     8
  0
VERTEX
  5
FE47
330
FE31
100
AcDbEntity
  8
0
100
AcDbVertex
100
AcDb2dVertex
 10
1.298623307113152
 20
-1.28286243221564
 30
0.0
 70
     8
  0
VERTEX
  5
FE48
330
FE31
100
AcDbEntity
  8
0
100
AcDbVertex
100
AcDb2dVertex
 10
1.31124237551722
 20
-1.282328005674649
 30
0.0
 70
     8
  0
VERTEX
  5
FE49
330
FE31
100
AcDbEntity
  8
0
100
AcDbVertex
100
AcDb2dVertex
 10
1.326854548468741
 20
-1.282053570423864
 30
0.0
 70
     8
  0
VERTEX
  5
FE4A
330
FE31
100
AcDbEntity
  8
0
100
AcDbVertex
100
AcDb2dVertex
 10
1.346014104632226
 20
-1.281952462699893
 30
0.0
 70
     8
  0
VERTEX
  5
FE4B
330
FE31
100
AcDbEntity
  8
0
100
AcDbVertex
100
AcDb2dVertex
 10
1.369275322672159
 20
-1.281938018739326
 30
0.0
 70
     8
  0
VERTEX
  5
FE4C
330
FE31
100
AcDbEntity
  8
0
100
AcDbVertex
100
AcDb2dVertex
 10
1.396913032445596
 20
-1.281947840660686
 30
0.0
 70
     8
  0
VERTEX
  5
FE4D
330
FE31
100
AcDbEntity
  8
0
100
AcDbVertex
100
AcDb2dVertex
 10
1.428084268579761
 20
-1.282016594110203
 30
0.0
 70
     8
  0
VERTEX
  5
FE4E
330
FE31
100
AcDbEntity
  8
0
100
AcDbVertex
100
AcDb2dVertex
 10
1.461666616894447
 20
-1.282203210616044
 30
0.0
 70
     8
  0
VERTEX
  5
FE4F
330
FE31
100
AcDbEntity
  8
0
100
AcDbVertex
100
AcDb2dVertex
 10
1.496537663209432
 20
-1.282566621706374
 30
0.0
 70
     8
  0
VERTEX
  5
FE50
330
FE31
100
AcDbEntity
  8
0
100
AcDbVertex
100
AcDb2dVertex
 10
1.531574993344518
 20
-1.283165758909342
 30
0.0
 70
     8
  0
VERTEX
  5
FE51
330
FE31
100
AcDbEntity
  8
0
100
AcDbVertex
100
AcDb2dVertex
 10
1.565656193119477
 20
-1.284059553753117
 30
0.0
 70
     8
  0
VERTEX
  5
FE52
330
FE31
100
AcDbEntity
  8
0
100
AcDbVertex
100
AcDb2dVertex
 10
1.5976588483541
 20
-1.285306937765851
 30
0.0
 70
     8
  0
VERTEX
  5
FE53
330
FE31
100
AcDbEntity
  8
0
100
AcDbVertex
100
AcDb2dVertex
 10
1.626460544868177
 20
-1.286966842475715
 30
0.0
 70
     8
  0
VERTEX
  5
FE54
330
FE31
100
AcDbEntity
  8
0
100
AcDbVertex
100
AcDb2dVertex
 10
1.651208501944064
 20
-1.289079711037313
 30
0.0
 70
     8
  0
VERTEX
  5
FE55
330
FE31
100
AcDbEntity
  8
0
100
AcDbVertex
100
AcDb2dVertex
 10
1.672128472714463
 20
-1.291612033111025
 30
0.0
 70
     8
  0
VERTEX
  5
FE56
330
FE31
100
AcDbEntity
  8
0
100
AcDbVertex
100
AcDb2dVertex
 10
1.68971584377464
 20
-1.294511809983701
 30
0.0
 70
     8
  0
VERTEX
  5
FE57
330
FE31
100
AcDbEntity
  8
0
100
AcDbVertex
100
AcDb2dVertex
 10
1.704466001719874
 20
-1.297727042942165
 30
0.0
 70
     8
  0
VERTEX
  5
FE58
330
FE31
100
AcDbEntity
  8
0
100
AcDbVertex
100
AcDb2dVertex
 10
1.716874333145442
 20
-1.301205733273249
 30
0.0
 70
     8
  0
VERTEX
  5
FE59
330
FE31
100
AcDbEntity
  8
0
100
AcDbVertex
100
AcDb2dVertex
 10
1.727436224646607
 20
-1.304895882263799
 30
0.0
 70
     8
  0
VERTEX
  5
FE5A
330
FE31
100
AcDbEntity
  8
0
100
AcDbVertex
100
AcDb2dVertex
 10
1.736647062818651
 20
-1.308745491200648
 30
0.0
 70
     8
  0
VERTEX
  5
FE5B
330
FE31
100
AcDbEntity
  8
0
100
AcDbVertex
100
AcDb2dVertex
 10
1.74500223425684
 20
-1.312702561370617
 30
0.0
 70
     8
  0
VERTEX
  5
FE5C
330
FE31
100
AcDbEntity
  8
0
100
AcDbVertex
100
AcDb2dVertex
 10
1.752910519450329
 20
-1.316724338409882
 30
0.0
 70
     8
  0
VERTEX
  5
FE5D
330
FE31
100
AcDbEntity
  8
0
100
AcDbVertex
100
AcDb2dVertex
 10
1.760434274463734
 20
-1.320805045351859
 30
0.0
 70
     8
  0
VERTEX
  5
FE5E
330
FE31
100
AcDbEntity
  8
0
100
AcDbVertex
100
AcDb2dVertex
 10
1.767549249255568
 20
-1.324948149579327
 30
0.0
 70
     8
  0
VERTEX
  5
FE5F
330
FE31
100
AcDbEntity
  8
0
100
AcDbVertex
100
AcDb2dVertex
 10
1.774231193784327
 20
-1.329157118475043
 30
0.0
 70
     8
  0
VERTEX
  5
FE60
330
FE31
100
AcDbEntity
  8
0
100
AcDbVertex
100
AcDb2dVertex
 10
1.780455858008501
 20
-1.333435419421759
 30
0.0
 70
     8
  0
VERTEX
  5
FE61
330
FE31
100
AcDbEntity
  8
0
100
AcDbVertex
100
AcDb2dVertex
 10
1.786198991886602
 20
-1.337786519802238
 30
0.0
 70
     8
  0
VERTEX
  5
FE62
330
FE31
100
AcDbEntity
  8
0
100
AcDbVertex
100
AcDb2dVertex
 10
1.791436345377128
 20
-1.342213886999243
 30
0.0
 70
     8
  0
VERTEX
  5
FE63
330
FE31
100
AcDbEntity
  8
0
100
AcDbVertex
100
AcDb2dVertex
 10
1.796143668438585
 20
-1.34672098839553
 30
0.0
 70
     8
  0
VERTEX
  5
FE64
330
FE31
100
AcDbEntity
  8
0
100
AcDbVertex
100
AcDb2dVertex
 10
1.800309990771085
 20
-1.351302624704933
 30
0.0
 70
     8
  0
VERTEX
  5
FE65
330
FE31
100
AcDbEntity
  8
0
100
AcDbVertex
100
AcDb2dVertex
 10
1.803977461041285
 20
-1.355918929965639
 30
0.0
 70
     8
  0
VERTEX
  5
FE66
330
FE31
100
AcDbEntity
  8
0
100
AcDbVertex
100
AcDb2dVertex
 10
1.807201507657461
 20
-1.360521371546875
 30
0.0
 70
     8
  0
VERTEX
  5
FE67
330
FE31
100
AcDbEntity
  8
0
100
AcDbVertex
100
AcDb2dVertex
 10
1.810037559027878
 20
-1.365061416817882
 30
0.0
 70
     8
  0
VERTEX
  5
FE68
330
FE31
100
AcDbEntity
  8
0
100
AcDbVertex
100
AcDb2dVertex
 10
1.812541043560819
 20
-1.369490533147917
 30
0.0
 70
     8
  0
VERTEX
  5
FE69
330
FE31
100
AcDbEntity
  8
0
100
AcDbVertex
100
AcDb2dVertex
 10
1.81476738966455
 20
-1.373760187906219
 30
0.0
 70
     8
  0
VERTEX
  5
FE6A
330
FE31
100
AcDbEntity
  8
0
100
AcDbVertex
100
AcDb2dVertex
 10
1.816772025747344
 20
-1.377821848462037
 30
0.0
 70
     8
  0
VERTEX
  5
FE6B
330
FE31
100
AcDbEntity
  8
0
100
AcDbVertex
100
AcDb2dVertex
 10
1.818610380217485
 20
-1.381626982184608
 30
0.0
 70
     8
  0
VERTEX
  5
FE6C
330
FE31
100
AcDbEntity
  8
0
100
AcDbVertex
100
AcDb2dVertex
 10
1.820327488593968
 20
-1.385144389401755
 30
0.0
 70
     8
  0
VERTEX
  5
FE6D
330
FE31
100
AcDbEntity
  8
0
100
AcDbVertex
100
AcDb2dVertex
 10
1.821926814838769
 20
-1.388412202275569
 30
0.0
 70
     8
  0
VERTEX
  5
FE6E
330
FE31
100
AcDbEntity
  8
0
100
AcDbVertex
100
AcDb2dVertex
 10
1.823401430024585
 20
-1.391485885926718
 30
0.0
 70
     8
  0
VERTEX
  5
FE6F
330
FE31
100
AcDbEntity
  8
0
100
AcDbVertex
100
AcDb2dVertex
 10
1.824744405224103
 20
-1.394420905475847
 30
0.0
 70
     8
  0
VERTEX
  5
FE70
330
FE31
100
AcDbEntity
  8
0
100
AcDbVertex
100
AcDb2dVertex
 10
1.825948811510038
 20
-1.39727272604364
 30
0.0
 70
     8
  0
VERTEX
  5
FE71
330
FE31
100
AcDbEntity
  8
0
100
AcDbVertex
100
AcDb2dVertex
 10
1.827007719955086
 20
-1.400096812750748
 30
0.0
 70
     8
  0
VERTEX
  5
FE72
330
FE31
100
AcDbEntity
  8
0
100
AcDbVertex
100
AcDb2dVertex
 10
1.827914201631928
 20
-1.402948630717833
 30
0.0
 70
     8
  0
VERTEX
  5
FE73
330
FE31
100
AcDbEntity
  8
0
100
AcDbVertex
100
AcDb2dVertex
 10
1.828661327613286
 20
-1.405883645065571
 30
0.0
 70
     8
  0
VERTEX
  5
FE74
330
FE31
100
AcDbEntity
  8
0
100
AcDbVertex
100
AcDb2dVertex
 10
1.8292404369407
 20
-1.408968298413499
 30
0.0
 70
     8
  0
VERTEX
  5
FE75
330
FE31
100
AcDbEntity
  8
0
100
AcDbVertex
100
AcDb2dVertex
 10
1.829635940531126
 20
-1.412312943376734
 30
0.0
 70
     8
  0
VERTEX
  5
FE76
330
FE31
100
AcDbEntity
  8
0
100
AcDbVertex
100
AcDb2dVertex
 10
1.829830517270346
 20
-1.416038910069262
 30
0.0
 70
     8
  0
VERTEX
  5
FE77
330
FE31
100
AcDbEntity
  8
0
100
AcDbVertex
100
AcDb2dVertex
 10
1.829806846044189
 20
-1.420267528605087
 30
0.0
 70
     8
  0
VERTEX
  5
FE78
330
FE31
100
AcDbEntity
  8
0
100
AcDbVertex
100
AcDb2dVertex
 10
1.829547605738436
 20
-1.425120129098193
 30
0.0
 70
     8
  0
VERTEX
  5
FE79
330
FE31
100
AcDbEntity
  8
0
100
AcDbVertex
100
AcDb2dVertex
 10
1.829035475238894
 20
-1.430718041662585
 30
0.0
 70
     8
  0
VERTEX
  5
FE7A
330
FE31
100
AcDbEntity
  8
0
100
AcDbVertex
100
AcDb2dVertex
 10
1.828253133431374
 20
-1.437182596412247
 30
0.0
 70
     8
  0
VERTEX
  5
FE7B
330
FE31
100
AcDbEntity
  8
0
100
AcDbVertex
100
AcDb2dVertex
 10
1.827183259201657
 20
-1.444635123461177
 30
0.0
 70
     8
  0
VERTEX
  5
FE7C
330
FE31
100
AcDbEntity
  8
0
100
AcDbVertex
100
AcDb2dVertex
 10
1.825814305173743
 20
-1.453150731881121
 30
0.0
 70
     8
  0
VERTEX
  5
FE7D
330
FE31
100
AcDbEntity
  8
0
100
AcDbVertex
100
AcDb2dVertex
 10
1.824157818924317
 20
-1.462619646574831
 30
0.0
 70
     8
  0
VERTEX
  5
FE7E
330
FE31
100
AcDbEntity
  8
0
100
AcDbVertex
100
AcDb2dVertex
 10
1.822231121768254
 20
-1.472885871402816
 30
0.0
 70
     8
  0
VERTEX
  5
FE7F
330
FE31
100
AcDbEntity
  8
0
100
AcDbVertex
100
AcDb2dVertex
 10
1.82005153502043
 20
-1.483793410225574
 30
0.0
 70
     8
  0
VERTEX
  5
FE80
330
FE31
100
AcDbEntity
  8
0
100
AcDbVertex
100
AcDb2dVertex
 10
1.817636379995722
 20
-1.495186266903614
 30
0.0
 70
     8
  0
VERTEX
  5
FE81
330
FE31
100
AcDbEntity
  8
0
100
AcDbVertex
100
AcDb2dVertex
 10
1.815002978008996
 20
-1.506908445297428
 30
0.0
 70
     8
  0
VERTEX
  5
FE82
330
FE31
100
AcDbEntity
  8
0
100
AcDbVertex
100
AcDb2dVertex
 10
1.812168650375134
 20
-1.518803949267532
 30
0.0
 70
     8
  0
VERTEX
  5
FE83
330
FE31
100
AcDbEntity
  8
0
100
AcDbVertex
100
AcDb2dVertex
 10
1.809150718409007
 20
-1.530716782674419
 30
0.0
 70
     8
  0
VERTEX
  5
FE84
330
FE31
100
AcDbEntity
  8
0
100
AcDbVertex
100
AcDb2dVertex
 10
1.805961884408192
 20
-1.542531392912477
 30
0.0
 70
     8
  0
VERTEX
  5
FE85
330
FE31
100
AcDbEntity
  8
0
100
AcDbVertex
100
AcDb2dVertex
 10
1.802596374601073
 20
-1.554294001511584
 30
0.0
 70
     8
  0
VERTEX
  5
FE86
330
FE31
100
AcDbEntity
  8
0
100
AcDbVertex
100
AcDb2dVertex
 10
1.799043796198705
 20
-1.566091273535496
 30
0.0
 70
     8
  0
VERTEX
  5
FE87
330
FE31
100
AcDbEntity
  8
0
100
AcDbVertex
100
AcDb2dVertex
 10
1.795293756412175
 20
-1.578009874047966
 30
0.0
 70
     8
  0
VERTEX
  5
FE88
330
FE31
100
AcDbEntity
  8
0
100
AcDbVertex
100
AcDb2dVertex
 10
1.79133586245256
 20
-1.59013646811274
 30
0.0
 70
     8
  0
VERTEX
  5
FE89
330
FE31
100
AcDbEntity
  8
0
100
AcDbVertex
100
AcDb2dVertex
 10
1.787159721530926
 20
-1.602557720793582
 30
0.0
 70
     8
  0
VERTEX
  5
FE8A
330
FE31
100
AcDbEntity
  8
0
100
AcDbVertex
100
AcDb2dVertex
 10
1.782754940858359
 20
-1.615360297154245
 30
0.0
 70
     8
  0
VERTEX
  5
FE8B
330
FE31
100
AcDbEntity
  8
0
100
AcDbVertex
100
AcDb2dVertex
 10
1.778111127645935
 20
-1.628630862258491
 30
0.0
 70
     8
  0
VERTEX
  5
FE8C
330
FE31
100
AcDbEntity
  8
0
100
AcDbVertex
100
AcDb2dVertex
 10
1.773215579629512
 20
-1.642423148510847
 30
0.0
 70
     8
  0
VERTEX
  5
FE8D
330
FE31
100
AcDbEntity
  8
0
100
AcDbVertex
100
AcDb2dVertex
 10
1.768046356644164
 20
-1.656659157679044
 30
0.0
 70
     8
  0
VERTEX
  5
FE8E
330
FE31
100
AcDbEntity
  8
0
100
AcDbVertex
100
AcDb2dVertex
 10
1.762579209049723
 20
-1.671227958871558
 30
0.0
 70
     8
  0
VERTEX
  5
FE8F
330
FE31
100
AcDbEntity
  8
0
100
AcDbVertex
100
AcDb2dVertex
 10
1.756789887206055
 20
-1.686018621196909
 30
0.0
 70
     8
  0
VERTEX
  5
FE90
330
FE31
100
AcDbEntity
  8
0
100
AcDbVertex
100
AcDb2dVertex
 10
1.750654141473006
 20
-1.700920213763582
 30
0.0
 70
     8
  0
VERTEX
  5
FE91
330
FE31
100
AcDbEntity
  8
0
100
AcDbVertex
100
AcDb2dVertex
 10
1.744147722210434
 20
-1.715821805680082
 30
0.0
 70
     8
  0
VERTEX
  5
FE92
330
FE31
100
AcDbEntity
  8
0
100
AcDbVertex
100
AcDb2dVertex
 10
1.737246379778177
 20
-1.7306124660549
 30
0.0
 70
     8
  0
VERTEX
  5
FE93
330
FE31
100
AcDbEntity
  8
0
100
AcDbVertex
100
AcDb2dVertex
 10
1.729925864536093
 20
-1.745181263996547
 30
0.0
 70
     8
  0
VERTEX
  5
FE94
330
FE31
100
AcDbEntity
  8
0
100
AcDbVertex
100
AcDb2dVertex
 10
1.722166545794442
 20
-1.759432290633752
 30
0.0
 70
     8
  0
VERTEX
  5
FE95
330
FE31
100
AcDbEntity
  8
0
100
AcDbVertex
100
AcDb2dVertex
 10
1.713967268665125
 20
-1.773329725176209
 30
0.0
 70
     8
  0
VERTEX
  5
FE96
330
FE31
100
AcDbEntity
  8
0
100
AcDbVertex
100
AcDb2dVertex
 10
1.705331497210419
 20
-1.786852768853831
 30
0.0
 70
     8
  0
VERTEX
  5
FE97
330
FE31
100
AcDbEntity
  8
0
100
AcDbVertex
100
AcDb2dVertex
 10
1.696262695492649
 20
-1.799980622896558
 30
0.0
 70
     8
  0
VERTEX
  5
FE98
330
FE31
100
AcDbEntity
  8
0
100
AcDbVertex
100
AcDb2dVertex
 10
1.68676432757409
 20
-1.812692488534315
 30
0.0
 70
     8
  0
VERTEX
  5
FE99
330
FE31
100
AcDbEntity
  8
0
100
AcDbVertex
100
AcDb2dVertex
 10
1.67683985751706
 20
-1.82496756699702
 30
0.0
 70
     8
  0
VERTEX
  5
FE9A
330
FE31
100
AcDbEntity
  8
0
100
AcDbVertex
100
AcDb2dVertex
 10
1.666492749383843
 20
-1.836785059514609
 30
0.0
 70
     8
  0
VERTEX
  5
FE9B
330
FE31
100
AcDbEntity
  8
0
100
AcDbVertex
100
AcDb2dVertex
 10
1.655726467236753
 20
-1.848124167317005
 30
0.0
 70
     8
  0
VERTEX
  5
FE9C
330
FE31
100
AcDbEntity
  8
0
100
AcDbVertex
100
AcDb2dVertex
 10
1.644565838026204
 20
-1.858962358267836
 30
0.0
 70
     8
  0
VERTEX
  5
FE9D
330
FE31
100
AcDbEntity
  8
0
100
AcDbVertex
100
AcDb2dVertex
 10
1.633121140255089
 20
-1.869270166765565
 30
0.0
 70
     8
  0
VERTEX
  5
FE9E
330
FE31
100
AcDbEntity
  8
0
100
AcDbVertex
100
AcDb2dVertex
 10
1.621524015314432
 20
-1.879016393842373
 30
0.0
 70
     8
  0
VERTEX
  5
FE9F
330
FE31
100
AcDbEntity
  8
0
100
AcDbVertex
100
AcDb2dVertex
 10
1.609906104595252
 20
-1.888169840530421
 30
0.0
 70
     8
  0
VERTEX
  5
FEA0
330
FE31
100
AcDbEntity
  8
0
100
AcDbVertex
100
AcDb2dVertex
 10
1.598399049488559
 20
-1.896699307861888
 30
0.0
 70
     8
  0
VERTEX
  5
FEA1
330
FE31
100
AcDbEntity
  8
0
100
AcDbVertex
100
AcDb2dVertex
 10
1.587134491385387
 20
-1.904573596868941
 30
0.0
 70
     8
  0
VERTEX
  5
FEA2
330
FE31
100
AcDbEntity
  8
0
100
AcDbVertex
100
AcDb2dVertex
 10
1.576244071676737
 20
-1.911761508583744
 30
0.0
 70
     8
  0
VERTEX
  5
FEA3
330
FE31
100
AcDbEntity
  8
0
100
AcDbVertex
100
AcDb2dVertex
 10
1.565859431753644
 20
-1.918231844038471
 30
0.0
 70
     8
  0
VERTEX
  5
FEA4
330
FE31
100
AcDbEntity
  8
0
100
AcDbVertex
100
AcDb2dVertex
 10
1.556068909920604
 20
-1.923969581483795
 30
0.0
 70
     8
  0
VERTEX
  5
FEA5
330
FE31
100
AcDbEntity
  8
0
100
AcDbVertex
100
AcDb2dVertex
 10
1.546787632136092
 20
-1.929024408044364
 30
0.0
 70
     8
  0
VERTEX
  5
FEA6
330
FE31
100
AcDbEntity
  8
0
100
AcDbVertex
100
AcDb2dVertex
 10
1.537887421272055
 20
-1.933462188063353
 30
0.0
 70
     8
  0
VERTEX
  5
FEA7
330
FE31
100
AcDbEntity
  8
0
100
AcDbVertex
100
AcDb2dVertex
 10
1.529240100200464
 20
-1.937348785883896
 30
0.0
 70
     8
  0
VERTEX
  5
FEA8
330
FE31
100
AcDbEntity
  8
0
100
AcDbVertex
100
AcDb2dVertex
 10
1.520717491793253
 20
-1.94075006584917
 30
0.0
 70
     8
  0
VERTEX
  5
FEA9
330
FE31
100
AcDbEntity
  8
0
100
AcDbVertex
100
AcDb2dVertex
 10
1.512191418922403
 20
-1.943731892302322
 30
0.0
 70
     8
  0
VERTEX
  5
FEAA
330
FE31
100
AcDbEntity
  8
0
100
AcDbVertex
100
AcDb2dVertex
 10
1.503533704459853
 20
-1.946360129586505
 30
0.0
 70
     8
  0
VERTEX
  5
FEAB
330
FE31
100
AcDbEntity
  8
0
100
AcDbVertex
100
AcDb2dVertex
 10
1.494616171277562
 20
-1.948700642044883
 30
0.0
 70
     8
  0
VERTEX
  5
FEAC
330
FE31
100
AcDbEntity
  8
0
100
AcDbVertex
100
AcDb2dVertex
 10
1.485340665759611
 20
-1.950807161106734
 30
0.0
 70
     8
  0
VERTEX
  5
FEAD
330
FE31
100
AcDbEntity
  8
0
100
AcDbVertex
100
AcDb2dVertex
 10
1.475729128338494
 20
-1.952684886545851
 30
0.0
 70
     8
  0
VERTEX
  5
FEAE
330
FE31
100
AcDbEntity
  8
0
100
AcDbVertex
100
AcDb2dVertex
 10
1.465833522958845
 20
-1.954326885222155
 30
0.0
 70
     8
  0
VERTEX
  5
FEAF
330
FE31
100
AcDbEntity
  8
0
100
AcDbVertex
100
AcDb2dVertex
 10
1.455705813565281
 20
-1.955726223995547
 30
0.0
 70
     8
  0
VERTEX
  5
FEB0
330
FE31
100
AcDbEntity
  8
0
100
AcDbVertex
100
AcDb2dVertex
 10
1.445397964102424
 20
-1.956875969725958
 30
0.0
 70
     8
  0
VERTEX
  5
FEB1
330
FE31
100
AcDbEntity
  8
0
100
AcDbVertex
100
AcDb2dVertex
 10
1.434961938514906
 20
-1.957769189273308
 30
0.0
 70
     8
  0
VERTEX
  5
FEB2
330
FE31
100
AcDbEntity
  8
0
100
AcDbVertex
100
AcDb2dVertex
 10
1.424449700747347
 20
-1.958398949497505
 30
0.0
 70
     8
  0
VERTEX
  5
FEB3
330
FE31
100
AcDbEntity
  8
0
100
AcDbVertex
100
AcDb2dVertex
 10
1.413913214744374
 20
-1.958758317258473
 30
0.0
 70
     8
  0
VERTEX
  5
FEB4
330
FE31
100
AcDbEntity
  8
0
100
AcDbVertex
100
AcDb2dVertex
 10
1.403400402710125
 20
-1.958843248251577
 30
0.0
 70
     8
  0
VERTEX
  5
FEB5
330
FE31
100
AcDbEntity
  8
0
100
AcDbVertex
100
AcDb2dVertex
 10
1.392943019886844
 20
-1.958661253514039
 30
0.0
 70
     8
  0
VERTEX
  5
FEB6
330
FE31
100
AcDbEntity
  8
0
100
AcDbVertex
100
AcDb2dVertex
 10
1.382568779776321
 20
-1.958222732918518
 30
0.0
 70
     8
  0
VERTEX
  5
FEB7
330
FE31
100
AcDbEntity
  8
0
100
AcDbVertex
100
AcDb2dVertex
 10
1.37230539588032
 20
-1.957538086337681
 30
0.0
 70
     8
  0
VERTEX
  5
FEB8
330
FE31
100
AcDbEntity
  8
0
100
AcDbVertex
100
AcDb2dVertex
 10
1.362180581700604
 20
-1.956617713644206
 30
0.0
 70
     8
  0
VERTEX
  5
FEB9
330
FE31
100
AcDbEntity
  8
0
100
AcDbVertex
100
AcDb2dVertex
 10
1.352222050738955
 20
-1.955472014710759
 30
0.0
 70
     8
  0
VERTEX
  5
FEBA
330
FE31
100
AcDbEntity
  8
0
100
AcDbVertex
100
AcDb2dVertex
 10
1.342457516497146
 20
-1.954111389409995
 30
0.0
 70
     8
  0
VERTEX
  5
FEBB
330
FE31
100
AcDbEntity
  8
0
100
AcDbVertex
100
AcDb2dVertex
 10
1.33291469247694
 20
-1.952546237614603
 30
0.0
 70
     8
  0
VERTEX
  5
FEBC
330
FE31
100
AcDbEntity
  8
0
100
AcDbVertex
100
AcDb2dVertex
 10
1.323620714936739
 20
-1.9507858036197
 30
0.0
 70
     8
  0
VERTEX
  5
FEBD
330
FE31
100
AcDbEntity
  8
0
100
AcDbVertex
100
AcDb2dVertex
 10
1.314600411161427
 20
-1.948834709410329
 30
0.0
 70
     8
  0
VERTEX
  5
FEBE
330
FE31
100
AcDbEntity
  8
0
100
AcDbVertex
100
AcDb2dVertex
 10
1.305878031192487
 20
-1.946696421393985
 30
0.0
 70
     8
  0
VERTEX
  5
FEBF
330
FE31
100
AcDbEntity
  8
0
100
AcDbVertex
100
AcDb2dVertex
 10
1.297477825071434
 20
-1.944374405978161
 30
0.0
 70
     8
  0
VERTEX
  5
FEC0
330
FE31
100
AcDbEntity
  8
0
100
AcDbVertex
100
AcDb2dVertex
 10
1.28942404283976
 20
-1.941872129570352
 30
0.0
 70
     8
  0
VERTEX
  5
FEC1
330
FE31
100
AcDbEntity
  8
0
100
AcDbVertex
100
AcDb2dVertex
 10
1.281740934538961
 20
-1.939193058578064
 30
0.0
 70
     8
  0
VERTEX
  5
FEC2
330
FE31
100
AcDbEntity
  8
0
100
AcDbVertex
100
AcDb2dVertex
 10
1.274452750210549
 20
-1.936340659408793
 30
0.0
 70
     8
  0
VERTEX
  5
FEC3
330
FE31
100
AcDbEntity
  8
0
100
AcDbVertex
100
AcDb2dVertex
 10
1.267583739896009
 20
-1.933318398470028
 30
0.0
 70
     8
  0
VERTEX
  5
FEC4
330
FE31
100
AcDbEntity
  8
0
100
AcDbVertex
100
AcDb2dVertex
 10
1.261151802421172
 20
-1.930125120130076
 30
0.0
 70
     8
  0
VERTEX
  5
FEC5
330
FE31
100
AcDbEntity
  8
0
100
AcDbVertex
100
AcDb2dVertex
 10
1.25514943174914
 20
-1.926741180600382
 30
0.0
 70
     8
  0
VERTEX
  5
FEC6
330
FE31
100
AcDbEntity
  8
0
100
AcDbVertex
100
AcDb2dVertex
 10
1.249562770627342
 20
-1.923142314053206
 30
0.0
 70
     8
  0
VERTEX
  5
FEC7
330
FE31
100
AcDbEntity
  8
0
100
AcDbVertex
100
AcDb2dVertex
 10
1.244377961803198
 20
-1.919304254660797
 30
0.0
 70
     8
  0
VERTEX
  5
FEC8
330
FE31
100
AcDbEntity
  8
0
100
AcDbVertex
100
AcDb2dVertex
 10
1.239581148024129
 20
-1.915202736595421
 30
0.0
 70
     8
  0
VERTEX
  5
FEC9
330
FE31
100
AcDbEntity
  8
0
100
AcDbVertex
100
AcDb2dVertex
 10
1.235158472037564
 20
-1.910813494029321
 30
0.0
 70
     8
  0
VERTEX
  5
FECA
330
FE31
100
AcDbEntity
  8
0
100
AcDbVertex
100
AcDb2dVertex
 10
1.231096076590931
 20
-1.906112261134746
 30
0.0
 70
     8
  0
VERTEX
  5
FECB
330
FE31
100
AcDbEntity
  8
0
100
AcDbVertex
100
AcDb2dVertex
 10
1.227380104431644
 20
-1.901074772083967
 30
0.0
 70
     8
  0
VERTEX
  5
FECC
330
FE31
100
AcDbEntity
  8
0
100
AcDbVertex
100
AcDb2dVertex
 10
1.223996120996877
 20
-1.895700449142383
 30
0.0
 70
     8
  0
VERTEX
  5
FECD
330
FE31
100
AcDbEntity
  8
0
100
AcDbVertex
100
AcDb2dVertex
 10
1.220927382482676
 20
-1.890083466948082
 30
0.0
 70
     8
  0
VERTEX
  5
FECE
330
FE31
100
AcDbEntity
  8
0
100
AcDbVertex
100
AcDb2dVertex
 10
1.218156567774864
 20
-1.884341688232282
 30
0.0
 70
     8
  0
VERTEX
  5
FECF
330
FE31
100
AcDbEntity
  8
0
100
AcDbVertex
100
AcDb2dVertex
 10
1.215666355759235
 20
-1.878592975726226
 30
0.0
 70
     8
  0
VERTEX
  5
FED0
330
FE31
100
AcDbEntity
  8
0
100
AcDbVertex
100
AcDb2dVertex
 10
1.213439425321589
 20
-1.872955192161152
 30
0.0
 70
     8
  0
VERTEX
  5
FED1
330
FE31
100
AcDbEntity
  8
0
100
AcDbVertex
100
AcDb2dVertex
 10
1.211458455347725
 20
-1.867546200268284
 30
0.0
 70
     8
  0
VERTEX
  5
FED2
330
FE31
100
AcDbEntity
  8
0
100
AcDbVertex
100
AcDb2dVertex
 10
1.20970612472345
 20
-1.862483862778864
 30
0.0
 70
     8
  0
VERTEX
  5
FED3
330
FE31
100
AcDbEntity
  8
0
100
AcDbVertex
100
AcDb2dVertex
 10
1.208165112334558
 20
-1.857886042424121
 30
0.0
 70
     8
  0
VERTEX
  5
FED4
330
FE31
100
AcDbEntity
  8
0
100
AcDbVertex
100
AcDb2dVertex
 10
1.206820406575505
 20
-1.853704207223476
 30
0.0
 70
     8
  0
VERTEX
  5
FED5
330
FE31
100
AcDbEntity
  8
0
100
AcDbVertex
100
AcDb2dVertex
 10
1.205666233875345
 20
-1.849224246349095
 30
0.0
 70
     8
  0
VERTEX
  5
FED6
330
FE31
100
AcDbEntity
  8
0
100
AcDbVertex
100
AcDb2dVertex
 10
1.204699130171767
 20
-1.843565654261322
 30
0.0
 70
     8
  0
VERTEX
  5
FED7
330
FE31
100
AcDbEntity
  8
0
100
AcDbVertex
100
AcDb2dVertex
 10
1.203915631402482
 20
-1.835847925420496
 30
0.0
 70
     8
  0
VERTEX
  5
FED8
330
FE31
100
AcDbEntity
  8
0
100
AcDbVertex
100
AcDb2dVertex
 10
1.203312273505195
 20
-1.825190554286976
 30
0.0
 70
     8
  0
VERTEX
  5
FED9
330
FE31
100
AcDbEntity
  8
0
100
AcDbVertex
100
AcDb2dVertex
 10
1.202885592417592
 20
-1.810713035321112
 30
0.0
 70
     8
  0
VERTEX
  5
FEDA
330
FE31
100
AcDbEntity
  8
0
100
AcDbVertex
100
AcDb2dVertex
 10
1.202632124077386
 20
-1.791534862983235
 30
0.0
 70
     8
  0
VERTEX
  5
FEDB
330
FE31
100
AcDbEntity
  8
0
100
AcDbVertex
100
AcDb2dVertex
 10
1.202548404422272
 20
-1.766775531733703
 30
0.0
 70
     8
  0
VERTEX
  5
FEDC
330
FE31
100
AcDbEntity
  8
0
100
AcDbVertex
100
AcDb2dVertex
 10
1.202632124077386
 20
-1.735949723663054
 30
0.0
 70
     8
  0
VERTEX
  5
FEDD
330
FE31
100
AcDbEntity
  8
0
100
AcDbVertex
100
AcDb2dVertex
 10
1.202885592417592
 20
-1.700152871382609
 30
0.0
 70
     8
  0
VERTEX
  5
FEDE
330
FE31
100
AcDbEntity
  8
0
100
AcDbVertex
100
AcDb2dVertex
 10
1.203312273505195
 20
-1.660875595133868
 30
0.0
 70
     8
  0
VERTEX
  5
FEDF
330
FE31
100
AcDbEntity
  8
0
100
AcDbVertex
100
AcDb2dVertex
 10
1.203915631402482
 20
-1.619608515158352
 30
0.0
 70
     8
  0
VERTEX
  5
FEE0
330
FE31
100
AcDbEntity
  8
0
100
AcDbVertex
100
AcDb2dVertex
 10
1.204699130171767
 20
-1.577842251697566
 30
0.0
 70
     8
  0
VERTEX
  5
FEE1
330
FE31
100
AcDbEntity
  8
0
100
AcDbVertex
100
AcDb2dVertex
 10
1.205666233875345
 20
-1.537067424993013
 30
0.0
 70
     8
  0
VERTEX
  5
FEE2
330
FE31
100
AcDbEntity
  8
0
100
AcDbVertex
100
AcDb2dVertex
 10
1.206820406575505
 20
-1.498774655286224
 30
0.0
 70
     8
  0
VERTEX
  5
FEE3
330
FE31
100
AcDbEntity
  8
0
100
AcDbVertex
100
AcDb2dVertex
 10
1.206095809708553
 20
-1.406179389690448
 30
0.0
 70
    16
  0
VERTEX
  5
FEE4
330
FE31
100
AcDbEntity
  8
0
100
AcDbVertex
100
AcDb2dVertex
 10
1.223832733394009
 20
-1.32630986560269
 30
0.0
 70
    16
  0
VERTEX
  5
FEE5
330
FE31
100
AcDbEntity
  8
0
100
AcDbVertex
100
AcDb2dVertex
 10
1.264627585948433
 20
-1.281938018739326
 30
0.0
 70
    16
  0
VERTEX
  5
FEE6
330
FE31
100
AcDbEntity
  8
0
100
AcDbVertex
100
AcDb2dVertex
 10
1.319611956902051
 20
-1.281938018739326
 30
0.0
 70
    16
  0
VERTEX
  5
FEE7
330
FE31
100
AcDbEntity
  8
0
100
AcDbVertex
100
AcDb2dVertex
 10
1.67257652247633
 20
-1.281938018739326
 30
0.0
 70
    16
  0
VERTEX
  5
FEE8
330
FE31
100
AcDbEntity
  8
0
100
AcDbVertex
100
AcDb2dVertex
 10
1.748845222401667
 20
-1.312110961157669
 30
0.0
 70
    16
  0
VERTEX
  5
FEE9
330
FE31
100
AcDbEntity
  8
0
100
AcDbVertex
100
AcDb2dVertex
 10
1.802055993458056
 20
-1.345833504853731
 30
0.0
 70
    16
  0
VERTEX
  5
FEEA
330
FE31
100
AcDbEntity
  8
0
100
AcDbVertex
100
AcDb2dVertex
 10
1.819792814397603
 20
-1.384880949800583
 30
0.0
 70
    16
  0
VERTEX
  5
FEEB
330
FE31
100
AcDbEntity
  8
0
100
AcDbVertex
100
AcDb2dVertex
 10
1.830435030256426
 20
-1.404404589051623
 30
0.0
 70
    16
  0
VERTEX
  5
FEEC
330
FE31
100
AcDbEntity
  8
0
100
AcDbVertex
100
AcDb2dVertex
 10
1.830435030256426
 20
-1.432802564386367
 30
0.0
 70
    16
  0
VERTEX
  5
FEED
330
FE31
100
AcDbEntity
  8
0
100
AcDbVertex
100
AcDb2dVertex
 10
1.810924403927829
 20
-1.532195894169973
 30
0.0
 70
    16
  0
VERTEX
  5
FEEE
330
FE31
100
AcDbEntity
  8
0
100
AcDbVertex
100
AcDb2dVertex
 10
1.780771664486318
 20
-1.622714554980296
 30
0.0
 70
    16
  0
VERTEX
  5
FEEF
330
FE31
100
AcDbEntity
  8
0
100
AcDbVertex
100
AcDb2dVertex
 10
1.734655704002491
 20
-1.748731059459785
 30
0.0
 70
    16
  0
VERTEX
  5
FEF0
330
FE31
100
AcDbEntity
  8
0
100
AcDbVertex
100
AcDb2dVertex
 10
1.660160706720277
 20
-1.853448791159868
 30
0.0
 70
    16
  0
VERTEX
  5
FEF1
330
FE31
100
AcDbEntity
  8
0
100
AcDbVertex
100
AcDb2dVertex
 10
1.559060272536922
 20
-1.926218779802781
 30
0.0
 70
    16
  0
VERTEX
  5
FEF2
330
FE31
100
AcDbEntity
  8
0
100
AcDbVertex
100
AcDb2dVertex
 10
1.498754793653901
 20
-1.95106715385984
 30
0.0
 70
    16
  0
VERTEX
  5
FEF3
330
FE31
100
AcDbEntity
  8
0
100
AcDbVertex
100
AcDb2dVertex
 10
1.413617580512863
 20
-1.961716457027177
 30
0.0
 70
    16
  0
VERTEX
  5
FEF4
330
FE31
100
AcDbEntity
  8
0
100
AcDbVertex
100
AcDb2dVertex
 10
1.330254172760874
 20
-1.954616921582298
 30
0.0
 70
    16
  0
VERTEX
  5
FEF5
330
FE31
100
AcDbEntity
  8
0
100
AcDbVertex
100
AcDb2dVertex
 10
1.262853883305293
 20
-1.935093282331257
 30
0.0
 70
    16
  0
VERTEX
  5
FEF6
330
FE31
100
AcDbEntity
  8
0
100
AcDbVertex
100
AcDb2dVertex
 10
1.223832733394009
 20
-1.90492033991288
 30
0.0
 70
    16
  0
VERTEX
  5
FEF7
330
FE31
100
AcDbEntity
  8
0
100
AcDbVertex
100
AcDb2dVertex
 10
1.206095809708553
 20
-1.851673990521041
 30
0.0
 70
    16
  0
SEQEND
  5
FEF8
330
FE31
100
AcDbEntity
  8
0
  0
LINE
  5
FEF9
330
FAB9
100
AcDbEntity
  8
0
100
AcDbLine
 10
0.0
 20
0.0
 30
0.0
 11
0.0
 21
-9.384742882543365
 31
0.0
  0
POLYLINE
  5
FEFA
330
FAB9
100
AcDbEntity
  8
0
100
AcDb2dPolyline
 66
     1
 10
0.0
 20
0.0
 30
0.0
 70
     5
 75
     6
  0
VERTEX
  5
FEFB
330
FEFA
100
AcDbEntity
  8
0
100
AcDbVertex
100
AcDb2dVertex
 10
1.896872898773676
 20
-2.195740973524575
 30
0.0
 70
    16
  0
VERTEX
  5
FEFC
330
FEFA
100
AcDbEntity
  8
0
100
AcDbVertex
100
AcDb2dVertex
 10
1.879486835246318
 20
-2.110492287189229
 30
0.0
 70
     8
  0
VERTEX
  5
FEFD
330
FEFA
100
AcDbEntity
  8
0
100
AcDbVertex
100
AcDb2dVertex
 10
1.879120943147547
 20
-2.100867487319201
 30
0.0
 70
     8
  0
VERTEX
  5
FEFE
330
FEFA
100
AcDbEntity
  8
0
100
AcDbVertex
100
AcDb2dVertex
 10
1.879330624003783
 20
-2.091558699434505
 30
0.0
 70
     8
  0
VERTEX
  5
FEFF
330
FEFA
100
AcDbEntity
  8
0
100
AcDbVertex
100
AcDb2dVertex
 10
1.880120971764579
 20
-2.08255572976793
 30
0.0
 70
     8
  0
VERTEX
  5
FF00
330
FEFA
100
AcDbEntity
  8
0
100
AcDbVertex
100
AcDb2dVertex
 10
1.881497080379515
 20
-2.073848384552229
 30
0.0
 70
     8
  0
VERTEX
  5
FF01
330
FEFA
100
AcDbEntity
  8
0
100
AcDbVertex
100
AcDb2dVertex
 10
1.883464043798158
 20
-2.065426470020193
 30
0.0
 70
     8
  0
VERTEX
  5
FF02
330
FEFA
100
AcDbEntity
  8
0
100
AcDbVertex
100
AcDb2dVertex
 10
1.886026955970063
 20
-2.057279792404594
 30
0.0
 70
     8
  0
VERTEX
  5
FF03
330
FEFA
100
AcDbEntity
  8
0
100
AcDbVertex
100
AcDb2dVertex
 10
1.889190910844797
 20
-2.049398157938215
 30
0.0
 70
     8
  0
VERTEX
  5
FF04
330
FEFA
100
AcDbEntity
  8
0
100
AcDbVertex
100
AcDb2dVertex
 10
1.892961002371932
 20
-2.041771372853824
 30
0.0
 70
     8
  0
VERTEX
  5
FF05
330
FEFA
100
AcDbEntity
  8
0
100
AcDbVertex
100
AcDb2dVertex
 10
1.897331288312669
 20
-2.034401136275175
 30
0.0
 70
     8
  0
VERTEX
  5
FF06
330
FEFA
100
AcDbEntity
  8
0
100
AcDbVertex
100
AcDb2dVertex
 10
1.902251681674769
 20
-2.0273367188899
 30
0.0
 70
     8
  0
VERTEX
  5
FF07
330
FEFA
100
AcDbEntity
  8
0
100
AcDbVertex
100
AcDb2dVertex
 10
1.907661059277637
 20
-2.020639284276597
 30
0.0
 70
     8
  0
VERTEX
  5
FF08
330
FEFA
100
AcDbEntity
  8
0
100
AcDbVertex
100
AcDb2dVertex
 10
1.913498297940657
 20
-2.01436999601387
 30
0.0
 70
     8
  0
VERTEX
  5
FF09
330
FEFA
100
AcDbEntity
  8
0
100
AcDbVertex
100
AcDb2dVertex
 10
1.919702274483233
 20
-2.008590017680335
 30
0.0
 70
     8
  0
VERTEX
  5
FF0A
330
FEFA
100
AcDbEntity
  8
0
100
AcDbVertex
100
AcDb2dVertex
 10
1.926211865724766
 20
-2.003360512854591
 30
0.0
 70
     8
  0
VERTEX
  5
FF0B
330
FEFA
100
AcDbEntity
  8
0
100
AcDbVertex
100
AcDb2dVertex
 10
1.932965948484652
 20
-1.998742645115237
 30
0.0
 70
     8
  0
VERTEX
  5
FF0C
330
FEFA
100
AcDbEntity
  8
0
100
AcDbVertex
100
AcDb2dVertex
 10
1.939903399582294
 20
-1.994797578040875
 30
0.0
 70
     8
  0
VERTEX
  5
FF0D
330
FEFA
100
AcDbEntity
  8
0
100
AcDbVertex
100
AcDb2dVertex
 10
1.946974131958552
 20
-1.991567786365978
 30
0.0
 70
     8
  0
VERTEX
  5
FF0E
330
FEFA
100
AcDbEntity
  8
0
100
AcDbVertex
100
AcDb2dVertex
 10
1.95417220304017
 20
-1.989020989448381
 30
0.0
 70
     8
  0
VERTEX
  5
FF0F
330
FEFA
100
AcDbEntity
  8
0
100
AcDbVertex
100
AcDb2dVertex
 10
1.961502706375374
 20
-1.987106217801805
 30
0.0
 70
     8
  0
VERTEX
  5
FF10
330
FEFA
100
AcDbEntity
  8
0
100
AcDbVertex
100
AcDb2dVertex
 10
1.968970735512375
 20
-1.985772501939942
 30
0.0
 70
     8
  0
VERTEX
  5
FF11
330
FEFA
100
AcDbEntity
  8
0
100
AcDbVertex
100
AcDb2dVertex
 10
1.976581383999381
 20
-1.984968872376521
 30
0.0
 70
     8
  0
VERTEX
  5
FF12
330
FEFA
100
AcDbEntity
  8
0
100
AcDbVertex
100
AcDb2dVertex
 10
1.984339745384604
 20
-1.984644359625226
 30
0.0
 70
     8
  0
VERTEX
  5
FF13
330
FEFA
100
AcDbEntity
  8
0
100
AcDbVertex
100
AcDb2dVertex
 10
1.992250913216269
 20
-1.984747994199778
 30
0.0
 70
     8
  0
VERTEX
  5
FF14
330
FEFA
100
AcDbEntity
  8
0
100
AcDbVertex
100
AcDb2dVertex
 10
2.000319981042588
 20
-1.985228806613884
 30
0.0
 70
     8
  0
VERTEX
  5
FF15
330
FEFA
100
AcDbEntity
  8
0
100
AcDbVertex
100
AcDb2dVertex
 10
2.008602129236786
 20
-1.986091894076235
 30
0.0
 70
     8
  0
VERTEX
  5
FF16
330
FEFA
100
AcDbEntity
  8
0
100
AcDbVertex
100
AcDb2dVertex
 10
2.017352885472121
 20
-1.987566620575501
 30
0.0
 70
     8
  0
VERTEX
  5
FF17
330
FEFA
100
AcDbEntity
  8
0
100
AcDbVertex
100
AcDb2dVertex
 10
2.026877864246893
 20
-1.989938416795357
 30
0.0
 70
     8
  0
VERTEX
  5
FF18
330
FEFA
100
AcDbEntity
  8
0
100
AcDbVertex
100
AcDb2dVertex
 10
2.037482680059365
 20
-1.993492713419447
 30
0.0
 70
     8
  0
VERTEX
  5
FF19
330
FEFA
100
AcDbEntity
  8
0
100
AcDbVertex
100
AcDb2dVertex
 10
2.049472947407824
 20
-1.998514941131453
 30
0.0
 70
     8
  0
VERTEX
  5
FF1A
330
FEFA
100
AcDbEntity
  8
0
100
AcDbVertex
100
AcDb2dVertex
 10
2.063154280790549
 20
-2.00529053061502
 30
0.0
 70
     8
  0
VERTEX
  5
FF1B
330
FEFA
100
AcDbEntity
  8
0
100
AcDbVertex
100
AcDb2dVertex
 10
2.078832294705824
 20
-2.014104912553813
 30
0.0
 70
     8
  0
VERTEX
  5
FF1C
330
FEFA
100
AcDbEntity
  8
0
100
AcDbVertex
100
AcDb2dVertex
 10
2.096812603651914
 20
-2.025243517631496
 30
0.0
 70
     8
  0
VERTEX
  5
FF1D
330
FEFA
100
AcDbEntity
  8
0
100
AcDbVertex
100
AcDb2dVertex
 10
2.117247165986718
 20
-2.038852459112311
 30
0.0
 70
     8
  0
VERTEX
  5
FF1E
330
FEFA
100
AcDbEntity
  8
0
100
AcDbVertex
100
AcDb2dVertex
 10
2.139673315506527
 20
-2.054520580582808
 30
0.0
 70
     8
  0
VERTEX
  5
FF1F
330
FEFA
100
AcDbEntity
  8
0
100
AcDbVertex
100
AcDb2dVertex
 10
2.163474729867244
 20
-2.0716974082101
 30
0.0
 70
     8
  0
VERTEX
  5
FF20
330
FEFA
100
AcDbEntity
  8
0
100
AcDbVertex
100
AcDb2dVertex
 10
2.188035086724779
 20
-2.08983246816132
 30
0.0
 70
     8
  0
VERTEX
  5
FF21
330
FEFA
100
AcDbEntity
  8
0
100
AcDbVertex
100
AcDb2dVertex
 10
2.212738063735013
 20
-2.108375286603576
 30
0.0
 70
     8
  0
VERTEX
  5
FF22
330
FEFA
100
AcDbEntity
  8
0
100
AcDbVertex
100
AcDb2dVertex
 10
2.236967338553863
 20
-2.126775389704009
 30
0.0
 70
     8
  0
VERTEX
  5
FF23
330
FEFA
100
AcDbEntity
  8
0
100
AcDbVertex
100
AcDb2dVertex
 10
2.260106588837226
 20
-2.144482303629725
 30
0.0
 70
     8
  0
VERTEX
  5
FF24
330
FEFA
100
AcDbEntity
  8
0
100
AcDbVertex
100
AcDb2dVertex
 10
2.281539492241005
 20
-2.160945554547868
 30
0.0
 70
     8
  0
VERTEX
  5
FF25
330
FEFA
100
AcDbEntity
  8
0
100
AcDbVertex
100
AcDb2dVertex
 10
2.3008042314862
 20
-2.175742942607501
 30
0.0
 70
     8
  0
VERTEX
  5
FF26
330
FEFA
100
AcDbEntity
  8
0
100
AcDbVertex
100
AcDb2dVertex
 10
2.318057009554198
 20
-2.188965363885582
 30
0.0
 70
     8
  0
VERTEX
  5
FF27
330
FEFA
100
AcDbEntity
  8
0
100
AcDbVertex
100
AcDb2dVertex
 10
2.33360853449151
 20
-2.200831988441006
 30
0.0
 70
     8
  0
VERTEX
  5
FF28
330
FEFA
100
AcDbEntity
  8
0
100
AcDbVertex
100
AcDb2dVertex
 10
2.347769514344618
 20
-2.21156198633267
 30
0.0
 70
     8
  0
VERTEX
  5
FF29
330
FEFA
100
AcDbEntity
  8
0
100
AcDbVertex
100
AcDb2dVertex
 10
2.360850657160025
 20
-2.221374527619483
 30
0.0
 70
     8
  0
VERTEX
  5
FF2A
330
FEFA
100
AcDbEntity
  8
0
100
AcDbVertex
100
AcDb2dVertex
 10
2.373162670984211
 20
-2.230488782360339
 30
0.0
 70
     8
  0
VERTEX
  5
FF2B
330
FEFA
100
AcDbEntity
  8
0
100
AcDbVertex
100
AcDb2dVertex
 10
2.385016263863692
 20
-2.239123920614153
 30
0.0
 70
     8
  0
VERTEX
  5
FF2C
330
FEFA
100
AcDbEntity
  8
0
100
AcDbVertex
100
AcDb2dVertex
 10
2.396722143844938
 20
-2.247499112439824
 30
0.0
 70
     8
  0
VERTEX
  5
FF2D
330
FEFA
100
AcDbEntity
  8
0
100
AcDbVertex
100
AcDb2dVertex
 10
2.408579133894845
 20
-2.255819086536371
 30
0.0
 70
     8
  0
VERTEX
  5
FF2E
330
FEFA
100
AcDbEntity
  8
0
100
AcDbVertex
100
AcDb2dVertex
 10
2.42083851666181
 20
-2.264230806163373
 30
0.0
 70
     8
  0
VERTEX
  5
FF2F
330
FEFA
100
AcDbEntity
  8
0
100
AcDbVertex
100
AcDb2dVertex
 10
2.433739689714627
 20
-2.272866793220526
 30
0.0
 70
     8
  0
VERTEX
  5
FF30
330
FEFA
100
AcDbEntity
  8
0
100
AcDbVertex
100
AcDb2dVertex
 10
2.447522050622076
 20
-2.281859569607512
 30
0.0
 70
     8
  0
VERTEX
  5
FF31
330
FEFA
100
AcDbEntity
  8
0
100
AcDbVertex
100
AcDb2dVertex
 10
2.462424996952941
 20
-2.291341657224039
 30
0.0
 70
     8
  0
VERTEX
  5
FF32
330
FEFA
100
AcDbEntity
  8
0
100
AcDbVertex
100
AcDb2dVertex
 10
2.478687926276021
 20
-2.30144557796979
 30
0.0
 70
     8
  0
VERTEX
  5
FF33
330
FEFA
100
AcDbEntity
  8
0
100
AcDbVertex
100
AcDb2dVertex
 10
2.4965502361601
 20
-2.312303853744472
 30
0.0
 70
     8
  0
VERTEX
  5
FF34
330
FEFA
100
AcDbEntity
  8
0
100
AcDbVertex
100
AcDb2dVertex
 10
2.516251324173968
 20
-2.324049006447767
 30
0.0
 70
     8
  0
VERTEX
  5
FF35
330
FEFA
100
AcDbEntity
  8
0
100
AcDbVertex
100
AcDb2dVertex
 10
2.53788966585067
 20
-2.336743049545253
 30
0.0
 70
     8
  0
VERTEX
  5
FF36
330
FEFA
100
AcDbEntity
  8
0
100
AcDbVertex
100
AcDb2dVertex
 10
2.5610000485803
 20
-2.350165962765968
 30
0.0
 70
     8
  0
VERTEX
  5
FF37
330
FEFA
100
AcDbEntity
  8
0
100
AcDbVertex
100
AcDb2dVertex
 10
2.584976337717222
 20
-2.364027217404837
 30
0.0
 70
     8
  0
VERTEX
  5
FF38
330
FEFA
100
AcDbEntity
  8
0
100
AcDbVertex
100
AcDb2dVertex
 10
2.609212398615783
 20
-2.378036284756783
 30
0.0
 70
     8
  0
VERTEX
  5
FF39
330
FEFA
100
AcDbEntity
  8
0
100
AcDbVertex
100
AcDb2dVertex
 10
2.633102096630356
 20
-2.391902636116721
 30
0.0
 70
     8
  0
VERTEX
  5
FF3A
330
FEFA
100
AcDbEntity
  8
0
100
AcDbVertex
100
AcDb2dVertex
 10
2.656039297115281
 20
-2.405335742779579
 30
0.0
 70
     8
  0
VERTEX
  5
FF3B
330
FEFA
100
AcDbEntity
  8
0
100
AcDbVertex
100
AcDb2dVertex
 10
2.67741786542493
 20
-2.418045076040266
 30
0.0
 70
     8
  0
VERTEX
  5
FF3C
330
FEFA
100
AcDbEntity
  8
0
100
AcDbVertex
100
AcDb2dVertex
 10
2.69663166691366
 20
-2.429740107193707
 30
0.0
 70
     8
  0
VERTEX
  5
FF3D
330
FEFA
100
AcDbEntity
  8
0
100
AcDbVertex
100
AcDb2dVertex
 10
2.71322907183368
 20
-2.440210160499384
 30
0.0
 70
     8
  0
VERTEX
  5
FF3E
330
FEFA
100
AcDbEntity
  8
0
100
AcDbVertex
100
AcDb2dVertex
 10
2.727376470028715
 20
-2.449563972075059
 30
0.0
 70
     8
  0
VERTEX
  5
FF3F
330
FEFA
100
AcDbEntity
  8
0
100
AcDbVertex
100
AcDb2dVertex
 10
2.739394756240324
 20
-2.457990131003041
 30
0.0
 70
     8
  0
VERTEX
  5
FF40
330
FEFA
100
AcDbEntity
  8
0
100
AcDbVertex
100
AcDb2dVertex
 10
2.749604825210088
 20
-2.465677226365661
 30
0.0
 70
     8
  0
VERTEX
  5
FF41
330
FEFA
100
AcDbEntity
  8
0
100
AcDbVertex
100
AcDb2dVertex
 10
2.758327571679574
 20
-2.472813847245218
 30
0.0
 70
     8
  0
VERTEX
  5
FF42
330
FEFA
100
AcDbEntity
  8
0
100
AcDbVertex
100
AcDb2dVertex
 10
2.765883890390352
 20
-2.479588582724048
 30
0.0
 70
     8
  0
VERTEX
  5
FF43
330
FEFA
100
AcDbEntity
  8
0
100
AcDbVertex
100
AcDb2dVertex
 10
2.772594676083993
 20
-2.486190021884462
 30
0.0
 70
     8
  0
VERTEX
  5
FF44
330
FEFA
100
AcDbEntity
  8
0
100
AcDbVertex
100
AcDb2dVertex
 10
2.778780823502083
 20
-2.492806753808784
 30
0.0
 70
     8
  0
VERTEX
  5
FF45
330
FEFA
100
AcDbEntity
  8
0
100
AcDbVertex
100
AcDb2dVertex
 10
2.784703802422885
 20
-2.499589989457573
 30
0.0
 70
     8
  0
VERTEX
  5
FF46
330
FEFA
100
AcDbEntity
  8
0
100
AcDbVertex
100
AcDb2dVertex
 10
2.790387382771527
 20
-2.506541427304407
 30
0.0
 70
     8
  0
VERTEX
  5
FF47
330
FEFA
100
AcDbEntity
  8
0
100
AcDbVertex
100
AcDb2dVertex
 10
2.79579590950982
 20
-2.513625387701123
 30
0.0
 70
     8
  0
VERTEX
  5
FF48
330
FEFA
100
AcDbEntity
  8
0
100
AcDbVertex
100
AcDb2dVertex
 10
2.800893727599595
 20
-2.52080619099952
 30
0.0
 70
     8
  0
VERTEX
  5
FF49
330
FEFA
100
AcDbEntity
  8
0
100
AcDbVertex
100
AcDb2dVertex
 10
2.80564518200267
 20
-2.528048157551438
 30
0.0
 70
     8
  0
VERTEX
  5
FF4A
330
FEFA
100
AcDbEntity
  8
0
100
AcDbVertex
100
AcDb2dVertex
 10
2.810014617680867
 20
-2.5353156077087
 30
0.0
 70
     8
  0
VERTEX
  5
FF4B
330
FEFA
100
AcDbEntity
  8
0
100
AcDbVertex
100
AcDb2dVertex
 10
2.813966379596017
 20
-2.54257286182313
 30
0.0
 70
     8
  0
VERTEX
  5
FF4C
330
FEFA
100
AcDbEntity
  8
0
100
AcDbVertex
100
AcDb2dVertex
 10
2.817464812709928
 20
-2.549784240246539
 30
0.0
 70
     8
  0
VERTEX
  5
FF4D
330
FEFA
100
AcDbEntity
  8
0
100
AcDbVertex
100
AcDb2dVertex
 10
2.82047680882543
 20
-2.556921709062534
 30
0.0
 70
     8
  0
VERTEX
  5
FF4E
330
FEFA
100
AcDbEntity
  8
0
100
AcDbVertex
100
AcDb2dVertex
 10
2.822979447109336
 20
-2.563987817281832
 30
0.0
 70
     8
  0
VERTEX
  5
FF4F
330
FEFA
100
AcDbEntity
  8
0
100
AcDbVertex
100
AcDb2dVertex
 10
2.824952353569472
 20
-2.570992759646918
 30
0.0
 70
     8
  0
VERTEX
  5
FF50
330
FEFA
100
AcDbEntity
  8
0
100
AcDbVertex
100
AcDb2dVertex
 10
2.826375154213648
 20
-2.577946730900265
 30
0.0
 70
     8
  0
VERTEX
  5
FF51
330
FEFA
100
AcDbEntity
  8
0
100
AcDbVertex
100
AcDb2dVertex
 10
2.827227475049685
 20
-2.584859925784375
 30
0.0
 70
     8
  0
VERTEX
  5
FF52
330
FEFA
100
AcDbEntity
  8
0
100
AcDbVertex
100
AcDb2dVertex
 10
2.827488942085398
 20
-2.591742539041719
 30
0.0
 70
     8
  0
VERTEX
  5
FF53
330
FEFA
100
AcDbEntity
  8
0
100
AcDbVertex
100
AcDb2dVertex
 10
2.827139181328611
 20
-2.598604765414798
 30
0.0
 70
     8
  0
VERTEX
  5
FF54
330
FEFA
100
AcDbEntity
  8
0
100
AcDbVertex
100
AcDb2dVertex
 10
2.82615781878713
 20
-2.605456799646086
 30
0.0
 70
     8
  0
VERTEX
  5
FF55
330
FEFA
100
AcDbEntity
  8
0
100
AcDbVertex
100
AcDb2dVertex
 10
2.824457414982486
 20
-2.612372548579758
 30
0.0
 70
     8
  0
VERTEX
  5
FF56
330
FEFA
100
AcDbEntity
  8
0
100
AcDbVertex
100
AcDb2dVertex
 10
2.821682268491056
 20
-2.619680767466702
 30
0.0
 70
     8
  0
VERTEX
  5
FF57
330
FEFA
100
AcDbEntity
  8
0
100
AcDbVertex
100
AcDb2dVertex
 10
2.817409612402917
 20
-2.627773923659507
 30
0.0
 70
     8
  0
VERTEX
  5
FF58
330
FEFA
100
AcDbEntity
  8
0
100
AcDbVertex
100
AcDb2dVertex
 10
2.811216679808158
 20
-2.637044484510749
 30
0.0
 70
     8
  0
VERTEX
  5
FF59
330
FEFA
100
AcDbEntity
  8
0
100
AcDbVertex
100
AcDb2dVertex
 10
2.802680703796852
 20
-2.647884917373007
 30
0.0
 70
     8
  0
VERTEX
  5
FF5A
330
FEFA
100
AcDbEntity
  8
0
100
AcDbVertex
100
AcDb2dVertex
 10
2.791378917459095
 20
-2.660687689598864
 30
0.0
 70
     8
  0
VERTEX
  5
FF5B
330
FEFA
100
AcDbEntity
  8
0
100
AcDbVertex
100
AcDb2dVertex
 10
2.776888553884951
 20
-2.675845268540898
 30
0.0
 70
     8
  0
VERTEX
  5
FF5C
330
FEFA
100
AcDbEntity
  8
0
100
AcDbVertex
100
AcDb2dVertex
 10
2.758786846164522
 20
-2.693750121551675
 30
0.0
 70
     8
  0
VERTEX
  5
FF5D
330
FEFA
100
AcDbEntity
  8
0
100
AcDbVertex
100
AcDb2dVertex
 10
2.736879389336889
 20
-2.714585739746292
 30
0.0
 70
     8
  0
VERTEX
  5
FF5E
330
FEFA
100
AcDbEntity
  8
0
100
AcDbVertex
100
AcDb2dVertex
 10
2.711885226237161
 20
-2.73769970928984
 30
0.0
 70
     8
  0
VERTEX
  5
FF5F
330
FEFA
100
AcDbEntity
  8
0
100
AcDbVertex
100
AcDb2dVertex
 10
2.684751761649483
 20
-2.762230640109914
 30
0.0
 70
     8
  0
VERTEX
  5
FF60
330
FEFA
100
AcDbEntity
  8
0
100
AcDbVertex
100
AcDb2dVertex
 10
2.656426400357966
 20
-2.787317142134105
 30
0.0
 70
     8
  0
VERTEX
  5
FF61
330
FEFA
100
AcDbEntity
  8
0
100
AcDbVertex
100
AcDb2dVertex
 10
2.627856547146748
 20
-2.812097825290015
 30
0.0
 70
     8
  0
VERTEX
  5
FF62
330
FEFA
100
AcDbEntity
  8
0
100
AcDbVertex
100
AcDb2dVertex
 10
2.599989606799958
 20
-2.835711299505227
 30
0.0
 70
     8
  0
VERTEX
  5
FF63
330
FEFA
100
AcDbEntity
  8
0
100
AcDbVertex
100
AcDb2dVertex
 10
2.573772984101712
 20
-2.857296174707355
 30
0.0
 70
     8
  0
VERTEX
  5
FF64
330
FEFA
100
AcDbEntity
  8
0
100
AcDbVertex
100
AcDb2dVertex
 10
2.550154083836137
 20
-2.875991060823988
 30
0.0
 70
     8
  0
VERTEX
  5
FF65
330
FEFA
100
AcDbEntity
  8
0
100
AcDbVertex
100
AcDb2dVertex
 10
2.529847704248297
 20
-2.891149490519877
 30
0.0
 70
     8
  0
VERTEX
  5
FF66
330
FEFA
100
AcDbEntity
  8
0
100
AcDbVertex
100
AcDb2dVertex
 10
2.512638217426934
 20
-2.902984687408451
 30
0.0
 70
     8
  0
VERTEX
  5
FF67
330
FEFA
100
AcDbEntity
  8
0
100
AcDbVertex
100
AcDb2dVertex
 10
2.498077388921752
 20
-2.911924797840274
 30
0.0
 70
     8
  0
VERTEX
  5
FF68
330
FEFA
100
AcDbEntity
  8
0
100
AcDbVertex
100
AcDb2dVertex
 10
2.485716984282433
 20
-2.918397968165949
 30
0.0
 70
     8
  0
VERTEX
  5
FF69
330
FEFA
100
AcDbEntity
  8
0
100
AcDbVertex
100
AcDb2dVertex
 10
2.475108769058644
 20
-2.922832344736038
 30
0.0
 70
     8
  0
VERTEX
  5
FF6A
330
FEFA
100
AcDbEntity
  8
0
100
AcDbVertex
100
AcDb2dVertex
 10
2.46580450880009
 20
-2.925656073901135
 30
0.0
 70
     8
  0
VERTEX
  5
FF6B
330
FEFA
100
AcDbEntity
  8
0
100
AcDbVertex
100
AcDb2dVertex
 10
2.457355969056454
 20
-2.927297302011806
 30
0.0
 70
     8
  0
VERTEX
  5
FF6C
330
FEFA
100
AcDbEntity
  8
0
100
AcDbVertex
100
AcDb2dVertex
 10
2.44931491537741
 20
-2.928184175418648
 30
0.0
 70
     8
  0
VERTEX
  5
FF6D
330
FEFA
100
AcDbEntity
  8
0
100
AcDbVertex
100
AcDb2dVertex
 10
2.44131715729299
 20
-2.92866923531703
 30
0.0
 70
     8
  0
VERTEX
  5
FF6E
330
FEFA
100
AcDbEntity
  8
0
100
AcDbVertex
100
AcDb2dVertex
 10
2.43333468025456
 20
-2.928802602281553
 30
0.0
 70
     8
  0
VERTEX
  5
FF6F
330
FEFA
100
AcDbEntity
  8
0
100
AcDbVertex
100
AcDb2dVertex
 10
2.425423513693848
 20
-2.928558791731619
 30
0.0
 70
     8
  0
VERTEX
  5
FF70
330
FEFA
100
AcDbEntity
  8
0
100
AcDbVertex
100
AcDb2dVertex
 10
2.417639687042541
 20
-2.927912319086612
 30
0.0
 70
     8
  0
VERTEX
  5
FF71
330
FEFA
100
AcDbEntity
  8
0
100
AcDbVertex
100
AcDb2dVertex
 10
2.410039229732376
 20
-2.926837699765941
 30
0.0
 70
     8
  0
VERTEX
  5
FF72
330
FEFA
100
AcDbEntity
  8
0
100
AcDbVertex
100
AcDb2dVertex
 10
2.402678171195047
 20
-2.925309449189006
 30
0.0
 70
     8
  0
VERTEX
  5
FF73
330
FEFA
100
AcDbEntity
  8
0
100
AcDbVertex
100
AcDb2dVertex
 10
2.395612540862265
 20
-2.923302082775185
 30
0.0
 70
     8
  0
VERTEX
  5
FF74
330
FEFA
100
AcDbEntity
  8
0
100
AcDbVertex
100
AcDb2dVertex
 10
2.388898368165753
 20
-2.9207901159439
 30
0.0
 70
     8
  0
VERTEX
  5
FF75
330
FEFA
100
AcDbEntity
  8
0
100
AcDbVertex
100
AcDb2dVertex
 10
2.382440573137486
 20
-2.917550980713821
 30
0.0
 70
     8
  0
VERTEX
  5
FF76
330
FEFA
100
AcDbEntity
  8
0
100
AcDbVertex
100
AcDb2dVertex
 10
2.37553963821049
 20
-2.912573775500813
 30
0.0
 70
     8
  0
VERTEX
  5
FF77
330
FEFA
100
AcDbEntity
  8
0
100
AcDbVertex
100
AcDb2dVertex
 10
2.367344936418078
 20
-2.904650515320035
 30
0.0
 70
     8
  0
VERTEX
  5
FF78
330
FEFA
100
AcDbEntity
  8
0
100
AcDbVertex
100
AcDb2dVertex
 10
2.35700584079354
 20
-2.892573215186645
 30
0.0
 70
     8
  0
VERTEX
  5
FF79
330
FEFA
100
AcDbEntity
  8
0
100
AcDbVertex
100
AcDb2dVertex
 10
2.343671724370187
 20
-2.875133890115792
 30
0.0
 70
     8
  0
VERTEX
  5
FF7A
330
FEFA
100
AcDbEntity
  8
0
100
AcDbVertex
100
AcDb2dVertex
 10
2.32649196018132
 20
-2.851124555122636
 30
0.0
 70
     8
  0
VERTEX
  5
FF7B
330
FEFA
100
AcDbEntity
  8
0
100
AcDbVertex
100
AcDb2dVertex
 10
2.304615921260237
 20
-2.819337225222325
 30
0.0
 70
     8
  0
VERTEX
  5
FF7C
330
FEFA
100
AcDbEntity
  8
0
100
AcDbVertex
100
AcDb2dVertex
 10
2.277192980640233
 20
-2.778563915430012
 30
0.0
 70
     8
  0
VERTEX
  5
FF7D
330
FEFA
100
AcDbEntity
  8
0
100
AcDbVertex
100
AcDb2dVertex
 10
2.243785939758357
 20
-2.728206579698762
 30
0.0
 70
     8
  0
VERTEX
  5
FF7E
330
FEFA
100
AcDbEntity
  8
0
100
AcDbVertex
100
AcDb2dVertex
 10
2.205611313666556
 20
-2.670106927733273
 30
0.0
 70
     8
  0
VERTEX
  5
FF7F
330
FEFA
100
AcDbEntity
  8
0
100
AcDbVertex
100
AcDb2dVertex
 10
2.164299045820531
 20
-2.606716608176151
 30
0.0
 70
     8
  0
VERTEX
  5
FF80
330
FEFA
100
AcDbEntity
  8
0
100
AcDbVertex
100
AcDb2dVertex
 10
2.121479079675955
 20
-2.540487269669998
 30
0.0
 70
     8
  0
VERTEX
  5
FF81
330
FEFA
100
AcDbEntity
  8
0
100
AcDbVertex
100
AcDb2dVertex
 10
2.07878135868853
 20
-2.473870560857424
 30
0.0
 70
     8
  0
VERTEX
  5
FF82
330
FEFA
100
AcDbEntity
  8
0
100
AcDbVertex
100
AcDb2dVertex
 10
2.037835826313951
 20
-2.409318130381032
 30
0.0
 70
     8
  0
VERTEX
  5
FF83
330
FEFA
100
AcDbEntity
  8
0
100
AcDbVertex
100
AcDb2dVertex
 10
2.000272426007907
 20
-2.349281626883426
 30
0.0
 70
     8
  0
VERTEX
  5
FF84
330
FEFA
100
AcDbEntity
  8
0
100
AcDbVertex
100
AcDb2dVertex
 10
1.967721101226075
 20
-2.296212699007215
 30
0.0
 70
     8
  0
VERTEX
  5
FF85
330
FEFA
100
AcDbEntity
  8
0
100
AcDbVertex
100
AcDb2dVertex
 10
1.94141364776541
 20
-2.251964949402241
 30
0.0
 70
     8
  0
VERTEX
  5
FF86
330
FEFA
100
AcDbEntity
  8
0
100
AcDbVertex
100
AcDb2dVertex
 10
1.920989270787845
 20
-2.215999796747334
 30
0.0
 70
     8
  0
VERTEX
  5
FF87
330
FEFA
100
AcDbEntity
  8
0
100
AcDbVertex
100
AcDb2dVertex
 10
1.905689027796577
 20
-2.187180613728566
 30
0.0
 70
     8
  0
VERTEX
  5
FF88
330
FEFA
100
AcDbEntity
  8
0
100
AcDbVertex
100
AcDb2dVertex
 10
1.894753976294794
 20
-2.164370773032002
 30
0.0
 70
     8
  0
VERTEX
  5
FF89
330
FEFA
100
AcDbEntity
  8
0
100
AcDbVertex
100
AcDb2dVertex
 10
1.887425173785691
 20
-2.146433647343718
 30
0.0
 70
     8
  0
VERTEX
  5
FF8A
330
FEFA
100
AcDbEntity
  8
0
100
AcDbVertex
100
AcDb2dVertex
 10
1.882943677772448
 20
-2.132232609349779
 30
0.0
 70
     8
  0
VERTEX
  5
FF8B
330
FEFA
100
AcDbEntity
  8
0
100
AcDbVertex
100
AcDb2dVertex
 10
1.880550545758261
 20
-2.120631031736261
 30
0.0
 70
     8
  0
VERTEX
  5
FF8C
330
FEFA
100
AcDbEntity
  8
0
100
AcDbVertex
100
AcDb2dVertex
 10
1.873401725854985
 20
-2.107012759161948
 30
0.0
 70
    16
  0
VERTEX
  5
FF8D
330
FEFA
100
AcDbEntity
  8
0
100
AcDbVertex
100
AcDb2dVertex
 10
1.886441209284313
 20
-2.039161712962977
 30
0.0
 70
    16
  0
VERTEX
  5
FF8E
330
FEFA
100
AcDbEntity
  8
0
100
AcDbVertex
100
AcDb2dVertex
 10
1.938599451239356
 20
-1.986968626109122
 30
0.0
 70
    16
  0
VERTEX
  5
FF8F
330
FEFA
100
AcDbEntity
  8
0
100
AcDbVertex
100
AcDb2dVertex
 10
1.99858138325201
 20
-1.981749250845815
 30
0.0
 70
    16
  0
VERTEX
  5
FF90
330
FEFA
100
AcDbEntity
  8
0
100
AcDbVertex
100
AcDb2dVertex
 10
2.068994902008133
 20
-1.997407210190933
 30
0.0
 70
    16
  0
VERTEX
  5
FF91
330
FEFA
100
AcDbEntity
  8
0
100
AcDbVertex
100
AcDb2dVertex
 10
2.306314630626962
 20
-2.180083014179457
 30
0.0
 70
    16
  0
VERTEX
  5
FF92
330
FEFA
100
AcDbEntity
  8
0
100
AcDbVertex
100
AcDb2dVertex
 10
2.39498352893004
 20
-2.247934060378428
 30
0.0
 70
    16
  0
VERTEX
  5
FF93
330
FEFA
100
AcDbEntity
  8
0
100
AcDbVertex
100
AcDb2dVertex
 10
2.494084116722516
 20
-2.313175418945748
 30
0.0
 70
    16
  0
VERTEX
  5
FF94
330
FEFA
100
AcDbEntity
  8
0
100
AcDbVertex
100
AcDb2dVertex
 10
2.7261879492237
 20
-2.443658302525188
 30
0.0
 70
    16
  0
VERTEX
  5
FF95
330
FEFA
100
AcDbEntity
  8
0
100
AcDbVertex
100
AcDb2dVertex
 10
2.780954087864619
 20
-2.490632014115734
 30
0.0
 70
    16
  0
VERTEX
  5
FF96
330
FEFA
100
AcDbEntity
  8
0
100
AcDbVertex
100
AcDb2dVertex
 10
2.8226806403303
 20
-2.550654163864551
 30
0.0
 70
    16
  0
VERTEX
  5
FF97
330
FEFA
100
AcDbEntity
  8
0
100
AcDbVertex
100
AcDb2dVertex
 10
2.833112227073753
 20
-2.605456771905286
 30
0.0
 70
    16
  0
VERTEX
  5
FF98
330
FEFA
100
AcDbEntity
  8
0
100
AcDbVertex
100
AcDb2dVertex
 10
2.801817364097452
 20
-2.660259546390795
 30
0.0
 70
    16
  0
VERTEX
  5
FF99
330
FEFA
100
AcDbEntity
  8
0
100
AcDbVertex
100
AcDb2dVertex
 10
2.512339393523578
 20
-2.916005771841598
 30
0.0
 70
    16
  0
VERTEX
  5
FF9A
330
FEFA
100
AcDbEntity
  8
0
100
AcDbVertex
100
AcDb2dVertex
 10
2.449749564825049
 20
-2.931663731186718
 30
0.0
 70
    16
  0
VERTEX
  5
FF9B
330
FEFA
100
AcDbEntity
  8
0
100
AcDbVertex
100
AcDb2dVertex
 10
2.384551839440678
 20
-2.926444355923409
 30
0.0
 70
    16
  0
VERTEX
  5
FF9C
330
FEFA
100
AcDbEntity
  8
0
100
AcDbVertex
100
AcDb2dVertex
 10
2.345433286406766
 20
-2.887299540783018
 30
0.0
 70
    16
  0
SEQEND
  5
FF9D
330
FEFA
100
AcDbEntity
  8
0
  0
LWPOLYLINE
  5
FF9E
330
FAB9
100
AcDbEntity
  8
0
100
AcDbPolyline
 90
       14
 70
     1
 43
0.0
 10
4.818729439648414
 20
-1.262530890830969
 10
4.906082676574833
 20
-1.329770585370326
 10
4.932960595629118
 20
-1.4239062575923
 10
4.859046318229829
 20
-1.504594024195384
 10
4.314768662872396
 20
-1.639073579718868
 10
3.86456372420497
 20
-1.847516699368817
 10
3.562187237590165
 20
-2.042512079844616
 10
3.515150879245183
 20
-2.07613192711431
 10
3.427797642318743
 20
-2.049235949431693
 10
2.366120353404074
 20
-1.70631327425826
 10
2.218291798605516
 20
-1.665969390956718
 10
2.151097000969798
 20
-1.544937907496894
 10
2.14437752120623
 20
-1.376838504703716
 10
2.272047636714088
 20
-1.235634913148349
  0
ENDBLK
  5
FF9F
330
FAB9
100
AcDbEntity
  8
0
100
AcDbBlockEnd
  0
BLOCK
  5
FFBF
330
FFB4
100
AcDbEntity
  8
0
100
AcDbBlockBegin
  2
*D1
 70
     1
 10
0.0
 20
0.0
 30
0.0
  3
*D1
  1

  0
LINE
  5
1004D
330
FFB4
100
AcDbEntity
  8
DIM
 62
     0
370
    -2
100
AcDbLine
 10
5.82616145955346
 20
2.854571427368075
 30
0.0
 11
3.113358711441581
 21
2.854571427368075
 31
0.0
  0
LINE
  5
1004E
330
FFB4
100
AcDbEntity
  8
DIM
 62
     0
370
    -2
100
AcDbLine
 10
5.826161459553461
 20
12.23931430991144
 30
0.0
 11
3.113358711441584
 21
12.23931430991144
 31
0.0
  0
LINE
  5
1004F
330
FFB4
100
AcDbEntity
  8
DIM
 62
     0
370
    -2
100
AcDbLine
 10
3.293358711441582
 20
3.034571427368075
 30
0.0
 11
3.293358711441582
 21
5.706942868639758
 31
0.0
  0
LINE
  5
10050
330
FFB4
100
AcDbEntity
  8
DIM
 62
     0
370
    -2
100
AcDbLine
 10
3.293358711441584
 20
12.05931430991144
 30
0.0
 11
3.293358711441583
 21
9.38694286863976
 31
0.0
  0
SOLID
  5
10051
330
FFB4
100
AcDbEntity
  8
DIM
 62
     0
100
AcDbTrace
 10
3.263358711441582
 20
3.034571427368075
 30
0.0
 11
3.323358711441582
 21
3.034571427368075
 31
0.0
 12
3.293358711441582
 22
2.854571427368075
 32
0.0
 13
3.293358711441582
 23
2.854571427368075
 33
0.0
  0
SOLID
  5
10052
330
FFB4
100
AcDbEntity
  8
DIM
 62
     0
100
AcDbTrace
 10
3.263358711441584
 20
12.05931430991144
 30
0.0
 11
3.323358711441584
 21
12.05931430991144
 31
0.0
 12
3.293358711441584
 22
12.23931430991144
 32
0.0
 13
3.293358711441584
 23
12.23931430991144
 33
0.0
  0
MTEXT
  5
10053
330
FFB4
100
AcDbEntity
  8
DIM
 62
     0
100
AcDbMText
 10
3.293358711441582
 20
7.546942868639759
 30
0.0
 40
1.5
 41
0.0
 71
     5
 72
     1
  1
\A1;9{\H1.000000x;\S3/8;}
 73
     1
 44
1.0
  0
POINT
  5
10054
330
FFB4
100
AcDbEntity
  8
Defpoints
 62
     0
100
AcDbPoint
 10
5.88866145955346
 20
2.854571427368075
 30
0.0
  0
POINT
  5
10055
330
FFB4
100
AcDbEntity
  8
Defpoints
 62
     0
100
AcDbPoint
 10
5.888661459553461
 20
12.23931430991144
 30
0.0
  0
POINT
  5
10056
330
FFB4
100
AcDbEntity
  8
Defpoints
 62
     0
100
AcDbPoint
 10
3.293358711441584
 20
12.23931430991144
 30
0.0
  0
ENDBLK
  5
FFC0
330
FFB4
100
AcDbEntity
  8
0
100
AcDbBlockEnd
  0
BLOCK
  5
FFE5
330
FFDA
100
AcDbEntity
  8
0
100
AcDbBlockBegin
  2
*D2
 70
     1
 10
0.0
 20
0.0
 30
0.0
  3
*D2
  1

  0
LINE
  5
10061
330
FFDA
100
AcDbEntity
  8
DIM
 62
     0
370
    -2
100
AcDbLine
 10
18.96815527164253
 20
7.61431430991144
 30
0.0
 11
18.96815527164253
 21
15.48077316104912
 31
0.0
  0
LINE
  5
10062
330
FFDA
100
AcDbEntity
  8
DIM
 62
     0
370
    -2
100
AcDbLine
 10
19.84315527164253
 20
7.61431430991144
 30
0.0
 11
19.84315527164253
 21
15.48077316104912
 31
0.0
  0
LINE
  5
10063
330
FFDA
100
AcDbEntity
  8
DIM
 62
     0
370
    -2
100
AcDbLine
 10
19.14815527164253
 20
15.30077316104912
 30
0.0
 11
19.66315527164253
 21
15.30077316104912
 31
0.0
  0
LINE
  5
10064
330
FFDA
100
AcDbEntity
  8
DIM
 62
     0
370
    -2
100
AcDbLine
 10
19.84315527164253
 20
15.30077316104912
 30
0.0
 11
20.02315527164253
 21
15.30077316104912
 31
0.0
  0
SOLID
  5
10065
330
FFDA
100
AcDbEntity
  8
DIM
 62
     0
100
AcDbTrace
 10
19.14815527164253
 20
15.33077316104912
 30
0.0
 11
19.14815527164253
 21
15.27077316104912
 31
0.0
 12
18.96815527164253
 22
15.30077316104912
 32
0.0
 13
18.96815527164253
 23
15.30077316104912
 33
0.0
  0
SOLID
  5
10066
330
FFDA
100
AcDbEntity
  8
DIM
 62
     0
100
AcDbTrace
 10
19.66315527164253
 20
15.33077316104912
 30
0.0
 11
19.66315527164253
 21
15.27077316104912
 31
0.0
 12
19.84315527164253
 22
15.30077316104912
 32
0.0
 13
19.84315527164253
 23
15.30077316104912
 33
0.0
  0
MTEXT
  5
10067
330
FFDA
100
AcDbEntity
  8
DIM
 62
     0
100
AcDbMText
 10
20.61315527164253
 20
15.30077316104912
 30
0.0
 40
1.5
 41
0.0
 71
     5
 72
     1
  1
\A1;{\H1.000000x;\S7/8;}
 73
     1
 44
1.0
  0
POINT
  5
10068
330
FFDA
100
AcDbEntity
  8
Defpoints
 62
     0
100
AcDbPoint
 10
18.96815527164253
 20
7.55181430991144
 30
0.0
  0
POINT
  5
10069
330
FFDA
100
AcDbEntity
  8
Defpoints
 62
     0
100
AcDbPoint
 10
19.84315527164253
 20
7.55181430991144
 30
0.0
  0
POINT
  5
1006A
330
FFDA
100
AcDbEntity
  8
Defpoints
 62
     0
100
AcDbPoint
 10
19.84315527164253
 20
15.30077316104912
 30
0.0
  0
ENDBLK
  5
FFE6
330
FFDA
100
AcDbEntity
  8
0
100
AcDbBlockEnd
  0
BLOCK
  5
10001
330
FFF6
100
AcDbEntity
  8
0
100
AcDbBlockBegin
  2
*D3
 70
     1
 10
0.0
 20
0.0
 30
0.0
  3
*D3
  1

  0
LINE
  5
10057
330
FFF6
100
AcDbEntity
  8
DIM
 62
     0
370
    -2
100
AcDbLine
 10
15.23698898802516
 20
12.08538630558228
 30
0.0
 11
15.23698898802516
 21
15.49461921674175
 31
0.0
  0
LINE
  5
10058
330
FFF6
100
AcDbEntity
  8
DIM
 62
     0
370
    -2
100
AcDbLine
 10
5.888661459553461
 20
12.30181430991144
 30
0.0
 11
5.888661459553461
 21
15.49461921674175
 31
0.0
  0
LINE
  5
10059
330
FFF6
100
AcDbEntity
  8
DIM
 62
     0
370
    -2
100
AcDbLine
 10
15.05698898802516
 20
15.31461921674174
 30
0.0
 11
11.90282522378931
 21
15.31461921674174
 31
0.0
  0
LINE
  5
1005A
330
FFF6
100
AcDbEntity
  8
DIM
 62
     0
370
    -2
100
AcDbLine
 10
6.068661459553461
 20
15.31461921674174
 30
0.0
 11
9.222825223789312
 21
15.31461921674174
 31
0.0
  0
SOLID
  5
1005B
330
FFF6
100
AcDbEntity
  8
DIM
 62
     0
100
AcDbTrace
 10
15.05698898802516
 20
15.34461921674174
 30
0.0
 11
15.05698898802516
 21
15.28461921674175
 31
0.0
 12
15.23698898802516
 22
15.31461921674174
 32
0.0
 13
15.23698898802516
 23
15.31461921674174
 33
0.0
  0
SOLID
  5
1005C
330
FFF6
100
AcDbEntity
  8
DIM
 62
     0
100
AcDbTrace
 10
6.068661459553461
 20
15.34461921674174
 30
0.0
 11
6.068661459553461
 21
15.28461921674175
 31
0.0
 12
5.888661459553461
 22
15.31461921674174
 32
0.0
 13
5.888661459553461
 23
15.31461921674174
 33
0.0
  0
MTEXT
  5
1005D
330
FFF6
100
AcDbEntity
  8
DIM
 62
     0
100
AcDbMText
 10
10.56282522378931
 20
15.31461921674174
 30
0.0
 40
1.5
 41
0.0
 71
     5
 72
     1
  1
\A1;9{\H1.000000x;\S3/8;}
 73
     1
 44
1.0
  0
POINT
  5
1005E
330
FFF6
100
AcDbEntity
  8
Defpoints
 62
     0
100
AcDbPoint
 10
15.23698898802516
 20
12.02288630558228
 30
0.0
  0
POINT
  5
1005F
330
FFF6
100
AcDbEntity
  8
Defpoints
 62
     0
100
AcDbPoint
 10
5.888661459553461
 20
12.23931430991144
 30
0.0
  0
POINT
  5
10060
330
FFF6
100
AcDbEntity
  8
Defpoints
 62
     0
100
AcDbPoint
 10
5.888661459553461
 20
15.31461921674174
 30
0.0
  0
ENDBLK
  5
10002
330
FFF6
100
AcDbEntity
  8
0
100
AcDbBlockEnd
  0
ENDSEC
  0
SECTION
  2
ENTITIES
  0
POLYLINE
  5
F0AA
330
18
100
AcDbEntity
  8
0
100
AcDb2dPolyline
 66
     1
 10
0.0
 20
0.0
 30
0.0
 70
     5
 75
     6
  0
VERTEX
  5
F0AB
330
F0AA
100
AcDbEntity
  8
0
100
AcDbVertex
100
AcDb2dVertex
 10
7.089436161332593
 20
10.40361435736375
 30
0.0
 70
    16
  0
VERTEX
  5
F0AC
330
F0AA
100
AcDbEntity
  8
0
100
AcDbVertex
100
AcDb2dVertex
 10
7.096826571888019
 20
10.77485974709275
 30
0.0
 70
     8
  0
VERTEX
  5
F0AD
330
F0AA
100
AcDbEntity
  8
0
100
AcDbVertex
100
AcDb2dVertex
 10
7.098368161654073
 20
10.80406724225046
 30
0.0
 70
     8
  0
VERTEX
  5
F0AE
330
F0AA
100
AcDbEntity
  8
0
100
AcDbVertex
100
AcDb2dVertex
 10
7.100124533918489
 20
10.82842502071168
 30
0.0
 70
     8
  0
VERTEX
  5
F0AF
330
F0AA
100
AcDbEntity
  8
0
100
AcDbVertex
100
AcDb2dVertex
 10
7.102116474058441
 20
10.84854666326066
 30
0.0
 70
     8
  0
VERTEX
  5
F0B0
330
F0AA
100
AcDbEntity
  8
0
100
AcDbVertex
100
AcDb2dVertex
 10
7.104364767451096
 20
10.86504575068167
 30
0.0
 70
     8
  0
VERTEX
  5
F0B1
330
F0AA
100
AcDbEntity
  8
0
100
AcDbVertex
100
AcDb2dVertex
 10
7.106890199473638
 20
10.87853586375897
 30
0.0
 70
     8
  0
VERTEX
  5
F0B2
330
F0AA
100
AcDbEntity
  8
0
100
AcDbVertex
100
AcDb2dVertex
 10
7.109713555503238
 20
10.88963058327685
 30
0.0
 70
     8
  0
VERTEX
  5
F0B3
330
F0AA
100
AcDbEntity
  8
0
100
AcDbVertex
100
AcDb2dVertex
 10
7.112855620917067
 20
10.89894349001955
 30
0.0
 70
     8
  0
VERTEX
  5
F0B4
330
F0AA
100
AcDbEntity
  8
0
100
AcDbVertex
100
AcDb2dVertex
 10
7.116337181092298
 20
10.90708816477135
 30
0.0
 70
     8
  0
VERTEX
  5
F0B5
330
F0AA
100
AcDbEntity
  8
0
100
AcDbVertex
100
AcDb2dVertex
 10
7.120172670324212
 20
10.91457303612538
 30
0.0
 70
     8
  0
VERTEX
  5
F0B6
330
F0AA
100
AcDbEntity
  8
0
100
AcDbVertex
100
AcDb2dVertex
 10
7.124351118580507
 20
10.92148592391021
 30
0.0
 70
     8
  0
VERTEX
  5
F0B7
330
F0AA
100
AcDbEntity
  8
0
100
AcDbVertex
100
AcDb2dVertex
 10
7.128855204746977
 20
10.92780949576325
 30
0.0
 70
     8
  0
VERTEX
  5
F0B8
330
F0AA
100
AcDbEntity
  8
0
100
AcDbVertex
100
AcDb2dVertex
 10
7.133667607709435
 20
10.93352641932194
 30
0.0
 70
     8
  0
VERTEX
  5
F0B9
330
F0AA
100
AcDbEntity
  8
0
100
AcDbVertex
100
AcDb2dVertex
 10
7.138771006353676
 20
10.93861936222368
 30
0.0
 70
     8
  0
VERTEX
  5
F0BA
330
F0AA
100
AcDbEntity
  8
0
100
AcDbVertex
100
AcDb2dVertex
 10
7.144148079565497
 20
10.94307099210592
 30
0.0
 70
     8
  0
VERTEX
  5
F0BB
330
F0AA
100
AcDbEntity
  8
0
100
AcDbVertex
100
AcDb2dVertex
 10
7.1497815062307
 20
10.94686397660607
 30
0.0
 70
     8
  0
VERTEX
  5
F0BC
330
F0AA
100
AcDbEntity
  8
0
100
AcDbVertex
100
AcDb2dVertex
 10
7.155653965235093
 20
10.94998098336156
 30
0.0
 70
     8
  0
VERTEX
  5
F0BD
330
F0AA
100
AcDbEntity
  8
0
100
AcDbVertex
100
AcDb2dVertex
 10
7.161843402094256
 20
10.95242201269746
 30
0.0
 70
     8
  0
VERTEX
  5
F0BE
330
F0AA
100
AcDbEntity
  8
0
100
AcDbVertex
100
AcDb2dVertex
 10
7.168808828842903
 20
10.95425639568953
 30
0.0
 70
     8
  0
VERTEX
  5
F0BF
330
F0AA
100
AcDbEntity
  8
0
100
AcDbVertex
100
AcDb2dVertex
 10
7.177104524145524
 20
10.95557079610118
 30
0.0
 70
     8
  0
VERTEX
  5
F0C0
330
F0AA
100
AcDbEntity
  8
0
100
AcDbVertex
100
AcDb2dVertex
 10
7.187284766666613
 20
10.9564518776958
 30
0.0
 70
     8
  0
VERTEX
  5
F0C1
330
F0AA
100
AcDbEntity
  8
0
100
AcDbVertex
100
AcDb2dVertex
 10
7.19990383507068
 20
10.95698630423679
 30
0.0
 70
     8
  0
VERTEX
  5
F0C2
330
F0AA
100
AcDbEntity
  8
0
100
AcDbVertex
100
AcDb2dVertex
 10
7.215516008022202
 20
10.95726073948757
 30
0.0
 70
     8
  0
VERTEX
  5
F0C3
330
F0AA
100
AcDbEntity
  8
0
100
AcDbVertex
100
AcDb2dVertex
 10
7.234675564185687
 20
10.95736184721155
 30
0.0
 70
     8
  0
VERTEX
  5
F0C4
330
F0AA
100
AcDbEntity
  8
0
100
AcDbVertex
100
AcDb2dVertex
 10
7.25793678222562
 20
10.95737629117211
 30
0.0
 70
     8
  0
VERTEX
  5
F0C5
330
F0AA
100
AcDbEntity
  8
0
100
AcDbVertex
100
AcDb2dVertex
 10
7.285574491999057
 20
10.95736646925075
 30
0.0
 70
     8
  0
VERTEX
  5
F0C6
330
F0AA
100
AcDbEntity
  8
0
100
AcDbVertex
100
AcDb2dVertex
 10
7.316745728133222
 20
10.95729771580123
 30
0.0
 70
     8
  0
VERTEX
  5
F0C7
330
F0AA
100
AcDbEntity
  8
0
100
AcDbVertex
100
AcDb2dVertex
 10
7.350328076447908
 20
10.95711109929539
 30
0.0
 70
     8
  0
VERTEX
  5
F0C8
330
F0AA
100
AcDbEntity
  8
0
100
AcDbVertex
100
AcDb2dVertex
 10
7.385199122762893
 20
10.95674768820506
 30
0.0
 70
     8
  0
VERTEX
  5
F0C9
330
F0AA
100
AcDbEntity
  8
0
100
AcDbVertex
100
AcDb2dVertex
 10
7.420236452897979
 20
10.9561485510021
 30
0.0
 70
     8
  0
VERTEX
  5
F0CA
330
F0AA
100
AcDbEntity
  8
0
100
AcDbVertex
100
AcDb2dVertex
 10
7.454317652672938
 20
10.95525475615832
 30
0.0
 70
     8
  0
VERTEX
  5
F0CB
330
F0AA
100
AcDbEntity
  8
0
100
AcDbVertex
100
AcDb2dVertex
 10
7.486320307907561
 20
10.95400737214559
 30
0.0
 70
     8
  0
VERTEX
  5
F0CC
330
F0AA
100
AcDbEntity
  8
0
100
AcDbVertex
100
AcDb2dVertex
 10
7.515122004421638
 20
10.95234746743572
 30
0.0
 70
     8
  0
VERTEX
  5
F0CD
330
F0AA
100
AcDbEntity
  8
0
100
AcDbVertex
100
AcDb2dVertex
 10
7.539869961497525
 20
10.95023459887412
 30
0.0
 70
     8
  0
VERTEX
  5
F0CE
330
F0AA
100
AcDbEntity
  8
0
100
AcDbVertex
100
AcDb2dVertex
 10
7.560789932267924
 20
10.94770227680041
 30
0.0
 70
     8
  0
VERTEX
  5
F0CF
330
F0AA
100
AcDbEntity
  8
0
100
AcDbVertex
100
AcDb2dVertex
 10
7.578377303328101
 20
10.94480249992774
 30
0.0
 70
     8
  0
VERTEX
  5
F0D0
330
F0AA
100
AcDbEntity
  8
0
100
AcDbVertex
100
AcDb2dVertex
 10
7.593127461273335
 20
10.94158726696927
 30
0.0
 70
     8
  0
VERTEX
  5
F0D1
330
F0AA
100
AcDbEntity
  8
0
100
AcDbVertex
100
AcDb2dVertex
 10
7.605535792698903
 20
10.93810857663819
 30
0.0
 70
     8
  0
VERTEX
  5
F0D2
330
F0AA
100
AcDbEntity
  8
0
100
AcDbVertex
100
AcDb2dVertex
 10
7.616097684200068
 20
10.93441842764764
 30
0.0
 70
     8
  0
VERTEX
  5
F0D3
330
F0AA
100
AcDbEntity
  8
0
100
AcDbVertex
100
AcDb2dVertex
 10
7.625308522372112
 20
10.93056881871079
 30
0.0
 70
     8
  0
VERTEX
  5
F0D4
330
F0AA
100
AcDbEntity
  8
0
100
AcDbVertex
100
AcDb2dVertex
 10
7.633663693810301
 20
10.92661174854082
 30
0.0
 70
     8
  0
VERTEX
  5
F0D5
330
F0AA
100
AcDbEntity
  8
0
100
AcDbVertex
100
AcDb2dVertex
 10
7.64157197900379
 20
10.92258997150156
 30
0.0
 70
     8
  0
VERTEX
  5
F0D6
330
F0AA
100
AcDbEntity
  8
0
100
AcDbVertex
100
AcDb2dVertex
 10
7.649095734017195
 20
10.91850926455958
 30
0.0
 70
     8
  0
VERTEX
  5
F0D7
330
F0AA
100
AcDbEntity
  8
0
100
AcDbVertex
100
AcDb2dVertex
 10
7.656210708809028
 20
10.91436616033211
 30
0.0
 70
     8
  0
VERTEX
  5
F0D8
330
F0AA
100
AcDbEntity
  8
0
100
AcDbVertex
100
AcDb2dVertex
 10
7.662892653337788
 20
10.9101571914364
 30
0.0
 70
     8
  0
VERTEX
  5
F0D9
330
F0AA
100
AcDbEntity
  8
0
100
AcDbVertex
100
AcDb2dVertex
 10
7.669117317561962
 20
10.90587889048968
 30
0.0
 70
     8
  0
VERTEX
  5
F0DA
330
F0AA
100
AcDbEntity
  8
0
100
AcDbVertex
100
AcDb2dVertex
 10
7.674860451440063
 20
10.9015277901092
 30
0.0
 70
     8
  0
VERTEX
  5
F0DB
330
F0AA
100
AcDbEntity
  8
0
100
AcDbVertex
100
AcDb2dVertex
 10
7.680097804930589
 20
10.8971004229122
 30
0.0
 70
     8
  0
VERTEX
  5
F0DC
330
F0AA
100
AcDbEntity
  8
0
100
AcDbVertex
100
AcDb2dVertex
 10
7.684805127992046
 20
10.89259332151591
 30
0.0
 70
     8
  0
VERTEX
  5
F0DD
330
F0AA
100
AcDbEntity
  8
0
100
AcDbVertex
100
AcDb2dVertex
 10
7.688971450324546
 20
10.8880116852065
 30
0.0
 70
     8
  0
VERTEX
  5
F0DE
330
F0AA
100
AcDbEntity
  8
0
100
AcDbVertex
100
AcDb2dVertex
 10
7.692638920594746
 20
10.8833953799458
 30
0.0
 70
     8
  0
VERTEX
  5
F0DF
330
F0AA
100
AcDbEntity
  8
0
100
AcDbVertex
100
AcDb2dVertex
 10
7.695862967210922
 20
10.87879293836456
 30
0.0
 70
     8
  0
VERTEX
  5
F0E0
330
F0AA
100
AcDbEntity
  8
0
100
AcDbVertex
100
AcDb2dVertex
 10
7.698699018581339
 20
10.87425289309356
 30
0.0
 70
     8
  0
VERTEX
  5
F0E1
330
F0AA
100
AcDbEntity
  8
0
100
AcDbVertex
100
AcDb2dVertex
 10
7.70120250311428
 20
10.86982377676352
 30
0.0
 70
     8
  0
VERTEX
  5
F0E2
330
F0AA
100
AcDbEntity
  8
0
100
AcDbVertex
100
AcDb2dVertex
 10
7.703428849218011
 20
10.86555412200522
 30
0.0
 70
     8
  0
VERTEX
  5
F0E3
330
F0AA
100
AcDbEntity
  8
0
100
AcDbVertex
100
AcDb2dVertex
 10
7.705433485300805
 20
10.8614924614494
 30
0.0
 70
     8
  0
VERTEX
  5
F0E4
330
F0AA
100
AcDbEntity
  8
0
100
AcDbVertex
100
AcDb2dVertex
 10
7.707271839770946
 20
10.85768732772683
 30
0.0
 70
     8
  0
VERTEX
  5
F0E5
330
F0AA
100
AcDbEntity
  8
0
100
AcDbVertex
100
AcDb2dVertex
 10
7.708988948147429
 20
10.85416992050968
 30
0.0
 70
     8
  0
VERTEX
  5
F0E6
330
F0AA
100
AcDbEntity
  8
0
100
AcDbVertex
100
AcDb2dVertex
 10
7.71058827439223
 20
10.85090210763587
 30
0.0
 70
     8
  0
VERTEX
  5
F0E7
330
F0AA
100
AcDbEntity
  8
0
100
AcDbVertex
100
AcDb2dVertex
 10
7.712062889578046
 20
10.84782842398472
 30
0.0
 70
     8
  0
VERTEX
  5
F0E8
330
F0AA
100
AcDbEntity
  8
0
100
AcDbVertex
100
AcDb2dVertex
 10
7.713405864777564
 20
10.84489340443559
 30
0.0
 70
     8
  0
VERTEX
  5
F0E9
330
F0AA
100
AcDbEntity
  8
0
100
AcDbVertex
100
AcDb2dVertex
 10
7.714610271063499
 20
10.8420415838678
 30
0.0
 70
     8
  0
VERTEX
  5
F0EA
330
F0AA
100
AcDbEntity
  8
0
100
AcDbVertex
100
AcDb2dVertex
 10
7.715669179508547
 20
10.83921749716069
 30
0.0
 70
     8
  0
VERTEX
  5
F0EB
330
F0AA
100
AcDbEntity
  8
0
100
AcDbVertex
100
AcDb2dVertex
 10
7.716575661185389
 20
10.8363656791936
 30
0.0
 70
     8
  0
VERTEX
  5
F0EC
330
F0AA
100
AcDbEntity
  8
0
100
AcDbVertex
100
AcDb2dVertex
 10
7.717322787166747
 20
10.83343066484587
 30
0.0
 70
     8
  0
VERTEX
  5
F0ED
330
F0AA
100
AcDbEntity
  8
0
100
AcDbVertex
100
AcDb2dVertex
 10
7.717901896494161
 20
10.83034601149794
 30
0.0
 70
     8
  0
VERTEX
  5
F0EE
330
F0AA
100
AcDbEntity
  8
0
100
AcDbVertex
100
AcDb2dVertex
 10
7.718297400084587
 20
10.8270013665347
 30
0.0
 70
     8
  0
VERTEX
  5
F0EF
330
F0AA
100
AcDbEntity
  8
0
100
AcDbVertex
100
AcDb2dVertex
 10
7.718491976823807
 20
10.82327539984218
 30
0.0
 70
     8
  0
VERTEX
  5
F0F0
330
F0AA
100
AcDbEntity
  8
0
100
AcDbVertex
100
AcDb2dVertex
 10
7.71846830559765
 20
10.81904678130635
 30
0.0
 70
     8
  0
VERTEX
  5
F0F1
330
F0AA
100
AcDbEntity
  8
0
100
AcDbVertex
100
AcDb2dVertex
 10
7.718209065291897
 20
10.81419418081325
 30
0.0
 70
     8
  0
VERTEX
  5
F0F2
330
F0AA
100
AcDbEntity
  8
0
100
AcDbVertex
100
AcDb2dVertex
 10
7.717696934792355
 20
10.80859626824885
 30
0.0
 70
     8
  0
VERTEX
  5
F0F3
330
F0AA
100
AcDbEntity
  8
0
100
AcDbVertex
100
AcDb2dVertex
 10
7.716914592984835
 20
10.80213171349919
 30
0.0
 70
     8
  0
VERTEX
  5
F0F4
330
F0AA
100
AcDbEntity
  8
0
100
AcDbVertex
100
AcDb2dVertex
 10
7.715844718755118
 20
10.79467918645026
 30
0.0
 70
     8
  0
VERTEX
  5
F0F5
330
F0AA
100
AcDbEntity
  8
0
100
AcDbVertex
100
AcDb2dVertex
 10
7.714475764727204
 20
10.78616357803032
 30
0.0
 70
     8
  0
VERTEX
  5
F0F6
330
F0AA
100
AcDbEntity
  8
0
100
AcDbVertex
100
AcDb2dVertex
 10
7.712819278477778
 20
10.77669466333661
 30
0.0
 70
     8
  0
VERTEX
  5
F0F7
330
F0AA
100
AcDbEntity
  8
0
100
AcDbVertex
100
AcDb2dVertex
 10
7.710892581321715
 20
10.76642843850862
 30
0.0
 70
     8
  0
VERTEX
  5
F0F8
330
F0AA
100
AcDbEntity
  8
0
100
AcDbVertex
100
AcDb2dVertex
 10
7.708712994573891
 20
10.75552089968586
 30
0.0
 70
     8
  0
VERTEX
  5
F0F9
330
F0AA
100
AcDbEntity
  8
0
100
AcDbVertex
100
AcDb2dVertex
 10
7.706297839549183
 20
10.74412804300783
 30
0.0
 70
     8
  0
VERTEX
  5
F0FA
330
F0AA
100
AcDbEntity
  8
0
100
AcDbVertex
100
AcDb2dVertex
 10
7.703664437562457
 20
10.73240586461401
 30
0.0
 70
     8
  0
VERTEX
  5
F0FB
330
F0AA
100
AcDbEntity
  8
0
100
AcDbVertex
100
AcDb2dVertex
 10
7.700830109928595
 20
10.72051036064391
 30
0.0
 70
     8
  0
VERTEX
  5
F0FC
330
F0AA
100
AcDbEntity
  8
0
100
AcDbVertex
100
AcDb2dVertex
 10
7.697812177962468
 20
10.70859752723702
 30
0.0
 70
     8
  0
VERTEX
  5
F0FD
330
F0AA
100
AcDbEntity
  8
0
100
AcDbVertex
100
AcDb2dVertex
 10
7.694623343961653
 20
10.69678291699896
 30
0.0
 70
     8
  0
VERTEX
  5
F0FE
330
F0AA
100
AcDbEntity
  8
0
100
AcDbVertex
100
AcDb2dVertex
 10
7.691257834154534
 20
10.68502030839985
 30
0.0
 70
     8
  0
VERTEX
  5
F0FF
330
F0AA
100
AcDbEntity
  8
0
100
AcDbVertex
100
AcDb2dVertex
 10
7.687705255752166
 20
10.67322303637594
 30
0.0
 70
     8
  0
VERTEX
  5
F100
330
F0AA
100
AcDbEntity
  8
0
100
AcDbVertex
100
AcDb2dVertex
 10
7.683955215965636
 20
10.66130443586347
 30
0.0
 70
     8
  0
VERTEX
  5
F101
330
F0AA
100
AcDbEntity
  8
0
100
AcDbVertex
100
AcDb2dVertex
 10
7.679997322006021
 20
10.6491778417987
 30
0.0
 70
     8
  0
VERTEX
  5
F102
330
F0AA
100
AcDbEntity
  8
0
100
AcDbVertex
100
AcDb2dVertex
 10
7.675821181084387
 20
10.63675658911786
 30
0.0
 70
     8
  0
VERTEX
  5
F103
330
F0AA
100
AcDbEntity
  8
0
100
AcDbVertex
100
AcDb2dVertex
 10
7.67141640041182
 20
10.62395401275719
 30
0.0
 70
     8
  0
VERTEX
  5
F104
330
F0AA
100
AcDbEntity
  8
0
100
AcDbVertex
100
AcDb2dVertex
 10
7.666772587199396
 20
10.61068344765295
 30
0.0
 70
     8
  0
VERTEX
  5
F105
330
F0AA
100
AcDbEntity
  8
0
100
AcDbVertex
100
AcDb2dVertex
 10
7.661877039182973
 20
10.59689116140059
 30
0.0
 70
     8
  0
VERTEX
  5
F106
330
F0AA
100
AcDbEntity
  8
0
100
AcDbVertex
100
AcDb2dVertex
 10
7.656707816197625
 20
10.58265515223239
 30
0.0
 70
     8
  0
VERTEX
  5
F107
330
F0AA
100
AcDbEntity
  8
0
100
AcDbVertex
100
AcDb2dVertex
 10
7.651240668603184
 20
10.56808635103988
 30
0.0
 70
     8
  0
VERTEX
  5
F108
330
F0AA
100
AcDbEntity
  8
0
100
AcDbVertex
100
AcDb2dVertex
 10
7.645451346759516
 20
10.55329568871453
 30
0.0
 70
     8
  0
VERTEX
  5
F109
330
F0AA
100
AcDbEntity
  8
0
100
AcDbVertex
100
AcDb2dVertex
 10
7.639315601026467
 20
10.53839409614786
 30
0.0
 70
     8
  0
VERTEX
  5
F10A
330
F0AA
100
AcDbEntity
  8
0
100
AcDbVertex
100
AcDb2dVertex
 10
7.632809181763895
 20
10.52349250423135
 30
0.0
 70
     8
  0
VERTEX
  5
F10B
330
F0AA
100
AcDbEntity
  8
0
100
AcDbVertex
100
AcDb2dVertex
 10
7.625907839331638
 20
10.50870184385654
 30
0.0
 70
     8
  0
VERTEX
  5
F10C
330
F0AA
100
AcDbEntity
  8
0
100
AcDbVertex
100
AcDb2dVertex
 10
7.618587324089554
 20
10.49413304591489
 30
0.0
 70
     8
  0
VERTEX
  5
F10D
330
F0AA
100
AcDbEntity
  8
0
100
AcDbVertex
100
AcDb2dVertex
 10
7.610828005347903
 20
10.47988201927769
 30
0.0
 70
     8
  0
VERTEX
  5
F10E
330
F0AA
100
AcDbEntity
  8
0
100
AcDbVertex
100
AcDb2dVertex
 10
7.602628728218586
 20
10.46598458473523
 30
0.0
 70
     8
  0
VERTEX
  5
F10F
330
F0AA
100
AcDbEntity
  8
0
100
AcDbVertex
100
AcDb2dVertex
 10
7.59399295676388
 20
10.45246154105761
 30
0.0
 70
     8
  0
VERTEX
  5
F110
330
F0AA
100
AcDbEntity
  8
0
100
AcDbVertex
100
AcDb2dVertex
 10
7.58492415504611
 20
10.43933368701488
 30
0.0
 70
     8
  0
VERTEX
  5
F111
330
F0AA
100
AcDbEntity
  8
0
100
AcDbVertex
100
AcDb2dVertex
 10
7.575425787127551
 20
10.42662182137712
 30
0.0
 70
     8
  0
VERTEX
  5
F112
330
F0AA
100
AcDbEntity
  8
0
100
AcDbVertex
100
AcDb2dVertex
 10
7.565501317070521
 20
10.41434674291442
 30
0.0
 70
     8
  0
VERTEX
  5
F113
330
F0AA
100
AcDbEntity
  8
0
100
AcDbVertex
100
AcDb2dVertex
 10
7.555154208937304
 20
10.40252925039683
 30
0.0
 70
     8
  0
VERTEX
  5
F114
330
F0AA
100
AcDbEntity
  8
0
100
AcDbVertex
100
AcDb2dVertex
 10
7.544387926790214
 20
10.39119014259443
 30
0.0
 70
     8
  0
VERTEX
  5
F115
330
F0AA
100
AcDbEntity
  8
0
100
AcDbVertex
100
AcDb2dVertex
 10
7.533227297579665
 20
10.3803519516436
 30
0.0
 70
     8
  0
VERTEX
  5
F116
330
F0AA
100
AcDbEntity
  8
0
100
AcDbVertex
100
AcDb2dVertex
 10
7.52178259980855
 20
10.37004414314587
 30
0.0
 70
     8
  0
VERTEX
  5
F117
330
F0AA
100
AcDbEntity
  8
0
100
AcDbVertex
100
AcDb2dVertex
 10
7.510185474867893
 20
10.36029791606907
 30
0.0
 70
     8
  0
VERTEX
  5
F118
330
F0AA
100
AcDbEntity
  8
0
100
AcDbVertex
100
AcDb2dVertex
 10
7.498567564148713
 20
10.35114446938102
 30
0.0
 70
     8
  0
VERTEX
  5
F119
330
F0AA
100
AcDbEntity
  8
0
100
AcDbVertex
100
AcDb2dVertex
 10
7.48706050904202
 20
10.34261500204955
 30
0.0
 70
     8
  0
VERTEX
  5
F11A
330
F0AA
100
AcDbEntity
  8
0
100
AcDbVertex
100
AcDb2dVertex
 10
7.475795950938848
 20
10.3347407130425
 30
0.0
 70
     8
  0
VERTEX
  5
F11B
330
F0AA
100
AcDbEntity
  8
0
100
AcDbVertex
100
AcDb2dVertex
 10
7.464905531230198
 20
10.32755280132769
 30
0.0
 70
     8
  0
VERTEX
  5
F11C
330
F0AA
100
AcDbEntity
  8
0
100
AcDbVertex
100
AcDb2dVertex
 10
7.454520891307105
 20
10.32108246587297
 30
0.0
 70
     8
  0
VERTEX
  5
F11D
330
F0AA
100
AcDbEntity
  8
0
100
AcDbVertex
100
AcDb2dVertex
 10
7.444730369474065
 20
10.31534472842764
 30
0.0
 70
     8
  0
VERTEX
  5
F11E
330
F0AA
100
AcDbEntity
  8
0
100
AcDbVertex
100
AcDb2dVertex
 10
7.435449091689553
 20
10.31028990186707
 30
0.0
 70
     8
  0
VERTEX
  5
F11F
330
F0AA
100
AcDbEntity
  8
0
100
AcDbVertex
100
AcDb2dVertex
 10
7.426548880825516
 20
10.30585212184808
 30
0.0
 70
     8
  0
VERTEX
  5
F120
330
F0AA
100
AcDbEntity
  8
0
100
AcDbVertex
100
AcDb2dVertex
 10
7.417901559753925
 20
10.30196552402754
 30
0.0
 70
     8
  0
VERTEX
  5
F121
330
F0AA
100
AcDbEntity
  8
0
100
AcDbVertex
100
AcDb2dVertex
 10
7.409378951346714
 20
10.29856424406227
 30
0.0
 70
     8
  0
VERTEX
  5
F122
330
F0AA
100
AcDbEntity
  8
0
100
AcDbVertex
100
AcDb2dVertex
 10
7.400852878475864
 20
10.29558241760912
 30
0.0
 70
     8
  0
VERTEX
  5
F123
330
F0AA
100
AcDbEntity
  8
0
100
AcDbVertex
100
AcDb2dVertex
 10
7.392195164013314
 20
10.29295418032493
 30
0.0
 70
     8
  0
VERTEX
  5
F124
330
F0AA
100
AcDbEntity
  8
0
100
AcDbVertex
100
AcDb2dVertex
 10
7.383277630831023
 20
10.29061366786655
 30
0.0
 70
     8
  0
VERTEX
  5
F125
330
F0AA
100
AcDbEntity
  8
0
100
AcDbVertex
100
AcDb2dVertex
 10
7.374002125313072
 20
10.2885071488047
 30
0.0
 70
     8
  0
VERTEX
  5
F126
330
F0AA
100
AcDbEntity
  8
0
100
AcDbVertex
100
AcDb2dVertex
 10
7.364390587891955
 20
10.28662942336559
 30
0.0
 70
     8
  0
VERTEX
  5
F127
330
F0AA
100
AcDbEntity
  8
0
100
AcDbVertex
100
AcDb2dVertex
 10
7.354494982512306
 20
10.28498742468928
 30
0.0
 70
     8
  0
VERTEX
  5
F128
330
F0AA
100
AcDbEntity
  8
0
100
AcDbVertex
100
AcDb2dVertex
 10
7.344367273118742
 20
10.28358808591589
 30
0.0
 70
     8
  0
VERTEX
  5
F129
330
F0AA
100
AcDbEntity
  8
0
100
AcDbVertex
100
AcDb2dVertex
 10
7.334059423655885
 20
10.28243834018548
 30
0.0
 70
     8
  0
VERTEX
  5
F12A
330
F0AA
100
AcDbEntity
  8
0
100
AcDbVertex
100
AcDb2dVertex
 10
7.323623398068367
 20
10.28154512063813
 30
0.0
 70
     8
  0
VERTEX
  5
F12B
330
F0AA
100
AcDbEntity
  8
0
100
AcDbVertex
100
AcDb2dVertex
 10
7.313111160300808
 20
10.28091536041393
 30
0.0
 70
     8
  0
VERTEX
  5
F12C
330
F0AA
100
AcDbEntity
  8
0
100
AcDbVertex
100
AcDb2dVertex
 10
7.302574674297835
 20
10.28055599265297
 30
0.0
 70
     8
  0
VERTEX
  5
F12D
330
F0AA
100
AcDbEntity
  8
0
100
AcDbVertex
100
AcDb2dVertex
 10
7.292061862263586
 20
10.28047106165986
 30
0.0
 70
     8
  0
VERTEX
  5
F12E
330
F0AA
100
AcDbEntity
  8
0
100
AcDbVertex
100
AcDb2dVertex
 10
7.281604479440305
 20
10.2806530563974
 30
0.0
 70
     8
  0
VERTEX
  5
F12F
330
F0AA
100
AcDbEntity
  8
0
100
AcDbVertex
100
AcDb2dVertex
 10
7.271230239329782
 20
10.28109157699292
 30
0.0
 70
     8
  0
VERTEX
  5
F130
330
F0AA
100
AcDbEntity
  8
0
100
AcDbVertex
100
AcDb2dVertex
 10
7.260966855433781
 20
10.28177622357376
 30
0.0
 70
     8
  0
VERTEX
  5
F131
330
F0AA
100
AcDbEntity
  8
0
100
AcDbVertex
100
AcDb2dVertex
 10
7.250842041254065
 20
10.28269659626723
 30
0.0
 70
     8
  0
VERTEX
  5
F132
330
F0AA
100
AcDbEntity
  8
0
100
AcDbVertex
100
AcDb2dVertex
 10
7.240883510292416
 20
10.28384229520068
 30
0.0
 70
     8
  0
VERTEX
  5
F133
330
F0AA
100
AcDbEntity
  8
0
100
AcDbVertex
100
AcDb2dVertex
 10
7.231118976050607
 20
10.28520292050144
 30
0.0
 70
     8
  0
VERTEX
  5
F134
330
F0AA
100
AcDbEntity
  8
0
100
AcDbVertex
100
AcDb2dVertex
 10
7.221576152030401
 20
10.28676807229683
 30
0.0
 70
     8
  0
VERTEX
  5
F135
330
F0AA
100
AcDbEntity
  8
0
100
AcDbVertex
100
AcDb2dVertex
 10
7.2122821744902
 20
10.28852850629174
 30
0.0
 70
     8
  0
VERTEX
  5
F136
330
F0AA
100
AcDbEntity
  8
0
100
AcDbVertex
100
AcDb2dVertex
 10
7.203261870714888
 20
10.29047960050111
 30
0.0
 70
     8
  0
VERTEX
  5
F137
330
F0AA
100
AcDbEntity
  8
0
100
AcDbVertex
100
AcDb2dVertex
 10
7.194539490745948
 20
10.29261788851745
 30
0.0
 70
     8
  0
VERTEX
  5
F138
330
F0AA
100
AcDbEntity
  8
0
100
AcDbVertex
100
AcDb2dVertex
 10
7.186139284624895
 20
10.29493990393328
 30
0.0
 70
     8
  0
VERTEX
  5
F139
330
F0AA
100
AcDbEntity
  8
0
100
AcDbVertex
100
AcDb2dVertex
 10
7.178085502393221
 20
10.29744218034108
 30
0.0
 70
     8
  0
VERTEX
  5
F13A
330
F0AA
100
AcDbEntity
  8
0
100
AcDbVertex
100
AcDb2dVertex
 10
7.170402394092422
 20
10.30012125133337
 30
0.0
 70
     8
  0
VERTEX
  5
F13B
330
F0AA
100
AcDbEntity
  8
0
100
AcDbVertex
100
AcDb2dVertex
 10
7.16311420976401
 20
10.30297365050264
 30
0.0
 70
     8
  0
VERTEX
  5
F13C
330
F0AA
100
AcDbEntity
  8
0
100
AcDbVertex
100
AcDb2dVertex
 10
7.15624519944947
 20
10.30599591144141
 30
0.0
 70
     8
  0
VERTEX
  5
F13D
330
F0AA
100
AcDbEntity
  8
0
100
AcDbVertex
100
AcDb2dVertex
 10
7.149813261974633
 20
10.30918918978136
 30
0.0
 70
     8
  0
VERTEX
  5
F13E
330
F0AA
100
AcDbEntity
  8
0
100
AcDbVertex
100
AcDb2dVertex
 10
7.143810891302601
 20
10.31257312931106
 30
0.0
 70
     8
  0
VERTEX
  5
F13F
330
F0AA
100
AcDbEntity
  8
0
100
AcDbVertex
100
AcDb2dVertex
 10
7.138224230180803
 20
10.31617199585823
 30
0.0
 70
     8
  0
VERTEX
  5
F140
330
F0AA
100
AcDbEntity
  8
0
100
AcDbVertex
100
AcDb2dVertex
 10
7.133039421356659
 20
10.32001005525064
 30
0.0
 70
     8
  0
VERTEX
  5
F141
330
F0AA
100
AcDbEntity
  8
0
100
AcDbVertex
100
AcDb2dVertex
 10
7.12824260757759
 20
10.32411157331602
 30
0.0
 70
     8
  0
VERTEX
  5
F142
330
F0AA
100
AcDbEntity
  8
0
100
AcDbVertex
100
AcDb2dVertex
 10
7.123819931591025
 20
10.32850081588212
 30
0.0
 70
     8
  0
VERTEX
  5
F143
330
F0AA
100
AcDbEntity
  8
0
100
AcDbVertex
100
AcDb2dVertex
 10
7.119757536144392
 20
10.33320204877669
 30
0.0
 70
     8
  0
VERTEX
  5
F144
330
F0AA
100
AcDbEntity
  8
0
100
AcDbVertex
100
AcDb2dVertex
 10
7.116041563985105
 20
10.33823953782747
 30
0.0
 70
     8
  0
VERTEX
  5
F145
330
F0AA
100
AcDbEntity
  8
0
100
AcDbVertex
100
AcDb2dVertex
 10
7.112657580550338
 20
10.34361386076906
 30
0.0
 70
     8
  0
VERTEX
  5
F146
330
F0AA
100
AcDbEntity
  8
0
100
AcDbVertex
100
AcDb2dVertex
 10
7.109588842036137
 20
10.34923084296336
 30
0.0
 70
     8
  0
VERTEX
  5
F147
330
F0AA
100
AcDbEntity
  8
0
100
AcDbVertex
100
AcDb2dVertex
 10
7.106818027328325
 20
10.35497262167916
 30
0.0
 70
     8
  0
VERTEX
  5
F148
330
F0AA
100
AcDbEntity
  8
0
100
AcDbVertex
100
AcDb2dVertex
 10
7.104327815312696
 20
10.36072133418521
 30
0.0
 70
     8
  0
VERTEX
  5
F149
330
F0AA
100
AcDbEntity
  8
0
100
AcDbVertex
100
AcDb2dVertex
 10
7.10210088487505
 20
10.36635911775029
 30
0.0
 70
     8
  0
VERTEX
  5
F14A
330
F0AA
100
AcDbEntity
  8
0
100
AcDbVertex
100
AcDb2dVertex
 10
7.100119914901186
 20
10.37176810964315
 30
0.0
 70
     8
  0
VERTEX
  5
F14B
330
F0AA
100
AcDbEntity
  8
0
100
AcDbVertex
100
AcDb2dVertex
 10
7.098367584276911
 20
10.37683044713257
 30
0.0
 70
     8
  0
VERTEX
  5
F14C
330
F0AA
100
AcDbEntity
  8
0
100
AcDbVertex
100
AcDb2dVertex
 10
7.096826571888019
 20
10.38142826748732
 30
0.0
 70
     8
  0
VERTEX
  5
F14D
330
F0AA
100
AcDbEntity
  8
0
100
AcDbVertex
100
AcDb2dVertex
 10
7.095481866128966
 20
10.38561010268796
 30
0.0
 70
     8
  0
VERTEX
  5
F14E
330
F0AA
100
AcDbEntity
  8
0
100
AcDbVertex
100
AcDb2dVertex
 10
7.094327693428806
 20
10.39009006356234
 30
0.0
 70
     8
  0
VERTEX
  5
F14F
330
F0AA
100
AcDbEntity
  8
0
100
AcDbVertex
100
AcDb2dVertex
 10
7.093360589725228
 20
10.39574865565012
 30
0.0
 70
     8
  0
VERTEX
  5
F150
330
F0AA
100
AcDbEntity
  8
0
100
AcDbVertex
100
AcDb2dVertex
 10
7.092577090955943
 20
10.40346638449094
 30
0.0
 70
     8
  0
VERTEX
  5
F151
330
F0AA
100
AcDbEntity
  8
0
100
AcDbVertex
100
AcDb2dVertex
 10
7.091973733058656
 20
10.41412375562446
 30
0.0
 70
     8
  0
VERTEX
  5
F152
330
F0AA
100
AcDbEntity
  8
0
100
AcDbVertex
100
AcDb2dVertex
 10
7.091547051971053
 20
10.42860127459033
 30
0.0
 70
     8
  0
VERTEX
  5
F153
330
F0AA
100
AcDbEntity
  8
0
100
AcDbVertex
100
AcDb2dVertex
 10
7.091293583630847
 20
10.4477794469282
 30
0.0
 70
     8
  0
VERTEX
  5
F154
330
F0AA
100
AcDbEntity
  8
0
100
AcDbVertex
100
AcDb2dVertex
 10
7.091209863975733
 20
10.47253877817774
 30
0.0
 70
     8
  0
VERTEX
  5
F155
330
F0AA
100
AcDbEntity
  8
0
100
AcDbVertex
100
AcDb2dVertex
 10
7.091293583630847
 20
10.50336458624838
 30
0.0
 70
     8
  0
VERTEX
  5
F156
330
F0AA
100
AcDbEntity
  8
0
100
AcDbVertex
100
AcDb2dVertex
 10
7.091547051971053
 20
10.53916143852883
 30
0.0
 70
     8
  0
VERTEX
  5
F157
330
F0AA
100
AcDbEntity
  8
0
100
AcDbVertex
100
AcDb2dVertex
 10
7.091973733058656
 20
10.57843871477757
 30
0.0
 70
     8
  0
VERTEX
  5
F158
330
F0AA
100
AcDbEntity
  8
0
100
AcDbVertex
100
AcDb2dVertex
 10
7.092577090955943
 20
10.61970579475309
 30
0.0
 70
     8
  0
VERTEX
  5
F159
330
F0AA
100
AcDbEntity
  8
0
100
AcDbVertex
100
AcDb2dVertex
 10
7.093360589725228
 20
10.66147205821387
 30
0.0
 70
     8
  0
VERTEX
  5
F15A
330
F0AA
100
AcDbEntity
  8
0
100
AcDbVertex
100
AcDb2dVertex
 10
7.094327693428806
 20
10.70224688491842
 30
0.0
 70
     8
  0
VERTEX
  5
F15B
330
F0AA
100
AcDbEntity
  8
0
100
AcDbVertex
100
AcDb2dVertex
 10
7.095481866128966
 20
10.74053965462521
 30
0.0
 70
     8
  0
VERTEX
  5
F15C
330
F0AA
100
AcDbEntity
  8
0
100
AcDbVertex
100
AcDb2dVertex
 10
7.094757269262013
 20
10.83313492022099
 30
0.0
 70
    16
  0
VERTEX
  5
F15D
330
F0AA
100
AcDbEntity
  8
0
100
AcDbVertex
100
AcDb2dVertex
 10
7.11249419294747
 20
10.91300444430875
 30
0.0
 70
    16
  0
VERTEX
  5
F15E
330
F0AA
100
AcDbEntity
  8
0
100
AcDbVertex
100
AcDb2dVertex
 10
7.153289045501894
 20
10.95737629117211
 30
0.0
 70
    16
  0
VERTEX
  5
F15F
330
F0AA
100
AcDbEntity
  8
0
100
AcDbVertex
100
AcDb2dVertex
 10
7.208273416455512
 20
10.95737629117211
 30
0.0
 70
    16
  0
VERTEX
  5
F160
330
F0AA
100
AcDbEntity
  8
0
100
AcDbVertex
100
AcDb2dVertex
 10
7.561237982029791
 20
10.95737629117211
 30
0.0
 70
    16
  0
VERTEX
  5
F161
330
F0AA
100
AcDbEntity
  8
0
100
AcDbVertex
100
AcDb2dVertex
 10
7.637506681955128
 20
10.92720334875377
 30
0.0
 70
    16
  0
VERTEX
  5
F162
330
F0AA
100
AcDbEntity
  8
0
100
AcDbVertex
100
AcDb2dVertex
 10
7.690717453011517
 20
10.89348080505771
 30
0.0
 70
    16
  0
VERTEX
  5
F163
330
F0AA
100
AcDbEntity
  8
0
100
AcDbVertex
100
AcDb2dVertex
 10
7.708454273951064
 20
10.85443336011086
 30
0.0
 70
    16
  0
VERTEX
  5
F164
330
F0AA
100
AcDbEntity
  8
0
100
AcDbVertex
100
AcDb2dVertex
 10
7.719096489809887
 20
10.83490972085981
 30
0.0
 70
    16
  0
VERTEX
  5
F165
330
F0AA
100
AcDbEntity
  8
0
100
AcDbVertex
100
AcDb2dVertex
 10
7.719096489809887
 20
10.80651174552507
 30
0.0
 70
    16
  0
VERTEX
  5
F166
330
F0AA
100
AcDbEntity
  8
0
100
AcDbVertex
100
AcDb2dVertex
 10
7.69958586348129
 20
10.70711841574147
 30
0.0
 70
    16
  0
VERTEX
  5
F167
330
F0AA
100
AcDbEntity
  8
0
100
AcDbVertex
100
AcDb2dVertex
 10
7.669433124039779
 20
10.61659975493114
 30
0.0
 70
    16
  0
VERTEX
  5
F168
330
F0AA
100
AcDbEntity
  8
0
100
AcDbVertex
100
AcDb2dVertex
 10
7.623317163555952
 20
10.49058325045165
 30
0.0
 70
    16
  0
VERTEX
  5
F169
330
F0AA
100
AcDbEntity
  8
0
100
AcDbVertex
100
AcDb2dVertex
 10
7.548822166273738
 20
10.38586551875157
 30
0.0
 70
    16
  0
VERTEX
  5
F16A
330
F0AA
100
AcDbEntity
  8
0
100
AcDbVertex
100
AcDb2dVertex
 10
7.447721732090383
 20
10.31309553010866
 30
0.0
 70
    16
  0
VERTEX
  5
F16B
330
F0AA
100
AcDbEntity
  8
0
100
AcDbVertex
100
AcDb2dVertex
 10
7.387416253207362
 20
10.2882471560516
 30
0.0
 70
    16
  0
VERTEX
  5
F16C
330
F0AA
100
AcDbEntity
  8
0
100
AcDbVertex
100
AcDb2dVertex
 10
7.302279040066324
 20
10.27759785288426
 30
0.0
 70
    16
  0
VERTEX
  5
F16D
330
F0AA
100
AcDbEntity
  8
0
100
AcDbVertex
100
AcDb2dVertex
 10
7.218915632314335
 20
10.28469738832914
 30
0.0
 70
    16
  0
VERTEX
  5
F16E
330
F0AA
100
AcDbEntity
  8
0
100
AcDbVertex
100
AcDb2dVertex
 10
7.151515342858754
 20
10.30422102758018
 30
0.0
 70
    16
  0
VERTEX
  5
F16F
330
F0AA
100
AcDbEntity
  8
0
100
AcDbVertex
100
AcDb2dVertex
 10
7.11249419294747
 20
10.33439396999856
 30
0.0
 70
    16
  0
VERTEX
  5
F170
330
F0AA
100
AcDbEntity
  8
0
100
AcDbVertex
100
AcDb2dVertex
 10
7.094757269262013
 20
10.3876403193904
 30
0.0
 70
    16
  0
SEQEND
  5
F171
330
F0AA
100
AcDbEntity
  8
0
  0
LWPOLYLINE
  5
F172
330
18
100
AcDbEntity
  8
0
100
AcDbPolyline
 90
       14
 70
     1
 43
0.0
 10
10.70739089920187
 20
10.97678341908047
 10
10.79474413612829
 20
10.90954372454111
 10
10.82162205518258
 20
10.81540805231914
 10
10.74770777778329
 20
10.73472028571605
 10
10.20343012242586
 20
10.60024073019257
 10
9.753225183758431
 20
10.39179761054262
 10
9.450848697143626
 20
10.19680223006682
 10
9.403812338798644
 20
10.16318238279713
 10
9.316459101872204
 20
10.19007836047975
 10
8.254781812957535
 20
10.53300103565318
 10
8.106953258158977
 20
10.57334491895472
 10
8.039758460523259
 20
10.69437640241454
 10
8.033038980759691
 20
10.86247580520772
 10
8.160709096267549
 20
11.00367939676309
  0
LINE
  5
F174
330
18
100
AcDbEntity
  8
0
100
AcDbLine
 10
5.88866145955346
 20
12.23931430991144
 30
0.0
 11
5.88866145955346
 21
2.854571427368075
 31
0.0
  0
POLYLINE
  5
F175
330
18
100
AcDbEntity
  8
0
100
AcDb2dPolyline
 66
     1
 10
0.0
 20
0.0
 30
0.0
 70
     5
  0
VERTEX
  5
F176
330
F175
100
AcDbEntity
  8
0
100
AcDbVertex
100
AcDb2dVertex
 10
7.188218427011302
 20
7.124507972676643
 30
0.0
 70
    16
  0
VERTEX
  5
F177
330
F175
100
AcDbEntity
  8
0
100
AcDbVertex
100
AcDb2dVertex
 10
7.170279416818499
 20
7.093910647207432
 30
0.0
 70
     8
  0
VERTEX
  5
F178
330
F175
100
AcDbEntity
  8
0
100
AcDbVertex
100
AcDb2dVertex
 10
7.166898334980839
 20
7.089704077928074
 30
0.0
 70
     8
  0
VERTEX
  5
F179
330
F175
100
AcDbEntity
  8
0
100
AcDbVertex
100
AcDb2dVertex
 10
7.163206334304348
 20
7.085460716627054
 30
0.0
 70
     8
  0
VERTEX
  5
F17A
330
F175
100
AcDbEntity
  8
0
100
AcDbVertex
100
AcDb2dVertex
 10
7.159254791202557
 20
7.081269028480075
 30
0.0
 70
     8
  0
VERTEX
  5
F17B
330
F175
100
AcDbEntity
  8
0
100
AcDbVertex
100
AcDb2dVertex
 10
7.155095082089001
 20
7.077217478662839
 30
0.0
 70
     8
  0
VERTEX
  5
F17C
330
F175
100
AcDbEntity
  8
0
100
AcDbVertex
100
AcDb2dVertex
 10
7.150778583377209
 20
7.073394532351052
 30
0.0
 70
     8
  0
VERTEX
  5
F17D
330
F175
100
AcDbEntity
  8
0
100
AcDbVertex
100
AcDb2dVertex
 10
7.146356671480712
 20
7.069888654720416
 30
0.0
 70
     8
  0
VERTEX
  5
F17E
330
F175
100
AcDbEntity
  8
0
100
AcDbVertex
100
AcDb2dVertex
 10
7.141880722813045
 20
7.066788310946634
 30
0.0
 70
     8
  0
VERTEX
  5
F17F
330
F175
100
AcDbEntity
  8
0
100
AcDbVertex
100
AcDb2dVertex
 10
7.137402113787739
 20
7.06418196620541
 30
0.0
 70
     8
  0
VERTEX
  5
F180
330
F175
100
AcDbEntity
  8
0
100
AcDbVertex
100
AcDb2dVertex
 10
7.13295946764068
 20
7.062140739832469
 30
0.0
 70
     8
  0
VERTEX
  5
F181
330
F175
100
AcDbEntity
  8
0
100
AcDbVertex
100
AcDb2dVertex
 10
7.128540394897178
 20
7.060666367803626
 30
0.0
 70
     8
  0
VERTEX
  5
F182
330
F175
100
AcDbEntity
  8
0
100
AcDbVertex
100
AcDb2dVertex
 10
7.124119752904899
 20
7.059743240254714
 30
0.0
 70
     8
  0
VERTEX
  5
F183
330
F175
100
AcDbEntity
  8
0
100
AcDbVertex
100
AcDb2dVertex
 10
7.119672399011506
 20
7.059355747321569
 30
0.0
 70
     8
  0
VERTEX
  5
F184
330
F175
100
AcDbEntity
  8
0
100
AcDbVertex
100
AcDb2dVertex
 10
7.115173190564667
 20
7.059488279140029
 30
0.0
 70
     8
  0
VERTEX
  5
F185
330
F175
100
AcDbEntity
  8
0
100
AcDbVertex
100
AcDb2dVertex
 10
7.110596984912046
 20
7.060125225845928
 30
0.0
 70
     8
  0
VERTEX
  5
F186
330
F175
100
AcDbEntity
  8
0
100
AcDbVertex
100
AcDb2dVertex
 10
7.105918639401306
 20
7.061250977575102
 30
0.0
 70
     8
  0
VERTEX
  5
F187
330
F175
100
AcDbEntity
  8
0
100
AcDbVertex
100
AcDb2dVertex
 10
7.101113011380114
 20
7.062849924463385
 30
0.0
 70
     8
  0
VERTEX
  5
F188
330
F175
100
AcDbEntity
  8
0
100
AcDbVertex
100
AcDb2dVertex
 10
7.096170263023146
 20
7.06492653553386
 30
0.0
 70
     8
  0
VERTEX
  5
F189
330
F175
100
AcDbEntity
  8
0
100
AcDbVertex
100
AcDb2dVertex
 10
7.091141775813123
 20
7.067565595358584
 30
0.0
 70
     8
  0
VERTEX
  5
F18A
330
F175
100
AcDbEntity
  8
0
100
AcDbVertex
100
AcDb2dVertex
 10
7.086094236059778
 20
7.070871967396858
 30
0.0
 70
     8
  0
VERTEX
  5
F18B
330
F175
100
AcDbEntity
  8
0
100
AcDbVertex
100
AcDb2dVertex
 10
7.081094330072846
 20
7.074950515107986
 30
0.0
 70
     8
  0
VERTEX
  5
F18C
330
F175
100
AcDbEntity
  8
0
100
AcDbVertex
100
AcDb2dVertex
 10
7.076208744162056
 20
7.079906101951269
 30
0.0
 70
     8
  0
VERTEX
  5
F18D
330
F175
100
AcDbEntity
  8
0
100
AcDbVertex
100
AcDb2dVertex
 10
7.071504164637144
 20
7.08584359138601
 30
0.0
 70
     8
  0
VERTEX
  5
F18E
330
F175
100
AcDbEntity
  8
0
100
AcDbVertex
100
AcDb2dVertex
 10
7.067047277807842
 20
7.09286784687151
 30
0.0
 70
     8
  0
VERTEX
  5
F18F
330
F175
100
AcDbEntity
  8
0
100
AcDbVertex
100
AcDb2dVertex
 10
7.062904769983883
 20
7.101083731867074
 30
0.0
 70
     8
  0
VERTEX
  5
F190
330
F175
100
AcDbEntity
  8
0
100
AcDbVertex
100
AcDb2dVertex
 10
7.059130625344653
 20
7.111320620640871
 30
0.0
 70
     8
  0
VERTEX
  5
F191
330
F175
100
AcDbEntity
  8
0
100
AcDbVertex
100
AcDb2dVertex
 10
7.055728019548165
 20
7.127305930696547
 30
0.0
 70
     8
  0
VERTEX
  5
F192
330
F175
100
AcDbEntity
  8
0
100
AcDbVertex
100
AcDb2dVertex
 10
7.052687426122077
 20
7.153491590346621
 30
0.0
 70
     8
  0
VERTEX
  5
F193
330
F175
100
AcDbEntity
  8
0
100
AcDbVertex
100
AcDb2dVertex
 10
7.049999318594057
 20
7.194329527903605
 30
0.0
 70
     8
  0
VERTEX
  5
F194
330
F175
100
AcDbEntity
  8
0
100
AcDbVertex
100
AcDb2dVertex
 10
7.047654170491767
 20
7.25427167168002
 30
0.0
 70
     8
  0
VERTEX
  5
F195
330
F175
100
AcDbEntity
  8
0
100
AcDbVertex
100
AcDb2dVertex
 10
7.04564245534287
 20
7.33776994998838
 30
0.0
 70
     8
  0
VERTEX
  5
F196
330
F175
100
AcDbEntity
  8
0
100
AcDbVertex
100
AcDb2dVertex
 10
7.043954646675032
 20
7.449276291141198
 30
0.0
 70
     8
  0
VERTEX
  5
F197
330
F175
100
AcDbEntity
  8
0
100
AcDbVertex
100
AcDb2dVertex
 10
7.042581218015912
 20
7.593242623450994
 30
0.0
 70
     8
  0
VERTEX
  5
F198
330
F175
100
AcDbEntity
  8
0
100
AcDbVertex
100
AcDb2dVertex
 10
7.041514230638568
 20
7.771856778966113
 30
0.0
 70
     8
  0
VERTEX
  5
F199
330
F175
100
AcDbEntity
  8
0
100
AcDbVertex
100
AcDb2dVertex
 10
7.040752096797606
 20
7.978250204678219
 30
0.0
 70
     8
  0
VERTEX
  5
F19A
330
F175
100
AcDbEntity
  8
0
100
AcDbVertex
100
AcDb2dVertex
 10
7.040294816493029
 20
8.203290251314806
 30
0.0
 70
     8
  0
VERTEX
  5
F19B
330
F175
100
AcDbEntity
  8
0
100
AcDbVertex
100
AcDb2dVertex
 10
7.040142389724837
 20
8.437844269603372
 30
0.0
 70
     8
  0
VERTEX
  5
F19C
330
F175
100
AcDbEntity
  8
0
100
AcDbVertex
100
AcDb2dVertex
 10
7.040294816493029
 20
8.672779610271406
 30
0.0
 70
     8
  0
VERTEX
  5
F19D
330
F175
100
AcDbEntity
  8
0
100
AcDbVertex
100
AcDb2dVertex
 10
7.040752096797606
 20
8.898963624046411
 30
0.0
 70
     8
  0
VERTEX
  5
F19E
330
F175
100
AcDbEntity
  8
0
100
AcDbVertex
100
AcDb2dVertex
 10
7.041514230638568
 20
9.107263661655874
 30
0.0
 70
     8
  0
VERTEX
  5
F19F
330
F175
100
AcDbEntity
  8
0
100
AcDbVertex
100
AcDb2dVertex
 10
7.042581218015912
 20
9.288547073827293
 30
0.0
 70
     8
  0
VERTEX
  5
F1A0
330
F175
100
AcDbEntity
  8
0
100
AcDbVertex
100
AcDb2dVertex
 10
7.043968936651103
 20
9.435942129822494
 30
0.0
 70
     8
  0
VERTEX
  5
F1A1
330
F175
100
AcDbEntity
  8
0
100
AcDbVertex
100
AcDb2dVertex
 10
7.045756775151446
 20
9.551620773040617
 30
0.0
 70
     8
  0
VERTEX
  5
F1A2
330
F175
100
AcDbEntity
  8
0
100
AcDbVertex
100
AcDb2dVertex
 10
7.048039999845713
 20
9.640015865415138
 30
0.0
 70
     8
  0
VERTEX
  5
F1A3
330
F175
100
AcDbEntity
  8
0
100
AcDbVertex
100
AcDb2dVertex
 10
7.050913877062671
 20
9.705560268879525
 30
0.0
 70
     8
  0
VERTEX
  5
F1A4
330
F175
100
AcDbEntity
  8
0
100
AcDbVertex
100
AcDb2dVertex
 10
7.054473673131088
 20
9.752686845367252
 30
0.0
 70
     8
  0
VERTEX
  5
F1A5
330
F175
100
AcDbEntity
  8
0
100
AcDbVertex
100
AcDb2dVertex
 10
7.058814654379734
 20
9.785828456811794
 30
0.0
 70
     8
  0
VERTEX
  5
F1A6
330
F175
100
AcDbEntity
  8
0
100
AcDbVertex
100
AcDb2dVertex
 10
7.064032087137378
 20
9.80941796514662
 30
0.0
 70
     8
  0
VERTEX
  5
F1A7
330
F175
100
AcDbEntity
  8
0
100
AcDbVertex
100
AcDb2dVertex
 10
7.070221237732789
 20
9.827888232305204
 30
0.0
 70
     8
  0
VERTEX
  5
F1A8
330
F175
100
AcDbEntity
  8
0
100
AcDbVertex
100
AcDb2dVertex
 10
7.077461494840165
 20
9.844911066114978
 30
0.0
 70
     8
  0
VERTEX
  5
F1A9
330
F175
100
AcDbEntity
  8
0
100
AcDbVertex
100
AcDb2dVertex
 10
7.085768736515429
 20
9.861114057979202
 30
0.0
 70
     8
  0
VERTEX
  5
F1AA
330
F175
100
AcDbEntity
  8
0
100
AcDbVertex
100
AcDb2dVertex
 10
7.09514296315993
 20
9.876363745195096
 30
0.0
 70
     8
  0
VERTEX
  5
F1AB
330
F175
100
AcDbEntity
  8
0
100
AcDbVertex
100
AcDb2dVertex
 10
7.105584175175021
 20
9.89052666505988
 30
0.0
 70
     8
  0
VERTEX
  5
F1AC
330
F175
100
AcDbEntity
  8
0
100
AcDbVertex
100
AcDb2dVertex
 10
7.117092372962051
 20
9.903469354870775
 30
0.0
 70
     8
  0
VERTEX
  5
F1AD
330
F175
100
AcDbEntity
  8
0
100
AcDbVertex
100
AcDb2dVertex
 10
7.129667556922374
 20
9.915058351925001
 30
0.0
 70
     8
  0
VERTEX
  5
F1AE
330
F175
100
AcDbEntity
  8
0
100
AcDbVertex
100
AcDb2dVertex
 10
7.143309727457339
 20
9.925160193519776
 30
0.0
 70
     8
  0
VERTEX
  5
F1AF
330
F175
100
AcDbEntity
  8
0
100
AcDbVertex
100
AcDb2dVertex
 10
7.158018884968297
 20
9.933641416952323
 30
0.0
 70
     8
  0
VERTEX
  5
F1B0
330
F175
100
AcDbEntity
  8
0
100
AcDbVertex
100
AcDb2dVertex
 10
7.173758510909942
 20
9.940406691790315
 30
0.0
 70
     8
  0
VERTEX
  5
F1B1
330
F175
100
AcDbEntity
  8
0
100
AcDbVertex
100
AcDb2dVertex
 10
7.190346010950332
 20
9.945513216683252
 30
0.0
 70
     8
  0
VERTEX
  5
F1B2
330
F175
100
AcDbEntity
  8
0
100
AcDbVertex
100
AcDb2dVertex
 10
7.207562271810865
 20
9.949056322551092
 30
0.0
 70
     8
  0
VERTEX
  5
F1B3
330
F175
100
AcDbEntity
  8
0
100
AcDbVertex
100
AcDb2dVertex
 10
7.225188180212942
 20
9.951131340313786
 30
0.0
 70
     8
  0
VERTEX
  5
F1B4
330
F175
100
AcDbEntity
  8
0
100
AcDbVertex
100
AcDb2dVertex
 10
7.243004622877961
 20
9.951833600891292
 30
0.0
 70
     8
  0
VERTEX
  5
F1B5
330
F175
100
AcDbEntity
  8
0
100
AcDbVertex
100
AcDb2dVertex
 10
7.260792486527322
 20
9.951258435203564
 30
0.0
 70
     8
  0
VERTEX
  5
F1B6
330
F175
100
AcDbEntity
  8
0
100
AcDbVertex
100
AcDb2dVertex
 10
7.278332657882425
 20
9.94950117417056
 30
0.0
 70
     8
  0
VERTEX
  5
F1B7
330
F175
100
AcDbEntity
  8
0
100
AcDbVertex
100
AcDb2dVertex
 10
7.29540602366467
 20
9.946657148712231
 30
0.0
 70
     8
  0
VERTEX
  5
F1B8
330
F175
100
AcDbEntity
  8
0
100
AcDbVertex
100
AcDb2dVertex
 10
7.311823638326433
 20
9.942797856991457
 30
0.0
 70
     8
  0
VERTEX
  5
F1B9
330
F175
100
AcDbEntity
  8
0
100
AcDbVertex
100
AcDb2dVertex
 10
7.327517227244014
 20
9.937899466142793
 30
0.0
 70
     8
  0
VERTEX
  5
F1BA
330
F175
100
AcDbEntity
  8
0
100
AcDbVertex
100
AcDb2dVertex
 10
7.342448683524687
 20
9.931914310543721
 30
0.0
 70
     8
  0
VERTEX
  5
F1BB
330
F175
100
AcDbEntity
  8
0
100
AcDbVertex
100
AcDb2dVertex
 10
7.35657990027573
 20
9.924794724571716
 30
0.0
 70
     8
  0
VERTEX
  5
F1BC
330
F175
100
AcDbEntity
  8
0
100
AcDbVertex
100
AcDb2dVertex
 10
7.369872770604417
 20
9.916493042604258
 30
0.0
 70
     8
  0
VERTEX
  5
F1BD
330
F175
100
AcDbEntity
  8
0
100
AcDbVertex
100
AcDb2dVertex
 10
7.382289187618027
 20
9.906961599018826
 30
0.0
 70
     8
  0
VERTEX
  5
F1BE
330
F175
100
AcDbEntity
  8
0
100
AcDbVertex
100
AcDb2dVertex
 10
7.393791044423835
 20
9.896152728192898
 30
0.0
 70
     8
  0
VERTEX
  5
F1BF
330
F175
100
AcDbEntity
  8
0
100
AcDbVertex
100
AcDb2dVertex
 10
7.404340234129118
 20
9.884018764503954
 30
0.0
 70
     8
  0
VERTEX
  5
F1C0
330
F175
100
AcDbEntity
  8
0
100
AcDbVertex
100
AcDb2dVertex
 10
7.413952634321552
 20
9.870448488870465
 30
0.0
 70
     8
  0
VERTEX
  5
F1C1
330
F175
100
AcDbEntity
  8
0
100
AcDbVertex
100
AcDb2dVertex
 10
7.422860060510423
 20
9.855076468374882
 30
0.0
 70
     8
  0
VERTEX
  5
F1C2
330
F175
100
AcDbEntity
  8
0
100
AcDbVertex
100
AcDb2dVertex
 10
7.431348312685414
 20
9.83747371664065
 30
0.0
 70
     8
  0
VERTEX
  5
F1C3
330
F175
100
AcDbEntity
  8
0
100
AcDbVertex
100
AcDb2dVertex
 10
7.439703190836209
 20
9.81721124729121
 30
0.0
 70
     8
  0
VERTEX
  5
F1C4
330
F175
100
AcDbEntity
  8
0
100
AcDbVertex
100
AcDb2dVertex
 10
7.448210494952495
 20
9.793860073950009
 30
0.0
 70
     8
  0
VERTEX
  5
F1C5
330
F175
100
AcDbEntity
  8
0
100
AcDbVertex
100
AcDb2dVertex
 10
7.457156025023955
 20
9.766991210240488
 30
0.0
 70
     8
  0
VERTEX
  5
F1C6
330
F175
100
AcDbEntity
  8
0
100
AcDbVertex
100
AcDb2dVertex
 10
7.466825581040275
 20
9.736175669786096
 30
0.0
 70
     8
  0
VERTEX
  5
F1C7
330
F175
100
AcDbEntity
  8
0
100
AcDbVertex
100
AcDb2dVertex
 10
7.477504962991138
 20
9.700984466210272
 30
0.0
 70
     8
  0
VERTEX
  5
F1C8
330
F175
100
AcDbEntity
  8
0
100
AcDbVertex
100
AcDb2dVertex
 10
7.489418047558544
 20
9.661168151892487
 30
0.0
 70
     8
  0
VERTEX
  5
F1C9
330
F175
100
AcDbEntity
  8
0
100
AcDbVertex
100
AcDb2dVertex
 10
7.502541018193745
 20
9.617195434236313
 30
0.0
 70
     8
  0
VERTEX
  5
F1CA
330
F175
100
AcDbEntity
  8
0
100
AcDbVertex
100
AcDb2dVertex
 10
7.51678813504031
 20
9.569714559401342
 30
0.0
 70
     8
  0
VERTEX
  5
F1CB
330
F175
100
AcDbEntity
  8
0
100
AcDbVertex
100
AcDb2dVertex
 10
7.532073658241807
 20
9.519373773547169
 30
0.0
 70
     8
  0
VERTEX
  5
F1CC
330
F175
100
AcDbEntity
  8
0
100
AcDbVertex
100
AcDb2dVertex
 10
7.548311847941802
 20
9.466821322833389
 30
0.0
 70
     8
  0
VERTEX
  5
F1CD
330
F175
100
AcDbEntity
  8
0
100
AcDbVertex
100
AcDb2dVertex
 10
7.565416964283863
 20
9.412705453419599
 30
0.0
 70
     8
  0
VERTEX
  5
F1CE
330
F175
100
AcDbEntity
  8
0
100
AcDbVertex
100
AcDb2dVertex
 10
7.583303267411558
 20
9.35767441146539
 30
0.0
 70
     8
  0
VERTEX
  5
F1CF
330
F175
100
AcDbEntity
  8
0
100
AcDbVertex
100
AcDb2dVertex
 10
7.601885017468454
 20
9.302376443130363
 30
0.0
 70
     8
  0
VERTEX
  5
F1D0
330
F175
100
AcDbEntity
  8
0
100
AcDbVertex
100
AcDb2dVertex
 10
7.621041543463742
 20
9.247456617006809
 30
0.0
 70
     8
  0
VERTEX
  5
F1D1
330
F175
100
AcDbEntity
  8
0
100
AcDbVertex
100
AcDb2dVertex
 10
7.6405124498691
 20
9.193547291417843
 30
0.0
 70
     8
  0
VERTEX
  5
F1D2
330
F175
100
AcDbEntity
  8
0
100
AcDbVertex
100
AcDb2dVertex
 10
7.660002410021835
 20
9.141277647119276
 30
0.0
 70
     8
  0
VERTEX
  5
F1D3
330
F175
100
AcDbEntity
  8
0
100
AcDbVertex
100
AcDb2dVertex
 10
7.679216097259248
 20
9.091276864866921
 30
0.0
 70
     8
  0
VERTEX
  5
F1D4
330
F175
100
AcDbEntity
  8
0
100
AcDbVertex
100
AcDb2dVertex
 10
7.697858184918643
 20
9.044174125416592
 30
0.0
 70
     8
  0
VERTEX
  5
F1D5
330
F175
100
AcDbEntity
  8
0
100
AcDbVertex
100
AcDb2dVertex
 10
7.715633346337323
 20
9.000598609524102
 30
0.0
 70
     8
  0
VERTEX
  5
F1D6
330
F175
100
AcDbEntity
  8
0
100
AcDbVertex
100
AcDb2dVertex
 10
7.732246254852591
 20
8.961179497945266
 30
0.0
 70
     8
  0
VERTEX
  5
F1D7
330
F175
100
AcDbEntity
  8
0
100
AcDbVertex
100
AcDb2dVertex
 10
7.74740158380175
 20
8.926545971435894
 30
0.0
 70
     8
  0
VERTEX
  5
F1D8
330
F175
100
AcDbEntity
  8
0
100
AcDbVertex
100
AcDb2dVertex
 10
7.760875456502804
 20
8.89711430615754
 30
0.0
 70
     8
  0
VERTEX
  5
F1D9
330
F175
100
AcDbEntity
  8
0
100
AcDbVertex
100
AcDb2dVertex
 10
7.772729796196546
 20
8.872449159894694
 30
0.0
 70
     8
  0
VERTEX
  5
F1DA
330
F175
100
AcDbEntity
  8
0
100
AcDbVertex
100
AcDb2dVertex
 10
7.783097976104465
 20
8.85190228583759
 30
0.0
 70
     8
  0
VERTEX
  5
F1DB
330
F175
100
AcDbEntity
  8
0
100
AcDbVertex
100
AcDb2dVertex
 10
7.792113369448059
 20
8.834825437176457
 30
0.0
 70
     8
  0
VERTEX
  5
F1DC
330
F175
100
AcDbEntity
  8
0
100
AcDbVertex
100
AcDb2dVertex
 10
7.799909349448817
 20
8.820570367101524
 30
0.0
 70
     8
  0
VERTEX
  5
F1DD
330
F175
100
AcDbEntity
  8
0
100
AcDbVertex
100
AcDb2dVertex
 10
7.806619289328232
 20
8.808488828803023
 30
0.0
 70
     8
  0
VERTEX
  5
F1DE
330
F175
100
AcDbEntity
  8
0
100
AcDbVertex
100
AcDb2dVertex
 10
7.812376562307799
 20
8.797932575471186
 30
0.0
 70
     8
  0
VERTEX
  5
F1DF
330
F175
100
AcDbEntity
  8
0
100
AcDbVertex
100
AcDb2dVertex
 10
7.817314541609007
 20
8.788253360296243
 30
0.0
 70
     8
  0
VERTEX
  5
F1E0
330
F175
100
AcDbEntity
  8
0
100
AcDbVertex
100
AcDb2dVertex
 10
7.821555486068395
 20
8.778907799981906
 30
0.0
 70
     8
  0
VERTEX
  5
F1E1
330
F175
100
AcDbEntity
  8
0
100
AcDbVertex
100
AcDb2dVertex
 10
7.825177196982678
 20
8.769771965285823
 30
0.0
 70
     8
  0
VERTEX
  5
F1E2
330
F175
100
AcDbEntity
  8
0
100
AcDbVertex
100
AcDb2dVertex
 10
7.828246361263615
 20
8.760826790479127
 30
0.0
 70
     8
  0
VERTEX
  5
F1E3
330
F175
100
AcDbEntity
  8
0
100
AcDbVertex
100
AcDb2dVertex
 10
7.830829665822965
 20
8.752053209832949
 30
0.0
 70
     8
  0
VERTEX
  5
F1E4
330
F175
100
AcDbEntity
  8
0
100
AcDbVertex
100
AcDb2dVertex
 10
7.83299379757249
 20
8.743432157618419
 30
0.0
 70
     8
  0
VERTEX
  5
F1E5
330
F175
100
AcDbEntity
  8
0
100
AcDbVertex
100
AcDb2dVertex
 10
7.834805443423949
 20
8.734944568106669
 30
0.0
 70
     8
  0
VERTEX
  5
F1E6
330
F175
100
AcDbEntity
  8
0
100
AcDbVertex
100
AcDb2dVertex
 10
7.836331290289101
 20
8.726571375568832
 30
0.0
 70
     8
  0
VERTEX
  5
F1E7
330
F175
100
AcDbEntity
  8
0
100
AcDbVertex
100
AcDb2dVertex
 10
7.837638025079705
 20
8.718293514276039
 30
0.0
 70
     8
  0
VERTEX
  5
F1E8
330
F175
100
AcDbEntity
  8
0
100
AcDbVertex
100
AcDb2dVertex
 10
7.838773281328053
 20
8.710085563093919
 30
0.0
 70
     8
  0
VERTEX
  5
F1E9
330
F175
100
AcDbEntity
  8
0
100
AcDbVertex
100
AcDb2dVertex
 10
7.839708479048553
 20
8.701896679266106
 30
0.0
 70
     8
  0
VERTEX
  5
F1EA
330
F175
100
AcDbEntity
  8
0
100
AcDbVertex
100
AcDb2dVertex
 10
7.840395984876146
 20
8.69366966463073
 30
0.0
 70
     8
  0
VERTEX
  5
F1EB
330
F175
100
AcDbEntity
  8
0
100
AcDbVertex
100
AcDb2dVertex
 10
7.840788165445772
 20
8.685347321025922
 30
0.0
 70
     8
  0
VERTEX
  5
F1EC
330
F175
100
AcDbEntity
  8
0
100
AcDbVertex
100
AcDb2dVertex
 10
7.84083738739237
 20
8.676872450289815
 30
0.0
 70
     8
  0
VERTEX
  5
F1ED
330
F175
100
AcDbEntity
  8
0
100
AcDbVertex
100
AcDb2dVertex
 10
7.84049601735088
 20
8.668187854260542
 30
0.0
 70
     8
  0
VERTEX
  5
F1EE
330
F175
100
AcDbEntity
  8
0
100
AcDbVertex
100
AcDb2dVertex
 10
7.839716421956243
 20
8.659236334776233
 30
0.0
 70
     8
  0
VERTEX
  5
F1EF
330
F175
100
AcDbEntity
  8
0
100
AcDbVertex
100
AcDb2dVertex
 10
7.838450967843399
 20
8.649960693675017
 30
0.0
 70
     8
  0
VERTEX
  5
F1F0
330
F175
100
AcDbEntity
  8
0
100
AcDbVertex
100
AcDb2dVertex
 10
7.836650433835004
 20
8.640310088092167
 30
0.0
 70
     8
  0
VERTEX
  5
F1F1
330
F175
100
AcDbEntity
  8
0
100
AcDbVertex
100
AcDb2dVertex
 10
7.834259247504594
 20
8.630259096351501
 30
0.0
 70
     8
  0
VERTEX
  5
F1F2
330
F175
100
AcDbEntity
  8
0
100
AcDbVertex
100
AcDb2dVertex
 10
7.83122024861342
 20
8.619788652073976
 30
0.0
 70
     8
  0
VERTEX
  5
F1F3
330
F175
100
AcDbEntity
  8
0
100
AcDbVertex
100
AcDb2dVertex
 10
7.827476276922737
 20
8.608879688880547
 30
0.0
 70
     8
  0
VERTEX
  5
F1F4
330
F175
100
AcDbEntity
  8
0
100
AcDbVertex
100
AcDb2dVertex
 10
7.822970172193794
 20
8.597513140392171
 30
0.0
 70
     8
  0
VERTEX
  5
F1F5
330
F175
100
AcDbEntity
  8
0
100
AcDbVertex
100
AcDb2dVertex
 10
7.817644774187844
 20
8.585669940229808
 30
0.0
 70
     8
  0
VERTEX
  5
F1F6
330
F175
100
AcDbEntity
  8
0
100
AcDbVertex
100
AcDb2dVertex
 10
7.811442922666142
 20
8.573331022014409
 30
0.0
 70
     8
  0
VERTEX
  5
F1F7
330
F175
100
AcDbEntity
  8
0
100
AcDbVertex
100
AcDb2dVertex
 10
7.804307457389938
 20
8.560477319366937
 30
0.0
 70
     8
  0
VERTEX
  5
F1F8
330
F175
100
AcDbEntity
  8
0
100
AcDbVertex
100
AcDb2dVertex
 10
7.796193920418059
 20
8.547062755692328
 30
0.0
 70
     8
  0
VERTEX
  5
F1F9
330
F175
100
AcDbEntity
  8
0
100
AcDbVertex
100
AcDb2dVertex
 10
7.787108662999632
 20
8.532933213531475
 30
0.0
 70
     8
  0
VERTEX
  5
F1FA
330
F175
100
AcDbEntity
  8
0
100
AcDbVertex
100
AcDb2dVertex
 10
7.777070738681353
 20
8.517907565209247
 30
0.0
 70
     8
  0
VERTEX
  5
F1FB
330
F175
100
AcDbEntity
  8
0
100
AcDbVertex
100
AcDb2dVertex
 10
7.766099201009925
 20
8.50180468305052
 30
0.0
 70
     8
  0
VERTEX
  5
F1FC
330
F175
100
AcDbEntity
  8
0
100
AcDbVertex
100
AcDb2dVertex
 10
7.754213103532046
 20
8.484443439380168
 30
0.0
 70
     8
  0
VERTEX
  5
F1FD
330
F175
100
AcDbEntity
  8
0
100
AcDbVertex
100
AcDb2dVertex
 10
7.741431499794416
 20
8.465642706523061
 30
0.0
 70
     8
  0
VERTEX
  5
F1FE
330
F175
100
AcDbEntity
  8
0
100
AcDbVertex
100
AcDb2dVertex
 10
7.727773443343735
 20
8.445221356804074
 30
0.0
 70
     8
  0
VERTEX
  5
F1FF
330
F175
100
AcDbEntity
  8
0
100
AcDbVertex
100
AcDb2dVertex
 10
7.713257987726703
 20
8.422998262548079
 30
0.0
 70
     8
  0
VERTEX
  5
F200
330
F175
100
AcDbEntity
  8
0
100
AcDbVertex
100
AcDb2dVertex
 10
7.69791688865381
 20
8.398833605863522
 30
0.0
 70
     8
  0
VERTEX
  5
F201
330
F175
100
AcDbEntity
  8
0
100
AcDbVertex
100
AcDb2dVertex
 10
7.681832710490708
 20
8.372752807993135
 30
0.0
 70
     8
  0
VERTEX
  5
F202
330
F175
100
AcDbEntity
  8
0
100
AcDbVertex
100
AcDb2dVertex
 10
7.665100719766844
 20
8.344822599963217
 30
0.0
 70
     8
  0
VERTEX
  5
F203
330
F175
100
AcDbEntity
  8
0
100
AcDbVertex
100
AcDb2dVertex
 10
7.647816183011662
 20
8.315109712800074
 30
0.0
 70
     8
  0
VERTEX
  5
F204
330
F175
100
AcDbEntity
  8
0
100
AcDbVertex
100
AcDb2dVertex
 10
7.630074366754604
 20
8.283680877530008
 30
0.0
 70
     8
  0
VERTEX
  5
F205
330
F175
100
AcDbEntity
  8
0
100
AcDbVertex
100
AcDb2dVertex
 10
7.611970537525118
 20
8.250602825179322
 30
0.0
 70
     8
  0
VERTEX
  5
F206
330
F175
100
AcDbEntity
  8
0
100
AcDbVertex
100
AcDb2dVertex
 10
7.593599961852646
 20
8.215942286774318
 30
0.0
 70
     8
  0
VERTEX
  5
F207
330
F175
100
AcDbEntity
  8
0
100
AcDbVertex
100
AcDb2dVertex
 10
7.575057906266633
 20
8.179765993341298
 30
0.0
 70
     8
  0
VERTEX
  5
F208
330
F175
100
AcDbEntity
  8
0
100
AcDbVertex
100
AcDb2dVertex
 10
7.5564364617723
 20
8.142166097474385
 30
0.0
 70
     8
  0
VERTEX
  5
F209
330
F175
100
AcDbEntity
  8
0
100
AcDbVertex
100
AcDb2dVertex
 10
7.537815017277967
 20
8.10333643803897
 30
0.0
 70
     8
  0
VERTEX
  5
F20A
330
F175
100
AcDbEntity
  8
0
100
AcDbVertex
100
AcDb2dVertex
 10
7.519269786167729
 20
8.063496275468272
 30
0.0
 70
     8
  0
VERTEX
  5
F20B
330
F175
100
AcDbEntity
  8
0
100
AcDbVertex
100
AcDb2dVertex
 10
7.500876981825684
 20
8.022864870195503
 30
0.0
 70
     8
  0
VERTEX
  5
F20C
330
F175
100
AcDbEntity
  8
0
100
AcDbVertex
100
AcDb2dVertex
 10
7.482712817635928
 20
7.981661482653875
 30
0.0
 70
     8
  0
VERTEX
  5
F20D
330
F175
100
AcDbEntity
  8
0
100
AcDbVertex
100
AcDb2dVertex
 10
7.464853506982554
 20
7.940105373276605
 30
0.0
 70
     8
  0
VERTEX
  5
F20E
330
F175
100
AcDbEntity
  8
0
100
AcDbVertex
100
AcDb2dVertex
 10
7.447375263249662
 20
7.898415802496903
 30
0.0
 70
     8
  0
VERTEX
  5
F20F
330
F175
100
AcDbEntity
  8
0
100
AcDbVertex
100
AcDb2dVertex
 10
7.430354299821345
 20
7.856812030747986
 30
0.0
 70
     8
  0
VERTEX
  5
F210
330
F175
100
AcDbEntity
  8
0
100
AcDbVertex
100
AcDb2dVertex
 10
7.413857303375244
 20
7.815503785273545
 30
0.0
 70
     8
  0
VERTEX
  5
F211
330
F175
100
AcDbEntity
  8
0
100
AcDbVertex
100
AcDb2dVertex
 10
7.397912853763163
 20
7.774662660559183
 30
0.0
 70
     8
  0
VERTEX
  5
F212
330
F175
100
AcDbEntity
  8
0
100
AcDbVertex
100
AcDb2dVertex
 10
7.382540004130452
 20
7.734450717900986
 30
0.0
 70
     8
  0
VERTEX
  5
F213
330
F175
100
AcDbEntity
  8
0
100
AcDbVertex
100
AcDb2dVertex
 10
7.367757807622459
 20
7.695030018595036
 30
0.0
 70
     8
  0
VERTEX
  5
F214
330
F175
100
AcDbEntity
  8
0
100
AcDbVertex
100
AcDb2dVertex
 10
7.353585317384532
 20
7.656562623937414
 30
0.0
 70
     8
  0
VERTEX
  5
F215
330
F175
100
AcDbEntity
  8
0
100
AcDbVertex
100
AcDb2dVertex
 10
7.34004158656202
 20
7.619210595224205
 30
0.0
 70
     8
  0
VERTEX
  5
F216
330
F175
100
AcDbEntity
  8
0
100
AcDbVertex
100
AcDb2dVertex
 10
7.327145668300272
 20
7.583135993751493
 30
0.0
 70
     8
  0
VERTEX
  5
F217
330
F175
100
AcDbEntity
  8
0
100
AcDbVertex
100
AcDb2dVertex
 10
7.314916615744635
 20
7.548500880815357
 30
0.0
 70
     8
  0
VERTEX
  5
F218
330
F175
100
AcDbEntity
  8
0
100
AcDbVertex
100
AcDb2dVertex
 10
7.30336478860103
 20
7.515417479853705
 30
0.0
 70
     8
  0
VERTEX
  5
F219
330
F175
100
AcDbEntity
  8
0
100
AcDbVertex
100
AcDb2dVertex
 10
7.292465772817664
 20
7.483798662871723
 30
0.0
 70
     8
  0
VERTEX
  5
F21A
330
F175
100
AcDbEntity
  8
0
100
AcDbVertex
100
AcDb2dVertex
 10
7.282186460903317
 20
7.453507464016421
 30
0.0
 70
     8
  0
VERTEX
  5
F21B
330
F175
100
AcDbEntity
  8
0
100
AcDbVertex
100
AcDb2dVertex
 10
7.272493745366766
 20
7.424406917434809
 30
0.0
 70
     8
  0
VERTEX
  5
F21C
330
F175
100
AcDbEntity
  8
0
100
AcDbVertex
100
AcDb2dVertex
 10
7.263354518716791
 20
7.396360057273895
 30
0.0
 70
     8
  0
VERTEX
  5
F21D
330
F175
100
AcDbEntity
  8
0
100
AcDbVertex
100
AcDb2dVertex
 10
7.25473567346217
 20
7.36922991768069
 30
0.0
 70
     8
  0
VERTEX
  5
F21E
330
F175
100
AcDbEntity
  8
0
100
AcDbVertex
100
AcDb2dVertex
 10
7.246604102111682
 20
7.342879532802201
 30
0.0
 70
     8
  0
VERTEX
  5
F21F
330
F175
100
AcDbEntity
  8
0
100
AcDbVertex
100
AcDb2dVertex
 10
7.238926697174107
 20
7.317171936785439
 30
0.0
 70
     8
  0
VERTEX
  5
F220
330
F175
100
AcDbEntity
  8
0
100
AcDbVertex
100
AcDb2dVertex
 10
7.231682141600772
 20
7.292043413244488
 30
0.0
 70
     8
  0
VERTEX
  5
F221
330
F175
100
AcDbEntity
  8
0
100
AcDbVertex
100
AcDb2dVertex
 10
7.224896280113211
 20
7.267723243661733
 30
0.0
 70
     8
  0
VERTEX
  5
F222
330
F175
100
AcDbEntity
  8
0
100
AcDbVertex
100
AcDb2dVertex
 10
7.218606747875504
 20
7.244513958986632
 30
0.0
 70
     8
  0
VERTEX
  5
F223
330
F175
100
AcDbEntity
  8
0
100
AcDbVertex
100
AcDb2dVertex
 10
7.212851180051734
 20
7.222718090168645
 30
0.0
 70
     8
  0
VERTEX
  5
F224
330
F175
100
AcDbEntity
  8
0
100
AcDbVertex
100
AcDb2dVertex
 10
7.207667211805982
 20
7.202638168157232
 30
0.0
 70
     8
  0
VERTEX
  5
F225
330
F175
100
AcDbEntity
  8
0
100
AcDbVertex
100
AcDb2dVertex
 10
7.20309247830233
 20
7.184576723901851
 30
0.0
 70
     8
  0
VERTEX
  5
F226
330
F175
100
AcDbEntity
  8
0
100
AcDbVertex
100
AcDb2dVertex
 10
7.19916461470486
 20
7.168836288351961
 30
0.0
 70
     8
  0
VERTEX
  5
F227
330
F175
100
AcDbEntity
  8
0
100
AcDbVertex
100
AcDb2dVertex
 10
7.195921256177652
 20
7.155719392457022
 30
0.0
 70
     8
  0
VERTEX
  5
F228
330
F175
100
AcDbEntity
  8
0
100
AcDbVertex
100
AcDb2dVertex
 10
7.193378720769228
 20
7.145417185537326
 30
0.0
 70
     8
  0
VERTEX
  5
F229
330
F175
100
AcDbEntity
  8
0
100
AcDbVertex
100
AcDb2dVertex
 10
7.191468058065857
 20
7.13767529039649
 30
0.0
 70
     8
  0
VERTEX
  5
F22A
330
F175
100
AcDbEntity
  8
0
100
AcDbVertex
100
AcDb2dVertex
 10
7.190099000538243
 20
7.132127948208961
 30
0.0
 70
     8
  0
VERTEX
  5
F22B
330
F175
100
AcDbEntity
  8
0
100
AcDbVertex
100
AcDb2dVertex
 10
7.189181280657096
 20
7.12840940014919
 30
0.0
 70
     8
  0
VERTEX
  5
F22C
330
F175
100
AcDbEntity
  8
0
100
AcDbVertex
100
AcDb2dVertex
 10
7.188624630893122
 20
7.126153887391623
 30
0.0
 70
     8
  0
VERTEX
  5
F22D
330
F175
100
AcDbEntity
  8
0
100
AcDbVertex
100
AcDb2dVertex
 10
7.188338783717026
 20
7.124995651110711
 30
0.0
 70
     8
  0
VERTEX
  5
F22E
330
F175
100
AcDbEntity
  8
0
100
AcDbVertex
100
AcDb2dVertex
 10
7.188233471599517
 20
7.124568932480901
 30
0.0
 70
     8
  0
VERTEX
  5
F22F
330
F175
100
AcDbEntity
  8
0
100
AcDbVertex
100
AcDb2dVertex
 10
7.188218427011302
 20
7.124507972676643
 30
0.0
 70
     8
  0
VERTEX
  5
F230
330
F175
100
AcDbEntity
  8
0
100
AcDbVertex
100
AcDb2dVertex
 10
7.188218427011302
 20
7.124507972676643
 30
0.0
 70
     8
  0
VERTEX
  5
F231
330
F175
100
AcDbEntity
  8
0
100
AcDbVertex
100
AcDb2dVertex
 10
7.188218427011302
 20
7.124507972676643
 30
0.0
 70
     8
  0
VERTEX
  5
F232
330
F175
100
AcDbEntity
  8
0
100
AcDbVertex
100
AcDb2dVertex
 10
7.188218427011302
 20
7.124507972676643
 30
0.0
 70
     8
  0
VERTEX
  5
F233
330
F175
100
AcDbEntity
  8
0
100
AcDbVertex
100
AcDb2dVertex
 10
7.188218427011302
 20
7.124507972676643
 30
0.0
 70
     8
  0
VERTEX
  5
F234
330
F175
100
AcDbEntity
  8
0
100
AcDbVertex
100
AcDb2dVertex
 10
7.188218427011302
 20
7.124507972676643
 30
0.0
 70
     8
  0
VERTEX
  5
F235
330
F175
100
AcDbEntity
  8
0
100
AcDbVertex
100
AcDb2dVertex
 10
7.188218427011302
 20
7.124507972676643
 30
0.0
 70
     8
  0
VERTEX
  5
F236
330
F175
100
AcDbEntity
  8
0
100
AcDbVertex
100
AcDb2dVertex
 10
7.188218427011302
 20
7.124507972676643
 30
0.0
 70
     8
  0
VERTEX
  5
F237
330
F175
100
AcDbEntity
  8
0
100
AcDbVertex
100
AcDb2dVertex
 10
7.188218427011302
 20
7.124507972676643
 30
0.0
 70
     8
  0
VERTEX
  5
F238
330
F175
100
AcDbEntity
  8
0
100
AcDbVertex
100
AcDb2dVertex
 10
7.18821384545938
 20
7.124498447530584
 30
0.0
 70
     8
  0
VERTEX
  5
F239
330
F175
100
AcDbEntity
  8
0
100
AcDbVertex
100
AcDb2dVertex
 10
7.188181774595935
 20
7.12443177150816
 30
0.0
 70
     8
  0
VERTEX
  5
F23A
330
F175
100
AcDbEntity
  8
0
100
AcDbVertex
100
AcDb2dVertex
 10
7.188094725109439
 20
7.124250793733015
 30
0.0
 70
     8
  0
VERTEX
  5
F23B
330
F175
100
AcDbEntity
  8
0
100
AcDbVertex
100
AcDb2dVertex
 10
7.187925207688365
 20
7.123898363328783
 30
0.0
 70
     8
  0
VERTEX
  5
F23C
330
F175
100
AcDbEntity
  8
0
100
AcDbVertex
100
AcDb2dVertex
 10
7.187645733021192
 20
7.123317329419102
 30
0.0
 70
     8
  0
VERTEX
  5
F23D
330
F175
100
AcDbEntity
  8
0
100
AcDbVertex
100
AcDb2dVertex
 10
7.187228811796393
 20
7.122450541127613
 30
0.0
 70
     8
  0
VERTEX
  5
F23E
330
F175
100
AcDbEntity
  8
0
100
AcDbVertex
100
AcDb2dVertex
 10
7.186646954702442
 20
7.121240847577953
 30
0.0
 70
     8
  0
VERTEX
  5
F23F
330
F175
100
AcDbEntity
  8
0
100
AcDbVertex
100
AcDb2dVertex
 10
7.185872672427813
 20
7.119631097893758
 30
0.0
 70
     8
  0
VERTEX
  5
F240
330
F175
100
AcDbEntity
  8
0
100
AcDbVertex
100
AcDb2dVertex
 10
7.184880090947068
 20
7.117580581965842
 30
0.0
 70
     8
  0
VERTEX
  5
F241
330
F175
100
AcDbEntity
  8
0
100
AcDbVertex
100
AcDb2dVertex
 10
7.183649797379099
 20
7.115114352753724
 30
0.0
 70
     8
  0
VERTEX
  5
F242
330
F175
100
AcDbEntity
  8
0
100
AcDbVertex
100
AcDb2dVertex
 10
7.182163994128888
 20
7.112273903984092
 30
0.0
 70
     8
  0
VERTEX
  5
F243
330
F175
100
AcDbEntity
  8
0
100
AcDbVertex
100
AcDb2dVertex
 10
7.180404883601416
 20
7.109100729383638
 30
0.0
 70
     8
  0
VERTEX
  5
F244
330
F175
100
AcDbEntity
  8
0
100
AcDbVertex
100
AcDb2dVertex
 10
7.17835466820166
 20
7.105636322679053
 30
0.0
 70
     8
  0
VERTEX
  5
F245
330
F175
100
AcDbEntity
  8
0
100
AcDbVertex
100
AcDb2dVertex
 10
7.175995550334604
 20
7.101922177597031
 30
0.0
 70
     8
  0
VERTEX
  5
F246
330
F175
100
AcDbEntity
  8
0
100
AcDbVertex
100
AcDb2dVertex
 10
7.173309732405223
 20
7.097999787864259
 30
0.0
 70
     8
  0
VERTEX
  5
F247
330
F175
100
AcDbEntity
  8
0
100
AcDbVertex
100
AcDb2dVertex
 10
7.174143899510368
 20
7.09524672397933
 30
0.0
 70
    16
  0
VERTEX
  5
F248
330
F175
100
AcDbEntity
  8
0
100
AcDbVertex
100
AcDb2dVertex
 10
7.136882475858221
 20
7.057969014650626
 30
0.0
 70
    16
  0
VERTEX
  5
F249
330
F175
100
AcDbEntity
  8
0
100
AcDbVertex
100
AcDb2dVertex
 10
7.10273887978318
 20
7.057969014650626
 30
0.0
 70
    16
  0
VERTEX
  5
F24A
330
F175
100
AcDbEntity
  8
0
100
AcDbVertex
100
AcDb2dVertex
 10
7.058840073289743
 20
7.087254473527186
 30
0.0
 70
    16
  0
VERTEX
  5
F24B
330
F175
100
AcDbEntity
  8
0
100
AcDbVertex
100
AcDb2dVertex
 10
7.039329446961146
 20
7.199515482443072
 30
0.0
 70
    16
  0
VERTEX
  5
F24C
330
F175
100
AcDbEntity
  8
0
100
AcDbVertex
100
AcDb2dVertex
 10
7.039329446961146
 20
9.674139337406487
 30
0.0
 70
    16
  0
VERTEX
  5
F24D
330
F175
100
AcDbEntity
  8
0
100
AcDbVertex
100
AcDb2dVertex
 10
7.058840073289743
 20
9.835209610894745
 30
0.0
 70
    16
  0
VERTEX
  5
F24E
330
F175
100
AcDbEntity
  8
0
100
AcDbVertex
100
AcDb2dVertex
 10
7.146637686276617
 20
9.95235161284576
 30
0.0
 70
    16
  0
VERTEX
  5
F24F
330
F175
100
AcDbEntity
  8
0
100
AcDbVertex
100
AcDb2dVertex
 10
7.302722491413573
 20
9.95723243943615
 30
0.0
 70
    16
  0
VERTEX
  5
F250
330
F175
100
AcDbEntity
  8
0
100
AcDbVertex
100
AcDb2dVertex
 10
7.414908490057109
 20
9.898661521683029
 30
0.0
 70
    16
  0
VERTEX
  5
F251
330
F175
100
AcDbEntity
  8
0
100
AcDbVertex
100
AcDb2dVertex
 10
7.463684953132699
 20
9.752234060855455
 30
0.0
 70
    16
  0
VERTEX
  5
F252
330
F175
100
AcDbEntity
  8
0
100
AcDbVertex
100
AcDb2dVertex
 10
7.595381475358921
 20
9.298309032156785
 30
0.0
 70
    16
  0
VERTEX
  5
F253
330
F175
100
AcDbEntity
  8
0
100
AcDbVertex
100
AcDb2dVertex
 10
7.766099250242338
 20
8.868788469299582
 30
0.0
 70
    16
  0
VERTEX
  5
F254
330
F175
100
AcDbEntity
  8
0
100
AcDbVertex
100
AcDb2dVertex
 10
7.824631026482236
 20
8.785812919260257
 30
0.0
 70
    16
  0
VERTEX
  5
F255
330
F175
100
AcDbEntity
  8
0
100
AcDbVertex
100
AcDb2dVertex
 10
7.839263893482769
 20
8.717480015436844
 30
0.0
 70
    16
  0
VERTEX
  5
F256
330
F175
100
AcDbEntity
  8
0
100
AcDbVertex
100
AcDb2dVertex
 10
7.844141550064923
 20
8.654028104648595
 30
0.0
 70
    16
  0
VERTEX
  5
F257
330
F175
100
AcDbEntity
  8
0
100
AcDbVertex
100
AcDb2dVertex
 10
7.814875713317928
 20
8.566171728018879
 30
0.0
 70
    16
  0
VERTEX
  5
F258
330
F175
100
AcDbEntity
  8
0
100
AcDbVertex
100
AcDb2dVertex
 10
7.722200341002991
 20
8.444148899477507
 30
0.0
 70
    16
  0
VERTEX
  5
F259
330
F175
100
AcDbEntity
  8
0
100
AcDbVertex
100
AcDb2dVertex
 10
7.575870849030325
 20
8.195222249359567
 30
0.0
 70
    16
  0
VERTEX
  5
F25A
330
F175
100
AcDbEntity
  8
0
100
AcDbVertex
100
AcDb2dVertex
 10
7.424663700475505
 20
7.853558063132012
 30
0.0
 70
    16
  0
VERTEX
  5
F25B
330
F175
100
AcDbEntity
  8
0
100
AcDbVertex
100
AcDb2dVertex
 10
7.307600147995726
 20
7.531417682600301
 30
0.0
 70
    16
  0
VERTEX
  5
F25C
330
F175
100
AcDbEntity
  8
0
100
AcDbVertex
100
AcDb2dVertex
 10
7.234435402009403
 20
7.311776491358923
 30
0.0
 70
    16
  0
VERTEX
  5
F25D
330
F175
100
AcDbEntity
  8
0
100
AcDbVertex
100
AcDb2dVertex
 10
7.188218427011302
 20
7.124507972676643
 30
0.0
 70
    16
  0
VERTEX
  5
F25E
330
F175
100
AcDbEntity
  8
0
100
AcDbVertex
100
AcDb2dVertex
 10
7.188218427011302
 20
7.124507972676643
 30
0.0
 70
    16
  0
VERTEX
  5
F25F
330
F175
100
AcDbEntity
  8
0
100
AcDbVertex
100
AcDb2dVertex
 10
7.188218427011302
 20
7.124507972676643
 30
0.0
 70
    16
  0
SEQEND
  5
F260
330
F175
100
AcDbEntity
  8
0
  0
POLYLINE
  5
F264
330
18
100
AcDbEntity
  8
0
100
AcDb2dPolyline
 66
     1
 10
0.0
 20
0.0
 30
0.0
 70
     5
 75
     6
  0
VERTEX
  5
F265
330
F264
100
AcDbEntity
  8
0
100
AcDbVertex
100
AcDb2dVertex
 10
7.785534358327137
 20
10.04357333638686
 30
0.0
 70
    16
  0
VERTEX
  5
F266
330
F264
100
AcDbEntity
  8
0
100
AcDbVertex
100
AcDb2dVertex
 10
7.768148294799779
 20
10.12882202272221
 30
0.0
 70
     8
  0
VERTEX
  5
F267
330
F264
100
AcDbEntity
  8
0
100
AcDbVertex
100
AcDb2dVertex
 10
7.767782402701008
 20
10.13844682259224
 30
0.0
 70
     8
  0
VERTEX
  5
F268
330
F264
100
AcDbEntity
  8
0
100
AcDbVertex
100
AcDb2dVertex
 10
7.767992083557244
 20
10.14775561047693
 30
0.0
 70
     8
  0
VERTEX
  5
F269
330
F264
100
AcDbEntity
  8
0
100
AcDbVertex
100
AcDb2dVertex
 10
7.76878243131804
 20
10.15675858014351
 30
0.0
 70
     8
  0
VERTEX
  5
F26A
330
F264
100
AcDbEntity
  8
0
100
AcDbVertex
100
AcDb2dVertex
 10
7.770158539932976
 20
10.16546592535921
 30
0.0
 70
     8
  0
VERTEX
  5
F26B
330
F264
100
AcDbEntity
  8
0
100
AcDbVertex
100
AcDb2dVertex
 10
7.772125503351619
 20
10.17388783989124
 30
0.0
 70
     8
  0
VERTEX
  5
F26C
330
F264
100
AcDbEntity
  8
0
100
AcDbVertex
100
AcDb2dVertex
 10
7.774688415523524
 20
10.18203451750684
 30
0.0
 70
     8
  0
VERTEX
  5
F26D
330
F264
100
AcDbEntity
  8
0
100
AcDbVertex
100
AcDb2dVertex
 10
7.777852370398258
 20
10.18991615197322
 30
0.0
 70
     8
  0
VERTEX
  5
F26E
330
F264
100
AcDbEntity
  8
0
100
AcDbVertex
100
AcDb2dVertex
 10
7.781622461925393
 20
10.19754293705761
 30
0.0
 70
     8
  0
VERTEX
  5
F26F
330
F264
100
AcDbEntity
  8
0
100
AcDbVertex
100
AcDb2dVertex
 10
7.78599274786613
 20
10.20491317363626
 30
0.0
 70
     8
  0
VERTEX
  5
F270
330
F264
100
AcDbEntity
  8
0
100
AcDbVertex
100
AcDb2dVertex
 10
7.79091314122823
 20
10.21197759102154
 30
0.0
 70
     8
  0
VERTEX
  5
F271
330
F264
100
AcDbEntity
  8
0
100
AcDbVertex
100
AcDb2dVertex
 10
7.796322518831098
 20
10.21867502563484
 30
0.0
 70
     8
  0
VERTEX
  5
F272
330
F264
100
AcDbEntity
  8
0
100
AcDbVertex
100
AcDb2dVertex
 10
7.802159757494118
 20
10.22494431389757
 30
0.0
 70
     8
  0
VERTEX
  5
F273
330
F264
100
AcDbEntity
  8
0
100
AcDbVertex
100
AcDb2dVertex
 10
7.808363734036694
 20
10.2307242922311
 30
0.0
 70
     8
  0
VERTEX
  5
F274
330
F264
100
AcDbEntity
  8
0
100
AcDbVertex
100
AcDb2dVertex
 10
7.814873325278227
 20
10.23595379705685
 30
0.0
 70
     8
  0
VERTEX
  5
F275
330
F264
100
AcDbEntity
  8
0
100
AcDbVertex
100
AcDb2dVertex
 10
7.821627408038113
 20
10.2405716647962
 30
0.0
 70
     8
  0
VERTEX
  5
F276
330
F264
100
AcDbEntity
  8
0
100
AcDbVertex
100
AcDb2dVertex
 10
7.828564859135755
 20
10.24451673187056
 30
0.0
 70
     8
  0
VERTEX
  5
F277
330
F264
100
AcDbEntity
  8
0
100
AcDbVertex
100
AcDb2dVertex
 10
7.835635591512013
 20
10.24774652354546
 30
0.0
 70
     8
  0
VERTEX
  5
F278
330
F264
100
AcDbEntity
  8
0
100
AcDbVertex
100
AcDb2dVertex
 10
7.842833662593631
 20
10.25029332046306
 30
0.0
 70
     8
  0
VERTEX
  5
F279
330
F264
100
AcDbEntity
  8
0
100
AcDbVertex
100
AcDb2dVertex
 10
7.850164165928835
 20
10.25220809210963
 30
0.0
 70
     8
  0
VERTEX
  5
F27A
330
F264
100
AcDbEntity
  8
0
100
AcDbVertex
100
AcDb2dVertex
 10
7.857632195065836
 20
10.2535418079715
 30
0.0
 70
     8
  0
VERTEX
  5
F27B
330
F264
100
AcDbEntity
  8
0
100
AcDbVertex
100
AcDb2dVertex
 10
7.865242843552842
 20
10.25434543753492
 30
0.0
 70
     8
  0
VERTEX
  5
F27C
330
F264
100
AcDbEntity
  8
0
100
AcDbVertex
100
AcDb2dVertex
 10
7.873001204938065
 20
10.25466995028621
 30
0.0
 70
     8
  0
VERTEX
  5
F27D
330
F264
100
AcDbEntity
  8
0
100
AcDbVertex
100
AcDb2dVertex
 10
7.88091237276973
 20
10.25456631571166
 30
0.0
 70
     8
  0
VERTEX
  5
F27E
330
F264
100
AcDbEntity
  8
0
100
AcDbVertex
100
AcDb2dVertex
 10
7.888981440596049
 20
10.25408550329755
 30
0.0
 70
     8
  0
VERTEX
  5
F27F
330
F264
100
AcDbEntity
  8
0
100
AcDbVertex
100
AcDb2dVertex
 10
7.897263588790247
 20
10.2532224158352
 30
0.0
 70
     8
  0
VERTEX
  5
F280
330
F264
100
AcDbEntity
  8
0
100
AcDbVertex
100
AcDb2dVertex
 10
7.906014345025582
 20
10.25174768933594
 30
0.0
 70
     8
  0
VERTEX
  5
F281
330
F264
100
AcDbEntity
  8
0
100
AcDbVertex
100
AcDb2dVertex
 10
7.915539323800354
 20
10.24937589311608
 30
0.0
 70
     8
  0
VERTEX
  5
F282
330
F264
100
AcDbEntity
  8
0
100
AcDbVertex
100
AcDb2dVertex
 10
7.926144139612826
 20
10.24582159649199
 30
0.0
 70
     8
  0
VERTEX
  5
F283
330
F264
100
AcDbEntity
  8
0
100
AcDbVertex
100
AcDb2dVertex
 10
7.938134406961285
 20
10.24079936877998
 30
0.0
 70
     8
  0
VERTEX
  5
F284
330
F264
100
AcDbEntity
  8
0
100
AcDbVertex
100
AcDb2dVertex
 10
7.95181574034401
 20
10.23402377929642
 30
0.0
 70
     8
  0
VERTEX
  5
F285
330
F264
100
AcDbEntity
  8
0
100
AcDbVertex
100
AcDb2dVertex
 10
7.967493754259285
 20
10.22520939735763
 30
0.0
 70
     8
  0
VERTEX
  5
F286
330
F264
100
AcDbEntity
  8
0
100
AcDbVertex
100
AcDb2dVertex
 10
7.985474063205375
 20
10.21407079227994
 30
0.0
 70
     8
  0
VERTEX
  5
F287
330
F264
100
AcDbEntity
  8
0
100
AcDbVertex
100
AcDb2dVertex
 10
8.005908625540179
 20
10.20046185079913
 30
0.0
 70
     8
  0
VERTEX
  5
F288
330
F264
100
AcDbEntity
  8
0
100
AcDbVertex
100
AcDb2dVertex
 10
8.028334775059988
 20
10.18479372932863
 30
0.0
 70
     8
  0
VERTEX
  5
F289
330
F264
100
AcDbEntity
  8
0
100
AcDbVertex
100
AcDb2dVertex
 10
8.052136189420705
 20
10.16761690170134
 30
0.0
 70
     8
  0
VERTEX
  5
F28A
330
F264
100
AcDbEntity
  8
0
100
AcDbVertex
100
AcDb2dVertex
 10
8.07669654627824
 20
10.14948184175012
 30
0.0
 70
     8
  0
VERTEX
  5
F28B
330
F264
100
AcDbEntity
  8
0
100
AcDbVertex
100
AcDb2dVertex
 10
8.101399523288474
 20
10.13093902330786
 30
0.0
 70
     8
  0
VERTEX
  5
F28C
330
F264
100
AcDbEntity
  8
0
100
AcDbVertex
100
AcDb2dVertex
 10
8.125628798107324
 20
10.11253892020743
 30
0.0
 70
     8
  0
VERTEX
  5
F28D
330
F264
100
AcDbEntity
  8
0
100
AcDbVertex
100
AcDb2dVertex
 10
8.148768048390687
 20
10.09483200628171
 30
0.0
 70
     8
  0
VERTEX
  5
F28E
330
F264
100
AcDbEntity
  8
0
100
AcDbVertex
100
AcDb2dVertex
 10
8.170200951794466
 20
10.07836875536357
 30
0.0
 70
     8
  0
VERTEX
  5
F28F
330
F264
100
AcDbEntity
  8
0
100
AcDbVertex
100
AcDb2dVertex
 10
8.189465691039661
 20
10.06357136730394
 30
0.0
 70
     8
  0
VERTEX
  5
F290
330
F264
100
AcDbEntity
  8
0
100
AcDbVertex
100
AcDb2dVertex
 10
8.206718469107659
 20
10.05034894602585
 30
0.0
 70
     8
  0
VERTEX
  5
F291
330
F264
100
AcDbEntity
  8
0
100
AcDbVertex
100
AcDb2dVertex
 10
8.222269994044971
 20
10.03848232147043
 30
0.0
 70
     8
  0
VERTEX
  5
F292
330
F264
100
AcDbEntity
  8
0
100
AcDbVertex
100
AcDb2dVertex
 10
8.236430973898078
 20
10.02775232357877
 30
0.0
 70
     8
  0
VERTEX
  5
F293
330
F264
100
AcDbEntity
  8
0
100
AcDbVertex
100
AcDb2dVertex
 10
8.249512116713486
 20
10.01793978229196
 30
0.0
 70
     8
  0
VERTEX
  5
F294
330
F264
100
AcDbEntity
  8
0
100
AcDbVertex
100
AcDb2dVertex
 10
8.261824130537672
 20
10.0088255275511
 30
0.0
 70
     8
  0
VERTEX
  5
F295
330
F264
100
AcDbEntity
  8
0
100
AcDbVertex
100
AcDb2dVertex
 10
8.273677723417153
 20
10.00019038929728
 30
0.0
 70
     8
  0
VERTEX
  5
F296
330
F264
100
AcDbEntity
  8
0
100
AcDbVertex
100
AcDb2dVertex
 10
8.285383603398399
 20
9.991815197471616
 30
0.0
 70
     8
  0
VERTEX
  5
F297
330
F264
100
AcDbEntity
  8
0
100
AcDbVertex
100
AcDb2dVertex
 10
8.297240593448306
 20
9.983495223375069
 30
0.0
 70
     8
  0
VERTEX
  5
F298
330
F264
100
AcDbEntity
  8
0
100
AcDbVertex
100
AcDb2dVertex
 10
8.309499976215271
 20
9.975083503748066
 30
0.0
 70
     8
  0
VERTEX
  5
F299
330
F264
100
AcDbEntity
  8
0
100
AcDbVertex
100
AcDb2dVertex
 10
8.322401149268088
 20
9.966447516690914
 30
0.0
 70
     8
  0
VERTEX
  5
F29A
330
F264
100
AcDbEntity
  8
0
100
AcDbVertex
100
AcDb2dVertex
 10
8.336183510175537
 20
9.957454740303928
 30
0.0
 70
     8
  0
VERTEX
  5
F29B
330
F264
100
AcDbEntity
  8
0
100
AcDbVertex
100
AcDb2dVertex
 10
8.351086456506402
 20
9.947972652687401
 30
0.0
 70
     8
  0
VERTEX
  5
F29C
330
F264
100
AcDbEntity
  8
0
100
AcDbVertex
100
AcDb2dVertex
 10
8.367349385829482
 20
9.93786873194165
 30
0.0
 70
     8
  0
VERTEX
  5
F29D
330
F264
100
AcDbEntity
  8
0
100
AcDbVertex
100
AcDb2dVertex
 10
8.385211695713561
 20
9.927010456166968
 30
0.0
 70
     8
  0
VERTEX
  5
F29E
330
F264
100
AcDbEntity
  8
0
100
AcDbVertex
100
AcDb2dVertex
 10
8.404912783727429
 20
9.915265303463673
 30
0.0
 70
     8
  0
VERTEX
  5
F29F
330
F264
100
AcDbEntity
  8
0
100
AcDbVertex
100
AcDb2dVertex
 10
8.426551125404131
 20
9.902571260366187
 30
0.0
 70
     8
  0
VERTEX
  5
F2A0
330
F264
100
AcDbEntity
  8
0
100
AcDbVertex
100
AcDb2dVertex
 10
8.449661508133761
 20
9.889148347145471
 30
0.0
 70
     8
  0
VERTEX
  5
F2A1
330
F264
100
AcDbEntity
  8
0
100
AcDbVertex
100
AcDb2dVertex
 10
8.473637797270683
 20
9.875287092506603
 30
0.0
 70
     8
  0
VERTEX
  5
F2A2
330
F264
100
AcDbEntity
  8
0
100
AcDbVertex
100
AcDb2dVertex
 10
8.497873858169244
 20
9.861278025154657
 30
0.0
 70
     8
  0
VERTEX
  5
F2A3
330
F264
100
AcDbEntity
  8
0
100
AcDbVertex
100
AcDb2dVertex
 10
8.521763556183817
 20
9.847411673794718
 30
0.0
 70
     8
  0
VERTEX
  5
F2A4
330
F264
100
AcDbEntity
  8
0
100
AcDbVertex
100
AcDb2dVertex
 10
8.544700756668742
 20
9.833978567131861
 30
0.0
 70
     8
  0
VERTEX
  5
F2A5
330
F264
100
AcDbEntity
  8
0
100
AcDbVertex
100
AcDb2dVertex
 10
8.566079324978391
 20
9.821269233871174
 30
0.0
 70
     8
  0
VERTEX
  5
F2A6
330
F264
100
AcDbEntity
  8
0
100
AcDbVertex
100
AcDb2dVertex
 10
8.585293126467121
 20
9.809574202717733
 30
0.0
 70
     8
  0
VERTEX
  5
F2A7
330
F264
100
AcDbEntity
  8
0
100
AcDbVertex
100
AcDb2dVertex
 10
8.601890531387141
 20
9.799104149412055
 30
0.0
 70
     8
  0
VERTEX
  5
F2A8
330
F264
100
AcDbEntity
  8
0
100
AcDbVertex
100
AcDb2dVertex
 10
8.616037929582176
 20
9.78975033783638
 30
0.0
 70
     8
  0
VERTEX
  5
F2A9
330
F264
100
AcDbEntity
  8
0
100
AcDbVertex
100
AcDb2dVertex
 10
8.628056215793785
 20
9.781324178908398
 30
0.0
 70
     8
  0
VERTEX
  5
F2AA
330
F264
100
AcDbEntity
  8
0
100
AcDbVertex
100
AcDb2dVertex
 10
8.638266284763549
 20
9.773637083545779
 30
0.0
 70
     8
  0
VERTEX
  5
F2AB
330
F264
100
AcDbEntity
  8
0
100
AcDbVertex
100
AcDb2dVertex
 10
8.646989031233035
 20
9.766500462666222
 30
0.0
 70
     8
  0
VERTEX
  5
F2AC
330
F264
100
AcDbEntity
  8
0
100
AcDbVertex
100
AcDb2dVertex
 10
8.654545349943813
 20
9.759725727187392
 30
0.0
 70
     8
  0
VERTEX
  5
F2AD
330
F264
100
AcDbEntity
  8
0
100
AcDbVertex
100
AcDb2dVertex
 10
8.661256135637454
 20
9.753124288026977
 30
0.0
 70
     8
  0
VERTEX
  5
F2AE
330
F264
100
AcDbEntity
  8
0
100
AcDbVertex
100
AcDb2dVertex
 10
8.667442283055544
 20
9.746507556102656
 30
0.0
 70
     8
  0
VERTEX
  5
F2AF
330
F264
100
AcDbEntity
  8
0
100
AcDbVertex
100
AcDb2dVertex
 10
8.673365261976346
 20
9.739724320453866
 30
0.0
 70
     8
  0
VERTEX
  5
F2B0
330
F264
100
AcDbEntity
  8
0
100
AcDbVertex
100
AcDb2dVertex
 10
8.679048842324988
 20
9.732772882607033
 30
0.0
 70
     8
  0
VERTEX
  5
F2B1
330
F264
100
AcDbEntity
  8
0
100
AcDbVertex
100
AcDb2dVertex
 10
8.684457369063281
 20
9.725688922210316
 30
0.0
 70
     8
  0
VERTEX
  5
F2B2
330
F264
100
AcDbEntity
  8
0
100
AcDbVertex
100
AcDb2dVertex
 10
8.689555187153056
 20
9.71850811891192
 30
0.0
 70
     8
  0
VERTEX
  5
F2B3
330
F264
100
AcDbEntity
  8
0
100
AcDbVertex
100
AcDb2dVertex
 10
8.694306641556131
 20
9.711266152360002
 30
0.0
 70
     8
  0
VERTEX
  5
F2B4
330
F264
100
AcDbEntity
  8
0
100
AcDbVertex
100
AcDb2dVertex
 10
8.698676077234328
 20
9.70399870220274
 30
0.0
 70
     8
  0
VERTEX
  5
F2B5
330
F264
100
AcDbEntity
  8
0
100
AcDbVertex
100
AcDb2dVertex
 10
8.702627839149478
 20
9.69674144808831
 30
0.0
 70
     8
  0
VERTEX
  5
F2B6
330
F264
100
AcDbEntity
  8
0
100
AcDbVertex
100
AcDb2dVertex
 10
8.706126272263389
 20
9.6895300696649
 30
0.0
 70
     8
  0
VERTEX
  5
F2B7
330
F264
100
AcDbEntity
  8
0
100
AcDbVertex
100
AcDb2dVertex
 10
8.709138268378891
 20
9.682392600848906
 30
0.0
 70
     8
  0
VERTEX
  5
F2B8
330
F264
100
AcDbEntity
  8
0
100
AcDbVertex
100
AcDb2dVertex
 10
8.711640906662797
 20
9.675326492629608
 30
0.0
 70
     8
  0
VERTEX
  5
F2B9
330
F264
100
AcDbEntity
  8
0
100
AcDbVertex
100
AcDb2dVertex
 10
8.713613813122933
 20
9.668321550264522
 30
0.0
 70
     8
  0
VERTEX
  5
F2BA
330
F264
100
AcDbEntity
  8
0
100
AcDbVertex
100
AcDb2dVertex
 10
8.715036613767109
 20
9.661367579011175
 30
0.0
 70
     8
  0
VERTEX
  5
F2BB
330
F264
100
AcDbEntity
  8
0
100
AcDbVertex
100
AcDb2dVertex
 10
8.715888934603146
 20
9.654454384127065
 30
0.0
 70
     8
  0
VERTEX
  5
F2BC
330
F264
100
AcDbEntity
  8
0
100
AcDbVertex
100
AcDb2dVertex
 10
8.716150401638859
 20
9.647571770869721
 30
0.0
 70
     8
  0
VERTEX
  5
F2BD
330
F264
100
AcDbEntity
  8
0
100
AcDbVertex
100
AcDb2dVertex
 10
8.715800640882072
 20
9.640709544496642
 30
0.0
 70
     8
  0
VERTEX
  5
F2BE
330
F264
100
AcDbEntity
  8
0
100
AcDbVertex
100
AcDb2dVertex
 10
8.714819278340591
 20
9.633857510265354
 30
0.0
 70
     8
  0
VERTEX
  5
F2BF
330
F264
100
AcDbEntity
  8
0
100
AcDbVertex
100
AcDb2dVertex
 10
8.713118874535947
 20
9.626941761331682
 30
0.0
 70
     8
  0
VERTEX
  5
F2C0
330
F264
100
AcDbEntity
  8
0
100
AcDbVertex
100
AcDb2dVertex
 10
8.710343728044517
 20
9.619633542444738
 30
0.0
 70
     8
  0
VERTEX
  5
F2C1
330
F264
100
AcDbEntity
  8
0
100
AcDbVertex
100
AcDb2dVertex
 10
8.706071071956378
 20
9.611540386251933
 30
0.0
 70
     8
  0
VERTEX
  5
F2C2
330
F264
100
AcDbEntity
  8
0
100
AcDbVertex
100
AcDb2dVertex
 10
8.699878139361619
 20
9.602269825400691
 30
0.0
 70
     8
  0
VERTEX
  5
F2C3
330
F264
100
AcDbEntity
  8
0
100
AcDbVertex
100
AcDb2dVertex
 10
8.691342163350313
 20
9.591429392538433
 30
0.0
 70
     8
  0
VERTEX
  5
F2C4
330
F264
100
AcDbEntity
  8
0
100
AcDbVertex
100
AcDb2dVertex
 10
8.680040377012556
 20
9.578626620312576
 30
0.0
 70
     8
  0
VERTEX
  5
F2C5
330
F264
100
AcDbEntity
  8
0
100
AcDbVertex
100
AcDb2dVertex
 10
8.665550013438412
 20
9.563469041370542
 30
0.0
 70
     8
  0
VERTEX
  5
F2C6
330
F264
100
AcDbEntity
  8
0
100
AcDbVertex
100
AcDb2dVertex
 10
8.647448305717983
 20
9.545564188359765
 30
0.0
 70
     8
  0
VERTEX
  5
F2C7
330
F264
100
AcDbEntity
  8
0
100
AcDbVertex
100
AcDb2dVertex
 10
8.62554084889035
 20
9.524728570165148
 30
0.0
 70
     8
  0
VERTEX
  5
F2C8
330
F264
100
AcDbEntity
  8
0
100
AcDbVertex
100
AcDb2dVertex
 10
8.600546685790622
 20
9.5016146006216
 30
0.0
 70
     8
  0
VERTEX
  5
F2C9
330
F264
100
AcDbEntity
  8
0
100
AcDbVertex
100
AcDb2dVertex
 10
8.573413221202944
 20
9.477083669801526
 30
0.0
 70
     8
  0
VERTEX
  5
F2CA
330
F264
100
AcDbEntity
  8
0
100
AcDbVertex
100
AcDb2dVertex
 10
8.545087859911427
 20
9.451997167777335
 30
0.0
 70
     8
  0
VERTEX
  5
F2CB
330
F264
100
AcDbEntity
  8
0
100
AcDbVertex
100
AcDb2dVertex
 10
8.516518006700209
 20
9.427216484621425
 30
0.0
 70
     8
  0
VERTEX
  5
F2CC
330
F264
100
AcDbEntity
  8
0
100
AcDbVertex
100
AcDb2dVertex
 10
8.488651066353419
 20
9.403603010406213
 30
0.0
 70
     8
  0
VERTEX
  5
F2CD
330
F264
100
AcDbEntity
  8
0
100
AcDbVertex
100
AcDb2dVertex
 10
8.462434443655173
 20
9.382018135204084
 30
0.0
 70
     8
  0
VERTEX
  5
F2CE
330
F264
100
AcDbEntity
  8
0
100
AcDbVertex
100
AcDb2dVertex
 10
8.438815543389598
 20
9.363323249087452
 30
0.0
 70
     8
  0
VERTEX
  5
F2CF
330
F264
100
AcDbEntity
  8
0
100
AcDbVertex
100
AcDb2dVertex
 10
8.418509163801758
 20
9.348164819391563
 30
0.0
 70
     8
  0
VERTEX
  5
F2D0
330
F264
100
AcDbEntity
  8
0
100
AcDbVertex
100
AcDb2dVertex
 10
8.401299676980395
 20
9.336329622502988
 30
0.0
 70
     8
  0
VERTEX
  5
F2D1
330
F264
100
AcDbEntity
  8
0
100
AcDbVertex
100
AcDb2dVertex
 10
8.386738848475213
 20
9.327389512071166
 30
0.0
 70
     8
  0
VERTEX
  5
F2D2
330
F264
100
AcDbEntity
  8
0
100
AcDbVertex
100
AcDb2dVertex
 10
8.374378443835894
 20
9.32091634174549
 30
0.0
 70
     8
  0
VERTEX
  5
F2D3
330
F264
100
AcDbEntity
  8
0
100
AcDbVertex
100
AcDb2dVertex
 10
8.363770228612105
 20
9.316481965175402
 30
0.0
 70
     8
  0
VERTEX
  5
F2D4
330
F264
100
AcDbEntity
  8
0
100
AcDbVertex
100
AcDb2dVertex
 10
8.354465968353551
 20
9.313658236010304
 30
0.0
 70
     8
  0
VERTEX
  5
F2D5
330
F264
100
AcDbEntity
  8
0
100
AcDbVertex
100
AcDb2dVertex
 10
8.346017428609915
 20
9.312017007899633
 30
0.0
 70
     8
  0
VERTEX
  5
F2D6
330
F264
100
AcDbEntity
  8
0
100
AcDbVertex
100
AcDb2dVertex
 10
8.337976374930871
 20
9.311130134492792
 30
0.0
 70
     8
  0
VERTEX
  5
F2D7
330
F264
100
AcDbEntity
  8
0
100
AcDbVertex
100
AcDb2dVertex
 10
8.329978616846451
 20
9.310645074594409
 30
0.0
 70
     8
  0
VERTEX
  5
F2D8
330
F264
100
AcDbEntity
  8
0
100
AcDbVertex
100
AcDb2dVertex
 10
8.321996139808021
 20
9.310511707629887
 30
0.0
 70
     8
  0
VERTEX
  5
F2D9
330
F264
100
AcDbEntity
  8
0
100
AcDbVertex
100
AcDb2dVertex
 10
8.314084973247309
 20
9.310755518179821
 30
0.0
 70
     8
  0
VERTEX
  5
F2DA
330
F264
100
AcDbEntity
  8
0
100
AcDbVertex
100
AcDb2dVertex
 10
8.306301146596002
 20
9.311401990824828
 30
0.0
 70
     8
  0
VERTEX
  5
F2DB
330
F264
100
AcDbEntity
  8
0
100
AcDbVertex
100
AcDb2dVertex
 10
8.298700689285837
 20
9.312476610145498
 30
0.0
 70
     8
  0
VERTEX
  5
F2DC
330
F264
100
AcDbEntity
  8
0
100
AcDbVertex
100
AcDb2dVertex
 10
8.291339630748508
 20
9.314004860722434
 30
0.0
 70
     8
  0
VERTEX
  5
F2DD
330
F264
100
AcDbEntity
  8
0
100
AcDbVertex
100
AcDb2dVertex
 10
8.284274000415726
 20
9.316012227136255
 30
0.0
 70
     8
  0
VERTEX
  5
F2DE
330
F264
100
AcDbEntity
  8
0
100
AcDbVertex
100
AcDb2dVertex
 10
8.277559827719214
 20
9.31852419396754
 30
0.0
 70
     8
  0
VERTEX
  5
F2DF
330
F264
100
AcDbEntity
  8
0
100
AcDbVertex
100
AcDb2dVertex
 10
8.271102032690947
 20
9.321763329197619
 30
0.0
 70
     8
  0
VERTEX
  5
F2E0
330
F264
100
AcDbEntity
  8
0
100
AcDbVertex
100
AcDb2dVertex
 10
8.264201097763951
 20
9.326740534410626
 30
0.0
 70
     8
  0
VERTEX
  5
F2E1
330
F264
100
AcDbEntity
  8
0
100
AcDbVertex
100
AcDb2dVertex
 10
8.256006395971539
 20
9.334663794591405
 30
0.0
 70
     8
  0
VERTEX
  5
F2E2
330
F264
100
AcDbEntity
  8
0
100
AcDbVertex
100
AcDb2dVertex
 10
8.245667300347001
 20
9.346741094724794
 30
0.0
 70
     8
  0
VERTEX
  5
F2E3
330
F264
100
AcDbEntity
  8
0
100
AcDbVertex
100
AcDb2dVertex
 10
8.232333183923648
 20
9.364180419795648
 30
0.0
 70
     8
  0
VERTEX
  5
F2E4
330
F264
100
AcDbEntity
  8
0
100
AcDbVertex
100
AcDb2dVertex
 10
8.215153419734781
 20
9.388189754788804
 30
0.0
 70
     8
  0
VERTEX
  5
F2E5
330
F264
100
AcDbEntity
  8
0
100
AcDbVertex
100
AcDb2dVertex
 10
8.193277380813698
 20
9.419977084689115
 30
0.0
 70
     8
  0
VERTEX
  5
F2E6
330
F264
100
AcDbEntity
  8
0
100
AcDbVertex
100
AcDb2dVertex
 10
8.165854440193694
 20
9.460750394481427
 30
0.0
 70
     8
  0
VERTEX
  5
F2E7
330
F264
100
AcDbEntity
  8
0
100
AcDbVertex
100
AcDb2dVertex
 10
8.132447399311818
 20
9.511107730212678
 30
0.0
 70
     8
  0
VERTEX
  5
F2E8
330
F264
100
AcDbEntity
  8
0
100
AcDbVertex
100
AcDb2dVertex
 10
8.094272773220017
 20
9.569207382178166
 30
0.0
 70
     8
  0
VERTEX
  5
F2E9
330
F264
100
AcDbEntity
  8
0
100
AcDbVertex
100
AcDb2dVertex
 10
8.052960505373992
 20
9.632597701735289
 30
0.0
 70
     8
  0
VERTEX
  5
F2EA
330
F264
100
AcDbEntity
  8
0
100
AcDbVertex
100
AcDb2dVertex
 10
8.010140539229416
 20
9.698827040241441
 30
0.0
 70
     8
  0
VERTEX
  5
F2EB
330
F264
100
AcDbEntity
  8
0
100
AcDbVertex
100
AcDb2dVertex
 10
7.967442818241991
 20
9.765443749054016
 30
0.0
 70
     8
  0
VERTEX
  5
F2EC
330
F264
100
AcDbEntity
  8
0
100
AcDbVertex
100
AcDb2dVertex
 10
7.926497285867412
 20
9.829996179530407
 30
0.0
 70
     8
  0
VERTEX
  5
F2ED
330
F264
100
AcDbEntity
  8
0
100
AcDbVertex
100
AcDb2dVertex
 10
7.888933885561367
 20
9.890032683028014
 30
0.0
 70
     8
  0
VERTEX
  5
F2EE
330
F264
100
AcDbEntity
  8
0
100
AcDbVertex
100
AcDb2dVertex
 10
7.856382560779536
 20
9.943101610904225
 30
0.0
 70
     8
  0
VERTEX
  5
F2EF
330
F264
100
AcDbEntity
  8
0
100
AcDbVertex
100
AcDb2dVertex
 10
7.830075107318871
 20
9.987349360509199
 30
0.0
 70
     8
  0
VERTEX
  5
F2F0
330
F264
100
AcDbEntity
  8
0
100
AcDbVertex
100
AcDb2dVertex
 10
7.809650730341306
 20
10.0233145131641
 30
0.0
 70
     8
  0
VERTEX
  5
F2F1
330
F264
100
AcDbEntity
  8
0
100
AcDbVertex
100
AcDb2dVertex
 10
7.794350487350038
 20
10.05213369618287
 30
0.0
 70
     8
  0
VERTEX
  5
F2F2
330
F264
100
AcDbEntity
  8
0
100
AcDbVertex
100
AcDb2dVertex
 10
7.783415435848255
 20
10.07494353687944
 30
0.0
 70
     8
  0
VERTEX
  5
F2F3
330
F264
100
AcDbEntity
  8
0
100
AcDbVertex
100
AcDb2dVertex
 10
7.776086633339152
 20
10.09288066256772
 30
0.0
 70
     8
  0
VERTEX
  5
F2F4
330
F264
100
AcDbEntity
  8
0
100
AcDbVertex
100
AcDb2dVertex
 10
7.771605137325909
 20
10.10708170056166
 30
0.0
 70
     8
  0
VERTEX
  5
F2F5
330
F264
100
AcDbEntity
  8
0
100
AcDbVertex
100
AcDb2dVertex
 10
7.769212005311722
 20
10.11868327817518
 30
0.0
 70
     8
  0
VERTEX
  5
F2F6
330
F264
100
AcDbEntity
  8
0
100
AcDbVertex
100
AcDb2dVertex
 10
7.762063185408446
 20
10.13230155074949
 30
0.0
 70
    16
  0
VERTEX
  5
F2F7
330
F264
100
AcDbEntity
  8
0
100
AcDbVertex
100
AcDb2dVertex
 10
7.775102668837774
 20
10.20015259694846
 30
0.0
 70
    16
  0
VERTEX
  5
F2F8
330
F264
100
AcDbEntity
  8
0
100
AcDbVertex
100
AcDb2dVertex
 10
7.827260910792817
 20
10.25234568380231
 30
0.0
 70
    16
  0
VERTEX
  5
F2F9
330
F264
100
AcDbEntity
  8
0
100
AcDbVertex
100
AcDb2dVertex
 10
7.887242842805471
 20
10.25756505906562
 30
0.0
 70
    16
  0
VERTEX
  5
F2FA
330
F264
100
AcDbEntity
  8
0
100
AcDbVertex
100
AcDb2dVertex
 10
7.957656361561594
 20
10.2419070997205
 30
0.0
 70
    16
  0
VERTEX
  5
F2FB
330
F264
100
AcDbEntity
  8
0
100
AcDbVertex
100
AcDb2dVertex
 10
8.194976090180423
 20
10.05923129573198
 30
0.0
 70
    16
  0
VERTEX
  5
F2FC
330
F264
100
AcDbEntity
  8
0
100
AcDbVertex
100
AcDb2dVertex
 10
8.283644988483501
 20
9.991380249533012
 30
0.0
 70
    16
  0
VERTEX
  5
F2FD
330
F264
100
AcDbEntity
  8
0
100
AcDbVertex
100
AcDb2dVertex
 10
8.382745576275977
 20
9.926138890965692
 30
0.0
 70
    16
  0
VERTEX
  5
F2FE
330
F264
100
AcDbEntity
  8
0
100
AcDbVertex
100
AcDb2dVertex
 10
8.61484940877716
 20
9.795656007386252
 30
0.0
 70
    16
  0
VERTEX
  5
F2FF
330
F264
100
AcDbEntity
  8
0
100
AcDbVertex
100
AcDb2dVertex
 10
8.66961554741808
 20
9.748682295795706
 30
0.0
 70
    16
  0
VERTEX
  5
F300
330
F264
100
AcDbEntity
  8
0
100
AcDbVertex
100
AcDb2dVertex
 10
8.711342099883761
 20
9.688660146046888
 30
0.0
 70
    16
  0
VERTEX
  5
F301
330
F264
100
AcDbEntity
  8
0
100
AcDbVertex
100
AcDb2dVertex
 10
8.721773686627214
 20
9.633857538006154
 30
0.0
 70
    16
  0
VERTEX
  5
F302
330
F264
100
AcDbEntity
  8
0
100
AcDbVertex
100
AcDb2dVertex
 10
8.690478823650913
 20
9.579054763520645
 30
0.0
 70
    16
  0
VERTEX
  5
F303
330
F264
100
AcDbEntity
  8
0
100
AcDbVertex
100
AcDb2dVertex
 10
8.401000853077039
 20
9.323308538069841
 30
0.0
 70
    16
  0
VERTEX
  5
F304
330
F264
100
AcDbEntity
  8
0
100
AcDbVertex
100
AcDb2dVertex
 10
8.33841102437851
 20
9.307650578724722
 30
0.0
 70
    16
  0
VERTEX
  5
F305
330
F264
100
AcDbEntity
  8
0
100
AcDbVertex
100
AcDb2dVertex
 10
8.273213298994139
 20
9.31286995398803
 30
0.0
 70
    16
  0
VERTEX
  5
F306
330
F264
100
AcDbEntity
  8
0
100
AcDbVertex
100
AcDb2dVertex
 10
8.234094745960227
 20
9.352014769128421
 30
0.0
 70
    16
  0
SEQEND
  5
F307
330
F264
100
AcDbEntity
  8
0
  0
LINE
  5
F309
330
18
100
AcDbEntity
  8
0
100
AcDbLine
 10
5.88866145955346
 20
12.23931430991144
 30
0.0
 11
15.19900496203358
 21
12.23931430991144
 31
0.0
  0
LWPOLYLINE
  5
F826
330
18
100
AcDbEntity
  8
0
100
AcDbPolyline
 90
      647
 70
     0
 43
0.0
 10
15.19900496203358
 20
12.23931430991144
 10
15.20638094884696
 20
12.22203813406891
 10
15.21365747248453
 20
12.20041794654034
 10
15.21960409721259
 20
12.17807983783391
 10
15.22441330846299
 20
12.15531710558707
 10
15.22827759166758
 20
12.13242304743727
 10
15.23138943225822
 20
12.10969096102195
 10
15.23389173614968
 20
12.08736161304307
 10
15.23572909118841
 20
12.06546564646056
 10
15.23679650570378
 20
12.04398117329882
 10
15.23698898802516
 20
12.02288630558228
 10
15.23620154648193
 20
12.00215915533536
 10
15.23432918940343
 20
11.98177783458247
 10
15.23126692511907
 20
11.96172045534804
 10
15.22690976195819
 20
11.94196512965649
 10
15.22118333081241
 20
11.92251550550374
 10
15.21413575282229
 20
11.90347737477177
 10
15.20584577169064
 20
11.88498206531406
 10
15.19639213112025
 20
11.86716090498409
 10
15.18585357481395
 20
11.85014522163537
 10
15.17430884647452
 20
11.83406634312136
 10
15.16183668980477
 20
11.81905559729555
 10
15.14851584850751
 20
11.80524431201143
 10
15.13445423077227
 20
11.79273171268244
 10
15.11987640273555
 20
11.78148861496187
 10
15.10503609502056
 20
11.77145373206298
 10
15.09018703825053
 20
11.762565777199
 10
15.07558296304868
 20
11.75476346358321
 10
15.06147760003824
 20
11.74798550442885
 10
15.04812467984242
 20
11.74217061294916
 10
15.03577793308446
 20
11.73725750235741
 10
15.02462838678624
 20
11.73317321246408
 10
15.01461625356433
 20
11.72979808946863
 10
15.00561904243396
 20
11.72700080616772
 10
14.99751426241036
 20
11.72465003535809
 10
14.99017942250877
 20
11.72261444983639
 10
14.98349203174443
 20
11.72076272239932
 10
14.97732959913256
 20
11.71896352584358
 10
14.97156963368839
 20
11.71708553296586
 10
14.96610568499689
 20
11.71501492685661
 10
14.96089546492185
 20
11.7127079317814
 10
14.95591272589681
 20
11.71013828229958
 10
14.95113122035528
 20
11.70727971297047
 10
14.94652470073079
 20
11.70410595835342
 10
14.94206691945687
 20
11.70059075300777
 10
14.93773162896704
 20
11.69670783149284
 10
14.93349258169482
 20
11.69243092836799
 10
14.92933082108673
 20
11.68774399249446
 10
14.92525655464122
 20
11.68267182994116
 10
14.92128728086971
 20
11.67724946107893
 10
14.91744049828365
 20
11.67151190627857
 10
14.91373370539446
 20
11.66549418591092
 10
14.91018440071359
 20
11.6592313203468
 10
14.90681008275245
 20
11.65275832995703
 10
14.90362825002249
 20
11.64611023511245
 10
14.90064473526052
 20
11.63932789307488
 10
14.89781870810483
 20
11.63247550867022
 10
14.8950976724191
 20
11.6256231236154
 10
14.89242913206699
 20
11.6188407796273
 10
14.88976059091218
 20
11.61219851842285
 10
14.88703955281833
 20
11.60576638171896
 10
14.88421352164913
 20
11.59961441123255
 10
14.88123000126824
 20
11.5938126486805
 10
14.87803795388241
 20
11.58841216611423
 10
14.87459217507064
 20
11.583388156923
 10
14.87084891875504
 20
11.57869684483055
 10
14.86676443885771
 20
11.57429445356066
 10
14.86229498930071
 20
11.57013720683706
 10
14.85739682400615
 20
11.5661813283835
 10
14.85202619689613
 20
11.56238304192374
 10
14.84613936189272
 20
11.55869857118153
 10
14.83960070489685
 20
11.5550987319727
 10
14.83190713972472
 20
11.55161270848142
 10
14.82246371217137
 20
11.54828427698393
 10
14.81067546803182
 20
11.54515721375649
 10
14.79594745310112
 20
11.54227529507535
 10
14.7776847131743
 20
11.53968229721674
 10
14.75529229404638
 20
11.53742199645693
 10
14.72817524151241
 20
11.53553816907216
 10
14.6960608680612
 20
11.53405416251814
 10
14.65996555295677
 20
11.53291160896832
 10
14.62122794215691
 20
11.53203171177565
 10
14.58118668161941
 20
11.53133567429305
 10
14.54118041730208
 20
11.53074469987345
 10
14.50254779516271
 20
11.53017999186978
 10
14.4666274611591
 20
11.52956275363496
 10
14.43475806124905
 20
11.52881418852191
 10
14.40794722550775
 20
11.52786571423966
 10
14.38587852047987
 20
11.52668960592162
 10
14.36790449682752
 20
11.52526835305728
 10
14.35337770521277
 20
11.52358444513615
 10
14.34165069629771
 20
11.52162037164772
 10
14.33207602074442
 20
11.51935862208151
 10
14.32400622921497
 20
11.51678168592699
 10
14.31679387237146
 20
11.51387205267368
 10
14.30990670014539
 20
11.51061658943871
 10
14.30327325954592
 20
11.5070196738497
 10
14.29693729685163
 20
11.50309006116189
 10
14.29094255834111
 20
11.49883650663054
 10
14.28533279029295
 20
11.4942677655109
 10
14.28015173898572
 20
11.4893925930582
 10
14.27544315069803
 20
11.48421974452773
 10
14.27125077170844
 20
11.4787579751747
 10
14.26760084971722
 20
11.47299707069722
 10
14.26444963811133
 20
11.46685093856471
 10
14.26173589169939
 20
11.46021451668944
 10
14.25939836529004
 20
11.45298274298366
 10
14.2573758136919
 20
11.44505055535965
 10
14.25560699171361
 20
11.43631289172967
 10
14.25403065416379
 20
11.42666469000598
 10
14.25258555585108
 20
11.41600088810085
 10
14.25120753516553
 20
11.40425582219591
 10
14.24982076482291
 20
11.39152142155018
 10
14.24834650112042
 20
11.37792901369206
 10
14.24670600035526
 20
11.36360992614997
 10
14.24482051882461
 20
11.34869548645229
 10
14.24261131282568
 20
11.33331702212742
 10
14.23999963865567
 20
11.31760586070375
 10
14.23690675261176
 20
11.30169332970969
 10
14.23325828561902
 20
11.28571221588284
 10
14.22899736711393
 20
11.26980114279764
 10
14.22407150116084
 20
11.25410019323774
 10
14.2184281918241
 20
11.23874944998677
 10
14.21201494316805
 20
11.22388899582841
 10
14.20477925925705
 20
11.20965891354627
 10
14.19666864415543
 20
11.19619928592402
 10
14.18763060192754
 20
11.18365019574529
 10
14.17764909210402
 20
11.17211816430705
 10
14.16685389608058
 20
11.16157546695941
 10
14.15541125071922
 20
11.1519608175658
 10
14.14348739288194
 20
11.14321292998964
 10
14.13124855943074
 20
11.13527051809437
 10
14.11886098722763
 20
11.12807229574341
 10
14.1064909131346
 20
11.12155697680018
 10
14.09430457401365
 20
11.11566327512811
 10
14.08244341703514
 20
11.11032844543561
 10
14.07094973060282
 20
11.10548390581096
 10
14.0598410134288
 20
11.10105961518741
 10
14.04913476422519
 20
11.09698553249825
 10
14.0388484817041
 20
11.09319161667674
 10
14.02899966457765
 20
11.08960782665613
 10
14.01960581155793
 20
11.08616412136969
 10
14.01068442135706
 20
11.08279045975069
 10
14.00223403583265
 20
11.07942117819747
 10
13.99417736942428
 20
11.0760081229687
 10
13.98641817971704
 20
11.07250751778813
 10
13.97886022429603
 20
11.06887558637951
 10
13.97140726074632
 20
11.0650685524666
 10
13.963963046653
 20
11.06104263977314
 10
13.95643133960116
 20
11.05675407202289
 10
13.94871589717589
 20
11.05215907293959
 10
13.94074548910283
 20
11.04721374265959
 10
13.93254893366985
 20
11.04187368696957
 10
13.92418006130538
 20
11.03609438806881
 10
13.91569270243784
 20
11.02983132815657
 10
13.90714068749568
 20
11.02303998943214
 10
13.89857784690731
 20
11.01567585409478
 10
13.89005801110116
 20
11.00769440434378
 10
13.88163501050566
 20
10.99905112237839
 10
13.87336452929014
 20
10.98974504366416
 10
13.86530966658757
 20
10.97994941673164
 10
13.85753537527178
 20
10.96988104337765
 10
13.85010660821663
 20
10.95975672539901
 10
13.84308831829597
 20
10.94979326459252
 10
13.83654545838367
 20
10.94020746275502
 10
13.83054298135357
 20
10.93121612168331
 10
13.82514584007952
 20
10.92303604317421
 10
13.82039264050105
 20
10.91582336115012
 10
13.81621660082026
 20
10.90949153803574
 10
13.81252459230494
 20
10.90389336838136
 10
13.80922348622287
 20
10.89888164673727
 10
13.80622015384183
 20
10.89430916765374
 10
13.8034214664296
 20
10.89002872568108
 10
13.80073429525396
 20
10.88589311536955
 10
13.79806551158268
 20
10.88175513126945
 10
13.79533595106344
 20
10.87750300901923
 10
13.79252230686355
 20
10.87316674861002
 10
13.78961523653018
 20
10.86881179112111
 10
13.78660539761054
 20
10.8645035776318
 10
13.78348344765182
 20
10.86030754922137
 10
13.78024004420122
 20
10.85628914696913
 10
13.77686584480592
 20
10.85251381195437
 10
13.77335150701312
 20
10.84904698525638
 10
13.76968301717706
 20
10.84593229426135
 10
13.76582767688014
 20
10.84312611158311
 10
13.76174811651183
 20
10.84056299614233
 10
13.75740696646155
 20
10.83817750685974
 10
13.75276685711877
 20
10.83590420265605
 10
13.74779041887293
 20
10.83367764245194
 10
13.74244028211349
 20
10.83143238516814
 10
13.7366790772299
 20
10.82910298972535
 10
13.73048189114846
 20
10.82663647998079
 10
13.72387363694286
 20
10.8240297395378
 10
13.71689168422365
 20
10.82129211693622
 10
13.70957340260139
 20
10.8184329607159
 10
13.70195616168664
 20
10.81546161941669
 10
13.69407733108991
 20
10.81238744157844
 10
13.68597428042179
 20
10.80921977574099
 10
13.67768437929282
 20
10.80596797044421
 10
13.66923098363432
 20
10.80263202552554
 10
13.66058139466082
 20
10.79917454601287
 10
13.65168889990759
 20
10.79554878823169
 10
13.64250678690994
 20
10.79170800850749
 10
13.63298834320315
 20
10.78760546316577
 10
13.62308685632252
 20
10.78319440853201
 10
13.61275561380335
 20
10.77842810093171
 10
13.60194790318091
 20
10.77325979669035
 10
13.59064971077601
 20
10.7676567752683
 10
13.57897781805143
 20
10.76164240866534
 10
13.56708170525544
 20
10.75525409201615
 10
13.55511085263632
 20
10.74852922045537
 10
13.54321474044236
 20
10.74150518911767
 10
13.53154284892183
 20
10.7342193931377
 10
13.52024465832301
 20
10.72670922765013
 10
13.50946964889418
 20
10.71901208778961
 10
13.4993081316145
 20
10.71113576433111
 10
13.48961374038662
 20
10.7029696306108
 10
13.48018093984407
 20
10.69437345560514
 10
13.47080419462038
 20
10.68520700829063
 10
13.46127796934909
 20
10.67533005764374
 10
13.45139672866373
 20
10.66460237264093
 10
13.44095493719783
 20
10.65288372225868
 10
13.42974705958492
 20
10.64003387547347
 10
13.41762050142579
 20
10.62597960048522
 10
13.40463443219023
 20
10.61091566238768
 10
13.39090096231531
 20
10.59510382549799
 10
13.37653220223807
 20
10.57880585413335
 10
13.36164026239557
 20
10.56228351261092
 10
13.34633725322487
 20
10.5457985652479
 10
13.33073528516301
 20
10.52961277636144
 10
13.31494646864705
 20
10.51398791026874
 10
13.29905177233712
 20
10.49915456894566
 10
13.28300759778568
 20
10.48521870500282
 10
13.26673920476823
 20
10.47225510870953
 10
13.25017185306031
 20
10.46033857033514
 10
13.23323080243742
 20
10.44954388014894
 10
13.21584131267511
 20
10.43994582842026
 10
13.19792864354889
 20
10.43161920541841
 10
13.17941805483428
 20
10.42463880141273
 10
13.16024570590197
 20
10.4190544766911
 10
13.14039135450332
 20
10.41481637161581
 10
13.11984565798483
 20
10.41184969656769
 10
13.09859927369304
 20
10.41007966192763
 10
13.07664285897445
 20
10.40943147807646
 10
13.05396707117559
 20
10.40983035539505
 10
13.03056256764298
 20
10.41120150426426
 10
13.00642000572312
 20
10.41347013506493
 10
12.98160011155995
 20
10.41655989987123
 10
12.95644388648696
 20
10.42038821753052
 10
12.93136240063508
 20
10.42487094858344
 10
12.9067667241352
 20
10.42992395357066
 10
12.88306792711824
 20
10.43546309303284
 10
12.86067707971511
 20
10.44140422751063
 10
12.84000525205672
 20
10.44766321754469
 10
12.82146351427398
 20
10.45415592367569
 10
12.8053430410513
 20
10.4608184623183
 10
12.79145542528716
 20
10.46766797338333
 10
12.77949236443356
 20
10.47474185265562
 10
12.76914555594247
 20
10.48207749591999
 10
12.76010669726589
 20
10.4897122989613
 10
12.75206748585579
 20
10.49768365756435
 10
12.74471961916418
 20
10.506028967514
 10
12.73775479464303
 20
10.51478562459507
 10
12.73091453642686
 20
10.52396609434009
 10
12.72413967538034
 20
10.5334831212723
 10
12.71742086905065
 20
10.54322451966264
 10
12.71074877498499
 20
10.55307810378204
 10
12.70411405073057
 20
10.56293168790144
 10
12.69750735383456
 20
10.57267308629178
 10
12.69091934184416
 20
10.58219011322399
 10
12.68434067230657
 20
10.59137058296901
 10
12.67775266024928
 20
10.60011010068109
 10
12.671099250621
 20
10.6083354350478
 10
12.66431504585072
 20
10.61598114563999
 10
12.65733464836746
 20
10.62298179202859
 10
12.65009266060022
 20
10.62927193378443
 10
12.642523684978
 20
10.63478613047843
 10
12.63456232392981
 20
10.63945894168145
 10
12.62614317988465
 20
10.64322492696438
 10
12.61722888279718
 20
10.6460342269062
 10
12.60789417272463
 20
10.64789930611837
 10
12.59824181724992
 20
10.64884821022041
 10
12.58837458395593
 20
10.64890898483187
 10
12.57839524042557
 20
10.64810967557232
 10
12.56840655424172
 20
10.64647832806129
 10
12.55851129298729
 20
10.64404298791833
 10
12.54881222424516
 20
10.64083170076299
 10
12.53939031644136
 20
10.6368756286115
 10
12.53023934137435
 20
10.63221839906676
 10
12.5213312716857
 20
10.62690675612838
 10
12.51263808001702
 20
10.62098744379596
 10
12.50413173900985
 20
10.61450720606909
 10
12.4957842213058
 20
10.60751278694736
 10
12.48756749954644
 20
10.60005093043038
 10
12.47945354637336
 20
10.59216838051773
 10
12.47142367684749
 20
10.58392434609137
 10
12.46349657570722
 20
10.57542789556258
 10
12.45570027011029
 20
10.56680056222504
 10
12.44806278721445
 20
10.55816387937238
 10
12.44061215417743
 20
10.54963938029826
 10
12.43337639815699
 20
10.54134859829634
 10
12.42638354631087
 20
10.53341306666026
 10
12.4196616257968
 20
10.52595431868367
 10
12.4132090793052
 20
10.51906428351726
 10
12.40690601165715
 20
10.51271647373981
 10
12.4006029432064
 20
10.50685479778714
 10
12.39415039430669
 20
10.50142316409507
 10
12.38739888531178
 20
10.49636548109942
 10
12.38019893657541
 20
10.49162565723601
 10
12.37240106845133
 20
10.48714760094064
 10
12.36385580129329
 20
10.48287522064914
 10
12.35420813908584
 20
10.47871383615827
 10
12.34228102033688
 20
10.47441441270857
 10
12.32669186718505
 20
10.46968932690149
 10
12.30605810176906
 20
10.46425095533853
 10
12.27899714622759
 20
10.45781167462116
 10
12.24412642269931
 20
10.45008386135086
 10
12.20006335332291
 20
10.4407798921291
 10
12.14542536023707
 20
10.42961214355736
 10
12.07931921575321
 20
10.41635857592144
 10
12.00280909287364
 20
10.40105948424442
 10
11.9174485147734
 20
10.38382074723373
 10
11.82479100462754
 20
10.36474824359677
 10
11.72639008561111
 20
10.34394785204097
 10
11.62379928089914
 20
10.32152545127372
 10
11.5185721136667
 20
10.29758692000247
 10
11.41226210708882
 20
10.2722381369346
 10
11.30620408224627
 20
10.24557886572002
 10
11.20085805184265
 20
10.2176844097786
 10
11.09646532648731
 20
10.18862395747269
 10
10.99326721678958
 20
10.15846669716463
 10
10.89150503335879
 20
10.12728181721678
 10
10.79142008680427
 20
10.0951385059915
 10
10.69325368773537
 20
10.06210595185111
 10
10.5972471467614
 20
10.02825334315799
 10
10.50353589907916
 20
9.993585150406389
 10
10.41183187823523
 20
9.957846972618291
 10
10.32174114236364
 20
9.920719690947581
 10
10.23286974959842
 20
9.881884186548147
 10
10.14482375807361
 20
9.84102134057389
 10
10.05720922592323
 20
9.79781203417869
 10
9.969632211281332
 20
9.751937148516443
 10
9.881698772281927
 20
9.70307756474104
 10
9.793171293221835
 20
9.651023665488345
 10
9.70443746304894
 20
9.596003839322129
 10
9.6160412968739
 20
9.538355976288141
 10
9.528526809807383
 20
9.478417966432123
 10
9.44243801696003
 20
9.416527699799825
 10
9.358318933442527
 20
9.353023066437003
 10
9.276713574365516
 20
9.288241956389384
 10
9.198165954839661
 20
9.222522259702731
 10
9.123066890305342
 20
9.156114265378072
 10
9.051194397521783
 20
9.088917858237604
 10
8.982173293577929
 20
9.020745322058832
 10
8.91562839556272
 20
8.951408940619224
 10
8.851184520565103
 20
8.88072099769629
 10
8.788466485674028
 20
8.808493777067496
 10
8.727099107978428
 20
8.734539562510349
 10
8.666707204567257
 20
8.658670637802337
 10
8.60700938827393
 20
8.580724315420582
 10
8.548099454909841
 20
8.500638022640726
 10
8.490164996030857
 20
8.418374215438078
 10
8.433393603192826
 20
8.333895349787901
 10
8.37797286795163
 20
8.247163881665507
 10
8.324090381863134
 20
8.158142267046173
 10
8.271933736483198
 20
8.066792961905187
 10
8.221690523367684
 20
7.973078422217837
 10
8.173523321831579
 20
7.877042448100125
 10
8.127494662226261
 20
7.779054216230861
 10
8.083642062662235
 20
7.679564247429595
 10
8.04200304125
 20
7.579023062515852
 10
8.002615116100043
 20
7.477881182309165
 10
7.965515805322873
 20
7.376589127629067
 10
7.930742627028983
 20
7.275597419295091
 10
7.898333099328875
 20
7.17535657812677
 10
7.86829723810923
 20
7.076313334749035
 10
7.840535050361522
 20
6.978899259008427
 10
7.81491904085342
 20
6.883542130556866
 10
7.791321714352585
 20
6.79066972904631
 10
7.769615575626677
 20
6.70070983412868
 10
7.749673129443364
 20
6.614090225455904
 10
7.731366880570298
 20
6.53123868267994
 10
7.714569333775157
 20
6.452582985452699
 10
7.699165950914299
 20
6.378507786674612
 10
7.685094022198899
 20
6.309225232239999
 10
7.672303794928816
 20
6.244904341291684
 10
7.660745516403933
 20
6.185714132972471
 10
7.650369433924125
 20
6.13182362642518
 10
7.64112579478925
 20
6.083401840792618
 10
7.632964846299199
 20
6.040617795217597
 10
7.625836835753821
 20
6.003640508842931
 10
7.619669290696787
 20
5.972482823598225
 10
7.614298859646829
 20
5.946532872560256
 10
7.609539471366465
 20
5.925022611592599
 10
7.605205054618216
 20
5.907183996558821
 10
7.601109538164608
 20
5.892248983322492
 10
7.597066850768162
 20
5.87944952774718
 10
7.592890921191386
 20
5.868017585696469
 10
7.588395678196818
 20
5.85718511303391
 10
7.583426062453316
 20
5.846333144768521
 10
7.577951062255216
 20
5.835439032490963
 10
7.571970677803177
 20
5.824629206937375
 10
7.565484909297891
 20
5.814030098843849
 10
7.558493756940018
 20
5.803768138946514
 10
7.550997220930248
 20
5.793969757981465
 10
7.542995301469242
 20
5.78476138668482
 10
7.534487998757684
 20
5.776269455792693
 10
7.525503389821212
 20
5.768572984528701
 10
7.516181858985264
 20
5.761561346066473
 10
7.506691867400258
 20
5.755076502067133
 10
7.497201876216602
 20
5.748960414191826
 10
7.487880346584708
 20
5.743055044101668
 10
7.478895739654983
 20
5.737202353457805
 10
7.470416516577848
 20
5.731244303921362
 10
7.462611138503691
 20
5.725022857153467
 10
7.455612970526662
 20
5.71841685046018
 10
7.449414993515762
 20
5.711452623727168
 10
7.44397509228373
 20
5.704193392485039
 10
7.439251151643309
 20
5.696702372264402
 10
7.435201056407227
 20
5.689042778595844
 10
7.431782691388225
 20
5.68127782700997
 10
7.428953941399026
 20
5.673470733037382
 10
7.426672691252377
 20
5.665684712208676
 10
7.424902090151062
 20
5.657972444078506
 10
7.423626344858043
 20
5.650344464297733
 10
7.422834926526331
 20
5.642800772541262
 10
7.422517306308948
 20
5.635341368484013
 10
7.422662955358911
 20
5.6279662518009
 10
7.423261344829229
 20
5.620675422166835
 10
7.424301945872915
 20
5.613468879256721
 10
7.425774229642987
 20
5.606346622745482
 10
7.427679950913837
 20
5.599317432269924
 10
7.430069998945326
 20
5.592425207314438
 10
7.43300754661868
 20
5.585722627325317
 10
7.436555766815138
 20
5.579262371748836
 10
7.440777832415945
 20
5.573097120031309
 10
7.445736916302321
 20
5.567279551619003
 10
7.451496191355509
 20
5.561862345958221
 10
7.458118830456741
 20
5.556898182495249
 10
7.465659232514988
 20
5.552399353165894
 10
7.474136700550182
 20
5.548216599864111
 10
7.483561763609974
 20
5.544160276973343
 10
7.493944950742023
 20
5.540040738877067
 10
7.505296790993998
 20
5.535668339958736
 10
7.517627813413558
 20
5.530853434601826
 10
7.530948547048355
 20
5.525406377189789
 10
7.545269520946056
 20
5.519137522106094
 10
7.560541600688075
 20
5.51191341499188
 10
7.576476997990829
 20
5.503825366518927
 10
7.592728261104487
 20
5.495020878616728
 10
7.608947938279212
 20
5.485647453214736
 10
7.624788577765182
 20
5.475852592242434
 10
7.639902727812558
 20
5.46578379762929
 10
7.653942936671512
 20
5.455588571304772
 10
7.666561752592214
 20
5.445414415198341
 10
7.677494199725993
 20
5.435338592140309
 10
7.686805205828807
 20
5.425157408564261
 10
7.694642174557765
 20
5.414596931804608
 10
7.701152509569983
 20
5.40338322919578
 10
7.706483614522579
 20
5.391242368072198
 10
7.71078289307267
 20
5.377900415768257
 10
7.714197748877364
 20
5.363083439618403
 10
7.716875585593779
 20
5.346517506957034
 10
7.718932220404973
 20
5.328023507981022
 10
7.720357124597743
 20
5.307801624337034
 10
7.721108182984813
 20
5.286146860534189
 10
7.721143280378932
 20
5.263354221081605
 10
7.720420301592829
 20
5.239718710488386
 10
7.718897131439238
 20
5.21553533326365
 10
7.716531654730896
 20
5.191099093916517
 10
7.713281756280537
 20
5.166704996956106
 10
7.709078998716552
 20
5.142581319712083
 10
7.70374965592989
 20
5.118689430796409
 10
7.697093679627174
 20
5.094923971641576
 10
7.688911021514996
 20
5.071179583680108
 10
7.679001633299971
 20
5.047350908344505
 10
7.667165466688718
 20
5.023332587067274
 10
7.653202473387822
 20
4.999019261280933
 10
7.636912605103922
 20
4.97430557241798
 10
7.618216895283931
 20
4.949124793407358
 10
7.597520704336106
 20
4.923564723163656
 10
7.575350474409018
 20
4.897751792097907
 10
7.552232647651253
 20
4.871812430621134
 10
7.528693666211384
 20
4.845873069144362
 10
7.505259972237984
 20
4.820060138078613
 10
7.482458007879639
 20
4.794500067834911
 10
7.46081421528492
 20
4.769319288824288
 10
7.440755012656381
 20
4.744637207618273
 10
7.422306722412497
 20
4.720545135430489
 10
7.405395643025734
 20
4.697127359635078
 10
7.389948072968538
 20
4.67446816760615
 10
7.37589031071337
 20
4.652651846717859
 10
7.363148654732688
 20
4.63176268434433
 10
7.351649403498936
 20
4.611884967859698
 10
7.341318855484587
 20
4.593102984638092
 10
7.332065760949985
 20
4.575462390394677
 10
7.323728677307146
 20
4.558854314208788
 10
7.316128613755955
 20
4.543131253500773
 10
7.309086579496326
 20
4.528145705690972
 10
7.302423583728162
 20
4.513750168199759
 10
7.295960635651351
 20
4.499797138447484
 10
7.289518744465815
 20
4.486139113854495
 10
7.282918919371456
 20
4.472628591841148
 10
7.27601726582512
 20
4.459158457446638
 10
7.268810274311485
 20
4.445783146185485
 10
7.261329531572187
 20
4.432597481191038
 10
7.253606624348855
 20
4.419696285596664
 10
7.245673139383123
 20
4.407174382535711
 10
7.237560663416612
 20
4.395126595141544
 10
7.229300783190965
 20
4.383647746547505
 10
7.220925085447801
 20
4.372832659886951
 10
7.21244234442696
 20
4.362718210804806
 10
7.203770084361067
 20
4.353109484992193
 10
7.194803016980939
 20
4.343753620651805
 10
7.185435854017413
 20
4.334397755986326
 10
7.175563307201298
 20
4.324789029198452
 10
7.16508008826344
 20
4.314674578490871
 10
7.15388090893464
 20
4.303801542066263
 10
7.141860480945743
 20
4.291917058127329
 10
7.12897844381697
 20
4.278856064116435
 10
7.11545414822616
 20
4.264804694434746
 10
7.101571872640555
 20
4.250036882723104
 10
7.087615895527413
 20
4.234826562622358
 10
7.073870495353968
 20
4.219447667773333
 10
7.06061995058747
 20
4.204174131816896
 10
7.048148539695168
 20
4.18927988839388
 10
7.036740541144297
 20
4.175038871145135
 10
7.0265784546817
 20
4.161670578142788
 10
7.017437665172606
 20
4.14917676518419
 10
7.008991778761821
 20
4.137504752497942
 10
7.000914401594156
 20
4.126601860312679
 10
6.992879139814437
 20
4.11641540885702
 10
6.984559599567468
 20
4.106892718359582
 10
6.97562938699807
 20
4.097981109049002
 10
6.965762108251059
 20
4.089627901153899
 10
6.954708580882019
 20
4.081785682945045
 10
6.942528468089635
 20
4.074428114861841
 10
6.92935864448335
 20
4.067534125385853
 10
6.915335984672638
 20
4.061082642998617
 10
6.900597363266939
 20
4.055052596181692
 10
6.885279654875709
 20
4.049422913416639
 10
6.869519734108408
 20
4.044172523185017
 10
6.853454475574483
 20
4.039280353968363
 10
6.837222508825007
 20
4.03472357823419
 10
6.820969483177518
 20
4.030472344393796
 10
6.804842802891133
 20
4.026495044844418
 10
6.788989872225014
 20
4.022760071983303
 10
6.773558095438298
 20
4.019235818207698
 10
6.758694876790127
 20
4.015890675914847
 10
6.744547620539637
 20
4.012693037501989
 10
6.731263730945981
 20
4.009611295366362
 10
6.718964290017044
 20
4.006589258087769
 10
6.707665090755734
 20
4.003472398976169
 10
6.69735560391373
 20
4.000081607524078
 10
6.688025300242681
 20
3.996237773224003
 10
6.67966365049426
 20
3.991761785568451
 10
6.672260125420123
 20
3.986474534049937
 10
6.665804195771944
 20
3.980196908160978
 10
6.660285332301379
 20
3.972749797394082
 10
6.655685986629105
 20
3.963996234874642
 10
6.651960533851865
 20
3.953967828259598
 10
6.649056329935399
 20
3.942738328838775
 10
6.64692073084547
 20
3.930381487901989
 10
6.645501092547817
 20
3.916971056739075
 10
6.644744771008205
 20
3.902580786639834
 10
6.644599122192363
 20
3.887284428894108
 10
6.645011502066056
 20
3.871155734791715
 10
6.64592049252243
 20
3.854275479570317
 10
6.647229579164238
 20
3.836752534258966
 10
6.648833473521622
 20
3.818702793834543
 10
6.650626887124745
 20
3.800242153273946
 10
6.652504531503747
 20
3.781486507554054
 10
6.654361118188772
 20
3.762551751651765
 10
6.656091358709982
 20
3.74355378054396
 10
6.657589964597518
 20
3.724608489207528
 10
6.658774459883339
 20
3.705794896974459
 10
6.65965361860659
 20
3.687044520597071
 10
6.660259027308224
 20
3.668252001182787
 10
6.660622272529209
 20
3.649311979839044
 10
6.66077494081049
 20
3.630119097673244
 10
6.660748618693026
 20
3.610567995792818
 10
6.660574892717778
 20
3.590553315305186
 10
6.660285349425689
 20
3.569969697317776
 10
6.659902801318565
 20
3.548780266239839
 10
6.659414964741592
 20
3.527222079688062
 10
6.658800782000795
 20
3.505600678580943
 10
6.658039195402214
 20
3.484221603837
 10
6.657109147251871
 20
3.463390396374744
 10
6.655989579855792
 20
3.443412597112688
 10
6.654659435520017
 20
3.424593746969351
 10
6.653097656550567
 20
3.407239386863248
 10
6.651279675637811
 20
3.391579550409002
 10
6.649166887009476
 20
3.377542242005766
 10
6.646717175277622
 20
3.364979958748814
 10
6.643888425054309
 20
3.353745197733401
 10
6.640638520951587
 20
3.343690456054799
 10
6.636925347581527
 20
3.334668230808276
 10
6.632706789556185
 20
3.326531019089094
 10
6.627940731487625
 20
3.319131317992531
 10
6.622607870489692
 20
3.312337428577769
 10
6.616780153683469
 20
3.306080867759688
 10
6.610552340691812
 20
3.300308956417083
 10
6.604019191137595
 20
3.294969015428755
 10
6.597275464643672
 20
3.290008365673498
 10
6.590415920832909
 20
3.285374328030114
 10
6.583535319328186
 20
3.281014223377397
 10
6.576728419752352
 20
3.276875372594148
 10
6.570081207722568
 20
3.272892804623353
 10
6.563644572833166
 20
3.268952380664709
 10
6.557460630672756
 20
3.264927669982104
 10
6.551571496829949
 20
3.260692241839436
 10
6.546019286893367
 20
3.256119665500577
 10
6.540846116451628
 20
3.251083510229433
 10
6.536094101093344
 20
3.245457345289875
 10
6.531805356407136
 20
3.239114739945801
 10
6.527992166148145
 20
3.231945067262481
 10
6.52454748673769
 20
3.223900915510684
 10
6.521334442763602
 20
3.214950676762573
 10
6.518216158813737
 20
3.205062743090297
 10
6.515055759475929
 20
3.194205506566021
 10
6.511716369338024
 20
3.182347359261898
 10
6.508061112987864
 20
3.169456693250083
 10
6.503953115013296
 20
3.155501900602734
 10
6.499259009751604
 20
3.140488249145279
 10
6.493859470537864
 20
3.124568509716243
 10
6.487638680456576
 20
3.107932328907437
 10
6.480480822592279
 20
3.090769353310646
 10
6.472270080029474
 20
3.073269229517672
 10
6.462890635852679
 20
3.055621604120309
 10
6.452226673146405
 20
3.038016123710368
 10
6.440162374995179
 20
3.020642434879643
 10
6.426587188823386
 20
3.003671746234934
 10
6.411411619414942
 20
2.98720151444304
 10
6.394551435893611
 20
2.97131075818577
 10
6.375922407383186
 20
2.956078496144919
 10
6.355440303007447
 20
2.941583747002293
 10
6.333020891890167
 20
2.927905529439697
 10
6.308579943155146
 20
2.915122862138934
 10
6.282033225926157
 20
2.903314763781802
 10
6.25306136517798
 20
2.892562009172521
 10
6.220404409289429
 20
2.882952397604968
 10
6.182567262490312
 20
2.874575484495426
 10
6.138054829010451
 20
2.867520825260182
 10
6.085372013079648
 20
2.86187797531553
 10
6.023023718927715
 20
2.857736490077757
 10
5.949514850784471
 20
2.855185924963148
 10
5.88866145955346
 20
2.854571427368075
  0
DIMENSION
  5
FFB2
330
18
100
AcDbEntity
  8
DIM
100
AcDbDimension
  2
*D1
 10
3.293358711441584
 20
12.23931430991144
 30
0.0
 11
3.293358711441582
 21
7.546942868639759
 31
0.0
 70
    32
 71
     5
 42
9.384742882543365
  3
STANDARD
100
AcDbAlignedDimension
 13
5.88866145955346
 23
2.854571427368075
 33
0.0
 14
5.888661459553461
 24
12.23931430991144
 34
0.0
 50
90.0
100
AcDbRotatedDimension
  0
LINE
  5
FFD5
330
18
100
AcDbEntity
  8
0
100
AcDbLine
 10
18.96815527164253
 20
12.23931430991144
 30
0.0
 11
19.84315527164253
 21
12.23931430991144
 31
0.0
  0
LINE
  5
FFD6
330
18
100
AcDbEntity
  8
0
100
AcDbLine
 10
19.84315527164253
 20
12.23931430991144
 30
0.0
 11
19.84315527164253
 21
2.86431430991144
 31
0.0
  0
LINE
  5
FFD7
330
18
100
AcDbEntity
  8
0
100
AcDbLine
 10
19.84315527164253
 20
2.86431430991144
 30
0.0
 11
18.96815527164253
 21
2.86431430991144
 31
0.0
  0
LINE
  5
FFD8
330
18
100
AcDbEntity
  8
0
100
AcDbLine
 10
18.96815527164253
 20
2.86431430991144
 30
0.0
 11
18.96815527164253
 21
12.23931430991144
 31
0.0
  0
DIMENSION
  5
FFD9
330
18
100
AcDbEntity
  8
DIM
100
AcDbDimension
  2
*D2
 10
19.84315527164253
 20
15.30077316104912
 30
0.0
 11
20.61315527164253
 21
15.30077316104912
 31
0.0
 70
    32
 71
     5
 42
0.875
  3
STANDARD
100
AcDbAlignedDimension
 13
18.96815527164253
 23
7.55181430991144
 33
0.0
 14
19.84315527164253
 24
7.55181430991144
 34
0.0
100
AcDbRotatedDimension
  0
DIMENSION
  5
FFF5
330
18
100
AcDbEntity
  8
DIM
100
AcDbDimension
  2
*D3
 10
5.888661459553461
 20
15.31461921674174
 30
0.0
 11
10.56282522378931
 21
15.31461921674174
 31
0.0
 70
   160
 71
     5
 42
9.348327528471703
  3
STANDARD
100
AcDbAlignedDimension
 13
15.23698898802516
 23
12.02288630558228
 33
0.0
 14
5.888661459553461
 24
12.23931430991144
 34
0.0
100
AcDbRotatedDimension
  0
VIEWPORT
  5
10023
330
15
100
AcDbEntity
 67
     1
  8
0
100
AcDbViewport
 10
5.249999639556163
 20
3.999999883606677
 30
0.0
 40
17.58407771518677
 41
8.992999745766947
 68
     1
 69
     1
 12
5.249999639556163
 22
3.999999883606677
 13
0.0
 23
0.0
 14
10.0
 24
10.0
 15
10.0
 25
10.0
 16
0.0
 26
0.0
 36
1.0
 17
0.0
 27
0.0
 37
0.0
 42
50.0
 43
0.0
 44
0.0
 45
8.992999745766947
 50
0.0
 51
0.0
 72
   100
 90
    32800
  1

281
     0
 71
     1
 74
     0
110
0.0
120
0.0
130
0.0
111
1.0
121
0.0
131
0.0
112
0.0
122
1.0
132
0.0
 79
     0
146
0.0
170
     0
  0
VIEWPORT
  5
10025
330
15
100
AcDbEntity
 67
     1
  8
0
100
AcDbViewport
 10
5.24999976158142
 20
3.99999976158142
 30
0.0
 40
8.399999618530271
 41
6.399999618530272
 68
     2
 69
     2
 12
11.57825699154205
 22
9.95959532205491
 13
0.0
 23
0.0
 14
0.5
 24
0.5
 15
0.5
 25
0.5
 16
0.0
 26
0.0
 36
1.0
 17
0.0
 27
0.0
 37
0.0
 42
50.0
 43
0.0
 44
0.0
 45
14.79115902683106
 50
0.0
 51
0.0
 72
   100
 90
    32800
  1

281
     0
 71
     1
 74
     0
110
0.0
120
0.0
130
0.0
111
1.0
121
0.0
131
0.0
112
0.0
122
1.0
132
0.0
 79
     0
146
0.0
170
     0
  0
ENDSEC
  0
SECTION
  2
OBJECTS
  0
DICTIONARY
  5
C
330
0
100
AcDbDictionary
281
     1
  3
ACAD_COLOR
350
FFA9
  3
ACAD_GROUP
350
D
  3
ACAD_IMAGE_DICT
350
21
  3
ACAD_IMAGE_VARS
350
20
  3
ACAD_LAYOUT
350
FFAA
  3
ACAD_MATERIAL
350
FFA8
  3
ACAD_MLINESTYLE
350
1B
  3
ACAD_PLOTSETTINGS
350
FFAB
  3
ACAD_PLOTSTYLENAME
350
FFA6
  0
DICTIONARY
  5
FFA9
102
{ACAD_REACTORS
330
C
102
}
330
C
100
AcDbDictionary
281
     1
  0
DICTIONARY
  5
D
102
{ACAD_REACTORS
330
C
102
}
330
C
100
AcDbDictionary
281
     1
  0
DICTIONARY
  5
21
102
{ACAD_REACTORS
330
C
102
}
330
C
100
AcDbDictionary
281
     1
  3
3307-1
350
E87A
  3
3307-2
350
E87D
  0
RASTERVARIABLES
  5
20
102
{ACAD_REACTORS
330
C
102
}
330
C
100
AcDbRasterVariables
 90
        0
 70
     1
 71
     1
 72
     0
  0
DICTIONARY
  5
FFAA
102
{ACAD_REACTORS
330
C
102
}
330
C
100
AcDbDictionary
281
     1
  3
Layout1
350
FFAD
  3
Model
350
FFAC
  0
DICTIONARY
  5
FFA8
102
{ACAD_REACTORS
330
C
102
}
330
C
100
AcDbDictionary
281
     1
  0
DICTIONARY
  5
1B
102
{ACAD_REACTORS
330
C
102
}
330
C
100
AcDbDictionary
281
     1
  3
STANDARD
350
1C
  0
DICTIONARY
  5
FFAB
102
{ACAD_REACTORS
330
C
102
}
330
C
100
AcDbDictionary
281
     1
  0
ACDBDICTIONARYWDFLT
  5
FFA6
102
{ACAD_REACTORS
330
C
102
}
330
C
100
AcDbDictionary
281
     1
  3
Normal
350
FFA7
100
AcDbDictionaryWithDefault
340
FFA7
  0
IMAGEDEF
  5
E87A
102
{ACAD_REACTORS
330
21
102
}
330
21
100
AcDbRasterImageDef
 90
        0
  1
U:\TPDWG\MichelQ\3307-1.tif
 10
1780.0
 20
3460.0
 11
0.0705555555555556
 21
0.0705555555555556
280
     1
281
     5
  0
IMAGEDEF
  5
E87D
102
{ACAD_REACTORS
330
21
102
}
330
21
100
AcDbRasterImageDef
 90
        0
  1
U:\TPDWG\MichelQ\3307-2.tif
 10
1780.0
 20
3460.0
 11
0.0705555555555556
 21
0.0705555555555556
280
     1
281
     5
  0
LAYOUT
  5
FFAD
102
{ACAD_REACTORS
330
FFAA
102
}
330
FFAA
100
AcDbPlotSettings
  1

  2
none_device
  4
Letter_(8.50_x_11.00_Inches)
  6

 40
6.349999904632568
 41
6.349999904632568
 42
6.350006103515625
 43
6.350006103515625
 44
215.8999938964844
 45
279.3999938964844
 46
0.0
 47
0.0
 48
0.0
 49
0.0
140
0.0
141
0.0
142
1.0
143
1.0
 70
   688
 72
     0
 73
     1
 74
     5
  7

 75
    16
147
1.0
 76
     1
 77
     2
 78
   300
148
0.0
149
0.0
100
AcDbLayout
  1
Layout1
 70
     1
 71
     1
 10
-0.2500002402958907
 20
-0.2499999962453767
 11
10.74999951940821
 21
8.249999763458731
 12
0.0
 22
0.0
 32
0.0
 14
1.049743681505489
 24
0.7996673802841308
 34
-0.0015258207003583
 15
9.450622583565561
 25
7.200576801086516
 35
0.0000000349246037
146
0.0
 13
0.0
 23
0.0
 33
0.0
 16
1.0
 26
0.0
 36
0.0
 17
0.0
 27
1.0
 37
0.0
 76
     0
330
15
331
10023
  0
LAYOUT
  5
FFAC
102
{ACAD_REACTORS
330
FFAA
102
}
330
FFAA
100
AcDbPlotSettings
  1

  2
None
  4

  6

 40
0.0
 41
0.0
 42
0.0
 43
0.0
 44
0.0
 45
0.0
 46
0.0
 47
0.0
 48
0.0
 49
0.0
140
0.0
141
0.0
142
1.0
143
1.0
 70
  1712
 72
     0
 73
     0
 74
     0
  7

 75
     0
147
1.0
 76
     0
 77
     2
 78
   300
148
0.0
149
0.0
100
AcDbLayout
  1
Model
 70
     1
 71
     0
 10
0.0
 20
0.0
 11
12.0
 21
9.0
 12
0.0
 22
0.0
 32
0.0
 14
0.0
 24
0.0
 34
0.0
 15
0.0
 25
0.0
 35
0.0
146
0.0
 13
0.0
 23
0.0
 33
0.0
 16
1.0
 26
0.0
 36
0.0
 17
0.0
 27
1.0
 37
0.0
 76
     0
330
18
  0
MLINESTYLE
  5
1C
102
{ACAD_REACTORS
330
1B
102
}
330
1B
100
AcDbMlineStyle
  2
STANDARD
 70
     0
  3

 62
   256
 51
90.0
 52
90.0
 71
     2
 49
0.5
 62
   256
  6
BYLAYER
 49
-0.5
 62
   256
  6
BYLAYER
  0
ACDBPLACEHOLDER
  5
FFA7
102
{ACAD_REACTORS
330
FFA6
102
}
330
FFA6
  0
ENDSEC
  0
EOF
