  0
SECTION
  2
HEADER
  9
$ACADVER
  1
AC1018
  9
$ACADMAINTVER
 70
     0
  9
$DWGCODEPAGE
  3
ANSI_1252
  9
$INSBASE
 10
0.0
 20
0.0
 30
0.0
  9
$EXTMIN
 10
9.372273615506591
 20
9.224756016056051
 30
0.0
  9
$EXTMAX
 10
36.88502242871109
 20
28.98982462582017
 30
0.0
  9
$LIMMIN
 10
0.0
 20
0.0
  9
$LIMMAX
 10
12.0
 20
9.0
  9
$ORTHOMODE
 70
     0
  9
$REGENMODE
 70
     1
  9
$FILLMODE
 70
     1
  9
$QTEXTMODE
 70
     0
  9
$MIRRTEXT
 70
     1
  9
$LTSCALE
 40
1.0
  9
$ATTMODE
 70
     1
  9
$TEXTSIZE
 40
0.2
  9
$TRACEWID
 40
0.05
  9
$TEXTSTYLE
  7
STANDARD
  9
$CLAYER
  8
0
  9
$CELTYPE
  6
BYLAYER
  9
$CECOLOR
 62
   256
  9
$CELTSCALE
 40
1.0
  9
$DISPSILH
 70
     0
  9
$DIMSCALE
 40
1.0
  9
$DIMASZ
 40
0.18
  9
$DIMEXO
 40
0.0625
  9
$DIMDLI
 40
0.38
  9
$DIMRND
 40
0.0
  9
$DIMDLE
 40
0.0
  9
$DIMEXE
 40
0.18
  9
$DIMTP
 40
0.0
  9
$DIMTM
 40
0.0
  9
$DIMTXT
 40
1.0
  9
$DIMCEN
 40
0.09
  9
$DIMTSZ
 40
0.0
  9
$DIMTOL
 70
     0
  9
$DIMLIM
 70
     0
  9
$DIMTIH
 70
     1
  9
$DIMTOH
 70
     1
  9
$DIMSE1
 70
     0
  9
$DIMSE2
 70
     0
  9
$DIMTAD
 70
     0
  9
$DIMZIN
 70
     0
  9
$DIMBLK
  1

  9
$DIMASO
 70
     1
  9
$DIMSHO
 70
     1
  9
$DIMPOST
  1

  9
$DIMAPOST
  1

  9
$DIMALT
 70
     0
  9
$DIMALTD
 70
     2
  9
$DIMALTF
 40
25.4
  9
$DIMLFAC
 40
1.0
  9
$DIMTOFL
 70
     0
  9
$DIMTVP
 40
0.0
  9
$DIMTIX
 70
     0
  9
$DIMSOXD
 70
     0
  9
$DIMSAH
 70
     0
  9
$DIMBLK1
  1

  9
$DIMBLK2
  1

  9
$DIMSTYLE
  2
STANDARD
  9
$DIMCLRD
 70
     0
  9
$DIMCLRE
 70
     0
  9
$DIMCLRT
 70
     0
  9
$DIMTFAC
 40
1.0
  9
$DIMGAP
 40
0.09
  9
$DIMJUST
 70
     0
  9
$DIMSD1
 70
     0
  9
$DIMSD2
 70
     0
  9
$DIMTOLJ
 70
     1
  9
$DIMTZIN
 70
     0
  9
$DIMALTZ
 70
     0
  9
$DIMALTTZ
 70
     0
  9
$DIMUPT
 70
     0
  9
$DIMDEC
 70
     4
  9
$DIMTDEC
 70
     4
  9
$DIMALTU
 70
     2
  9
$DIMALTTD
 70
     2
  9
$DIMTXSTY
  7
STANDARD
  9
$DIMAUNIT
 70
     0
  9
$DIMADEC
 70
     0
  9
$DIMALTRND
 40
0.0
  9
$DIMAZIN
 70
     0
  9
$DIMDSEP
 70
    46
  9
$DIMATFIT
 70
     3
  9
$DIMFRAC
 70
     0
  9
$DIMLDRBLK
  1

  9
$DIMLUNIT
 70
     5
  9
$DIMLWD
 70
    -2
  9
$DIMLWE
 70
    -2
  9
$DIMTMOVE
 70
     0
  9
$LUNITS
 70
     4
  9
$LUPREC
 70
     4
  9
$SKETCHINC
 40
0.1
  9
$FILLETRAD
 40
0.0
  9
$AUNITS
 70
     0
  9
$AUPREC
 70
     0
  9
$MENU
  1
.
  9
$ELEVATION
 40
0.0
  9
$PELEVATION
 40
0.0
  9
$THICKNESS
 40
0.0
  9
$LIMCHECK
 70
     0
  9
$CHAMFERA
 40
0.5
  9
$CHAMFERB
 40
0.5
  9
$CHAMFERC
 40
1.0
  9
$CHAMFERD
 40
0.0
  9
$SKPOLY
 70
     0
  9
$TDCREATE
 40
2451160.318790972
  9
$TDUCREATE
 40
2451160.485457639
  9
$TDUPDATE
 40
2453488.684425347
  9
$TDUUPDATE
 40
2453488.851092014
  9
$TDINDWG
 40
0.0270987384
  9
$TDUSRTIMER
 40
0.0270987384
  9
$USRTIMER
 70
     1
  9
$ANGBASE
 50
0.0
  9
$ANGDIR
 70
     0
  9
$PDMODE
 70
     3
  9
$PDSIZE
 40
1.0
  9
$PLINEWID
 40
0.0
  9
$SPLFRAME
 70
     0
  9
$SPLINETYPE
 70
     6
  9
$SPLINESEGS
 70
     8
  9
$HANDSEED
  5
1DF5
  9
$SURFTAB1
 70
     6
  9
$SURFTAB2
 70
     6
  9
$SURFTYPE
 70
     6
  9
$SURFU
 70
     6
  9
$SURFV
 70
     6
  9
$UCSBASE
  2

  9
$UCSNAME
  2

  9
$UCSORG
 10
0.0
 20
0.0
 30
0.0
  9
$UCSXDIR
 10
1.0
 20
0.0
 30
0.0
  9
$UCSYDIR
 10
0.0
 20
1.0
 30
0.0
  9
$UCSORTHOREF
  2

  9
$UCSORTHOVIEW
 70
     0
  9
$UCSORGTOP
 10
0.0
 20
0.0
 30
0.0
  9
$UCSORGBOTTOM
 10
0.0
 20
0.0
 30
0.0
  9
$UCSORGLEFT
 10
0.0
 20
0.0
 30
0.0
  9
$UCSORGRIGHT
 10
0.0
 20
0.0
 30
0.0
  9
$UCSORGFRONT
 10
0.0
 20
0.0
 30
0.0
  9
$UCSORGBACK
 10
0.0
 20
0.0
 30
0.0
  9
$PUCSBASE
  2

  9
$PUCSNAME
  2

  9
$PUCSORG
 10
0.0
 20
0.0
 30
0.0
  9
$PUCSXDIR
 10
1.0
 20
0.0
 30
0.0
  9
$PUCSYDIR
 10
0.0
 20
1.0
 30
0.0
  9
$PUCSORTHOREF
  2

  9
$PUCSORTHOVIEW
 70
     0
  9
$PUCSORGTOP
 10
0.0
 20
0.0
 30
0.0
  9
$PUCSORGBOTTOM
 10
0.0
 20
0.0
 30
0.0
  9
$PUCSORGLEFT
 10
0.0
 20
0.0
 30
0.0
  9
$PUCSORGRIGHT
 10
0.0
 20
0.0
 30
0.0
  9
$PUCSORGFRONT
 10
0.0
 20
0.0
 30
0.0
  9
$PUCSORGBACK
 10
0.0
 20
0.0
 30
0.0
  9
$USERI1
 70
     0
  9
$USERI2
 70
     0
  9
$USERI3
 70
     0
  9
$USERI4
 70
     0
  9
$USERI5
 70
     0
  9
$USERR1
 40
0.0
  9
$USERR2
 40
0.0
  9
$USERR3
 40
0.0
  9
$USERR4
 40
0.0
  9
$USERR5
 40
0.0
  9
$WORLDVIEW
 70
     1
  9
$SHADEDGE
 70
     3
  9
$SHADEDIF
 70
    70
  9
$TILEMODE
 70
     1
  9
$MAXACTVP
 70
    48
  9
$PINSBASE
 10
0.0
 20
0.0
 30
0.0
  9
$PLIMCHECK
 70
     0
  9
$PEXTMIN
 10
1.000000000000000E+20
 20
1.000000000000000E+20
 30
1.000000000000000E+20
  9
$PEXTMAX
 10
-1.000000000000000E+20
 20
-1.000000000000000E+20
 30
-1.000000000000000E+20
  9
$PLIMMIN
 10
0.0
 20
0.0
  9
$PLIMMAX
 10
12.0
 20
9.0
  9
$UNITMODE
 70
     0
  9
$VISRETAIN
 70
     1
  9
$PLINEGEN
 70
     0
  9
$PSLTSCALE
 70
     1
  9
$TREEDEPTH
 70
  3020
  9
$CMLSTYLE
  2
STANDARD
  9
$CMLJUST
 70
     0
  9
$CMLSCALE
 40
1.0
  9
$PROXYGRAPHICS
 70
     1
  9
$MEASUREMENT
 70
     0
  9
$CELWEIGHT
370
    -1
  9
$ENDCAPS
280
     0
  9
$JOINSTYLE
280
     0
  9
$LWDISPLAY
290
     0
  9
$INSUNITS
 70
     0
  9
$HYPERLINKBASE
  1

  9
$STYLESHEET
  1

  9
$XEDIT
290
     1
  9
$CEPSNTYPE
380
     0
  9
$PSTYLEMODE
290
     1
  9
$FINGERPRINTGUID
  2
{F04CBA84-6B8D-434D-9038-DB61B1F51C31}
  9
$VERSIONGUID
  2
{83F8460B-152C-457E-B967-D4D97DC04B32}
  9
$EXTNAMES
290
     1
  9
$PSVPSCALE
 40
0.0
  9
$OLESTARTUP
290
     0
  9
$SORTENTS
280
   127
  9
$INDEXCTL
280
     0
  9
$HIDETEXT
280
     0
  9
$XCLIPFRAME
290
     0
  9
$HALOGAP
280
     0
  9
$OBSCOLOR
 70
   257
  9
$OBSLTYPE
280
     0
  9
$INTERSECTIONDISPLAY
280
     0
  9
$INTERSECTIONCOLOR
 70
   257
  9
$DIMASSOC
280
     1
  9
$PROJECTNAME
  1

  0
ENDSEC
  0
SECTION
  2
CLASSES
  0
CLASS
  1
RASTERVARIABLES
  2
AcDbRasterVariables
  3
ISM
 90
        0
 91
        1
280
     0
281
     0
  0
CLASS
  1
IMAGEDEF
  2
AcDbRasterImageDef
  3
ISM
 90
        0
 91
        3
280
     0
281
     0
  0
CLASS
  1
IMAGEDEF_REACTOR
  2
AcDbRasterImageDefReactor
  3
ISM
 90
        1
 91
        0
280
     0
281
     0
  0
CLASS
  1
IMAGE
  2
AcDbRasterImage
  3
ISM
 90
      127
 91
        0
280
     0
281
     1
  0
CLASS
  1
ACDBDICTIONARYWDFLT
  2
AcDbDictionaryWithDefault
  3
ObjectDBX Classes
 90
        0
 91
        1
280
     0
281
     0
  0
ENDSEC
  0
SECTION
  2
TABLES
  0
TABLE
  2
VPORT
  5
8
330
0
100
AcDbSymbolTable
 70
     2
  0
VPORT
  5
1DF4
330
8
100
AcDbSymbolTableRecord
100
AcDbViewportTableRecord
  2
*Active
 70
     0
 10
0.0
 20
0.0
 11
1.0
 21
1.0
 12
24.98100595660456
 22
17.41386779679006
 13
0.0
 23
0.0
 14
0.5
 24
0.5
 15
0.5
 25
0.5
 16
0.0
 26
0.0
 36
1.0
 17
0.0
 27
0.0
 37
0.0
 40
23.65148842400188
 41
1.977142857142856
 42
50.0
 43
0.0
 44
0.0
 50
0.0
 51
0.0
 71
     0
 72
   100
 73
     1
 74
     1
 75
     0
 76
     0
 77
     0
 78
     0
281
     0
 65
     1
110
0.0
120
0.0
130
0.0
111
1.0
121
0.0
131
0.0
112
0.0
122
1.0
132
0.0
 79
     0
146
0.0
  0
ENDTAB
  0
TABLE
  2
LTYPE
  5
5
330
0
100
AcDbSymbolTable
 70
     1
  0
LTYPE
  5
12
330
5
100
AcDbSymbolTableRecord
100
AcDbLinetypeTableRecord
  2
BYBLOCK
 70
     0
  3

 72
    65
 73
     0
 40
0.0
  0
LTYPE
  5
13
330
5
100
AcDbSymbolTableRecord
100
AcDbLinetypeTableRecord
  2
BYLAYER
 70
     0
  3

 72
    65
 73
     0
 40
0.0
  0
LTYPE
  5
14
330
5
100
AcDbSymbolTableRecord
100
AcDbLinetypeTableRecord
  2
CONTINUOUS
 70
     0
  3
Solid line
 72
    65
 73
     0
 40
0.0
  0
ENDTAB
  0
TABLE
  2
LAYER
  5
2
330
0
100
AcDbSymbolTable
 70
     3
  0
LAYER
  5
E
330
2
100
AcDbSymbolTableRecord
100
AcDbLayerTableRecord
  2
0
 70
     0
 62
     7
  6
CONTINUOUS
370
    -3
390
1CAF
  0
LAYER
  5
1CB9
330
2
100
AcDbSymbolTableRecord
100
AcDbLayerTableRecord
  2
Defpoints
 70
     0
 62
     7
  6
CONTINUOUS
290
     0
370
    -3
390
1CAF
  0
LAYER
  5
1DB2
330
2
100
AcDbSymbolTableRecord
100
AcDbLayerTableRecord
  2
DIM
 70
     0
 62
    -3
  6
CONTINUOUS
370
    -3
390
1CAF
  0
ENDTAB
  0
TABLE
  2
STYLE
  5
3
330
0
100
AcDbSymbolTable
 70
     1
  0
STYLE
  5
F
330
3
100
AcDbSymbolTableRecord
100
AcDbTextStyleTableRecord
  2
STANDARD
 70
     0
 40
0.0
 41
1.0
 50
0.0
 71
     0
 42
0.2
  3
txt
  4

  0
ENDTAB
  0
TABLE
  2
VIEW
  5
6
330
0
100
AcDbSymbolTable
 70
     0
  0
ENDTAB
  0
TABLE
  2
UCS
  5
7
330
0
100
AcDbSymbolTable
 70
     0
  0
ENDTAB
  0
TABLE
  2
APPID
  5
9
330
0
100
AcDbSymbolTable
 70
     1
  0
APPID
  5
10
330
9
100
AcDbSymbolTableRecord
100
AcDbRegAppTableRecord
  2
ACAD
 70
     0
  0
ENDTAB
  0
TABLE
  2
DIMSTYLE
  5
A
330
0
100
AcDbSymbolTable
 70
     1
100
AcDbDimStyleTable
 71
     1
340
1D
  0
DIMSTYLE
105
1D
102
{ACAD_REACTORS
330
1D7E
330
1D90
330
1D9E
102
}
330
A
100
AcDbSymbolTableRecord
100
AcDbDimStyleTableRecord
  2
STANDARD
 70
     0
140
1.0
277
     5
340
F
  0
ENDTAB
  0
TABLE
  2
BLOCK_RECORD
  5
1
330
0
100
AcDbSymbolTable
 70
     4
  0
BLOCK_RECORD
  5
18
330
1
100
AcDbSymbolTableRecord
100
AcDbBlockTableRecord
  2
*MODEL_SPACE
340
1CB4
  0
BLOCK_RECORD
  5
15
330
1
100
AcDbSymbolTableRecord
100
AcDbBlockTableRecord
  2
*PAPER_SPACE
340
1CB5
  0
BLOCK_RECORD
  5
1854
330
1
100
AcDbSymbolTableRecord
100
AcDbBlockTableRecord
  2
3309_E
340
0
  0
BLOCK_RECORD
  5
1D7F
330
1
100
AcDbSymbolTableRecord
100
AcDbBlockTableRecord
  2
*D1
340
0
  0
BLOCK_RECORD
  5
1D91
330
1
100
AcDbSymbolTableRecord
100
AcDbBlockTableRecord
  2
*D2
340
0
  0
BLOCK_RECORD
  5
1D9F
330
1
100
AcDbSymbolTableRecord
100
AcDbBlockTableRecord
  2
*D3
340
0
  0
ENDTAB
  0
ENDSEC
  0
SECTION
  2
BLOCKS
  0
BLOCK
  5
19
330
18
100
AcDbEntity
  8
0
100
AcDbBlockBegin
  2
*MODEL_SPACE
 70
     0
 10
0.0
 20
0.0
 30
0.0
  3
*MODEL_SPACE
  1

  0
ENDBLK
  5
1A
330
18
100
AcDbEntity
  8
0
100
AcDbBlockEnd
  0
BLOCK
  5
16
330
15
100
AcDbEntity
 67
     1
  8
0
100
AcDbBlockBegin
  2
*PAPER_SPACE
 70
     0
 10
0.0
 20
0.0
 30
0.0
  3
*PAPER_SPACE
  1

  0
ENDBLK
  5
17
330
15
100
AcDbEntity
 67
     1
  8
0
100
AcDbBlockEnd
  0
BLOCK
  5
1855
330
1854
100
AcDbEntity
  8
0
100
AcDbBlockBegin
  2
3309_E
 70
     0
 10
0.0
 20
0.0
 30
0.0
  3
3309_E
  1

  0
POLYLINE
  5
1856
330
1854
100
AcDbEntity
  8
0
100
AcDb2dPolyline
 66
     1
 10
0.0
 20
0.0
 30
0.0
 70
     5
 75
     6
  0
VERTEX
  5
1857
330
1856
100
AcDbEntity
  8
0
100
AcDbVertex
100
AcDb2dVertex
 10
3.36300628484469
 20
-7.348879992369464
 30
0.0
 70
    16
  0
VERTEX
  5
1858
330
1856
100
AcDbEntity
  8
0
100
AcDbVertex
100
AcDb2dVertex
 10
3.530547605940476
 20
-6.675601076604205
 30
0.0
 70
     8
  0
VERTEX
  5
1859
330
1856
100
AcDbEntity
  8
0
100
AcDbVertex
100
AcDb2dVertex
 10
3.559879858234232
 20
-6.594641736592901
 30
0.0
 70
     8
  0
VERTEX
  5
185A
330
1856
100
AcDbEntity
  8
0
100
AcDbVertex
100
AcDb2dVertex
 10
3.591426125869737
 20
-6.514851283672982
 30
0.0
 70
     8
  0
VERTEX
  5
185B
330
1856
100
AcDbEntity
  8
0
100
AcDbVertex
100
AcDb2dVertex
 10
3.6247268959888
 20
-6.436396701621134
 30
0.0
 70
     8
  0
VERTEX
  5
185C
330
1856
100
AcDbEntity
  8
0
100
AcDbVertex
100
AcDb2dVertex
 10
3.659322655733227
 20
-6.359444974214067
 30
0.0
 70
     8
  0
VERTEX
  5
185D
330
1856
100
AcDbEntity
  8
0
100
AcDbVertex
100
AcDb2dVertex
 10
3.694753892244822
 20
-6.284163085228435
 30
0.0
 70
     8
  0
VERTEX
  5
185E
330
1856
100
AcDbEntity
  8
0
100
AcDbVertex
100
AcDb2dVertex
 10
3.730561092665396
 20
-6.210718018440942
 30
0.0
 70
     8
  0
VERTEX
  5
185F
330
1856
100
AcDbEntity
  8
0
100
AcDbVertex
100
AcDb2dVertex
 10
3.766284744136768
 20
-6.139276757628262
 30
0.0
 70
     8
  0
VERTEX
  5
1860
330
1856
100
AcDbEntity
  8
0
100
AcDbVertex
100
AcDb2dVertex
 10
3.801465333800727
 20
-6.070006286567103
 30
0.0
 70
     8
  0
VERTEX
  5
1861
330
1856
100
AcDbEntity
  8
0
100
AcDbVertex
100
AcDb2dVertex
 10
3.835674679257383
 20
-6.002986618323919
 30
0.0
 70
     8
  0
VERTEX
  5
1862
330
1856
100
AcDbEntity
  8
0
100
AcDbVertex
100
AcDb2dVertex
 10
3.868609919940055
 20
-5.937949883124378
 30
0.0
 70
     8
  0
VERTEX
  5
1863
330
1856
100
AcDbEntity
  8
0
100
AcDbVertex
100
AcDb2dVertex
 10
3.899999525740341
 20
-5.874541240483946
 30
0.0
 70
     8
  0
VERTEX
  5
1864
330
1856
100
AcDbEntity
  8
0
100
AcDbVertex
100
AcDb2dVertex
 10
3.929571966549843
 20
-5.812405849918064
 30
0.0
 70
     8
  0
VERTEX
  5
1865
330
1856
100
AcDbEntity
  8
0
100
AcDbVertex
100
AcDb2dVertex
 10
3.957055712260181
 20
-5.751188870942197
 30
0.0
 70
     8
  0
VERTEX
  5
1866
330
1856
100
AcDbEntity
  8
0
100
AcDbVertex
100
AcDb2dVertex
 10
3.982179232762952
 20
-5.690535463071793
 30
0.0
 70
     8
  0
VERTEX
  5
1867
330
1856
100
AcDbEntity
  8
0
100
AcDbVertex
100
AcDb2dVertex
 10
4.004670997949769
 20
-5.630090785822304
 30
0.0
 70
     8
  0
VERTEX
  5
1868
330
1856
100
AcDbEntity
  8
0
100
AcDbVertex
100
AcDb2dVertex
 10
4.024259477712238
 20
-5.569499998709193
 30
0.0
 70
     8
  0
VERTEX
  5
1869
330
1856
100
AcDbEntity
  8
0
100
AcDbVertex
100
AcDb2dVertex
 10
4.040742765005894
 20
-5.508512626067425
 30
0.0
 70
     8
  0
VERTEX
  5
186A
330
1856
100
AcDbEntity
  8
0
100
AcDbVertex
100
AcDb2dVertex
 10
4.054197445042003
 20
-5.447295651510042
 30
0.0
 70
     8
  0
VERTEX
  5
186B
330
1856
100
AcDbEntity
  8
0
100
AcDbVertex
100
AcDb2dVertex
 10
4.064769726095754
 20
-5.386120423469602
 30
0.0
 70
     8
  0
VERTEX
  5
186C
330
1856
100
AcDbEntity
  8
0
100
AcDbVertex
100
AcDb2dVertex
 10
4.072605816442344
 20
-5.325258290378652
 30
0.0
 70
     8
  0
VERTEX
  5
186D
330
1856
100
AcDbEntity
  8
0
100
AcDbVertex
100
AcDb2dVertex
 10
4.077851924356959
 20
-5.264980600669748
 30
0.0
 70
     8
  0
VERTEX
  5
186E
330
1856
100
AcDbEntity
  8
0
100
AcDbVertex
100
AcDb2dVertex
 10
4.080654258114801
 20
-5.205558702775444
 30
0.0
 70
     8
  0
VERTEX
  5
186F
330
1856
100
AcDbEntity
  8
0
100
AcDbVertex
100
AcDb2dVertex
 10
4.081159025991063
 20
-5.147263945128301
 30
0.0
 70
     8
  0
VERTEX
  5
1870
330
1856
100
AcDbEntity
  8
0
100
AcDbVertex
100
AcDb2dVertex
 10
4.079512436260923
 20
-5.090367676160873
 30
0.0
 70
     8
  0
VERTEX
  5
1871
330
1856
100
AcDbEntity
  8
0
100
AcDbVertex
100
AcDb2dVertex
 10
4.075895508996659
 20
-5.035096019621501
 30
0.0
 70
     8
  0
VERTEX
  5
1872
330
1856
100
AcDbEntity
  8
0
100
AcDbVertex
100
AcDb2dVertex
 10
4.070628511458799
 20
-4.981494200521698
 30
0.0
 70
     8
  0
VERTEX
  5
1873
330
1856
100
AcDbEntity
  8
0
100
AcDbVertex
100
AcDb2dVertex
 10
4.064066522704955
 20
-4.929562219188749
 30
0.0
 70
     8
  0
VERTEX
  5
1874
330
1856
100
AcDbEntity
  8
0
100
AcDbVertex
100
AcDb2dVertex
 10
4.05656462179273
 20
-4.879300075949945
 30
0.0
 70
     8
  0
VERTEX
  5
1875
330
1856
100
AcDbEntity
  8
0
100
AcDbVertex
100
AcDb2dVertex
 10
4.048477887779739
 20
-4.830707771132601
 30
0.0
 70
     8
  0
VERTEX
  5
1876
330
1856
100
AcDbEntity
  8
0
100
AcDbVertex
100
AcDb2dVertex
 10
4.040161399723587
 20
-4.783785305063993
 30
0.0
 70
     8
  0
VERTEX
  5
1877
330
1856
100
AcDbEntity
  8
0
100
AcDbVertex
100
AcDb2dVertex
 10
4.031970236681871
 20
-4.738532678071432
 30
0.0
 70
     8
  0
VERTEX
  5
1878
330
1856
100
AcDbEntity
  8
0
100
AcDbVertex
100
AcDb2dVertex
 10
4.024259477712202
 20
-4.694949890482195
 30
0.0
 70
     8
  0
VERTEX
  5
1879
330
1856
100
AcDbEntity
  8
0
100
AcDbVertex
100
AcDb2dVertex
 10
4.017349389898384
 20
-4.653016069583326
 30
0.0
 70
     8
  0
VERTEX
  5
187A
330
1856
100
AcDbEntity
  8
0
100
AcDbVertex
100
AcDb2dVertex
 10
4.011420992429002
 20
-4.612626850500742
 30
0.0
 70
     8
  0
VERTEX
  5
187B
330
1856
100
AcDbEntity
  8
0
100
AcDbVertex
100
AcDb2dVertex
 10
4.006620492518841
 20
-4.573656995320121
 30
0.0
 70
     8
  0
VERTEX
  5
187C
330
1856
100
AcDbEntity
  8
0
100
AcDbVertex
100
AcDb2dVertex
 10
4.00309409738266
 20
-4.535981266127109
 30
0.0
 70
     8
  0
VERTEX
  5
187D
330
1856
100
AcDbEntity
  8
0
100
AcDbVertex
100
AcDb2dVertex
 10
4.000988014235261
 20
-4.499474425007374
 30
0.0
 70
     8
  0
VERTEX
  5
187E
330
1856
100
AcDbEntity
  8
0
100
AcDbVertex
100
AcDb2dVertex
 10
4.000448450291401
 20
-4.464011234046576
 30
0.0
 70
     8
  0
VERTEX
  5
187F
330
1856
100
AcDbEntity
  8
0
100
AcDbVertex
100
AcDb2dVertex
 10
4.001621612765877
 20
-4.429466455330381
 30
0.0
 70
     8
  0
VERTEX
  5
1880
330
1856
100
AcDbEntity
  8
0
100
AcDbVertex
100
AcDb2dVertex
 10
4.004653708873462
 20
-4.395714850944447
 30
0.0
 70
     8
  0
VERTEX
  5
1881
330
1856
100
AcDbEntity
  8
0
100
AcDbVertex
100
AcDb2dVertex
 10
4.009701389756877
 20
-4.362679886535065
 30
0.0
 70
     8
  0
VERTEX
  5
1882
330
1856
100
AcDbEntity
  8
0
100
AcDbVertex
100
AcDb2dVertex
 10
4.016963082270581
 20
-4.330479841990982
 30
0.0
 70
     8
  0
VERTEX
  5
1883
330
1856
100
AcDbEntity
  8
0
100
AcDbVertex
100
AcDb2dVertex
 10
4.026647657197013
 20
-4.299281700761621
 30
0.0
 70
     8
  0
VERTEX
  5
1884
330
1856
100
AcDbEntity
  8
0
100
AcDbVertex
100
AcDb2dVertex
 10
4.038963985318559
 20
-4.269252446296345
 30
0.0
 70
     8
  0
VERTEX
  5
1885
330
1856
100
AcDbEntity
  8
0
100
AcDbVertex
100
AcDb2dVertex
 10
4.05412093741766
 20
-4.240559062044564
 30
0.0
 70
     8
  0
VERTEX
  5
1886
330
1856
100
AcDbEntity
  8
0
100
AcDbVertex
100
AcDb2dVertex
 10
4.072327384276714
 20
-4.213368531455653
 30
0.0
 70
     8
  0
VERTEX
  5
1887
330
1856
100
AcDbEntity
  8
0
100
AcDbVertex
100
AcDb2dVertex
 10
4.09379219667813
 20
-4.187847837979013
 30
0.0
 70
     8
  0
VERTEX
  5
1888
330
1856
100
AcDbEntity
  8
0
100
AcDbVertex
100
AcDb2dVertex
 10
4.118724245404333
 20
-4.164163965064027
 30
0.0
 70
     8
  0
VERTEX
  5
1889
330
1856
100
AcDbEntity
  8
0
100
AcDbVertex
100
AcDb2dVertex
 10
4.147269740144395
 20
-4.142476938625474
 30
0.0
 70
     8
  0
VERTEX
  5
188A
330
1856
100
AcDbEntity
  8
0
100
AcDbVertex
100
AcDb2dVertex
 10
4.179324246214065
 20
-4.122918954439587
 30
0.0
 70
     8
  0
VERTEX
  5
188B
330
1856
100
AcDbEntity
  8
0
100
AcDbVertex
100
AcDb2dVertex
 10
4.214720667835717
 20
-4.105615250748034
 30
0.0
 70
     8
  0
VERTEX
  5
188C
330
1856
100
AcDbEntity
  8
0
100
AcDbVertex
100
AcDb2dVertex
 10
4.253291909231776
 20
-4.090691065792416
 30
0.0
 70
     8
  0
VERTEX
  5
188D
330
1856
100
AcDbEntity
  8
0
100
AcDbVertex
100
AcDb2dVertex
 10
4.294870874624628
 20
-4.078271637814381
 30
0.0
 70
     8
  0
VERTEX
  5
188E
330
1856
100
AcDbEntity
  8
0
100
AcDbVertex
100
AcDb2dVertex
 10
4.339290468236669
 20
-4.06848220505557
 30
0.0
 70
     8
  0
VERTEX
  5
188F
330
1856
100
AcDbEntity
  8
0
100
AcDbVertex
100
AcDb2dVertex
 10
4.386383594290322
 20
-4.061448005757608
 30
0.0
 70
     8
  0
VERTEX
  5
1890
330
1856
100
AcDbEntity
  8
0
100
AcDbVertex
100
AcDb2dVertex
 10
4.43598315700796
 20
-4.057294278162121
 30
0.0
 70
     8
  0
VERTEX
  5
1891
330
1856
100
AcDbEntity
  8
0
100
AcDbVertex
100
AcDb2dVertex
 10
4.487887248991668
 20
-4.056045374349448
 30
0.0
 70
     8
  0
VERTEX
  5
1892
330
1856
100
AcDbEntity
  8
0
100
AcDbVertex
100
AcDb2dVertex
 10
4.541754716362166
 20
-4.057322101754721
 30
0.0
 70
     8
  0
VERTEX
  5
1893
330
1856
100
AcDbEntity
  8
0
100
AcDbVertex
100
AcDb2dVertex
 10
4.597209593619876
 20
-4.060644381651751
 30
0.0
 70
     8
  0
VERTEX
  5
1894
330
1856
100
AcDbEntity
  8
0
100
AcDbVertex
100
AcDb2dVertex
 10
4.653875915265174
 20
-4.065532135314352
 30
0.0
 70
     8
  0
VERTEX
  5
1895
330
1856
100
AcDbEntity
  8
0
100
AcDbVertex
100
AcDb2dVertex
 10
4.711377715798473
 20
-4.071505284016364
 30
0.0
 70
     8
  0
VERTEX
  5
1896
330
1856
100
AcDbEntity
  8
0
100
AcDbVertex
100
AcDb2dVertex
 10
4.769339029720178
 20
-4.078083749031588
 30
0.0
 70
     8
  0
VERTEX
  5
1897
330
1856
100
AcDbEntity
  8
0
100
AcDbVertex
100
AcDb2dVertex
 10
4.827383891530672
 20
-4.084787451633857
 30
0.0
 70
     8
  0
VERTEX
  5
1898
330
1856
100
AcDbEntity
  8
0
100
AcDbVertex
100
AcDb2dVertex
 10
4.885136335730365
 20
-4.091136313096992
 30
0.0
 70
     8
  0
VERTEX
  5
1899
330
1856
100
AcDbEntity
  8
0
100
AcDbVertex
100
AcDb2dVertex
 10
4.942293501222373
 20
-4.096723310226668
 30
0.0
 70
     8
  0
VERTEX
  5
189A
330
1856
100
AcDbEntity
  8
0
100
AcDbVertex
100
AcDb2dVertex
 10
4.998844944520577
 20
-4.101433641955971
 30
0.0
 70
     8
  0
VERTEX
  5
189B
330
1856
100
AcDbEntity
  8
0
100
AcDbVertex
100
AcDb2dVertex
 10
5.054853326541575
 20
-4.105225562749858
 30
0.0
 70
     8
  0
VERTEX
  5
189C
330
1856
100
AcDbEntity
  8
0
100
AcDbVertex
100
AcDb2dVertex
 10
5.110381308201976
 20
-4.108057327073272
 30
0.0
 70
     8
  0
VERTEX
  5
189D
330
1856
100
AcDbEntity
  8
0
100
AcDbVertex
100
AcDb2dVertex
 10
5.16549155041838
 20
-4.109887189391155
 30
0.0
 70
     8
  0
VERTEX
  5
189E
330
1856
100
AcDbEntity
  8
0
100
AcDbVertex
100
AcDb2dVertex
 10
5.220246714107375
 20
-4.110673404168476
 30
0.0
 70
     8
  0
VERTEX
  5
189F
330
1856
100
AcDbEntity
  8
0
100
AcDbVertex
100
AcDb2dVertex
 10
5.274709460185572
 20
-4.11037422587016
 30
0.0
 70
     8
  0
VERTEX
  5
18A0
330
1856
100
AcDbEntity
  8
0
100
AcDbVertex
100
AcDb2dVertex
 10
5.328942449569577
 20
-4.108947908961166
 30
0.0
 70
     8
  0
VERTEX
  5
18A1
330
1856
100
AcDbEntity
  8
0
100
AcDbVertex
100
AcDb2dVertex
 10
5.382938719935303
 20
-4.106338792400794
 30
0.0
 70
     8
  0
VERTEX
  5
18A2
330
1856
100
AcDbEntity
  8
0
100
AcDbVertex
100
AcDb2dVertex
 10
5.43641281599605
 20
-4.102435553125754
 30
0.0
 70
     8
  0
VERTEX
  5
18A3
330
1856
100
AcDbEntity
  8
0
100
AcDbVertex
100
AcDb2dVertex
 10
5.489009659224379
 20
-4.097112952567133
 30
0.0
 70
     8
  0
VERTEX
  5
18A4
330
1856
100
AcDbEntity
  8
0
100
AcDbVertex
100
AcDb2dVertex
 10
5.540374171092921
 20
-4.090245752155983
 30
0.0
 70
     8
  0
VERTEX
  5
18A5
330
1856
100
AcDbEntity
  8
0
100
AcDbVertex
100
AcDb2dVertex
 10
5.590151273074262
 20
-4.08170871332339
 30
0.0
 70
     8
  0
VERTEX
  5
18A6
330
1856
100
AcDbEntity
  8
0
100
AcDbVertex
100
AcDb2dVertex
 10
5.637985886641001
 20
-4.071376597500421
 30
0.0
 70
     8
  0
VERTEX
  5
18A7
330
1856
100
AcDbEntity
  8
0
100
AcDbVertex
100
AcDb2dVertex
 10
5.683522933265745
 20
-4.059124166118138
 30
0.0
 70
     8
  0
VERTEX
  5
18A8
330
1856
100
AcDbEntity
  8
0
100
AcDbVertex
100
AcDb2dVertex
 10
5.726407334421086
 20
-4.044826180607621
 30
0.0
 70
     8
  0
VERTEX
  5
18A9
330
1856
100
AcDbEntity
  8
0
100
AcDbVertex
100
AcDb2dVertex
 10
5.766433701547068
 20
-4.0284026273569
 30
0.0
 70
     8
  0
VERTEX
  5
18AA
330
1856
100
AcDbEntity
  8
0
100
AcDbVertex
100
AcDb2dVertex
 10
5.803995405953465
 20
-4.009954392581821
 30
0.0
 70
     8
  0
VERTEX
  5
18AB
330
1856
100
AcDbEntity
  8
0
100
AcDbVertex
100
AcDb2dVertex
 10
5.839635508917453
 20
-3.989627587455199
 30
0.0
 70
     8
  0
VERTEX
  5
18AC
330
1856
100
AcDbEntity
  8
0
100
AcDbVertex
100
AcDb2dVertex
 10
5.87389707171625
 20
-3.967568323149823
 30
0.0
 70
     8
  0
VERTEX
  5
18AD
330
1856
100
AcDbEntity
  8
0
100
AcDbVertex
100
AcDb2dVertex
 10
5.907323155627032
 20
-3.943922710838521
 30
0.0
 70
     8
  0
VERTEX
  5
18AE
330
1856
100
AcDbEntity
  8
0
100
AcDbVertex
100
AcDb2dVertex
 10
5.940456821927032
 20
-3.918836861694085
 30
0.0
 70
     8
  0
VERTEX
  5
18AF
330
1856
100
AcDbEntity
  8
0
100
AcDbVertex
100
AcDb2dVertex
 10
5.973841131893415
 20
-3.892456886889331
 30
0.0
 70
     8
  0
VERTEX
  5
18B0
330
1856
100
AcDbEntity
  8
0
100
AcDbVertex
100
AcDb2dVertex
 10
6.008019146803405
 20
-3.864928897597071
 30
0.0
 70
     8
  0
VERTEX
  5
18B1
330
1856
100
AcDbEntity
  8
0
100
AcDbVertex
100
AcDb2dVertex
 10
6.043426011911165
 20
-3.836402483811955
 30
0.0
 70
     8
  0
VERTEX
  5
18B2
330
1856
100
AcDbEntity
  8
0
100
AcDbVertex
100
AcDb2dVertex
 10
6.080065208378723
 20
-3.807041150816122
 30
0.0
 70
     8
  0
VERTEX
  5
18B3
330
1856
100
AcDbEntity
  8
0
100
AcDbVertex
100
AcDb2dVertex
 10
6.117832301345082
 20
-3.777011882713551
 30
0.0
 70
     8
  0
VERTEX
  5
18B4
330
1856
100
AcDbEntity
  8
0
100
AcDbVertex
100
AcDb2dVertex
 10
6.15662285594923
 20
-3.746481663608207
 30
0.0
 70
     8
  0
VERTEX
  5
18B5
330
1856
100
AcDbEntity
  8
0
100
AcDbVertex
100
AcDb2dVertex
 10
6.19633243733018
 20
-3.715617477604087
 30
0.0
 70
     8
  0
VERTEX
  5
18B6
330
1856
100
AcDbEntity
  8
0
100
AcDbVertex
100
AcDb2dVertex
 10
6.236856610626933
 20
-3.684586308805169
 30
0.0
 70
     8
  0
VERTEX
  5
18B7
330
1856
100
AcDbEntity
  8
0
100
AcDbVertex
100
AcDb2dVertex
 10
6.278090940978486
 20
-3.653555141315436
 30
0.0
 70
     8
  0
VERTEX
  5
18B8
330
1856
100
AcDbEntity
  8
0
100
AcDbVertex
100
AcDb2dVertex
 10
6.319930993523833
 20
-3.622690959238855
 30
0.0
 70
     8
  0
VERTEX
  5
18B9
330
1856
100
AcDbEntity
  8
0
100
AcDbVertex
100
AcDb2dVertex
 10
6.362268852239957
 20
-3.592192056021634
 30
0.0
 70
     8
  0
VERTEX
  5
18BA
330
1856
100
AcDbEntity
  8
0
100
AcDbVertex
100
AcDb2dVertex
 10
6.404982676455666
 20
-3.562381962478806
 30
0.0
 70
     8
  0
VERTEX
  5
18BB
330
1856
100
AcDbEntity
  8
0
100
AcDbVertex
100
AcDb2dVertex
 10
6.447947144337778
 20
-3.533615518767621
 30
0.0
 70
     8
  0
VERTEX
  5
18BC
330
1856
100
AcDbEntity
  8
0
100
AcDbVertex
100
AcDb2dVertex
 10
6.491036934053099
 20
-3.506247565045338
 30
0.0
 70
     8
  0
VERTEX
  5
18BD
330
1856
100
AcDbEntity
  8
0
100
AcDbVertex
100
AcDb2dVertex
 10
6.534126723768416
 20
-3.480632941469199
 30
0.0
 70
     8
  0
VERTEX
  5
18BE
330
1856
100
AcDbEntity
  8
0
100
AcDbVertex
100
AcDb2dVertex
 10
6.577091191650524
 20
-3.45712648819644
 30
0.0
 70
     8
  0
VERTEX
  5
18BF
330
1856
100
AcDbEntity
  8
0
100
AcDbVertex
100
AcDb2dVertex
 10
6.619805015866234
 20
-3.436083045384332
 30
0.0
 70
     8
  0
VERTEX
  5
18C0
330
1856
100
AcDbEntity
  8
0
100
AcDbVertex
100
AcDb2dVertex
 10
6.662142874582361
 20
-3.417857453190119
 30
0.0
 70
     8
  0
VERTEX
  5
18C1
330
1856
100
AcDbEntity
  8
0
100
AcDbVertex
100
AcDb2dVertex
 10
6.704052550368373
 20
-3.402686271718636
 30
0.0
 70
     8
  0
VERTEX
  5
18C2
330
1856
100
AcDbEntity
  8
0
100
AcDbVertex
100
AcDb2dVertex
 10
6.745774243404589
 20
-3.390332940865043
 30
0.0
 70
     8
  0
VERTEX
  5
18C3
330
1856
100
AcDbEntity
  8
0
100
AcDbVertex
100
AcDb2dVertex
 10
6.787621258274004
 20
-3.380442620472095
 30
0.0
 70
     8
  0
VERTEX
  5
18C4
330
1856
100
AcDbEntity
  8
0
100
AcDbVertex
100
AcDb2dVertex
 10
6.829906899559624
 20
-3.372660470382545
 30
0.0
 70
     8
  0
VERTEX
  5
18C5
330
1856
100
AcDbEntity
  8
0
100
AcDbVertex
100
AcDb2dVertex
 10
6.872944471844437
 20
-3.366631650439142
 30
0.0
 70
     8
  0
VERTEX
  5
18C6
330
1856
100
AcDbEntity
  8
0
100
AcDbVertex
100
AcDb2dVertex
 10
6.917047279711454
 20
-3.362001320484619
 30
0.0
 70
     8
  0
VERTEX
  5
18C7
330
1856
100
AcDbEntity
  8
0
100
AcDbVertex
100
AcDb2dVertex
 10
6.962528627743658
 20
-3.358414640361747
 30
0.0
 70
     8
  0
VERTEX
  5
18C8
330
1856
100
AcDbEntity
  8
0
100
AcDbVertex
100
AcDb2dVertex
 10
7.009701820524064
 20
-3.355516769913272
 30
0.0
 70
     8
  0
VERTEX
  5
18C9
330
1856
100
AcDbEntity
  8
0
100
AcDbVertex
100
AcDb2dVertex
 10
7.05866781184001
 20
-3.35296678416029
 30
0.0
 70
     8
  0
VERTEX
  5
18CA
330
1856
100
AcDbEntity
  8
0
100
AcDbVertex
100
AcDb2dVertex
 10
7.10867815229616
 20
-3.350479418837306
 30
0.0
 70
     8
  0
VERTEX
  5
18CB
330
1856
100
AcDbEntity
  8
0
100
AcDbVertex
100
AcDb2dVertex
 10
7.158772041701514
 20
-3.347783324857172
 30
0.0
 70
     8
  0
VERTEX
  5
18CC
330
1856
100
AcDbEntity
  8
0
100
AcDbVertex
100
AcDb2dVertex
 10
7.207988679865088
 20
-3.344607153132745
 30
0.0
 70
     8
  0
VERTEX
  5
18CD
330
1856
100
AcDbEntity
  8
0
100
AcDbVertex
100
AcDb2dVertex
 10
7.255367266595904
 20
-3.34067955457689
 30
0.0
 70
     8
  0
VERTEX
  5
18CE
330
1856
100
AcDbEntity
  8
0
100
AcDbVertex
100
AcDb2dVertex
 10
7.299947001702957
 20
-3.335729180102436
 30
0.0
 70
     8
  0
VERTEX
  5
18CF
330
1856
100
AcDbEntity
  8
0
100
AcDbVertex
100
AcDb2dVertex
 10
7.340767084995256
 20
-3.329484680622261
 30
0.0
 70
     8
  0
VERTEX
  5
18D0
330
1856
100
AcDbEntity
  8
0
100
AcDbVertex
100
AcDb2dVertex
 10
7.376866716281796
 20
-3.321674707049208
 30
0.0
 70
     8
  0
VERTEX
  5
18D1
330
1856
100
AcDbEntity
  8
0
100
AcDbVertex
100
AcDb2dVertex
 10
7.407500927240938
 20
-3.312111402293577
 30
0.0
 70
     8
  0
VERTEX
  5
18D2
330
1856
100
AcDbEntity
  8
0
100
AcDbVertex
100
AcDb2dVertex
 10
7.432788077028344
 20
-3.300940877255424
 30
0.0
 70
     8
  0
VERTEX
  5
18D3
330
1856
100
AcDbEntity
  8
0
100
AcDbVertex
100
AcDb2dVertex
 10
7.453062356668983
 20
-3.28839273483226
 30
0.0
 70
     8
  0
VERTEX
  5
18D4
330
1856
100
AcDbEntity
  8
0
100
AcDbVertex
100
AcDb2dVertex
 10
7.468657957187868
 20
-3.274696577921584
 30
0.0
 70
     8
  0
VERTEX
  5
18D5
330
1856
100
AcDbEntity
  8
0
100
AcDbVertex
100
AcDb2dVertex
 10
7.479909069609988
 20
-3.260082009420894
 30
0.0
 70
     8
  0
VERTEX
  5
18D6
330
1856
100
AcDbEntity
  8
0
100
AcDbVertex
100
AcDb2dVertex
 10
7.487149884960327
 20
-3.244778632227699
 30
0.0
 70
     8
  0
VERTEX
  5
18D7
330
1856
100
AcDbEntity
  8
0
100
AcDbVertex
100
AcDb2dVertex
 10
7.490714594263884
 20
-3.229016049239497
 30
0.0
 70
     8
  0
VERTEX
  5
18D8
330
1856
100
AcDbEntity
  8
0
100
AcDbVertex
100
AcDb2dVertex
 10
7.490937388545653
 20
-3.213023863353793
 30
0.0
 70
     8
  0
VERTEX
  5
18D9
330
1856
100
AcDbEntity
  8
0
100
AcDbVertex
100
AcDb2dVertex
 10
7.488065429956527
 20
-3.197014283358779
 30
0.0
 70
     8
  0
VERTEX
  5
18DA
330
1856
100
AcDbEntity
  8
0
100
AcDbVertex
100
AcDb2dVertex
 10
7.481997765151
 20
-3.181129941605394
 30
0.0
 70
     8
  0
VERTEX
  5
18DB
330
1856
100
AcDbEntity
  8
0
100
AcDbVertex
100
AcDb2dVertex
 10
7.472546411909494
 20
-3.165496076335283
 30
0.0
 70
     8
  0
VERTEX
  5
18DC
330
1856
100
AcDbEntity
  8
0
100
AcDbVertex
100
AcDb2dVertex
 10
7.459523388012417
 20
-3.150237925790065
 30
0.0
 70
     8
  0
VERTEX
  5
18DD
330
1856
100
AcDbEntity
  8
0
100
AcDbVertex
100
AcDb2dVertex
 10
7.442740711240169
 20
-3.135480728211387
 30
0.0
 70
     8
  0
VERTEX
  5
18DE
330
1856
100
AcDbEntity
  8
0
100
AcDbVertex
100
AcDb2dVertex
 10
7.422010399373164
 20
-3.121349721840871
 30
0.0
 70
     8
  0
VERTEX
  5
18DF
330
1856
100
AcDbEntity
  8
0
100
AcDbVertex
100
AcDb2dVertex
 10
7.397144470191808
 20
-3.107970144920162
 30
0.0
 70
     8
  0
VERTEX
  5
18E0
330
1856
100
AcDbEntity
  8
0
100
AcDbVertex
100
AcDb2dVertex
 10
7.367954941476487
 20
-3.095467235690879
 30
0.0
 70
     8
  0
VERTEX
  5
18E1
330
1856
100
AcDbEntity
  8
0
100
AcDbVertex
100
AcDb2dVertex
 10
7.334386114988177
 20
-3.083962753354615
 30
0.0
 70
     8
  0
VERTEX
  5
18E2
330
1856
100
AcDbEntity
  8
0
100
AcDbVertex
100
AcDb2dVertex
 10
7.296911428409899
 20
-3.073564540952691
 30
0.0
 70
     8
  0
VERTEX
  5
18E3
330
1856
100
AcDbEntity
  8
0
100
AcDbVertex
100
AcDb2dVertex
 10
7.25613660340528
 20
-3.064376962486399
 30
0.0
 70
     8
  0
VERTEX
  5
18E4
330
1856
100
AcDbEntity
  8
0
100
AcDbVertex
100
AcDb2dVertex
 10
7.21266736163789
 20
-3.056504381957001
 30
0.0
 70
     8
  0
VERTEX
  5
18E5
330
1856
100
AcDbEntity
  8
0
100
AcDbVertex
100
AcDb2dVertex
 10
7.167109424771336
 20
-3.05005116336579
 30
0.0
 70
     8
  0
VERTEX
  5
18E6
330
1856
100
AcDbEntity
  8
0
100
AcDbVertex
100
AcDb2dVertex
 10
7.120068514469213
 20
-3.045121670714038
 30
0.0
 70
     8
  0
VERTEX
  5
18E7
330
1856
100
AcDbEntity
  8
0
100
AcDbVertex
100
AcDb2dVertex
 10
7.072150352395091
 20
-3.041820268003025
 30
0.0
 70
     8
  0
VERTEX
  5
18E8
330
1856
100
AcDbEntity
  8
0
100
AcDbVertex
100
AcDb2dVertex
 10
7.02396066021258
 20
-3.040251319234027
 30
0.0
 70
     8
  0
VERTEX
  5
18E9
330
1856
100
AcDbEntity
  8
0
100
AcDbVertex
100
AcDb2dVertex
 10
6.975990281326527
 20
-3.040522667557485
 30
0.0
 70
     8
  0
VERTEX
  5
18EA
330
1856
100
AcDbEntity
  8
0
100
AcDbVertex
100
AcDb2dVertex
 10
6.928270546106894
 20
-3.042756072720461
 30
0.0
 70
     8
  0
VERTEX
  5
18EB
330
1856
100
AcDbEntity
  8
0
100
AcDbVertex
100
AcDb2dVertex
 10
6.880717906664845
 20
-3.047076773619185
 30
0.0
 70
     8
  0
VERTEX
  5
18EC
330
1856
100
AcDbEntity
  8
0
100
AcDbVertex
100
AcDb2dVertex
 10
6.833248815111598
 20
-3.053610009149867
 30
0.0
 70
     8
  0
VERTEX
  5
18ED
330
1856
100
AcDbEntity
  8
0
100
AcDbVertex
100
AcDb2dVertex
 10
6.785779723558352
 20
-3.062481018208753
 30
0.0
 70
     8
  0
VERTEX
  5
18EE
330
1856
100
AcDbEntity
  8
0
100
AcDbVertex
100
AcDb2dVertex
 10
6.738227084116299
 20
-3.073815039692046
 30
0.0
 70
     8
  0
VERTEX
  5
18EF
330
1856
100
AcDbEntity
  8
0
100
AcDbVertex
100
AcDb2dVertex
 10
6.690507348896666
 20
-3.087737312495985
 30
0.0
 70
     8
  0
VERTEX
  5
18F0
330
1856
100
AcDbEntity
  8
0
100
AcDbVertex
100
AcDb2dVertex
 10
6.642536970010617
 20
-3.104373075516782
 30
0.0
 70
     8
  0
VERTEX
  5
18F1
330
1856
100
AcDbEntity
  8
0
100
AcDbVertex
100
AcDb2dVertex
 10
6.594298541648008
 20
-3.123708414121583
 30
0.0
 70
     8
  0
VERTEX
  5
18F2
330
1856
100
AcDbEntity
  8
0
100
AcDbVertex
100
AcDb2dVertex
 10
6.546039226313201
 20
-3.145172799561212
 30
0.0
 70
     8
  0
VERTEX
  5
18F3
330
1856
100
AcDbEntity
  8
0
100
AcDbVertex
100
AcDb2dVertex
 10
6.498072328589188
 20
-3.16805654955738
 30
0.0
 70
     8
  0
VERTEX
  5
18F4
330
1856
100
AcDbEntity
  8
0
100
AcDbVertex
100
AcDb2dVertex
 10
6.450711153058975
 20
-3.191649981831812
 30
0.0
 70
     8
  0
VERTEX
  5
18F5
330
1856
100
AcDbEntity
  8
0
100
AcDbVertex
100
AcDb2dVertex
 10
6.404269004305565
 20
-3.215243414106247
 30
0.0
 70
     8
  0
VERTEX
  5
18F6
330
1856
100
AcDbEntity
  8
0
100
AcDbVertex
100
AcDb2dVertex
 10
6.359059186911956
 20
-3.238127164102415
 30
0.0
 70
     8
  0
VERTEX
  5
18F7
330
1856
100
AcDbEntity
  8
0
100
AcDbVertex
100
AcDb2dVertex
 10
6.315395005461148
 20
-3.259591549542033
 30
0.0
 70
     8
  0
VERTEX
  5
18F8
330
1856
100
AcDbEntity
  8
0
100
AcDbVertex
100
AcDb2dVertex
 10
6.273589764536122
 20
-3.278926888146838
 30
0.0
 70
     8
  0
VERTEX
  5
18F9
330
1856
100
AcDbEntity
  8
0
100
AcDbVertex
100
AcDb2dVertex
 10
6.233911513525114
 20
-3.295573087633226
 30
0.0
 70
     8
  0
VERTEX
  5
18FA
330
1856
100
AcDbEntity
  8
0
100
AcDbVertex
100
AcDb2dVertex
 10
6.19644728103708
 20
-3.309568415696269
 30
0.0
 70
     8
  0
VERTEX
  5
18FB
330
1856
100
AcDbEntity
  8
0
100
AcDbVertex
100
AcDb2dVertex
 10
6.161238840486241
 20
-3.321100730025715
 30
0.0
 70
     8
  0
VERTEX
  5
18FC
330
1856
100
AcDbEntity
  8
0
100
AcDbVertex
100
AcDb2dVertex
 10
6.128327965286764
 20
-3.330357888311301
 30
0.0
 70
     8
  0
VERTEX
  5
18FD
330
1856
100
AcDbEntity
  8
0
100
AcDbVertex
100
AcDb2dVertex
 10
6.097756428852875
 20
-3.337527748242791
 30
0.0
 70
     8
  0
VERTEX
  5
18FE
330
1856
100
AcDbEntity
  8
0
100
AcDbVertex
100
AcDb2dVertex
 10
6.06956600459874
 20
-3.342798167509918
 30
0.0
 70
     8
  0
VERTEX
  5
18FF
330
1856
100
AcDbEntity
  8
0
100
AcDbVertex
100
AcDb2dVertex
 10
6.043798465938564
 20
-3.346357003802435
 30
0.0
 70
     8
  0
VERTEX
  5
1900
330
1856
100
AcDbEntity
  8
0
100
AcDbVertex
100
AcDb2dVertex
 10
6.020495586286543
 20
-3.348392114810078
 30
0.0
 70
     8
  0
VERTEX
  5
1901
330
1856
100
AcDbEntity
  8
0
100
AcDbVertex
100
AcDb2dVertex
 10
5.999671289937321
 20
-3.349032217869094
 30
0.0
 70
     8
  0
VERTEX
  5
1902
330
1856
100
AcDbEntity
  8
0
100
AcDbVertex
100
AcDb2dVertex
 10
5.981228104707447
 20
-3.348169468901712
 30
0.0
 70
     8
  0
VERTEX
  5
1903
330
1856
100
AcDbEntity
  8
0
100
AcDbVertex
100
AcDb2dVertex
 10
5.965040709293944
 20
-3.34563688347665
 30
0.0
 70
     8
  0
VERTEX
  5
1904
330
1856
100
AcDbEntity
  8
0
100
AcDbVertex
100
AcDb2dVertex
 10
5.950983782393791
 20
-3.341267477162634
 30
0.0
 70
     8
  0
VERTEX
  5
1905
330
1856
100
AcDbEntity
  8
0
100
AcDbVertex
100
AcDb2dVertex
 10
5.938932002704007
 20
-3.334894265528394
 30
0.0
 70
     8
  0
VERTEX
  5
1906
330
1856
100
AcDbEntity
  8
0
100
AcDbVertex
100
AcDb2dVertex
 10
5.92876004892161
 20
-3.32635026414265
 30
0.0
 70
     8
  0
VERTEX
  5
1907
330
1856
100
AcDbEntity
  8
0
100
AcDbVertex
100
AcDb2dVertex
 10
5.920342599743584
 20
-3.315468488574115
 30
0.0
 70
     8
  0
VERTEX
  5
1908
330
1856
100
AcDbEntity
  8
0
100
AcDbVertex
100
AcDb2dVertex
 10
5.913554333866969
 20
-3.302081954391525
 30
0.0
 70
     8
  0
VERTEX
  5
1909
330
1856
100
AcDbEntity
  8
0
100
AcDbVertex
100
AcDb2dVertex
 10
5.908252524090205
 20
-3.286103690393726
 30
0.0
 70
     8
  0
VERTEX
  5
190A
330
1856
100
AcDbEntity
  8
0
100
AcDbVertex
100
AcDb2dVertex
 10
5.904224819617642
 20
-3.267766778300089
 30
0.0
 70
     8
  0
VERTEX
  5
190B
330
1856
100
AcDbEntity
  8
0
100
AcDbVertex
100
AcDb2dVertex
 10
5.901241463755077
 20
-3.247384313060088
 30
0.0
 70
     8
  0
VERTEX
  5
190C
330
1856
100
AcDbEntity
  8
0
100
AcDbVertex
100
AcDb2dVertex
 10
5.899072699808314
 20
-3.225269389623239
 30
0.0
 70
     8
  0
VERTEX
  5
190D
330
1856
100
AcDbEntity
  8
0
100
AcDbVertex
100
AcDb2dVertex
 10
5.897488771083146
 20
-3.201735102939029
 30
0.0
 70
     8
  0
VERTEX
  5
190E
330
1856
100
AcDbEntity
  8
0
100
AcDbVertex
100
AcDb2dVertex
 10
5.896259920885384
 20
-3.177094547956958
 30
0.0
 70
     8
  0
VERTEX
  5
190F
330
1856
100
AcDbEntity
  8
0
100
AcDbVertex
100
AcDb2dVertex
 10
5.89515639252081
 20
-3.151660819626496
 30
0.0
 70
     8
  0
VERTEX
  5
1910
330
1856
100
AcDbEntity
  8
0
100
AcDbVertex
100
AcDb2dVertex
 10
5.893948429295253
 20
-3.125747012897154
 30
0.0
 70
     8
  0
VERTEX
  5
1911
330
1856
100
AcDbEntity
  8
0
100
AcDbVertex
100
AcDb2dVertex
 10
5.892441086134819
 20
-3.099631434390705
 30
0.0
 70
     8
  0
VERTEX
  5
1912
330
1856
100
AcDbEntity
  8
0
100
AcDbVertex
100
AcDb2dVertex
 10
5.890578664446987
 20
-3.073453237418032
 30
0.0
 70
     8
  0
VERTEX
  5
1913
330
1856
100
AcDbEntity
  8
0
100
AcDbVertex
100
AcDb2dVertex
 10
5.888340277259558
 20
-3.047316786962287
 30
0.0
 70
     8
  0
VERTEX
  5
1914
330
1856
100
AcDbEntity
  8
0
100
AcDbVertex
100
AcDb2dVertex
 10
5.885705037600338
 20
-3.021326448006657
 30
0.0
 70
     8
  0
VERTEX
  5
1915
330
1856
100
AcDbEntity
  8
0
100
AcDbVertex
100
AcDb2dVertex
 10
5.882652058497107
 20
-2.995586585534287
 30
0.0
 70
     8
  0
VERTEX
  5
1916
330
1856
100
AcDbEntity
  8
0
100
AcDbVertex
100
AcDb2dVertex
 10
5.879160452977686
 20
-2.970201564528355
 30
0.0
 70
     8
  0
VERTEX
  5
1917
330
1856
100
AcDbEntity
  8
0
100
AcDbVertex
100
AcDb2dVertex
 10
5.875209334069861
 20
-2.945275749972008
 30
0.0
 70
     8
  0
VERTEX
  5
1918
330
1856
100
AcDbEntity
  8
0
100
AcDbVertex
100
AcDb2dVertex
 10
5.870777814801428
 20
-2.920913506848425
 30
0.0
 70
     8
  0
VERTEX
  5
1919
330
1856
100
AcDbEntity
  8
0
100
AcDbVertex
100
AcDb2dVertex
 10
5.865859688569962
 20
-2.897227724274408
 30
0.0
 70
     8
  0
VERTEX
  5
191A
330
1856
100
AcDbEntity
  8
0
100
AcDbVertex
100
AcDb2dVertex
 10
5.860507470252034
 20
-2.874365387901267
 30
0.0
 70
     8
  0
VERTEX
  5
191B
330
1856
100
AcDbEntity
  8
0
100
AcDbVertex
100
AcDb2dVertex
 10
5.854788355094022
 20
-2.852482007513973
 30
0.0
 70
     8
  0
VERTEX
  5
191C
330
1856
100
AcDbEntity
  8
0
100
AcDbVertex
100
AcDb2dVertex
 10
5.848769538342278
 20
-2.831733092897504
 30
0.0
 70
     8
  0
VERTEX
  5
191D
330
1856
100
AcDbEntity
  8
0
100
AcDbVertex
100
AcDb2dVertex
 10
5.842518215243117
 20
-2.812274153836799
 30
0.0
 70
     8
  0
VERTEX
  5
191E
330
1856
100
AcDbEntity
  8
0
100
AcDbVertex
100
AcDb2dVertex
 10
5.836101581042928
 20
-2.79426070011684
 30
0.0
 70
     8
  0
VERTEX
  5
191F
330
1856
100
AcDbEntity
  8
0
100
AcDbVertex
100
AcDb2dVertex
 10
5.829586830988056
 20
-2.777848241522576
 30
0.0
 70
     8
  0
VERTEX
  5
1920
330
1856
100
AcDbEntity
  8
0
100
AcDbVertex
100
AcDb2dVertex
 10
5.823041160324848
 20
-2.763192287838972
 30
0.0
 70
     8
  0
VERTEX
  5
1921
330
1856
100
AcDbEntity
  8
0
100
AcDbVertex
100
AcDb2dVertex
 10
5.816509775557438
 20
-2.750461915077995
 30
0.0
 70
     8
  0
VERTEX
  5
1922
330
1856
100
AcDbEntity
  8
0
100
AcDbVertex
100
AcDb2dVertex
 10
5.809949928221065
 20
-2.7398804641596
 30
0.0
 70
     8
  0
VERTEX
  5
1923
330
1856
100
AcDbEntity
  8
0
100
AcDbVertex
100
AcDb2dVertex
 10
5.803296881108749
 20
-2.731684842230759
 30
0.0
 70
     8
  0
VERTEX
  5
1924
330
1856
100
AcDbEntity
  8
0
100
AcDbVertex
100
AcDb2dVertex
 10
5.796485897013525
 20
-2.726111956438423
 30
0.0
 70
     8
  0
VERTEX
  5
1925
330
1856
100
AcDbEntity
  8
0
100
AcDbVertex
100
AcDb2dVertex
 10
5.789452238728404
 20
-2.723398713929558
 30
0.0
 70
     8
  0
VERTEX
  5
1926
330
1856
100
AcDbEntity
  8
0
100
AcDbVertex
100
AcDb2dVertex
 10
5.782131169046401
 20
-2.723782021851125
 30
0.0
 70
     8
  0
VERTEX
  5
1927
330
1856
100
AcDbEntity
  8
0
100
AcDbVertex
100
AcDb2dVertex
 10
5.77445795076056
 20
-2.727498787350089
 30
0.0
 70
     8
  0
VERTEX
  5
1928
330
1856
100
AcDbEntity
  8
0
100
AcDbVertex
100
AcDb2dVertex
 10
5.766367846663893
 20
-2.734785917573415
 30
0.0
 70
     8
  0
VERTEX
  5
1929
330
1856
100
AcDbEntity
  8
0
100
AcDbVertex
100
AcDb2dVertex
 10
5.757796612376772
 20
-2.74584786408311
 30
0.0
 70
     8
  0
VERTEX
  5
192A
330
1856
100
AcDbEntity
  8
0
100
AcDbVertex
100
AcDb2dVertex
 10
5.748681974828972
 20
-2.760759256101444
 30
0.0
 70
     8
  0
VERTEX
  5
192B
330
1856
100
AcDbEntity
  8
0
100
AcDbVertex
100
AcDb2dVertex
 10
5.738962153777624
 20
-2.779562267265735
 30
0.0
 70
     8
  0
VERTEX
  5
192C
330
1856
100
AcDbEntity
  8
0
100
AcDbVertex
100
AcDb2dVertex
 10
5.728575368979864
 20
-2.802299071213301
 30
0.0
 70
     8
  0
VERTEX
  5
192D
330
1856
100
AcDbEntity
  8
0
100
AcDbVertex
100
AcDb2dVertex
 10
5.717459840192802
 20
-2.829011841581465
 30
0.0
 70
     8
  0
VERTEX
  5
192E
330
1856
100
AcDbEntity
  8
0
100
AcDbVertex
100
AcDb2dVertex
 10
5.705553787173577
 20
-2.859742752007541
 30
0.0
 70
     8
  0
VERTEX
  5
192F
330
1856
100
AcDbEntity
  8
0
100
AcDbVertex
100
AcDb2dVertex
 10
5.692795429679314
 20
-2.894533976128847
 30
0.0
 70
     8
  0
VERTEX
  5
1930
330
1856
100
AcDbEntity
  8
0
100
AcDbVertex
100
AcDb2dVertex
 10
5.679122987467138
 20
-2.933427687582714
 30
0.0
 70
     8
  0
VERTEX
  5
1931
330
1856
100
AcDbEntity
  8
0
100
AcDbVertex
100
AcDb2dVertex
 10
5.664429067828276
 20
-2.976339668921635
 30
0.0
 70
     8
  0
VERTEX
  5
1932
330
1856
100
AcDbEntity
  8
0
100
AcDbVertex
100
AcDb2dVertex
 10
5.648423828190285
 20
-3.02268013835884
 30
0.0
 70
     8
  0
VERTEX
  5
1933
330
1856
100
AcDbEntity
  8
0
100
AcDbVertex
100
AcDb2dVertex
 10
5.63077181351484
 20
-3.071732923022743
 30
0.0
 70
     8
  0
VERTEX
  5
1934
330
1856
100
AcDbEntity
  8
0
100
AcDbVertex
100
AcDb2dVertex
 10
5.611137568763599
 20
-3.12278185004175
 30
0.0
 70
     8
  0
VERTEX
  5
1935
330
1856
100
AcDbEntity
  8
0
100
AcDbVertex
100
AcDb2dVertex
 10
5.589185638898225
 20
-3.175110746544287
 30
0.0
 70
     8
  0
VERTEX
  5
1936
330
1856
100
AcDbEntity
  8
0
100
AcDbVertex
100
AcDb2dVertex
 10
5.564580568880376
 20
-3.22800343965876
 30
0.0
 70
     8
  0
VERTEX
  5
1937
330
1856
100
AcDbEntity
  8
0
100
AcDbVertex
100
AcDb2dVertex
 10
5.53698690367171
 20
-3.280743756513572
 30
0.0
 70
     8
  0
VERTEX
  5
1938
330
1856
100
AcDbEntity
  8
0
100
AcDbVertex
100
AcDb2dVertex
 10
5.506069188233908
 20
-3.332615524237148
 30
0.0
 70
     8
  0
VERTEX
  5
1939
330
1856
100
AcDbEntity
  8
0
100
AcDbVertex
100
AcDb2dVertex
 10
5.471634281698943
 20
-3.382981298117531
 30
0.0
 70
     8
  0
VERTEX
  5
193A
330
1856
100
AcDbEntity
  8
0
100
AcDbVertex
100
AcDb2dVertex
 10
5.434058299880067
 20
-3.431518546081331
 30
0.0
 70
     8
  0
VERTEX
  5
193B
330
1856
100
AcDbEntity
  8
0
100
AcDbVertex
100
AcDb2dVertex
 10
5.393859672760893
 20
-3.477983464214783
 30
0.0
 70
     8
  0
VERTEX
  5
193C
330
1856
100
AcDbEntity
  8
0
100
AcDbVertex
100
AcDb2dVertex
 10
5.351556830324987
 20
-3.52213224860413
 30
0.0
 70
     8
  0
VERTEX
  5
193D
330
1856
100
AcDbEntity
  8
0
100
AcDbVertex
100
AcDb2dVertex
 10
5.307668202555966
 20
-3.563721095335612
 30
0.0
 70
     8
  0
VERTEX
  5
193E
330
1856
100
AcDbEntity
  8
0
100
AcDbVertex
100
AcDb2dVertex
 10
5.262712219437375
 20
-3.602506200495479
 30
0.0
 70
     8
  0
VERTEX
  5
193F
330
1856
100
AcDbEntity
  8
0
100
AcDbVertex
100
AcDb2dVertex
 10
5.217207310952836
 20
-3.638243760169959
 30
0.0
 70
     8
  0
VERTEX
  5
1940
330
1856
100
AcDbEntity
  8
0
100
AcDbVertex
100
AcDb2dVertex
 10
5.171671907085933
 20
-3.670689970445312
 30
0.0
 70
     8
  0
VERTEX
  5
1941
330
1856
100
AcDbEntity
  8
0
100
AcDbVertex
100
AcDb2dVertex
 10
5.126557092702071
 20
-3.699661978358921
 30
0.0
 70
     8
  0
VERTEX
  5
1942
330
1856
100
AcDbEntity
  8
0
100
AcDbVertex
100
AcDb2dVertex
 10
5.082044572193918
 20
-3.725220734752873
 30
0.0
 70
     8
  0
VERTEX
  5
1943
330
1856
100
AcDbEntity
  8
0
100
AcDbVertex
100
AcDb2dVertex
 10
5.038248704836004
 20
-3.747488141420394
 30
0.0
 70
     8
  0
VERTEX
  5
1944
330
1856
100
AcDbEntity
  8
0
100
AcDbVertex
100
AcDb2dVertex
 10
4.995283849902826
 20
-3.7665861001547
 30
0.0
 70
     8
  0
VERTEX
  5
1945
330
1856
100
AcDbEntity
  8
0
100
AcDbVertex
100
AcDb2dVertex
 10
4.953264366668882
 20
-3.78263651274905
 30
0.0
 70
     8
  0
VERTEX
  5
1946
330
1856
100
AcDbEntity
  8
0
100
AcDbVertex
100
AcDb2dVertex
 10
4.912304614408682
 20
-3.79576128099665
 30
0.0
 70
     8
  0
VERTEX
  5
1947
330
1856
100
AcDbEntity
  8
0
100
AcDbVertex
100
AcDb2dVertex
 10
4.872518952396745
 20
-3.806082306690758
 30
0.0
 70
     8
  0
VERTEX
  5
1948
330
1856
100
AcDbEntity
  8
0
100
AcDbVertex
100
AcDb2dVertex
 10
4.834021739907562
 20
-3.813721491624576
 30
0.0
 70
     8
  0
VERTEX
  5
1949
330
1856
100
AcDbEntity
  8
0
100
AcDbVertex
100
AcDb2dVertex
 10
4.796905735054686
 20
-3.818817245112221
 30
0.0
 70
     8
  0
VERTEX
  5
194A
330
1856
100
AcDbEntity
  8
0
100
AcDbVertex
100
AcDb2dVertex
 10
4.761177291307902
 20
-3.821574006551227
 30
0.0
 70
     8
  0
VERTEX
  5
194B
330
1856
100
AcDbEntity
  8
0
100
AcDbVertex
100
AcDb2dVertex
 10
4.726821160976001
 20
-3.822212722860012
 30
0.0
 70
     8
  0
VERTEX
  5
194C
330
1856
100
AcDbEntity
  8
0
100
AcDbVertex
100
AcDb2dVertex
 10
4.693822096367817
 20
-3.820954340956976
 30
0.0
 70
     8
  0
VERTEX
  5
194D
330
1856
100
AcDbEntity
  8
0
100
AcDbVertex
100
AcDb2dVertex
 10
4.662164849792151
 20
-3.818019807760528
 30
0.0
 70
     8
  0
VERTEX
  5
194E
330
1856
100
AcDbEntity
  8
0
100
AcDbVertex
100
AcDb2dVertex
 10
4.631834173557827
 20
-3.813630070189073
 30
0.0
 70
     8
  0
VERTEX
  5
194F
330
1856
100
AcDbEntity
  8
0
100
AcDbVertex
100
AcDb2dVertex
 10
4.602814819973659
 20
-3.808006075161035
 30
0.0
 70
     8
  0
VERTEX
  5
1950
330
1856
100
AcDbEntity
  8
0
100
AcDbVertex
100
AcDb2dVertex
 10
4.575091541348463
 20
-3.801368769594812
 30
0.0
 70
     8
  0
VERTEX
  5
1951
330
1856
100
AcDbEntity
  8
0
100
AcDbVertex
100
AcDb2dVertex
 10
4.548659255206874
 20
-3.793894657142153
 30
0.0
 70
     8
  0
VERTEX
  5
1952
330
1856
100
AcDbEntity
  8
0
100
AcDbVertex
100
AcDb2dVertex
 10
4.52355353993683
 20
-3.785582468388199
 30
0.0
 70
     8
  0
VERTEX
  5
1953
330
1856
100
AcDbEntity
  8
0
100
AcDbVertex
100
AcDb2dVertex
 10
4.499820139142087
 20
-3.776386490651436
 30
0.0
 70
     8
  0
VERTEX
  5
1954
330
1856
100
AcDbEntity
  8
0
100
AcDbVertex
100
AcDb2dVertex
 10
4.47750479642643
 20
-3.766261011250332
 30
0.0
 70
     8
  0
VERTEX
  5
1955
330
1856
100
AcDbEntity
  8
0
100
AcDbVertex
100
AcDb2dVertex
 10
4.456653255393582
 20
-3.755160317503371
 30
0.0
 70
     8
  0
VERTEX
  5
1956
330
1856
100
AcDbEntity
  8
0
100
AcDbVertex
100
AcDb2dVertex
 10
4.437311259647337
 20
-3.743038696729048
 30
0.0
 70
     8
  0
VERTEX
  5
1957
330
1856
100
AcDbEntity
  8
0
100
AcDbVertex
100
AcDb2dVertex
 10
4.419524552791443
 20
-3.729850436245836
 30
0.0
 70
     8
  0
VERTEX
  5
1958
330
1856
100
AcDbEntity
  8
0
100
AcDbVertex
100
AcDb2dVertex
 10
4.403338878429657
 20
-3.71554982337221
 30
0.0
 70
     8
  0
VERTEX
  5
1959
330
1856
100
AcDbEntity
  8
0
100
AcDbVertex
100
AcDb2dVertex
 10
4.388751695015017
 20
-3.700056860370029
 30
0.0
 70
     8
  0
VERTEX
  5
195A
330
1856
100
AcDbEntity
  8
0
100
AcDbVertex
100
AcDb2dVertex
 10
4.375567320397642
 20
-3.683154409274607
 30
0.0
 70
     8
  0
VERTEX
  5
195B
330
1856
100
AcDbEntity
  8
0
100
AcDbVertex
100
AcDb2dVertex
 10
4.363541787276922
 20
-3.664591047064647
 30
0.0
 70
     8
  0
VERTEX
  5
195C
330
1856
100
AcDbEntity
  8
0
100
AcDbVertex
100
AcDb2dVertex
 10
4.35243112835224
 20
-3.644115350718838
 30
0.0
 70
     8
  0
VERTEX
  5
195D
330
1856
100
AcDbEntity
  8
0
100
AcDbVertex
100
AcDb2dVertex
 10
4.341991376322994
 20
-3.621475897215876
 30
0.0
 70
     8
  0
VERTEX
  5
195E
330
1856
100
AcDbEntity
  8
0
100
AcDbVertex
100
AcDb2dVertex
 10
4.331978563888576
 20
-3.596421263534445
 30
0.0
 70
     8
  0
VERTEX
  5
195F
330
1856
100
AcDbEntity
  8
0
100
AcDbVertex
100
AcDb2dVertex
 10
4.32214872374837
 20
-3.568700026653257
 30
0.0
 70
     8
  0
VERTEX
  5
1960
330
1856
100
AcDbEntity
  8
0
100
AcDbVertex
100
AcDb2dVertex
 10
4.31225788860177
 20
-3.538060763550983
 30
0.0
 70
     8
  0
VERTEX
  5
1961
330
1856
100
AcDbEntity
  8
0
100
AcDbVertex
100
AcDb2dVertex
 10
4.302062091413269
 20
-3.504403158814806
 30
0.0
 70
     8
  0
VERTEX
  5
1962
330
1856
100
AcDbEntity
  8
0
100
AcDbVertex
100
AcDb2dVertex
 10
4.291317366207771
 20
-3.468231327465812
 30
0.0
 70
     8
  0
VERTEX
  5
1963
330
1856
100
AcDbEntity
  8
0
100
AcDbVertex
100
AcDb2dVertex
 10
4.279779747275302
 20
-3.430200492133565
 30
0.0
 70
     8
  0
VERTEX
  5
1964
330
1856
100
AcDbEntity
  8
0
100
AcDbVertex
100
AcDb2dVertex
 10
4.267205268905858
 20
-3.390965875447612
 30
0.0
 70
     8
  0
VERTEX
  5
1965
330
1856
100
AcDbEntity
  8
0
100
AcDbVertex
100
AcDb2dVertex
 10
4.253349965389446
 20
-3.351182700037536
 30
0.0
 70
     8
  0
VERTEX
  5
1966
330
1856
100
AcDbEntity
  8
0
100
AcDbVertex
100
AcDb2dVertex
 10
4.237969871016105
 20
-3.311506188532881
 30
0.0
 70
     8
  0
VERTEX
  5
1967
330
1856
100
AcDbEntity
  8
0
100
AcDbVertex
100
AcDb2dVertex
 10
4.220821020075817
 20
-3.272591563563228
 30
0.0
 70
     8
  0
VERTEX
  5
1968
330
1856
100
AcDbEntity
  8
0
100
AcDbVertex
100
AcDb2dVertex
 10
4.201659446858613
 20
-3.235094047758121
 30
0.0
 70
     8
  0
VERTEX
  5
1969
330
1856
100
AcDbEntity
  8
0
100
AcDbVertex
100
AcDb2dVertex
 10
4.180253891887076
 20
-3.199546961899354
 30
0.0
 70
     8
  0
VERTEX
  5
196A
330
1856
100
AcDbEntity
  8
0
100
AcDbVertex
100
AcDb2dVertex
 10
4.156423920614152
 20
-3.16599601937758
 30
0.0
 70
     8
  0
VERTEX
  5
196B
330
1856
100
AcDbEntity
  8
0
100
AcDbVertex
100
AcDb2dVertex
 10
4.13000180472536
 20
-3.134365031735686
 30
0.0
 70
     8
  0
VERTEX
  5
196C
330
1856
100
AcDbEntity
  8
0
100
AcDbVertex
100
AcDb2dVertex
 10
4.100819815906206
 20
-3.104577810516538
 30
0.0
 70
     8
  0
VERTEX
  5
196D
330
1856
100
AcDbEntity
  8
0
100
AcDbVertex
100
AcDb2dVertex
 10
4.068710225842227
 20
-3.076558167263019
 30
0.0
 70
     8
  0
VERTEX
  5
196E
330
1856
100
AcDbEntity
  8
0
100
AcDbVertex
100
AcDb2dVertex
 10
4.033505306218948
 20
-3.050229913518013
 30
0.0
 70
     8
  0
VERTEX
  5
196F
330
1856
100
AcDbEntity
  8
0
100
AcDbVertex
100
AcDb2dVertex
 10
3.995037328721863
 20
-3.025516860824385
 30
0.0
 70
     8
  0
VERTEX
  5
1970
330
1856
100
AcDbEntity
  8
0
100
AcDbVertex
100
AcDb2dVertex
 10
3.953138565036518
 20
-3.002342820725026
 30
0.0
 70
     8
  0
VERTEX
  5
1971
330
1856
100
AcDbEntity
  8
0
100
AcDbVertex
100
AcDb2dVertex
 10
3.907763270587089
 20
-2.980709063071184
 30
0.0
 70
     8
  0
VERTEX
  5
1972
330
1856
100
AcDbEntity
  8
0
100
AcDbVertex
100
AcDb2dVertex
 10
3.859353635752473
 20
-2.960926690947641
 30
0.0
 70
     8
  0
VERTEX
  5
1973
330
1856
100
AcDbEntity
  8
0
100
AcDbVertex
100
AcDb2dVertex
 10
3.808473834650222
 20
-2.943384265747564
 30
0.0
 70
     8
  0
VERTEX
  5
1974
330
1856
100
AcDbEntity
  8
0
100
AcDbVertex
100
AcDb2dVertex
 10
3.755688041397878
 20
-2.928470348864099
 30
0.0
 70
     8
  0
VERTEX
  5
1975
330
1856
100
AcDbEntity
  8
0
100
AcDbVertex
100
AcDb2dVertex
 10
3.701560430113019
 20
-2.916573501690411
 30
0.0
 70
     8
  0
VERTEX
  5
1976
330
1856
100
AcDbEntity
  8
0
100
AcDbVertex
100
AcDb2dVertex
 10
3.646655174913192
 20
-2.908082285619659
 30
0.0
 70
     8
  0
VERTEX
  5
1977
330
1856
100
AcDbEntity
  8
0
100
AcDbVertex
100
AcDb2dVertex
 10
3.591536449915952
 20
-2.903385262044999
 30
0.0
 70
     8
  0
VERTEX
  5
1978
330
1856
100
AcDbEntity
  8
0
100
AcDbVertex
100
AcDb2dVertex
 10
3.536768429238858
 20
-2.902870992359591
 30
0.0
 70
     8
  0
VERTEX
  5
1979
330
1856
100
AcDbEntity
  8
0
100
AcDbVertex
100
AcDb2dVertex
 10
3.482850483074777
 20
-2.906832802385192
 30
0.0
 70
     8
  0
VERTEX
  5
197A
330
1856
100
AcDbEntity
  8
0
100
AcDbVertex
100
AcDb2dVertex
 10
3.430022765917851
 20
-2.915183075657946
 30
0.0
 70
     8
  0
VERTEX
  5
197B
330
1856
100
AcDbEntity
  8
0
100
AcDbVertex
100
AcDb2dVertex
 10
3.378460628337521
 20
-2.927738960142594
 30
0.0
 70
     8
  0
VERTEX
  5
197C
330
1856
100
AcDbEntity
  8
0
100
AcDbVertex
100
AcDb2dVertex
 10
3.328339420903247
 20
-2.944317603803892
 30
0.0
 70
     8
  0
VERTEX
  5
197D
330
1856
100
AcDbEntity
  8
0
100
AcDbVertex
100
AcDb2dVertex
 10
3.279834494184477
 20
-2.964736154606566
 30
0.0
 70
     8
  0
VERTEX
  5
197E
330
1856
100
AcDbEntity
  8
0
100
AcDbVertex
100
AcDb2dVertex
 10
3.233121198750662
 20
-2.988811760515371
 30
0.0
 70
     8
  0
VERTEX
  5
197F
330
1856
100
AcDbEntity
  8
0
100
AcDbVertex
100
AcDb2dVertex
 10
3.188374885171253
 20
-3.016361569495042
 30
0.0
 70
     8
  0
VERTEX
  5
1980
330
1856
100
AcDbEntity
  8
0
100
AcDbVertex
100
AcDb2dVertex
 10
3.145770904015691
 20
-3.047202729510335
 30
0.0
 70
     8
  0
VERTEX
  5
1981
330
1856
100
AcDbEntity
  8
0
100
AcDbVertex
100
AcDb2dVertex
 10
3.105489688593909
 20
-3.08115238836233
 30
0.0
 70
     8
  0
VERTEX
  5
1982
330
1856
100
AcDbEntity
  8
0
100
AcDbVertex
100
AcDb2dVertex
 10
3.067732003177656
 20
-3.118027693197543
 30
0.0
 70
     8
  0
VERTEX
  5
1983
330
1856
100
AcDbEntity
  8
0
100
AcDbVertex
100
AcDb2dVertex
 10
3.032703694779183
 20
-3.157645790998838
 30
0.0
 70
     8
  0
VERTEX
  5
1984
330
1856
100
AcDbEntity
  8
0
100
AcDbVertex
100
AcDb2dVertex
 10
3.000610610410724
 20
-3.19982382874905
 30
0.0
 70
     8
  0
VERTEX
  5
1985
330
1856
100
AcDbEntity
  8
0
100
AcDbVertex
100
AcDb2dVertex
 10
2.971658597084502
 20
-3.244378953431056
 30
0.0
 70
     8
  0
VERTEX
  5
1986
330
1856
100
AcDbEntity
  8
0
100
AcDbVertex
100
AcDb2dVertex
 10
2.946053501812759
 20
-3.291128312027701
 30
0.0
 70
     8
  0
VERTEX
  5
1987
330
1856
100
AcDbEntity
  8
0
100
AcDbVertex
100
AcDb2dVertex
 10
2.924001171607731
 20
-3.339889051521854
 30
0.0
 70
     8
  0
VERTEX
  5
1988
330
1856
100
AcDbEntity
  8
0
100
AcDbVertex
100
AcDb2dVertex
 10
2.905707453481639
 20
-3.390478318896366
 30
0.0
 70
     8
  0
VERTEX
  5
1989
330
1856
100
AcDbEntity
  8
0
100
AcDbVertex
100
AcDb2dVertex
 10
2.891364217396485
 20
-3.442680246037813
 30
0.0
 70
     8
  0
VERTEX
  5
198A
330
1856
100
AcDbEntity
  8
0
100
AcDbVertex
100
AcDb2dVertex
 10
2.881107425113224
 20
-3.496146904447687
 30
0.0
 70
     8
  0
VERTEX
  5
198B
330
1856
100
AcDbEntity
  8
0
100
AcDbVertex
100
AcDb2dVertex
 10
2.875059061342582
 20
-3.550497350531195
 30
0.0
 70
     8
  0
VERTEX
  5
198C
330
1856
100
AcDbEntity
  8
0
100
AcDbVertex
100
AcDb2dVertex
 10
2.873341110795273
 20
-3.605350640693547
 30
0.0
 70
     8
  0
VERTEX
  5
198D
330
1856
100
AcDbEntity
  8
0
100
AcDbVertex
100
AcDb2dVertex
 10
2.876075558182016
 20
-3.660325831339946
 30
0.0
 70
     8
  0
VERTEX
  5
198E
330
1856
100
AcDbEntity
  8
0
100
AcDbVertex
100
AcDb2dVertex
 10
2.883384388213535
 20
-3.7150419788756
 30
0.0
 70
     8
  0
VERTEX
  5
198F
330
1856
100
AcDbEntity
  8
0
100
AcDbVertex
100
AcDb2dVertex
 10
2.895389585600547
 20
-3.769118139705724
 30
0.0
 70
     8
  0
VERTEX
  5
1990
330
1856
100
AcDbEntity
  8
0
100
AcDbVertex
100
AcDb2dVertex
 10
2.912213135053761
 20
-3.822173370235528
 30
0.0
 70
     8
  0
VERTEX
  5
1991
330
1856
100
AcDbEntity
  8
0
100
AcDbVertex
100
AcDb2dVertex
 10
2.933869014595483
 20
-3.873833076071949
 30
0.0
 70
     8
  0
VERTEX
  5
1992
330
1856
100
AcDbEntity
  8
0
100
AcDbVertex
100
AcDb2dVertex
 10
2.959939175494341
 20
-3.923748059628927
 30
0.0
 70
     8
  0
VERTEX
  5
1993
330
1856
100
AcDbEntity
  8
0
100
AcDbVertex
100
AcDb2dVertex
 10
2.989897562330511
 20
-3.971575472522086
 30
0.0
 70
     8
  0
VERTEX
  5
1994
330
1856
100
AcDbEntity
  8
0
100
AcDbVertex
100
AcDb2dVertex
 10
3.023218119684205
 20
-4.016972466367104
 30
0.0
 70
     8
  0
VERTEX
  5
1995
330
1856
100
AcDbEntity
  8
0
100
AcDbVertex
100
AcDb2dVertex
 10
3.059374792135621
 20
-4.059596192779615
 30
0.0
 70
     8
  0
VERTEX
  5
1996
330
1856
100
AcDbEntity
  8
0
100
AcDbVertex
100
AcDb2dVertex
 10
3.097841524264964
 20
-4.099103803375292
 30
0.0
 70
     8
  0
VERTEX
  5
1997
330
1856
100
AcDbEntity
  8
0
100
AcDbVertex
100
AcDb2dVertex
 10
3.138092260652424
 20
-4.135152449769798
 30
0.0
 70
     8
  0
VERTEX
  5
1998
330
1856
100
AcDbEntity
  8
0
100
AcDbVertex
100
AcDb2dVertex
 10
3.17960094587821
 20
-4.167399283578763
 30
0.0
 70
     8
  0
VERTEX
  5
1999
330
1856
100
AcDbEntity
  8
0
100
AcDbVertex
100
AcDb2dVertex
 10
3.221841525052713
 20
-4.195633516639308
 30
0.0
 70
     8
  0
VERTEX
  5
199A
330
1856
100
AcDbEntity
  8
0
100
AcDbVertex
100
AcDb2dVertex
 10
3.264287945407176
 20
-4.220172601674345
 30
0.0
 70
     8
  0
VERTEX
  5
199B
330
1856
100
AcDbEntity
  8
0
100
AcDbVertex
100
AcDb2dVertex
 10
3.306414154703038
 20
-4.241466051628243
 30
0.0
 70
     8
  0
VERTEX
  5
199C
330
1856
100
AcDbEntity
  8
0
100
AcDbVertex
100
AcDb2dVertex
 10
3.347694100701747
 20
-4.259963379445363
 30
0.0
 70
     8
  0
VERTEX
  5
199D
330
1856
100
AcDbEntity
  8
0
100
AcDbVertex
100
AcDb2dVertex
 10
3.387601731164728
 20
-4.27611409807007
 30
0.0
 70
     8
  0
VERTEX
  5
199E
330
1856
100
AcDbEntity
  8
0
100
AcDbVertex
100
AcDb2dVertex
 10
3.425610993853428
 20
-4.290367720446734
 30
0.0
 70
     8
  0
VERTEX
  5
199F
330
1856
100
AcDbEntity
  8
0
100
AcDbVertex
100
AcDb2dVertex
 10
3.461195836529284
 20
-4.303173759519715
 30
0.0
 70
     8
  0
VERTEX
  5
19A0
330
1856
100
AcDbEntity
  8
0
100
AcDbVertex
100
AcDb2dVertex
 10
3.493830206953745
 20
-4.314981728233377
 30
0.0
 70
     8
  0
VERTEX
  5
19A1
330
1856
100
AcDbEntity
  8
0
100
AcDbVertex
100
AcDb2dVertex
 10
3.523144002655541
 20
-4.326250985447838
 30
0.0
 70
     8
  0
VERTEX
  5
19A2
330
1856
100
AcDbEntity
  8
0
100
AcDbVertex
100
AcDb2dVertex
 10
3.549390920232649
 20
-4.337480273686193
 30
0.0
 70
     8
  0
VERTEX
  5
19A3
330
1856
100
AcDbEntity
  8
0
100
AcDbVertex
100
AcDb2dVertex
 10
3.572980606050329
 20
-4.349178181387294
 30
0.0
 70
     8
  0
VERTEX
  5
19A4
330
1856
100
AcDbEntity
  8
0
100
AcDbVertex
100
AcDb2dVertex
 10
3.594322706473839
 20
-4.361853296989988
 30
0.0
 70
     8
  0
VERTEX
  5
19A5
330
1856
100
AcDbEntity
  8
0
100
AcDbVertex
100
AcDb2dVertex
 10
3.613826867868457
 20
-4.376014208933131
 30
0.0
 70
     8
  0
VERTEX
  5
19A6
330
1856
100
AcDbEntity
  8
0
100
AcDbVertex
100
AcDb2dVertex
 10
3.631902736599435
 20
-4.392169505655555
 30
0.0
 70
     8
  0
VERTEX
  5
19A7
330
1856
100
AcDbEntity
  8
0
100
AcDbVertex
100
AcDb2dVertex
 10
3.648959959032048
 20
-4.410827775596114
 30
0.0
 70
     8
  0
VERTEX
  5
19A8
330
1856
100
AcDbEntity
  8
0
100
AcDbVertex
100
AcDb2dVertex
 10
3.665408181531553
 20
-4.432497607193656
 30
0.0
 70
     8
  0
VERTEX
  5
19A9
330
1856
100
AcDbEntity
  8
0
100
AcDbVertex
100
AcDb2dVertex
 10
3.681539062010585
 20
-4.457543231798897
 30
0.0
 70
     8
  0
VERTEX
  5
19AA
330
1856
100
AcDbEntity
  8
0
100
AcDbVertex
100
AcDb2dVertex
 10
3.697172304571179
 20
-4.48575145241001
 30
0.0
 70
     8
  0
VERTEX
  5
19AB
330
1856
100
AcDbEntity
  8
0
100
AcDbVertex
100
AcDb2dVertex
 10
3.712009624862751
 20
-4.516764714937
 30
0.0
 70
     8
  0
VERTEX
  5
19AC
330
1856
100
AcDbEntity
  8
0
100
AcDbVertex
100
AcDb2dVertex
 10
3.725752738534712
 20
-4.550225465289923
 30
0.0
 70
     8
  0
VERTEX
  5
19AD
330
1856
100
AcDbEntity
  8
0
100
AcDbVertex
100
AcDb2dVertex
 10
3.738103361236468
 20
-4.585776149378784
 30
0.0
 70
     8
  0
VERTEX
  5
19AE
330
1856
100
AcDbEntity
  8
0
100
AcDbVertex
100
AcDb2dVertex
 10
3.748763208617415
 20
-4.623059213113638
 30
0.0
 70
     8
  0
VERTEX
  5
19AF
330
1856
100
AcDbEntity
  8
0
100
AcDbVertex
100
AcDb2dVertex
 10
3.757433996326973
 20
-4.661717102404498
 30
0.0
 70
     8
  0
VERTEX
  5
19B0
330
1856
100
AcDbEntity
  8
0
100
AcDbVertex
100
AcDb2dVertex
 10
3.763817440014548
 20
-4.701392263161398
 30
0.0
 70
     8
  0
VERTEX
  5
19B1
330
1856
100
AcDbEntity
  8
0
100
AcDbVertex
100
AcDb2dVertex
 10
3.767643358771671
 20
-4.741763319427075
 30
0.0
 70
     8
  0
VERTEX
  5
19B2
330
1856
100
AcDbEntity
  8
0
100
AcDbVertex
100
AcDb2dVertex
 10
3.768753985458385
 20
-4.782653607775127
 30
0.0
 70
     8
  0
VERTEX
  5
19B3
330
1856
100
AcDbEntity
  8
0
100
AcDbVertex
100
AcDb2dVertex
 10
3.767019656376856
 20
-4.823922642911842
 30
0.0
 70
     8
  0
VERTEX
  5
19B4
330
1856
100
AcDbEntity
  8
0
100
AcDbVertex
100
AcDb2dVertex
 10
3.76231070782925
 20
-4.86542993954351
 30
0.0
 70
     8
  0
VERTEX
  5
19B5
330
1856
100
AcDbEntity
  8
0
100
AcDbVertex
100
AcDb2dVertex
 10
3.754497476117734
 20
-4.907035012376436
 30
0.0
 70
     8
  0
VERTEX
  5
19B6
330
1856
100
AcDbEntity
  8
0
100
AcDbVertex
100
AcDb2dVertex
 10
3.743450297544477
 20
-4.948597376116918
 30
0.0
 70
     8
  0
VERTEX
  5
19B7
330
1856
100
AcDbEntity
  8
0
100
AcDbVertex
100
AcDb2dVertex
 10
3.729039508411648
 20
-4.98997654547124
 30
0.0
 70
     8
  0
VERTEX
  5
19B8
330
1856
100
AcDbEntity
  8
0
100
AcDbVertex
100
AcDb2dVertex
 10
3.711135445021419
 20
-5.031032035145706
 30
0.0
 70
     8
  0
VERTEX
  5
19B9
330
1856
100
AcDbEntity
  8
0
100
AcDbVertex
100
AcDb2dVertex
 10
3.689679405247293
 20
-5.071622598503171
 30
0.0
 70
     8
  0
VERTEX
  5
19BA
330
1856
100
AcDbEntity
  8
0
100
AcDbVertex
100
AcDb2dVertex
 10
3.66489653324821
 20
-5.111603943532724
 30
0.0
 70
     8
  0
VERTEX
  5
19BB
330
1856
100
AcDbEntity
  8
0
100
AcDbVertex
100
AcDb2dVertex
 10
3.637082934754438
 20
-5.150831016879987
 30
0.0
 70
     8
  0
VERTEX
  5
19BC
330
1856
100
AcDbEntity
  8
0
100
AcDbVertex
100
AcDb2dVertex
 10
3.606534715496259
 20
-5.189158765190608
 30
0.0
 70
     8
  0
VERTEX
  5
19BD
330
1856
100
AcDbEntity
  8
0
100
AcDbVertex
100
AcDb2dVertex
 10
3.573547981203937
 20
-5.226442135110215
 30
0.0
 70
     8
  0
VERTEX
  5
19BE
330
1856
100
AcDbEntity
  8
0
100
AcDbVertex
100
AcDb2dVertex
 10
3.538418837607753
 20
-5.262536073284469
 30
0.0
 70
     8
  0
VERTEX
  5
19BF
330
1856
100
AcDbEntity
  8
0
100
AcDbVertex
100
AcDb2dVertex
 10
3.501443390437984
 20
-5.297295526358979
 30
0.0
 70
     8
  0
VERTEX
  5
19C0
330
1856
100
AcDbEntity
  8
0
100
AcDbVertex
100
AcDb2dVertex
 10
3.462917745424899
 20
-5.330575440979405
 30
0.0
 70
     8
  0
VERTEX
  5
19C1
330
1856
100
AcDbEntity
  8
0
100
AcDbVertex
100
AcDb2dVertex
 10
3.42314865246821
 20
-5.362251071319899
 30
0.0
 70
     8
  0
VERTEX
  5
19C2
330
1856
100
AcDbEntity
  8
0
100
AcDbVertex
100
AcDb2dVertex
 10
3.382485438145316
 20
-5.392278901668728
 30
0.0
 70
     8
  0
VERTEX
  5
19C3
330
1856
100
AcDbEntity
  8
0
100
AcDbVertex
100
AcDb2dVertex
 10
3.341288073203056
 20
-5.420635723842657
 30
0.0
 70
     8
  0
VERTEX
  5
19C4
330
1856
100
AcDbEntity
  8
0
100
AcDbVertex
100
AcDb2dVertex
 10
3.29991652838828
 20
-5.44729832965848
 30
0.0
 70
     8
  0
VERTEX
  5
19C5
330
1856
100
AcDbEntity
  8
0
100
AcDbVertex
100
AcDb2dVertex
 10
3.258730774447801
 20
-5.47224351093298
 30
0.0
 70
     8
  0
VERTEX
  5
19C6
330
1856
100
AcDbEntity
  8
0
100
AcDbVertex
100
AcDb2dVertex
 10
3.21809078212847
 20
-5.495448059482924
 30
0.0
 70
     8
  0
VERTEX
  5
19C7
330
1856
100
AcDbEntity
  8
0
100
AcDbVertex
100
AcDb2dVertex
 10
3.178356522177125
 20
-5.516888767125106
 30
0.0
 70
     8
  0
VERTEX
  5
19C8
330
1856
100
AcDbEntity
  8
0
100
AcDbVertex
100
AcDb2dVertex
 10
3.139887965340598
 20
-5.536542425676305
 30
0.0
 70
     8
  0
VERTEX
  5
19C9
330
1856
100
AcDbEntity
  8
0
100
AcDbVertex
100
AcDb2dVertex
 10
3.103005408394274
 20
-5.554433210804671
 30
0.0
 70
     8
  0
VERTEX
  5
19CA
330
1856
100
AcDbEntity
  8
0
100
AcDbVertex
100
AcDb2dVertex
 10
3.067870452227772
 20
-5.570774833583886
 30
0.0
 70
     8
  0
VERTEX
  5
19CB
330
1856
100
AcDbEntity
  8
0
100
AcDbVertex
100
AcDb2dVertex
 10
3.034605023759251
 20
-5.585828388938988
 30
0.0
 70
     8
  0
VERTEX
  5
19CC
330
1856
100
AcDbEntity
  8
0
100
AcDbVertex
100
AcDb2dVertex
 10
3.003331049906865
 20
-5.599854971795021
 30
0.0
 70
     8
  0
VERTEX
  5
19CD
330
1856
100
AcDbEntity
  8
0
100
AcDbVertex
100
AcDb2dVertex
 10
2.974170457588783
 20
-5.613115677077043
 30
0.0
 70
     8
  0
VERTEX
  5
19CE
330
1856
100
AcDbEntity
  8
0
100
AcDbVertex
100
AcDb2dVertex
 10
2.947245173723175
 20
-5.625871599710098
 30
0.0
 70
     8
  0
VERTEX
  5
19CF
330
1856
100
AcDbEntity
  8
0
100
AcDbVertex
100
AcDb2dVertex
 10
2.922677125228187
 20
-5.638383834619226
 30
0.0
 70
     8
  0
VERTEX
  5
19D0
330
1856
100
AcDbEntity
  8
0
100
AcDbVertex
100
AcDb2dVertex
 10
2.900588239021985
 20
-5.650913476729471
 30
0.0
 70
     8
  0
VERTEX
  5
19D1
330
1856
100
AcDbEntity
  8
0
100
AcDbVertex
100
AcDb2dVertex
 10
2.881089797323102
 20
-5.66366069881672
 30
0.0
 70
     8
  0
VERTEX
  5
19D2
330
1856
100
AcDbEntity
  8
0
100
AcDbVertex
100
AcDb2dVertex
 10
2.864250503551531
 20
-5.676581985060114
 30
0.0
 70
     8
  0
VERTEX
  5
19D3
330
1856
100
AcDbEntity
  8
0
100
AcDbVertex
100
AcDb2dVertex
 10
2.850128416427629
 20
-5.68957289748965
 30
0.0
 70
     8
  0
VERTEX
  5
19D4
330
1856
100
AcDbEntity
  8
0
100
AcDbVertex
100
AcDb2dVertex
 10
2.838781594671765
 20
-5.702528998135289
 30
0.0
 70
     8
  0
VERTEX
  5
19D5
330
1856
100
AcDbEntity
  8
0
100
AcDbVertex
100
AcDb2dVertex
 10
2.830268097004285
 20
-5.715345849027027
 30
0.0
 70
     8
  0
VERTEX
  5
19D6
330
1856
100
AcDbEntity
  8
0
100
AcDbVertex
100
AcDb2dVertex
 10
2.824645982145554
 20
-5.727919012194842
 30
0.0
 70
     8
  0
VERTEX
  5
19D7
330
1856
100
AcDbEntity
  8
0
100
AcDbVertex
100
AcDb2dVertex
 10
2.821973308815937
 20
-5.740144049668717
 30
0.0
 70
     8
  0
VERTEX
  5
19D8
330
1856
100
AcDbEntity
  8
0
100
AcDbVertex
100
AcDb2dVertex
 10
2.822308135735788
 20
-5.751916523478637
 30
0.0
 70
     8
  0
VERTEX
  5
19D9
330
1856
100
AcDbEntity
  8
0
100
AcDbVertex
100
AcDb2dVertex
 10
2.825663041622924
 20
-5.763128127569483
 30
0.0
 70
     8
  0
VERTEX
  5
19DA
330
1856
100
AcDbEntity
  8
0
100
AcDbVertex
100
AcDb2dVertex
 10
2.831868685184982
 20
-5.773655083545822
 30
0.0
 70
     8
  0
VERTEX
  5
19DB
330
1856
100
AcDbEntity
  8
0
100
AcDbVertex
100
AcDb2dVertex
 10
2.840710245127059
 20
-5.783369744927117
 30
0.0
 70
     8
  0
VERTEX
  5
19DC
330
1856
100
AcDbEntity
  8
0
100
AcDbVertex
100
AcDb2dVertex
 10
2.851972900154262
 20
-5.792144465232826
 30
0.0
 70
     8
  0
VERTEX
  5
19DD
330
1856
100
AcDbEntity
  8
0
100
AcDbVertex
100
AcDb2dVertex
 10
2.865441828971675
 20
-5.799851597982424
 30
0.0
 70
     8
  0
VERTEX
  5
19DE
330
1856
100
AcDbEntity
  8
0
100
AcDbVertex
100
AcDb2dVertex
 10
2.880902210284411
 20
-5.806363496695386
 30
0.0
 70
     8
  0
VERTEX
  5
19DF
330
1856
100
AcDbEntity
  8
0
100
AcDbVertex
100
AcDb2dVertex
 10
2.898139222797549
 20
-5.811552514891165
 30
0.0
 70
     8
  0
VERTEX
  5
19E0
330
1856
100
AcDbEntity
  8
0
100
AcDbVertex
100
AcDb2dVertex
 10
2.916938045216191
 20
-5.815291006089235
 30
0.0
 70
     8
  0
VERTEX
  5
19E1
330
1856
100
AcDbEntity
  8
0
100
AcDbVertex
100
AcDb2dVertex
 10
2.93710224187804
 20
-5.817522883164954
 30
0.0
 70
     8
  0
VERTEX
  5
19E2
330
1856
100
AcDbEntity
  8
0
100
AcDbVertex
100
AcDb2dVertex
 10
2.958508919651134
 20
-5.818478296417229
 30
0.0
 70
     8
  0
VERTEX
  5
19E3
330
1856
100
AcDbEntity
  8
0
100
AcDbVertex
100
AcDb2dVertex
 10
2.981053571036134
 20
-5.818458955500858
 30
0.0
 70
     8
  0
VERTEX
  5
19E4
330
1856
100
AcDbEntity
  8
0
100
AcDbVertex
100
AcDb2dVertex
 10
3.004631688533688
 20
-5.817766570070642
 30
0.0
 70
     8
  0
VERTEX
  5
19E5
330
1856
100
AcDbEntity
  8
0
100
AcDbVertex
100
AcDb2dVertex
 10
3.029138764644443
 20
-5.816702849781382
 30
0.0
 70
     8
  0
VERTEX
  5
19E6
330
1856
100
AcDbEntity
  8
0
100
AcDbVertex
100
AcDb2dVertex
 10
3.054470291869044
 20
-5.815569504287868
 30
0.0
 70
     8
  0
VERTEX
  5
19E7
330
1856
100
AcDbEntity
  8
0
100
AcDbVertex
100
AcDb2dVertex
 10
3.080521762708155
 20
-5.814668243244906
 30
0.0
 70
     8
  0
VERTEX
  5
19E8
330
1856
100
AcDbEntity
  8
0
100
AcDbVertex
100
AcDb2dVertex
 10
3.107188669662406
 20
-5.814300776307302
 30
0.0
 70
     8
  0
VERTEX
  5
19E9
330
1856
100
AcDbEntity
  8
0
100
AcDbVertex
100
AcDb2dVertex
 10
3.134322190359675
 20
-5.814710059093901
 30
0.0
 70
     8
  0
VERTEX
  5
19EA
330
1856
100
AcDbEntity
  8
0
100
AcDbVertex
100
AcDb2dVertex
 10
3.161596242936628
 20
-5.815904031079828
 30
0.0
 70
     8
  0
VERTEX
  5
19EB
330
1856
100
AcDbEntity
  8
0
100
AcDbVertex
100
AcDb2dVertex
 10
3.188640430657166
 20
-5.817831877704247
 30
0.0
 70
     8
  0
VERTEX
  5
19EC
330
1856
100
AcDbEntity
  8
0
100
AcDbVertex
100
AcDb2dVertex
 10
3.215084356785183
 20
-5.820442784406321
 30
0.0
 70
     8
  0
VERTEX
  5
19ED
330
1856
100
AcDbEntity
  8
0
100
AcDbVertex
100
AcDb2dVertex
 10
3.240557624584567
 20
-5.823685936625228
 30
0.0
 70
     8
  0
VERTEX
  5
19EE
330
1856
100
AcDbEntity
  8
0
100
AcDbVertex
100
AcDb2dVertex
 10
3.264689837319217
 20
-5.827510519800142
 30
0.0
 70
     8
  0
VERTEX
  5
19EF
330
1856
100
AcDbEntity
  8
0
100
AcDbVertex
100
AcDb2dVertex
 10
3.287110598253022
 20
-5.831865719370238
 30
0.0
 70
     8
  0
VERTEX
  5
19F0
330
1856
100
AcDbEntity
  8
0
100
AcDbVertex
100
AcDb2dVertex
 10
3.307449510649881
 20
-5.836700720774675
 30
0.0
 70
     8
  0
VERTEX
  5
19F1
330
1856
100
AcDbEntity
  8
0
100
AcDbVertex
100
AcDb2dVertex
 10
3.325426678796279
 20
-5.842026212605532
 30
0.0
 70
     8
  0
VERTEX
  5
19F2
330
1856
100
AcDbEntity
  8
0
100
AcDbVertex
100
AcDb2dVertex
 10
3.341124211069192
 20
-5.848098896066499
 30
0.0
 70
     8
  0
VERTEX
  5
19F3
330
1856
100
AcDbEntity
  8
0
100
AcDbVertex
100
AcDb2dVertex
 10
3.354714716868191
 20
-5.855236975514177
 30
0.0
 70
     8
  0
VERTEX
  5
19F4
330
1856
100
AcDbEntity
  8
0
100
AcDbVertex
100
AcDb2dVertex
 10
3.366370805592843
 20
-5.863758655305158
 30
0.0
 70
     8
  0
VERTEX
  5
19F5
330
1856
100
AcDbEntity
  8
0
100
AcDbVertex
100
AcDb2dVertex
 10
3.376265086642714
 20
-5.873982139796044
 30
0.0
 70
     8
  0
VERTEX
  5
19F6
330
1856
100
AcDbEntity
  8
0
100
AcDbVertex
100
AcDb2dVertex
 10
3.384570169417372
 20
-5.886225633343411
 30
0.0
 70
     8
  0
VERTEX
  5
19F7
330
1856
100
AcDbEntity
  8
0
100
AcDbVertex
100
AcDb2dVertex
 10
3.391458663316406
 20
-5.900807340303874
 30
0.0
 70
     8
  0
VERTEX
  5
19F8
330
1856
100
AcDbEntity
  8
0
100
AcDbVertex
100
AcDb2dVertex
 10
3.397103177739364
 20
-5.91804546503403
 30
0.0
 70
     8
  0
VERTEX
  5
19F9
330
1856
100
AcDbEntity
  8
0
100
AcDbVertex
100
AcDb2dVertex
 10
3.401604693602507
 20
-5.93823936093517
 30
0.0
 70
     8
  0
VERTEX
  5
19FA
330
1856
100
AcDbEntity
  8
0
100
AcDbVertex
100
AcDb2dVertex
 10
3.404777677888851
 20
-5.961612977587446
 30
0.0
 70
     8
  0
VERTEX
  5
19FB
330
1856
100
AcDbEntity
  8
0
100
AcDbVertex
100
AcDb2dVertex
 10
3.406364969098063
 20
-5.988371413615698
 30
0.0
 70
     8
  0
VERTEX
  5
19FC
330
1856
100
AcDbEntity
  8
0
100
AcDbVertex
100
AcDb2dVertex
 10
3.406109405729832
 20
-6.018719767644792
 30
0.0
 70
     8
  0
VERTEX
  5
19FD
330
1856
100
AcDbEntity
  8
0
100
AcDbVertex
100
AcDb2dVertex
 10
3.403753826283846
 20
-6.052863138299574
 30
0.0
 70
     8
  0
VERTEX
  5
19FE
330
1856
100
AcDbEntity
  8
0
100
AcDbVertex
100
AcDb2dVertex
 10
3.399041069259791
 20
-6.09100662420489
 30
0.0
 70
     8
  0
VERTEX
  5
19FF
330
1856
100
AcDbEntity
  8
0
100
AcDbVertex
100
AcDb2dVertex
 10
3.391713973157354
 20
-6.133355323985597
 30
0.0
 70
     8
  0
VERTEX
  5
1A00
330
1856
100
AcDbEntity
  8
0
100
AcDbVertex
100
AcDb2dVertex
 10
3.381515376476208
 20
-6.180114336266544
 30
0.0
 70
     8
  0
VERTEX
  5
1A01
330
1856
100
AcDbEntity
  8
0
100
AcDbVertex
100
AcDb2dVertex
 10
3.368327196740359
 20
-6.231292251404124
 30
0.0
 70
     8
  0
VERTEX
  5
1A02
330
1856
100
AcDbEntity
  8
0
100
AcDbVertex
100
AcDb2dVertex
 10
3.352587667571029
 20
-6.286111626680838
 30
0.0
 70
     8
  0
VERTEX
  5
1A03
330
1856
100
AcDbEntity
  8
0
100
AcDbVertex
100
AcDb2dVertex
 10
3.334874101613742
 20
-6.343598511110744
 30
0.0
 70
     8
  0
VERTEX
  5
1A04
330
1856
100
AcDbEntity
  8
0
100
AcDbVertex
100
AcDb2dVertex
 10
3.315763811514038
 20
-6.402778953707883
 30
0.0
 70
     8
  0
VERTEX
  5
1A05
330
1856
100
AcDbEntity
  8
0
100
AcDbVertex
100
AcDb2dVertex
 10
3.29583410991745
 20
-6.462679003486325
 30
0.0
 70
     8
  0
VERTEX
  5
1A06
330
1856
100
AcDbEntity
  8
0
100
AcDbVertex
100
AcDb2dVertex
 10
3.27566230946951
 20
-6.522324709460093
 30
0.0
 70
     8
  0
VERTEX
  5
1A07
330
1856
100
AcDbEntity
  8
0
100
AcDbVertex
100
AcDb2dVertex
 10
3.25582572281575
 20
-6.580742120643247
 30
0.0
 70
     8
  0
VERTEX
  5
1A08
330
1856
100
AcDbEntity
  8
0
100
AcDbVertex
100
AcDb2dVertex
 10
3.236901662601706
 20
-6.636957286049831
 30
0.0
 70
     8
  0
VERTEX
  5
1A09
330
1856
100
AcDbEntity
  8
0
100
AcDbVertex
100
AcDb2dVertex
 10
3.219372257309125
 20
-6.690187529564891
 30
0.0
 70
     8
  0
VERTEX
  5
1A0A
330
1856
100
AcDbEntity
  8
0
100
AcDbVertex
100
AcDb2dVertex
 10
3.203338898764648
 20
-6.740415274557431
 30
0.0
 70
     8
  0
VERTEX
  5
1A0B
330
1856
100
AcDbEntity
  8
0
100
AcDbVertex
100
AcDb2dVertex
 10
3.188807794631124
 20
-6.787814219267435
 30
0.0
 70
     8
  0
VERTEX
  5
1A0C
330
1856
100
AcDbEntity
  8
0
100
AcDbVertex
100
AcDb2dVertex
 10
3.175785152571407
 20
-6.832558061934907
 30
0.0
 70
     8
  0
VERTEX
  5
1A0D
330
1856
100
AcDbEntity
  8
0
100
AcDbVertex
100
AcDb2dVertex
 10
3.164277180248369
 20
-6.874820500799845
 30
0.0
 70
     8
  0
VERTEX
  5
1A0E
330
1856
100
AcDbEntity
  8
0
100
AcDbVertex
100
AcDb2dVertex
 10
3.154290085324841
 20
-6.914775234102233
 30
0.0
 70
     8
  0
VERTEX
  5
1A0F
330
1856
100
AcDbEntity
  8
0
100
AcDbVertex
100
AcDb2dVertex
 10
3.145830075463692
 20
-6.95259596008206
 30
0.0
 70
     8
  0
VERTEX
  5
1A10
330
1856
100
AcDbEntity
  8
0
100
AcDbVertex
100
AcDb2dVertex
 10
3.138903358327784
 20
-6.988456376979339
 30
0.0
 70
     8
  0
VERTEX
  5
1A11
330
1856
100
AcDbEntity
  8
0
100
AcDbVertex
100
AcDb2dVertex
 10
3.133501657033292
 20
-7.022515708180716
 30
0.0
 70
     8
  0
VERTEX
  5
1A12
330
1856
100
AcDbEntity
  8
0
100
AcDbVertex
100
AcDb2dVertex
 10
3.129558756509773
 20
-7.05487527765953
 30
0.0
 70
     8
  0
VERTEX
  5
1A13
330
1856
100
AcDbEntity
  8
0
100
AcDbVertex
100
AcDb2dVertex
 10
3.126993957140104
 20
-7.085621934535772
 30
0.0
 70
     8
  0
VERTEX
  5
1A14
330
1856
100
AcDbEntity
  8
0
100
AcDbVertex
100
AcDb2dVertex
 10
3.125726559307164
 20
-7.11484252792945
 30
0.0
 70
     8
  0
VERTEX
  5
1A15
330
1856
100
AcDbEntity
  8
0
100
AcDbVertex
100
AcDb2dVertex
 10
3.125675863393851
 20
-7.14262390696054
 30
0.0
 70
     8
  0
VERTEX
  5
1A16
330
1856
100
AcDbEntity
  8
0
100
AcDbVertex
100
AcDb2dVertex
 10
3.12676116978303
 20
-7.169052920749063
 30
0.0
 70
     8
  0
VERTEX
  5
1A17
330
1856
100
AcDbEntity
  8
0
100
AcDbVertex
100
AcDb2dVertex
 10
3.128901778857596
 20
-7.194216418415006
 30
0.0
 70
     8
  0
VERTEX
  5
1A18
330
1856
100
AcDbEntity
  8
0
100
AcDbVertex
100
AcDb2dVertex
 10
3.132016991000423
 20
-7.218201249078351
 30
0.0
 70
     8
  0
VERTEX
  5
1A19
330
1856
100
AcDbEntity
  8
0
100
AcDbVertex
100
AcDb2dVertex
 10
3.136032314257253
 20
-7.241071515707783
 30
0.0
 70
     8
  0
VERTEX
  5
1A1A
330
1856
100
AcDbEntity
  8
0
100
AcDbVertex
100
AcDb2dVertex
 10
3.140898087325243
 20
-7.26280033666659
 30
0.0
 70
     8
  0
VERTEX
  5
1A1B
330
1856
100
AcDbEntity
  8
0
100
AcDbVertex
100
AcDb2dVertex
 10
3.146570856564409
 20
-7.283338084166761
 30
0.0
 70
     8
  0
VERTEX
  5
1A1C
330
1856
100
AcDbEntity
  8
0
100
AcDbVertex
100
AcDb2dVertex
 10
3.15300716833477
 20
-7.302635130420242
 30
0.0
 70
     8
  0
VERTEX
  5
1A1D
330
1856
100
AcDbEntity
  8
0
100
AcDbVertex
100
AcDb2dVertex
 10
3.160163568996324
 20
-7.320641847639013
 30
0.0
 70
     8
  0
VERTEX
  5
1A1E
330
1856
100
AcDbEntity
  8
0
100
AcDbVertex
100
AcDb2dVertex
 10
3.167996604909095
 20
-7.337308608035041
 30
0.0
 70
     8
  0
VERTEX
  5
1A1F
330
1856
100
AcDbEntity
  8
0
100
AcDbVertex
100
AcDb2dVertex
 10
3.176462822433105
 20
-7.352585783820305
 30
0.0
 70
     8
  0
VERTEX
  5
1A20
330
1856
100
AcDbEntity
  8
0
100
AcDbVertex
100
AcDb2dVertex
 10
3.185518767928343
 20
-7.366423747206756
 30
0.0
 70
     8
  0
VERTEX
  5
1A21
330
1856
100
AcDbEntity
  8
0
100
AcDbVertex
100
AcDb2dVertex
 10
3.195106503208194
 20
-7.378790446873725
 30
0.0
 70
     8
  0
VERTEX
  5
1A22
330
1856
100
AcDbEntity
  8
0
100
AcDbVertex
100
AcDb2dVertex
 10
3.205110151899329
 20
-7.389724137369928
 30
0.0
 70
     8
  0
VERTEX
  5
1A23
330
1856
100
AcDbEntity
  8
0
100
AcDbVertex
100
AcDb2dVertex
 10
3.215399353081807
 20
-7.39928064971141
 30
0.0
 70
     8
  0
VERTEX
  5
1A24
330
1856
100
AcDbEntity
  8
0
100
AcDbVertex
100
AcDb2dVertex
 10
3.225843745835661
 20
-7.407515814914258
 30
0.0
 70
     8
  0
VERTEX
  5
1A25
330
1856
100
AcDbEntity
  8
0
100
AcDbVertex
100
AcDb2dVertex
 10
3.236312969240941
 20
-7.414485463994523
 30
0.0
 70
     8
  0
VERTEX
  5
1A26
330
1856
100
AcDbEntity
  8
0
100
AcDbVertex
100
AcDb2dVertex
 10
3.246676662377687
 20
-7.420245427968275
 30
0.0
 70
     8
  0
VERTEX
  5
1A27
330
1856
100
AcDbEntity
  8
0
100
AcDbVertex
100
AcDb2dVertex
 10
3.256804464325931
 20
-7.424851537851562
 30
0.0
 70
     8
  0
VERTEX
  5
1A28
330
1856
100
AcDbEntity
  8
0
100
AcDbVertex
100
AcDb2dVertex
 10
3.266566014165718
 20
-7.428359624660462
 30
0.0
 70
     8
  0
VERTEX
  5
1A29
330
1856
100
AcDbEntity
  8
0
100
AcDbVertex
100
AcDb2dVertex
 10
3.275853377670244
 20
-7.430814639133007
 30
0.0
 70
     8
  0
VERTEX
  5
1A2A
330
1856
100
AcDbEntity
  8
0
100
AcDbVertex
100
AcDb2dVertex
 10
3.284648327385319
 20
-7.432218010895109
 30
0.0
 70
     8
  0
VERTEX
  5
1A2B
330
1856
100
AcDbEntity
  8
0
100
AcDbVertex
100
AcDb2dVertex
 10
3.292955062549914
 20
-7.43256028929467
 30
0.0
 70
     8
  0
VERTEX
  5
1A2C
330
1856
100
AcDbEntity
  8
0
100
AcDbVertex
100
AcDb2dVertex
 10
3.300777782402985
 20
-7.431832023679579
 30
0.0
 70
     8
  0
VERTEX
  5
1A2D
330
1856
100
AcDbEntity
  8
0
100
AcDbVertex
100
AcDb2dVertex
 10
3.308120686183514
 20
-7.430023763397709
 30
0.0
 70
     8
  0
VERTEX
  5
1A2E
330
1856
100
AcDbEntity
  8
0
100
AcDbVertex
100
AcDb2dVertex
 10
3.314987973130442
 20
-7.427126057796968
 30
0.0
 70
     8
  0
VERTEX
  5
1A2F
330
1856
100
AcDbEntity
  8
0
100
AcDbVertex
100
AcDb2dVertex
 10
3.321383842482767
 20
-7.423129456225243
 30
0.0
 70
     8
  0
VERTEX
  5
1A30
330
1856
100
AcDbEntity
  8
0
100
AcDbVertex
100
AcDb2dVertex
 10
3.327312493479432
 20
-7.418024508030416
 30
0.0
 70
     8
  0
VERTEX
  5
1A31
330
1856
100
AcDbEntity
  8
0
100
AcDbVertex
100
AcDb2dVertex
 10
3.33282231545683
 20
-7.411630369188529
 30
0.0
 70
     8
  0
VERTEX
  5
1A32
330
1856
100
AcDbEntity
  8
0
100
AcDbVertex
100
AcDb2dVertex
 10
3.338138458141067
 20
-7.403080622188142
 30
0.0
 70
     8
  0
VERTEX
  5
1A33
330
1856
100
AcDbEntity
  8
0
100
AcDbVertex
100
AcDb2dVertex
 10
3.343530261355667
 20
-7.391337456145958
 30
0.0
 70
     8
  0
VERTEX
  5
1A34
330
1856
100
AcDbEntity
  8
0
100
AcDbVertex
100
AcDb2dVertex
 10
3.349267064924141
 20
-7.375363060178703
 30
0.0
 70
     8
  0
VERTEX
  5
1A35
330
1856
100
AcDbEntity
  8
0
100
AcDbVertex
100
AcDb2dVertex
 10
3.355618208670023
 20
-7.354119623403061
 30
0.0
 70
     8
  0
VERTEX
  5
1A36
330
1856
100
AcDbEntity
  8
0
100
AcDbVertex
100
AcDb2dVertex
 10
3.362853032416829
 20
-7.326569334935758
 30
0.0
 70
     8
  0
VERTEX
  5
1A37
330
1856
100
AcDbEntity
  8
0
100
AcDbVertex
100
AcDb2dVertex
 10
3.371240875988089
 20
-7.291674383893493
 30
0.0
 70
     8
  0
VERTEX
  5
1A38
330
1856
100
AcDbEntity
  8
0
100
AcDbVertex
100
AcDb2dVertex
 10
3.381051079207328
 20
-7.248396959392966
 30
0.0
 70
     8
  0
VERTEX
  5
1A39
330
1856
100
AcDbEntity
  8
0
100
AcDbVertex
100
AcDb2dVertex
 10
3.392528546692648
 20
-7.196089347940951
 30
0.0
 70
     8
  0
VERTEX
  5
1A3A
330
1856
100
AcDbEntity
  8
0
100
AcDbVertex
100
AcDb2dVertex
 10
3.405820442240518
 20
-7.135664225604426
 30
0.0
 70
     8
  0
VERTEX
  5
1A3B
330
1856
100
AcDbEntity
  8
0
100
AcDbVertex
100
AcDb2dVertex
 10
3.421049494442002
 20
-7.06842436584041
 30
0.0
 70
     8
  0
VERTEX
  5
1A3C
330
1856
100
AcDbEntity
  8
0
100
AcDbVertex
100
AcDb2dVertex
 10
3.438338431888141
 20
-6.995672542105946
 30
0.0
 70
     8
  0
VERTEX
  5
1A3D
330
1856
100
AcDbEntity
  8
0
100
AcDbVertex
100
AcDb2dVertex
 10
3.457809983170008
 20
-6.918711527858064
 30
0.0
 70
     8
  0
VERTEX
  5
1A3E
330
1856
100
AcDbEntity
  8
0
100
AcDbVertex
100
AcDb2dVertex
 10
3.479586876878641
 20
-6.838844096553795
 30
0.0
 70
     8
  0
VERTEX
  5
1A3F
330
1856
100
AcDbEntity
  8
0
100
AcDbVertex
100
AcDb2dVertex
 10
3.503791841605114
 20
-6.75737302165016
 30
0.0
 70
     8
  0
VERTEX
  5
1A40
330
1856
100
AcDbEntity
  8
0
100
AcDbVertex
100
AcDb2dVertex
 10
3.502029971807761
 20
-6.664914107914007
 30
0.0
 70
    16
  0
VERTEX
  5
1A41
330
1856
100
AcDbEntity
  8
0
100
AcDbVertex
100
AcDb2dVertex
 10
3.812159463567109
 20
-6.045070035599724
 30
0.0
 70
    16
  0
VERTEX
  5
1A42
330
1856
100
AcDbEntity
  8
0
100
AcDbVertex
100
AcDb2dVertex
 10
4.058124176728153
 20
-5.574843469089682
 30
0.0
 70
    16
  0
VERTEX
  5
1A43
330
1856
100
AcDbEntity
  8
0
100
AcDbVertex
100
AcDb2dVertex
 10
4.100900695793708
 20
-5.072556080296692
 30
0.0
 70
    16
  0
VERTEX
  5
1A44
330
1856
100
AcDbEntity
  8
0
100
AcDbVertex
100
AcDb2dVertex
 10
4.015347657662537
 20
-4.67713826668881
 30
0.0
 70
    16
  0
VERTEX
  5
1A45
330
1856
100
AcDbEntity
  8
0
100
AcDbVertex
100
AcDb2dVertex
 10
3.983265539829332
 20
-4.38859019584126
 30
0.0
 70
    16
  0
VERTEX
  5
1A46
330
1856
100
AcDbEntity
  8
0
100
AcDbVertex
100
AcDb2dVertex
 10
4.079512436260902
 20
-4.142790055612842
 30
0.0
 70
    16
  0
VERTEX
  5
1A47
330
1856
100
AcDbEntity
  8
0
100
AcDbVertex
100
AcDb2dVertex
 10
4.411030187553059
 20
-4.025233372091552
 30
0.0
 70
    16
  0
VERTEX
  5
1A48
330
1856
100
AcDbEntity
  8
0
100
AcDbVertex
100
AcDb2dVertex
 10
4.89226575557463
 20
-4.100042124993684
 30
0.0
 70
    16
  0
VERTEX
  5
1A49
330
1856
100
AcDbEntity
  8
0
100
AcDbVertex
100
AcDb2dVertex
 10
5.330724804530639
 20
-4.121416006515648
 30
0.0
 70
    16
  0
VERTEX
  5
1A4A
330
1856
100
AcDbEntity
  8
0
100
AcDbVertex
100
AcDb2dVertex
 10
5.758489723720252
 20
-4.067981302710709
 30
0.0
 70
    16
  0
VERTEX
  5
1A4B
330
1856
100
AcDbEntity
  8
0
100
AcDbVertex
100
AcDb2dVertex
 10
5.993760307114893
 20
-3.875615866287258
 30
0.0
 70
    16
  0
VERTEX
  5
1A4C
330
1856
100
AcDbEntity
  8
0
100
AcDbVertex
100
AcDb2dVertex
 10
6.314583928640644
 20
-3.619128617722658
 30
0.0
 70
    16
  0
VERTEX
  5
1A4D
330
1856
100
AcDbEntity
  8
0
100
AcDbVertex
100
AcDb2dVertex
 10
6.66748993946555
 20
-3.384015418255248
 30
0.0
 70
    16
  0
VERTEX
  5
1A4E
330
1856
100
AcDbEntity
  8
0
100
AcDbVertex
100
AcDb2dVertex
 10
6.988313560991301
 20
-3.351954428397075
 30
0.0
 70
    16
  0
VERTEX
  5
1A4F
330
1856
100
AcDbEntity
  8
0
100
AcDbVertex
100
AcDb2dVertex
 10
7.437466739713663
 20
-3.341267487636091
 30
0.0
 70
    16
  0
VERTEX
  5
1A50
330
1856
100
AcDbEntity
  8
0
100
AcDbVertex
100
AcDb2dVertex
 10
7.523019777844833
 20
-3.213023863353793
 30
0.0
 70
    16
  0
VERTEX
  5
1A51
330
1856
100
AcDbEntity
  8
0
100
AcDbVertex
100
AcDb2dVertex
 10
7.416078480180914
 20
-3.084780239071491
 30
0.0
 70
    16
  0
VERTEX
  5
1A52
330
1856
100
AcDbEntity
  8
0
100
AcDbVertex
100
AcDb2dVertex
 10
7.020395950290453
 20
-3.02065859450554
 30
0.0
 70
    16
  0
VERTEX
  5
1A53
330
1856
100
AcDbEntity
  8
0
100
AcDbVertex
100
AcDb2dVertex
 10
6.646101679932741
 20
-3.074093298310511
 30
0.0
 70
    16
  0
VERTEX
  5
1A54
330
1856
100
AcDbEntity
  8
0
100
AcDbVertex
100
AcDb2dVertex
 10
6.250419150042283
 20
-3.309206665353119
 30
0.0
 70
    16
  0
VERTEX
  5
1A55
330
1856
100
AcDbEntity
  8
0
100
AcDbVertex
100
AcDb2dVertex
 10
5.993760307114893
 20
-3.362641369158058
 30
0.0
 70
    16
  0
VERTEX
  5
1A56
330
1856
100
AcDbEntity
  8
0
100
AcDbVertex
100
AcDb2dVertex
 10
5.897513139217377
 20
-3.330580546875108
 30
0.0
 70
    16
  0
VERTEX
  5
1A57
330
1856
100
AcDbEntity
  8
0
100
AcDbVertex
100
AcDb2dVertex
 10
5.897513139217377
 20
-3.127528169690648
 30
0.0
 70
    16
  0
VERTEX
  5
1A58
330
1856
100
AcDbEntity
  8
0
100
AcDbVertex
100
AcDb2dVertex
 10
5.876124879684628
 20
-2.913788851745234
 30
0.0
 70
    16
  0
VERTEX
  5
1A59
330
1856
100
AcDbEntity
  8
0
100
AcDbVertex
100
AcDb2dVertex
 10
5.82265423085267
 20
-2.742797464418973
 30
0.0
 70
    16
  0
VERTEX
  5
1A5A
330
1856
100
AcDbEntity
  8
0
100
AcDbVertex
100
AcDb2dVertex
 10
5.771505158853802
 20
-2.694175017612689
 30
0.0
 70
    16
  0
VERTEX
  5
1A5B
330
1856
100
AcDbEntity
  8
0
100
AcDbVertex
100
AcDb2dVertex
 10
5.689532213715487
 20
-2.88921797057074
 30
0.0
 70
    16
  0
VERTEX
  5
1A5C
330
1856
100
AcDbEntity
  8
0
100
AcDbVertex
100
AcDb2dVertex
 10
5.545103911087096
 20
-3.349519225600655
 30
0.0
 70
    16
  0
VERTEX
  5
1A5D
330
1856
100
AcDbEntity
  8
0
100
AcDbVertex
100
AcDb2dVertex
 10
5.166467271339612
 20
-3.708398272449539
 30
0.0
 70
    16
  0
VERTEX
  5
1A5E
330
1856
100
AcDbEntity
  8
0
100
AcDbVertex
100
AcDb2dVertex
 10
4.81905844607008
 20
-3.841027507273039
 30
0.0
 70
    16
  0
VERTEX
  5
1A5F
330
1856
100
AcDbEntity
  8
0
100
AcDbVertex
100
AcDb2dVertex
 10
4.561429383825419
 20
-3.809820648205764
 30
0.0
 70
    16
  0
VERTEX
  5
1A60
330
1856
100
AcDbEntity
  8
0
100
AcDbVertex
100
AcDb2dVertex
 10
4.385773266719013
 20
-3.727902517472774
 30
0.0
 70
    16
  0
VERTEX
  5
1A61
330
1856
100
AcDbEntity
  8
0
100
AcDbVertex
100
AcDb2dVertex
 10
4.315510819876486
 20
-3.571868222136398
 30
0.0
 70
    16
  0
VERTEX
  5
1A62
330
1856
100
AcDbEntity
  8
0
100
AcDbVertex
100
AcDb2dVertex
 10
4.225730785385664
 20
-3.212989175287539
 30
0.0
 70
    16
  0
VERTEX
  5
1A63
330
1856
100
AcDbEntity
  8
0
100
AcDbVertex
100
AcDb2dVertex
 10
3.991522719732515
 20
-2.986739363262181
 30
0.0
 70
    16
  0
VERTEX
  5
1A64
330
1856
100
AcDbEntity
  8
0
100
AcDbVertex
100
AcDb2dVertex
 10
3.527009725903376
 20
-2.854110296013882
 30
0.0
 70
    16
  0
VERTEX
  5
1A65
330
1856
100
AcDbEntity
  8
0
100
AcDbVertex
100
AcDb2dVertex
 10
3.1210489520871
 20
-3.014045406839844
 30
0.0
 70
    16
  0
VERTEX
  5
1A66
330
1856
100
AcDbEntity
  8
0
100
AcDbVertex
100
AcDb2dVertex
 10
2.863419889842383
 20
-3.372924453688728
 30
0.0
 70
    16
  0
VERTEX
  5
1A67
330
1856
100
AcDbEntity
  8
0
100
AcDbVertex
100
AcDb2dVertex
 10
2.859516209433213
 20
-3.837126691783428
 30
0.0
 70
    16
  0
VERTEX
  5
1A68
330
1856
100
AcDbEntity
  8
0
100
AcDbVertex
100
AcDb2dVertex
 10
3.171794082747343
 20
-4.211609000590737
 30
0.0
 70
    16
  0
VERTEX
  5
1A69
330
1856
100
AcDbEntity
  8
0
100
AcDbVertex
100
AcDb2dVertex
 10
3.530913134846656
 20
-4.320833007326189
 30
0.0
 70
    16
  0
VERTEX
  5
1A6A
330
1856
100
AcDbEntity
  8
0
100
AcDbVertex
100
AcDb2dVertex
 10
3.667534619588494
 20
-4.39494933950478
 30
0.0
 70
    16
  0
VERTEX
  5
1A6B
330
1856
100
AcDbEntity
  8
0
100
AcDbVertex
100
AcDb2dVertex
 10
3.791397475988709
 20
-4.694355277816651
 30
0.0
 70
    16
  0
VERTEX
  5
1A6C
330
1856
100
AcDbEntity
  8
0
100
AcDbVertex
100
AcDb2dVertex
 10
3.749780116543959
 20
-5.03598312819701
 30
0.0
 70
    16
  0
VERTEX
  5
1A6D
330
1856
100
AcDbEntity
  8
0
100
AcDbVertex
100
AcDb2dVertex
 10
3.47629472796396
 20
-5.347904420269568
 30
0.0
 70
    16
  0
VERTEX
  5
1A6E
330
1856
100
AcDbEntity
  8
0
100
AcDbVertex
100
AcDb2dVertex
 10
3.122547444149613
 20
-5.555851836601149
 30
0.0
 70
    16
  0
VERTEX
  5
1A6F
330
1856
100
AcDbEntity
  8
0
100
AcDbVertex
100
AcDb2dVertex
 10
2.872843287481167
 20
-5.647942787383652
 30
0.0
 70
    16
  0
VERTEX
  5
1A70
330
1856
100
AcDbEntity
  8
0
100
AcDbVertex
100
AcDb2dVertex
 10
2.789608840057617
 20
-5.757857874241079
 30
0.0
 70
    16
  0
VERTEX
  5
1A71
330
1856
100
AcDbEntity
  8
0
100
AcDbVertex
100
AcDb2dVertex
 10
2.902570166703085
 20
-5.832124856523829
 30
0.0
 70
    16
  0
VERTEX
  5
1A72
330
1856
100
AcDbEntity
  8
0
100
AcDbVertex
100
AcDb2dVertex
 10
3.10173876442721
 20
-5.805388736199038
 30
0.0
 70
    16
  0
VERTEX
  5
1A73
330
1856
100
AcDbEntity
  8
0
100
AcDbVertex
100
AcDb2dVertex
 10
3.333606793562516
 20
-5.832124856523829
 30
0.0
 70
    16
  0
VERTEX
  5
1A74
330
1856
100
AcDbEntity
  8
0
100
AcDbVertex
100
AcDb2dVertex
 10
3.408531125221983
 20
-5.886316162353697
 30
0.0
 70
    16
  0
VERTEX
  5
1A75
330
1856
100
AcDbEntity
  8
0
100
AcDbVertex
100
AcDb2dVertex
 10
3.414887771985718
 20
-6.130883284265557
 30
0.0
 70
    16
  0
VERTEX
  5
1A76
330
1856
100
AcDbEntity
  8
0
100
AcDbVertex
100
AcDb2dVertex
 10
3.221010045692409
 20
-6.670836718183355
 30
0.0
 70
    16
  0
VERTEX
  5
1A77
330
1856
100
AcDbEntity
  8
0
100
AcDbVertex
100
AcDb2dVertex
 10
3.122482020854853
 20
-7.007513559300019
 30
0.0
 70
    16
  0
VERTEX
  5
1A78
330
1856
100
AcDbEntity
  8
0
100
AcDbVertex
100
AcDb2dVertex
 10
3.122482020854853
 20
-7.229847306492612
 30
0.0
 70
    16
  0
VERTEX
  5
1A79
330
1856
100
AcDbEntity
  8
0
100
AcDbVertex
100
AcDb2dVertex
 10
3.179691841728271
 20
-7.382304709199662
 30
0.0
 70
    16
  0
VERTEX
  5
1A7A
330
1856
100
AcDbEntity
  8
0
100
AcDbVertex
100
AcDb2dVertex
 10
3.271863219802149
 20
-7.439476339949298
 30
0.0
 70
    16
  0
VERTEX
  5
1A7B
330
1856
100
AcDbEntity
  8
0
100
AcDbVertex
100
AcDb2dVertex
 10
3.332251364057434
 20
-7.429947678965937
 30
0.0
 70
    16
  0
SEQEND
  5
1A7C
330
1856
100
AcDbEntity
  8
0
  0
LINE
  5
1A7D
330
1854
100
AcDbEntity
  8
0
100
AcDbLine
 10
0.0
 20
0.0
 30
0.0
 11
15.66766219620592
 21
0.0
 31
0.0
  0
LWPOLYLINE
  5
1A7E
330
1854
100
AcDbEntity
  8
0
100
AcDbPolyline
 90
      321
 70
     0
 43
0.0
 10
0.0000000000000071
 20
-15.62553024703273
 10
0.075866474354287
 20
-15.63301289673564
 10
0.1509608929096302
 20
-15.63393911273689
 10
0.2234068127440665
 20
-15.62884314803466
 10
0.2930868903133117
 20
-15.6184327541922
 10
0.359883782073112
 20
-15.60341568277272
 10
0.4236801444791923
 20
-15.58449968533947
 10
0.4843586339872754
 20
-15.56239251345567
 10
0.5418019070530918
 20
-15.53780191868459
 10
0.5959205588568928
 20
-15.51134770741195
 10
0.6467369394769218
 20
-15.48329790531379
 10
0.6943013377159275
 20
-15.45383259288868
 10
0.7386640423766729
 20
-15.42313185063515
 10
0.7798753422619172
 20
-15.39137575905179
 10
0.8179855261744091
 20
-15.35874439863716
 10
0.8530448829168975
 20
-15.32541784988983
 10
0.8851037012921576
 20
-15.29157619330834
 10
0.914227635897701
 20
-15.25745185771246
 10
0.9405438045102059
 20
-15.2234866652068
 10
0.9641946907011043
 20
-15.19017478621715
 10
0.9853227780418247
 20
-15.15801039116931
 10
1.004070550103813
 20
-15.12748765048909
 10
1.020580490458515
 20
-15.09910073460227
 10
1.034995082677353
 20
-15.07334381393468
 10
1.047456810331784
 20
-15.0507110589121
 10
1.058130507424955
 20
-15.03154308412839
 10
1.067270409686919
 20
-15.01556628084956
 10
1.075153103279454
 20
-15.00235348450969
 10
1.082055174364338
 20
-14.99147753054286
 10
1.088253209103335
 20
-14.98251125438313
 10
1.094023793658223
 20
-14.97502749146457
 10
1.09964351419078
 20
-14.96859907722126
 10
1.105388956862775
 20
-14.96279884708728
 10
1.111480831800857
 20
-14.95725966283858
 10
1.117916344991193
 20
-14.95185449161882
 10
1.124636826384829
 20
-14.94651632691352
 10
1.131583605932782
 20
-14.94117816220821
 10
1.138698013586108
 20
-14.93577299098843
 10
1.145921379295838
 20
-14.93023380673975
 10
1.153195033013012
 20
-14.92449360294767
 10
1.160460304688673
 20
-14.91848537309774
 10
1.167662715029504
 20
-14.91212256727241
 10
1.17476454776483
 20
-14.90524046194191
 10
1.181732277379609
 20
-14.8976547901733
 10
1.188532378358814
 20
-14.88918128503371
 10
1.195131325187418
 20
-14.87963567959026
 10
1.201495592350376
 20
-14.86883370691008
 10
1.207591654332674
 20
-14.85659110006025
 10
1.213385985619254
 20
-14.8427235921079
 10
1.218847854532214
 20
-14.82696455421886
 10
1.223957704742016
 20
-14.80871790995385
 10
1.228698773756267
 20
-14.78730522097227
 10
1.233054299082542
 20
-14.76204804893356
 10
1.237007518228431
 20
-14.73226795549714
 10
1.240541668701524
 20
-14.69728650232246
 10
1.243639988009391
 20
-14.65642525106892
 10
1.246285713659652
 20
-14.60900576339596
 10
1.248480242659198
 20
-14.55477397386358
 10
1.250297610012289
 20
-14.49517330863405
 10
1.251830010222501
 20
-14.43207156677026
 10
1.253169637793412
 20
-14.36733654733503
 10
1.254408687228611
 20
-14.30283604939125
 10
1.255639353031678
 20
-14.24043787200176
 10
1.256953829706176
 20
-14.18200981422943
 10
1.25844431175571
 20
-14.12941967513711
 10
1.260211375371888
 20
-14.08409412936759
 10
1.262389123498515
 20
-14.04569535388325
 10
1.265120040767452
 20
-14.01344440122644
 10
1.268546611810549
 20
-13.98656232393947
 10
1.272811321259656
 20
-13.96427017456467
 10
1.278056653746624
 20
-13.94578900564436
 10
1.284425093903312
 20
-13.93033986972085
 10
1.292059126361561
 20
-13.91714381933648
 10
1.301053741052683
 20
-13.90553637605938
 10
1.311313949105787
 20
-13.89531093756095
 10
1.322697266949433
 20
-13.88637537053838
 10
1.335061211012192
 20
-13.87863754168888
 10
1.348263297722613
 20
-13.87200531770966
 10
1.362161043509257
 20
-13.86638656529791
 10
1.376611964800691
 20
-13.86168915115085
 10
1.391473578025479
 20
-13.85782094196567
 10
1.406808444067848
 20
-13.8545787808515
 10
1.423499301634663
 20
-13.85131541656519
 10
1.442633933888458
 20
-13.84727257427552
 10
1.465300123991781
 20
-13.84169197915123
 10
1.492585655107152
 20
-13.8338153563611
 10
1.525578310397108
 20
-13.82288443107389
 10
1.565365873024198
 20
-13.80814092845837
 10
1.613036126150948
 20
-13.78882657368329
 10
1.6692448459806
 20
-13.76432684307286
 10
1.732919780879264
 20
-13.73460221757292
 10
1.802556672253743
 20
-13.69975692928474
 10
1.876651261510851
 20
-13.65989521030957
 10
1.953699290057389
 20
-13.6151212927487
 10
2.032196499300184
 20
-13.56553940870339
 10
2.110638630646029
 20
-13.5112537902749
 10
2.187521425501753
 20
-13.45236866956452
 10
2.261576800653568
 20
-13.38906455817326
 10
2.332481374405375
 20
-13.32182708570125
 10
2.40014794044049
 20
-13.25121816124835
 10
2.464489292442227
 20
-13.17779969391444
 10
2.52541822409389
 20
-13.1021335927994
 10
2.582847529078797
 20
-13.02478176700309
 10
2.63669000108026
 20
-12.9463061256254
 10
2.686858433781591
 20
-12.86726857776619
 10
2.733370887003218
 20
-12.78794367433355
 10
2.776666485114034
 20
-12.70745653346835
 10
2.817289618620023
 20
-12.62464491511968
 10
2.855784678027191
 20
-12.53834657923663
 10
2.892696053841532
 20
-12.44739928576827
 10
2.928568136569055
 20
-12.35064079466368
 10
2.963945316715747
 20
-12.24690886587196
 10
2.999371984787607
 20
-12.13504125934219
 10
3.03532654473938
 20
-12.01426314831918
 10
3.072023454320735
 20
-11.88534935923084
 10
3.109611184730091
 20
-11.74946213180076
 10
3.148238207165853
 20
-11.60776370575257
 10
3.188052992826438
 20
-11.4614163208099
 10
3.229204012910265
 20
-11.31158221669636
 10
3.271839738615742
 20
-11.15942363313558
 10
3.316108641141283
 20
-11.00610280985117
 10
3.362109701285831
 20
-10.85269131534668
 10
3.409743938250443
 20
-10.69989803324525
 10
3.458862880836704
 20
-10.54834117594998
 10
3.509318057846208
 20
-10.39863895586392
 10
3.560960998080538
 20
-10.25140958539015
 10
3.613643230341267
 20
-10.10727127693174
 10
3.667216283430001
 20
-9.966842242891761
 10
3.721531686148317
 20
-9.830740695673284
 10
3.776502830164595
 20
-9.699366412643399
 10
3.832290558614356
 20
-9.572245431025187
 10
3.889117577499895
 20
-9.448685353005773
 10
3.94720659282354
 20
-9.327993780772279
 10
4.0067803105876
 20
-9.209478316511793
 10
4.06806143679438
 20
-9.092446562411437
 10
4.13127267744618
 20
-8.97620612065832
 10
4.196636738545329
 20
-8.860064593439537
 10
4.264453975872548
 20
-8.743346910610586
 10
4.335335344322313
 20
-8.625447312700377
 10
4.409969448567505
 20
-8.505777367906219
 10
4.489044893281018
 20
-8.38374864442537
 10
4.573250283135731
 20
-8.258772710455161
 10
4.663274222804538
 20
-8.130261134192849
 10
4.759805316960346
 20
-7.997625483835737
 10
4.863532170276009
 20
-7.860277327581119
 10
4.974845692663961
 20
-7.717915669059767
 10
5.092946014994723
 20
-7.571389253636439
 10
5.216735573378318
 20
-7.421834262109378
 10
5.345116803924813
 20
-7.270386875276823
 10
5.476992142744219
 20
-7.118183273937031
 10
5.611264025946596
 20
-6.96635963888821
 10
5.746834889641966
 20
-6.816052150928641
 10
5.882607169940381
 20
-6.668396990856539
 10
6.01763079795095
 20
-6.524372883860021
 10
6.151545684779062
 20
-6.384328732686654
 10
6.284139236529146
 20
-6.248455984473846
 10
6.415198859305679
 20
-6.116946086359028
 10
6.544511959213103
 20
-5.989990485479612
 10
6.671865942355875
 20
-5.867780628973044
 10
6.797048214838429
 20
-5.750507963976733
 10
6.919846182765251
 20
-5.638363937628096
 10
7.040127274341788
 20
-5.531444029988151
 10
7.158079006177565
 20
-5.429459852812183
 10
7.273968916983154
 20
-5.3320270507791
 10
7.388064545469088
 20
-5.238761268567774
 10
7.500633430345903
 20
-5.149278150857082
 10
7.611943110324169
 20
-5.063193342325934
 10
7.722261124114417
 20
-4.980122487653186
 10
7.831855010427204
 20
-4.899681231517746
 10
7.941157829477898
 20
-4.821432371370129
 10
8.051264727501184
 20
-4.744727315747422
 10
8.163436372236578
 20
-4.668864625958363
 10
8.278933431423567
 20
-4.593142863311673
 10
8.39901657280167
 20
-4.516860589116092
 10
8.524946464110392
 20
-4.43931636468034
 10
8.657983773089249
 20
-4.359808751313156
 10
8.799389167477727
 20
-4.277636310323263
 10
8.949979079186476
 20
-4.192422375047357
 10
9.108792996810532
 20
-4.105089366933935
 10
9.274426173116044
 20
-4.016884479459495
 10
9.445473860869213
 20
-3.929054906100486
 10
9.62053131283617
 20
-3.842847840333394
 10
9.798193781783087
 20
-3.759510475634684
 10
9.977056520476139
 20
-3.680290005480824
 10
10.15571478168149
 20
-3.606433623348294
 10
10.33285266520736
 20
-3.538898760701346
 10
10.50750965903022
 20
-3.477483800955415
 10
10.67881409816863
 20
-3.421697365513676
 10
10.84589431764111
 20
-3.371048075779352
 10
11.00787865246623
 20
-3.325044553155638
 10
11.16389543766253
 20
-3.283195419045735
 10
11.31307300824853
 20
-3.245009294852852
 10
11.45453969924279
 20
-3.209994801980197
 10
11.58771812571489
 20
-3.177638226217048
 10
11.71320802293862
 20
-3.147336510897009
 10
11.83190340623876
 20
-3.118464263739777
 10
11.94469829094013
 20
-3.090396092465024
 10
12.05248669236755
 20
-3.062506604792446
 10
12.15616262584584
 20
-3.034170408441731
 10
12.25662010669979
 20
-3.00476211113256
 10
12.35475315025423
 20
-2.973656320584623
 10
12.45125461830192
 20
-2.94035048946683
 10
12.54601275850754
 20
-2.904833450244964
 10
12.63871466500368
 20
-2.86721688033403
 10
12.72904743192299
 20
-2.82761245714904
 10
12.81669815339806
 20
-2.786131858104997
 10
12.90135392356153
 20
-2.742886760616904
 10
12.98270183654599
 20
-2.697988842099775
 10
13.0604289864841
 20
-2.651549779968608
 10
13.13430069406367
 20
-2.603666361283689
 10
13.20439518619339
 20
-2.554375811686359
 10
13.27086891633714
 20
-2.503700466463254
 10
13.33387833795884
 20
-2.451662660900989
 10
13.39357990452237
 20
-2.398284730286206
 10
13.45013006949163
 20
-2.343589009905503
 10
13.50368528633054
 20
-2.28759783504552
 10
13.55440200850297
 20
-2.23033354099288
 10
13.60238242173209
 20
-2.171867448723386
 10
13.64751164077812
 20
-2.112466821969551
 10
13.68962051266051
 20
-2.052447910153087
 10
13.72853988439875
 20
-1.992126962695699
 10
13.76410060301229
 20
-1.931820229019081
 10
13.79613351552063
 20
-1.871843958544939
 10
13.82446946894324
 20
-1.812514400694976
 10
13.84893931029957
 20
-1.754147804890891
 10
13.8694779348609
 20
-1.69710280704276
 10
13.88643643090552
 20
-1.641907589014131
 10
13.90026993496358
 20
-1.589132719156921
 10
13.91143358356518
 20
-1.53934876582306
 10
13.92038251324041
 20
-1.493126297364476
 10
13.92757186051939
 20
-1.451035882133076
 10
13.93345676193223
 20
-1.413648088480787
 10
13.93849235400903
 20
-1.381533484759543
 10
13.94308153729218
 20
-1.355054090785621
 10
13.94741826837304
 20
-1.333737732232808
 10
13.95164426785528
 20
-1.316903686239268
 10
13.95590125634256
 20
-1.303871229943144
 10
13.96033095443851
 20
-1.293959640482597
 10
13.96507508274681
 20
-1.286488194995779
 10
13.97027536187108
 20
-1.280776170620853
 10
13.976073512415
 20
-1.276142844495957
 10
13.98279386788448
 20
-1.272024500960213
 10
13.99149121339456
 20
-1.268325453156517
 10
14.00340294696257
 20
-1.265067021428752
 10
14.01976646660583
 20
-1.262270526120769
 10
14.04181917034166
 20
-1.259957287576433
 10
14.07079845618736
 20
-1.258148626139618
 10
14.10794172216026
 20
-1.256865862154182
 10
14.15448636627769
 20
-1.256130315963982
 10
14.2110214564916
 20
-1.255936065433122
 10
14.27554274049258
 20
-1.256168218506587
 10
14.34539763590587
 20
-1.256684640649613
 10
14.41793356035667
 20
-1.257343197327408
 10
14.49049793147021
 20
-1.258001754005213
 10
14.56043816687176
 20
-1.258518176148228
 10
14.6251016841865
 20
-1.258750329221701
 10
14.68183590103969
 20
-1.258556078690837
 10
14.72864367652246
 20
-1.257802765656524
 10
14.76614963558974
 20
-1.256395633762238
 10
14.79563384466234
 20
-1.254249402287108
 10
14.81837637016108
 20
-1.251278790510276
 10
14.83565727850679
 20
-1.24739851771087
 10
14.8487566361203
 20
-1.242523303168031
 10
14.85895450942244
 20
-1.236567866160886
 10
14.86753096483404
 20
-1.229446925968577
 10
14.87555035390559
 20
-1.221134424593049
 10
14.88321416870624
 20
-1.211841194927561
 10
14.89050818643483
 20
-1.201837292588198
 10
14.8974181842902
 20
-1.191392773191019
 10
14.90392993947117
 20
-1.180777692352116
 10
14.91002922917658
 20
-1.170262105687541
 10
14.91570183060525
 20
-1.160116068813398
 10
14.92093352095601
 20
-1.150609637345752
 10
14.92572430022888
 20
-1.141956013086758
 10
14.93013105962852
 20
-1.134140982582952
 10
14.93422491316077
 20
-1.127093478566937
 10
14.93807697483148
 20
-1.120742433771336
 10
14.94175835864652
 20
-1.115016780928744
 10
14.94534017861171
 20
-1.109845452771786
 10
14.94889354873291
 20
-1.105157382033066
 10
14.95248958301596
 20
-1.100881501445204
 10
14.95627051062134
 20
-1.096915947924934
 10
14.96066302132803
 20
-1.093035675125527
 10
14.96616492006967
 20
-1.088984840884389
 10
14.97327401177984
 20
-1.084507603038918
 10
14.98248810139218
 20
-1.079348119426526
 10
14.99430499384031
 20
-1.073250547884601
 10
15.00922249405784
 20
-1.065959046250554
 10
15.02773840697837
 20
-1.057217772361788
 10
15.05015734205622
 20
-1.046818262288503
 10
15.07601112682831
 20
-1.034741565032149
 10
15.10463839335228
 20
-1.021016107826973
 10
15.13537777368578
 20
-1.005670317907235
 10
15.1675678998864
 20
-0.9887326225071859
 10
15.20054740401179
 20
-0.9702314488610568
 10
15.23365491811956
 20
-0.9501952242031102
 10
15.26622907426734
 20
-0.9286523757676086
 10
15.29771754713718
 20
-0.9056301461979501
 10
15.32800418190876
 20
-0.8811510397742559
 10
15.35708186638618
 20
-0.8552363761857968
 10
15.38494348837356
 20
-0.8279074751218331
 10
15.41158193567499
 20
-0.7991856562716571
 10
15.43699009609458
 20
-0.7690922393245252
 10
15.46116085743646
 20
-0.7376485439697334
 10
15.48408710750469
 20
-0.704875889896524
 10
15.50575817849148
 20
-0.6707707233324314
 10
15.52614918014129
 20
-0.6352299966579125
 10
15.54523166658672
 20
-0.5981257887916805
 10
15.56297719196028
 20
-0.5593301786524095
 10
15.57935731039457
 20
-0.5187152451588233
 10
15.5943435760221
 20
-0.4761530672295998
 10
15.60790754297547
 20
-0.4315157237834733
 10
15.62002076538721
 20
-0.3846752937391145
 10
15.6306690201027
 20
-0.3356234861062646
 10
15.6398949748185
 20
-0.2848305302587448
 10
15.64775551994397
 20
-0.2328862856614293
 10
15.65430754588849
 20
-0.1803806117791602
 10
15.6596079430614
 20
-0.1279033680768009
 10
15.6637136018721
 20
-0.0760444140192149
 10
15.66668141272993
 20
-0.0253936090712479
 10
15.66766219620592
 20
0.0
  0
POLYLINE
  5
1BC1
330
1854
100
AcDbEntity
  8
0
100
AcDb2dPolyline
 66
     1
 10
0.0
 20
0.0
 30
0.0
 70
     5
 75
     6
  0
VERTEX
  5
1BC2
330
1BC1
100
AcDbEntity
  8
0
100
AcDbVertex
100
AcDb2dVertex
 10
2.554680846696101
 20
-10.28636615577516
 30
0.0
 70
    16
  0
VERTEX
  5
1BC3
330
1BC1
100
AcDbEntity
  8
0
100
AcDbVertex
100
AcDb2dVertex
 10
2.769721199070612
 20
-9.546787201640499
 30
0.0
 70
     8
  0
VERTEX
  5
1BC4
330
1BC1
100
AcDbEntity
  8
0
100
AcDbVertex
100
AcDb2dVertex
 10
2.800621238381083
 20
-9.465903934932908
 30
0.0
 70
     8
  0
VERTEX
  5
1BC5
330
1BC1
100
AcDbEntity
  8
0
100
AcDbVertex
100
AcDb2dVertex
 10
2.832077639740049
 20
-9.388471093291837
 30
0.0
 70
     8
  0
VERTEX
  5
1BC6
330
1BC1
100
AcDbEntity
  8
0
100
AcDbVertex
100
AcDb2dVertex
 10
2.863337675777493
 20
-9.314276091212191
 30
0.0
 70
     8
  0
VERTEX
  5
1BC7
330
1BC1
100
AcDbEntity
  8
0
100
AcDbVertex
100
AcDb2dVertex
 10
2.893648619123389
 20
-9.243106343188866
 30
0.0
 70
     8
  0
VERTEX
  5
1BC8
330
1BC1
100
AcDbEntity
  8
0
100
AcDbVertex
100
AcDb2dVertex
 10
2.922257742407719
 20
-9.174749263716767
 30
0.0
 70
     8
  0
VERTEX
  5
1BC9
330
1BC1
100
AcDbEntity
  8
0
100
AcDbVertex
100
AcDb2dVertex
 10
2.948412318260459
 20
-9.108992267290808
 30
0.0
 70
     8
  0
VERTEX
  5
1BCA
330
1BC1
100
AcDbEntity
  8
0
100
AcDbVertex
100
AcDb2dVertex
 10
2.971359619311574
 20
-9.045622768405907
 30
0.0
 70
     8
  0
VERTEX
  5
1BCB
330
1BC1
100
AcDbEntity
  8
0
100
AcDbVertex
100
AcDb2dVertex
 10
2.990346918191058
 20
-8.984428181556948
 30
0.0
 70
     8
  0
VERTEX
  5
1BCC
330
1BC1
100
AcDbEntity
  8
0
100
AcDbVertex
100
AcDb2dVertex
 10
3.004774214698393
 20
-8.925258606636965
 30
0.0
 70
     8
  0
VERTEX
  5
1BCD
330
1BC1
100
AcDbEntity
  8
0
100
AcDbVertex
100
AcDb2dVertex
 10
3.014652417311175
 20
-8.868214885131443
 30
0.0
 70
     8
  0
VERTEX
  5
1BCE
330
1BC1
100
AcDbEntity
  8
0
100
AcDbVertex
100
AcDb2dVertex
 10
3.020145161676509
 20
-8.813460543923998
 30
0.0
 70
     8
  0
VERTEX
  5
1BCF
330
1BC1
100
AcDbEntity
  8
0
100
AcDbVertex
100
AcDb2dVertex
 10
3.021416083441508
 20
-8.76115910989823
 30
0.0
 70
     8
  0
VERTEX
  5
1BD0
330
1BC1
100
AcDbEntity
  8
0
100
AcDbVertex
100
AcDb2dVertex
 10
3.018628818253276
 20
-8.711474109937768
 30
0.0
 70
     8
  0
VERTEX
  5
1BD1
330
1BC1
100
AcDbEntity
  8
0
100
AcDbVertex
100
AcDb2dVertex
 10
3.011947001758922
 20
-8.664569070926194
 30
0.0
 70
     8
  0
VERTEX
  5
1BD2
330
1BC1
100
AcDbEntity
  8
0
100
AcDbVertex
100
AcDb2dVertex
 10
3.001534269605556
 20
-8.620607519747146
 30
0.0
 70
     8
  0
VERTEX
  5
1BD3
330
1BC1
100
AcDbEntity
  8
0
100
AcDbVertex
100
AcDb2dVertex
 10
2.98755425744028
 20
-8.579752983284212
 30
0.0
 70
     8
  0
VERTEX
  5
1BD4
330
1BC1
100
AcDbEntity
  8
0
100
AcDbVertex
100
AcDb2dVertex
 10
2.970189691983144
 20
-8.542122655787618
 30
0.0
 70
     8
  0
VERTEX
  5
1BD5
330
1BC1
100
AcDbEntity
  8
0
100
AcDbVertex
100
AcDb2dVertex
 10
2.949699664245869
 20
-8.507648400974044
 30
0.0
 70
     8
  0
VERTEX
  5
1BD6
330
1BC1
100
AcDbEntity
  8
0
100
AcDbVertex
100
AcDb2dVertex
 10
2.926362356313131
 20
-8.476215749926776
 30
0.0
 70
     8
  0
VERTEX
  5
1BD7
330
1BC1
100
AcDbEntity
  8
0
100
AcDbVertex
100
AcDb2dVertex
 10
2.900455950269577
 20
-8.447710233729086
 30
0.0
 70
     8
  0
VERTEX
  5
1BD8
330
1BC1
100
AcDbEntity
  8
0
100
AcDbVertex
100
AcDb2dVertex
 10
2.872258628199894
 20
-8.422017383464268
 30
0.0
 70
     8
  0
VERTEX
  5
1BD9
330
1BC1
100
AcDbEntity
  8
0
100
AcDbVertex
100
AcDb2dVertex
 10
2.842048572188726
 20
-8.399022730215609
 30
0.0
 70
     8
  0
VERTEX
  5
1BDA
330
1BC1
100
AcDbEntity
  8
0
100
AcDbVertex
100
AcDb2dVertex
 10
2.810103964320745
 20
-8.378611805066388
 30
0.0
 70
     8
  0
VERTEX
  5
1BDB
330
1BC1
100
AcDbEntity
  8
0
100
AcDbVertex
100
AcDb2dVertex
 10
2.776702986680618
 20
-8.360670139099884
 30
0.0
 70
     8
  0
VERTEX
  5
1BDC
330
1BC1
100
AcDbEntity
  8
0
100
AcDbVertex
100
AcDb2dVertex
 10
2.742145639810431
 20
-8.345077812568739
 30
0.0
 70
     8
  0
VERTEX
  5
1BDD
330
1BC1
100
AcDbEntity
  8
0
100
AcDbVertex
100
AcDb2dVertex
 10
2.70681919808198
 20
-8.331693102402908
 30
0.0
 70
     8
  0
VERTEX
  5
1BDE
330
1BC1
100
AcDbEntity
  8
0
100
AcDbVertex
100
AcDb2dVertex
 10
2.671132754324485
 20
-8.320368834701728
 30
0.0
 70
     8
  0
VERTEX
  5
1BDF
330
1BC1
100
AcDbEntity
  8
0
100
AcDbVertex
100
AcDb2dVertex
 10
2.635495401367155
 20
-8.310957835564511
 30
0.0
 70
     8
  0
VERTEX
  5
1BE0
330
1BC1
100
AcDbEntity
  8
0
100
AcDbVertex
100
AcDb2dVertex
 10
2.600316232039226
 20
-8.303312931090577
 30
0.0
 70
     8
  0
VERTEX
  5
1BE1
330
1BC1
100
AcDbEntity
  8
0
100
AcDbVertex
100
AcDb2dVertex
 10
2.566004339169907
 20
-8.29728694737923
 30
0.0
 70
     8
  0
VERTEX
  5
1BE2
330
1BC1
100
AcDbEntity
  8
0
100
AcDbVertex
100
AcDb2dVertex
 10
2.532968815588425
 20
-8.292732710529808
 30
0.0
 70
     8
  0
VERTEX
  5
1BE3
330
1BC1
100
AcDbEntity
  8
0
100
AcDbVertex
100
AcDb2dVertex
 10
2.501618754123988
 20
-8.289503046641605
 30
0.0
 70
     8
  0
VERTEX
  5
1BE4
330
1BC1
100
AcDbEntity
  8
0
100
AcDbVertex
100
AcDb2dVertex
 10
2.4722732470102
 20
-8.287467134305945
 30
0.0
 70
     8
  0
VERTEX
  5
1BE5
330
1BC1
100
AcDbEntity
  8
0
100
AcDbVertex
100
AcDb2dVertex
 10
2.444891384098131
 20
-8.28655956208204
 30
0.0
 70
     8
  0
VERTEX
  5
1BE6
330
1BC1
100
AcDbEntity
  8
0
100
AcDbVertex
100
AcDb2dVertex
 10
2.419342254643218
 20
-8.286731271021135
 30
0.0
 70
     8
  0
VERTEX
  5
1BE7
330
1BC1
100
AcDbEntity
  8
0
100
AcDbVertex
100
AcDb2dVertex
 10
2.395494947900914
 20
-8.287933202174439
 30
0.0
 70
     8
  0
VERTEX
  5
1BE8
330
1BC1
100
AcDbEntity
  8
0
100
AcDbVertex
100
AcDb2dVertex
 10
2.373218553126662
 20
-8.290116296593168
 30
0.0
 70
     8
  0
VERTEX
  5
1BE9
330
1BC1
100
AcDbEntity
  8
0
100
AcDbVertex
100
AcDb2dVertex
 10
2.352382159575892
 20
-8.293231495328548
 30
0.0
 70
     8
  0
VERTEX
  5
1BEA
330
1BC1
100
AcDbEntity
  8
0
100
AcDbVertex
100
AcDb2dVertex
 10
2.332854856504063
 20
-8.297229739431791
 30
0.0
 70
     8
  0
VERTEX
  5
1BEB
330
1BC1
100
AcDbEntity
  8
0
100
AcDbVertex
100
AcDb2dVertex
 10
2.314505733166619
 20
-8.302061969954134
 30
0.0
 70
     8
  0
VERTEX
  5
1BEC
330
1BC1
100
AcDbEntity
  8
0
100
AcDbVertex
100
AcDb2dVertex
 10
2.297225697453164
 20
-8.307706382700121
 30
0.0
 70
     8
  0
VERTEX
  5
1BED
330
1BC1
100
AcDbEntity
  8
0
100
AcDbVertex
100
AcDb2dVertex
 10
2.280992931789945
 20
-8.314250192487719
 30
0.0
 70
     8
  0
VERTEX
  5
1BEE
330
1BC1
100
AcDbEntity
  8
0
100
AcDbVertex
100
AcDb2dVertex
 10
2.265807437237377
 20
-8.321807868888239
 30
0.0
 70
     8
  0
VERTEX
  5
1BEF
330
1BC1
100
AcDbEntity
  8
0
100
AcDbVertex
100
AcDb2dVertex
 10
2.25166921485588
 20
-8.330493881472985
 30
0.0
 70
     8
  0
VERTEX
  5
1BF0
330
1BC1
100
AcDbEntity
  8
0
100
AcDbVertex
100
AcDb2dVertex
 10
2.238578265705861
 20
-8.340422699813256
 30
0.0
 70
     8
  0
VERTEX
  5
1BF1
330
1BC1
100
AcDbEntity
  8
0
100
AcDbVertex
100
AcDb2dVertex
 10
2.226534590847737
 20
-8.351708793480369
 30
0.0
 70
     8
  0
VERTEX
  5
1BF2
330
1BC1
100
AcDbEntity
  8
0
100
AcDbVertex
100
AcDb2dVertex
 10
2.21553819134192
 20
-8.364466632045616
 30
0.0
 70
     8
  0
VERTEX
  5
1BF3
330
1BC1
100
AcDbEntity
  8
0
100
AcDbVertex
100
AcDb2dVertex
 10
2.205589068248819
 20
-8.378810685080324
 30
0.0
 70
     8
  0
VERTEX
  5
1BF4
330
1BC1
100
AcDbEntity
  8
0
100
AcDbVertex
100
AcDb2dVertex
 10
2.196662676963669
 20
-8.395275141844354
 30
0.0
 70
     8
  0
VERTEX
  5
1BF5
330
1BC1
100
AcDbEntity
  8
0
100
AcDbVertex
100
AcDb2dVertex
 10
2.188636290220927
 20
-8.416073070351966
 30
0.0
 70
     8
  0
VERTEX
  5
1BF6
330
1BC1
100
AcDbEntity
  8
0
100
AcDbVertex
100
AcDb2dVertex
 10
2.181362635089865
 20
-8.443837258305936
 30
0.0
 70
     8
  0
VERTEX
  5
1BF7
330
1BC1
100
AcDbEntity
  8
0
100
AcDbVertex
100
AcDb2dVertex
 10
2.174694438639754
 20
-8.481200493409108
 30
0.0
 70
     8
  0
VERTEX
  5
1BF8
330
1BC1
100
AcDbEntity
  8
0
100
AcDbVertex
100
AcDb2dVertex
 10
2.168484427939855
 20
-8.530795563364264
 30
0.0
 70
     8
  0
VERTEX
  5
1BF9
330
1BC1
100
AcDbEntity
  8
0
100
AcDbVertex
100
AcDb2dVertex
 10
2.162585330059457
 20
-8.595255255874231
 30
0.0
 70
     8
  0
VERTEX
  5
1BFA
330
1BC1
100
AcDbEntity
  8
0
100
AcDbVertex
100
AcDb2dVertex
 10
2.156849872067823
 20
-8.677212358641813
 30
0.0
 70
     8
  0
VERTEX
  5
1BFB
330
1BC1
100
AcDbEntity
  8
0
100
AcDbVertex
100
AcDb2dVertex
 10
2.151130781034225
 20
-8.779299659369829
 30
0.0
 70
     8
  0
VERTEX
  5
1BFC
330
1BC1
100
AcDbEntity
  8
0
100
AcDbVertex
100
AcDb2dVertex
 10
2.145392602285674
 20
-8.902789944555239
 30
0.0
 70
     8
  0
VERTEX
  5
1BFD
330
1BC1
100
AcDbEntity
  8
0
100
AcDbVertex
100
AcDb2dVertex
 10
2.140047154180177
 20
-9.04351599587169
 30
0.0
 70
     8
  0
VERTEX
  5
1BFE
330
1BC1
100
AcDbEntity
  8
0
100
AcDbVertex
100
AcDb2dVertex
 10
2.135618073333461
 20
-9.195950593786985
 30
0.0
 70
     8
  0
VERTEX
  5
1BFF
330
1BC1
100
AcDbEntity
  8
0
100
AcDbVertex
100
AcDb2dVertex
 10
2.132628996361269
 20
-9.354566518768914
 30
0.0
 70
     8
  0
VERTEX
  5
1C00
330
1BC1
100
AcDbEntity
  8
0
100
AcDbVertex
100
AcDb2dVertex
 10
2.131603559879362
 20
-9.513836551285281
 30
0.0
 70
     8
  0
VERTEX
  5
1C01
330
1BC1
100
AcDbEntity
  8
0
100
AcDbVertex
100
AcDb2dVertex
 10
2.133065400503451
 20
-9.668233471803885
 30
0.0
 70
     8
  0
VERTEX
  5
1C02
330
1BC1
100
AcDbEntity
  8
0
100
AcDbVertex
100
AcDb2dVertex
 10
2.137538154849295
 20
-9.812230060792517
 30
0.0
 70
     8
  0
VERTEX
  5
1C03
330
1BC1
100
AcDbEntity
  8
0
100
AcDbVertex
100
AcDb2dVertex
 10
2.145545459532623
 20
-9.940299098718995
 30
0.0
 70
     8
  0
VERTEX
  5
1C04
330
1BC1
100
AcDbEntity
  8
0
100
AcDbVertex
100
AcDb2dVertex
 10
2.157450041934538
 20
-10.04815072201241
 30
0.0
 70
     8
  0
VERTEX
  5
1C05
330
1BC1
100
AcDbEntity
  8
0
100
AcDbVertex
100
AcDb2dVertex
 10
2.172970992497486
 20
-10.13644449094709
 30
0.0
 70
     8
  0
VERTEX
  5
1C06
330
1BC1
100
AcDbEntity
  8
0
100
AcDbVertex
100
AcDb2dVertex
 10
2.191666492429291
 20
-10.20707732175865
 30
0.0
 70
     8
  0
VERTEX
  5
1C07
330
1BC1
100
AcDbEntity
  8
0
100
AcDbVertex
100
AcDb2dVertex
 10
2.213094722937778
 20
-10.26194613068273
 30
0.0
 70
     8
  0
VERTEX
  5
1C08
330
1BC1
100
AcDbEntity
  8
0
100
AcDbVertex
100
AcDb2dVertex
 10
2.23681386523075
 20
-10.30294783395495
 30
0.0
 70
     8
  0
VERTEX
  5
1C09
330
1BC1
100
AcDbEntity
  8
0
100
AcDbVertex
100
AcDb2dVertex
 10
2.262382100516013
 20
-10.33197934781093
 30
0.0
 70
     8
  0
VERTEX
  5
1C0A
330
1BC1
100
AcDbEntity
  8
0
100
AcDbVertex
100
AcDb2dVertex
 10
2.289357610001388
 20
-10.35093758848629
 30
0.0
 70
     8
  0
VERTEX
  5
1C0B
330
1BC1
100
AcDbEntity
  8
0
100
AcDbVertex
100
AcDb2dVertex
 10
2.317298574894692
 20
-10.36171947221667
 30
0.0
 70
     8
  0
VERTEX
  5
1C0C
330
1BC1
100
AcDbEntity
  8
0
100
AcDbVertex
100
AcDb2dVertex
 10
2.345812267380651
 20
-10.36582944975697
 30
0.0
 70
     8
  0
VERTEX
  5
1C0D
330
1BC1
100
AcDbEntity
  8
0
100
AcDbVertex
100
AcDb2dVertex
 10
2.374702323551609
 20
-10.36320210993917
 30
0.0
 70
     8
  0
VERTEX
  5
1C0E
330
1BC1
100
AcDbEntity
  8
0
100
AcDbVertex
100
AcDb2dVertex
 10
2.403821470476852
 20
-10.35337957611451
 30
0.0
 70
     8
  0
VERTEX
  5
1C0F
330
1BC1
100
AcDbEntity
  8
0
100
AcDbVertex
100
AcDb2dVertex
 10
2.433022435225655
 20
-10.33590397163425
 30
0.0
 70
     8
  0
VERTEX
  5
1C10
330
1BC1
100
AcDbEntity
  8
0
100
AcDbVertex
100
AcDb2dVertex
 10
2.462157944867279
 20
-10.31031741984965
 30
0.0
 70
     8
  0
VERTEX
  5
1C11
330
1BC1
100
AcDbEntity
  8
0
100
AcDbVertex
100
AcDb2dVertex
 10
2.491080726471004
 20
-10.27616204411196
 30
0.0
 70
     8
  0
VERTEX
  5
1C12
330
1BC1
100
AcDbEntity
  8
0
100
AcDbVertex
100
AcDb2dVertex
 10
2.519643507106088
 20
-10.23297996777242
 30
0.0
 70
     8
  0
VERTEX
  5
1C13
330
1BC1
100
AcDbEntity
  8
0
100
AcDbVertex
100
AcDb2dVertex
 10
2.547699013841814
 20
-10.18031331418231
 30
0.0
 70
     8
  0
VERTEX
  5
1C14
330
1BC1
100
AcDbEntity
  8
0
100
AcDbVertex
100
AcDb2dVertex
 10
2.575165428324424
 20
-10.11806396664412
 30
0.0
 70
     8
  0
VERTEX
  5
1C15
330
1BC1
100
AcDbEntity
  8
0
100
AcDbVertex
100
AcDb2dVertex
 10
2.602222750508019
 20
-10.04757284826548
 30
0.0
 70
     8
  0
VERTEX
  5
1C16
330
1BC1
100
AcDbEntity
  8
0
100
AcDbVertex
100
AcDb2dVertex
 10
2.629116434923677
 20
-9.97054064210525
 30
0.0
 70
     8
  0
VERTEX
  5
1C17
330
1BC1
100
AcDbEntity
  8
0
100
AcDbVertex
100
AcDb2dVertex
 10
2.65609193610248
 20
-9.888668031222293
 30
0.0
 70
     8
  0
VERTEX
  5
1C18
330
1BC1
100
AcDbEntity
  8
0
100
AcDbVertex
100
AcDb2dVertex
 10
2.683394708575491
 20
-9.803655698675466
 30
0.0
 70
     8
  0
VERTEX
  5
1C19
330
1BC1
100
AcDbEntity
  8
0
100
AcDbVertex
100
AcDb2dVertex
 10
2.711270206873805
 20
-9.717204327523646
 30
0.0
 70
     8
  0
VERTEX
  5
1C1A
330
1BC1
100
AcDbEntity
  8
0
100
AcDbVertex
100
AcDb2dVertex
 10
2.739963885528489
 20
-9.631014600825702
 30
0.0
 70
     8
  0
VERTEX
  5
1C1B
330
1BC1
100
AcDbEntity
  8
0
100
AcDbVertex
100
AcDb2dVertex
 10
2.755757578606367
 20
-9.507715088876668
 30
0.0
 70
    16
  0
VERTEX
  5
1C1C
330
1BC1
100
AcDbEntity
  8
0
100
AcDbVertex
100
AcDb2dVertex
 10
3.040616033302129
 20
-8.963496698561149
 30
0.0
 70
    16
  0
VERTEX
  5
1C1D
330
1BC1
100
AcDbEntity
  8
0
100
AcDbVertex
100
AcDb2dVertex
 10
3.023859797331443
 20
-8.544867206220413
 30
0.0
 70
    16
  0
VERTEX
  5
1C1E
330
1BC1
100
AcDbEntity
  8
0
100
AcDbVertex
100
AcDb2dVertex
 10
2.789270322013798
 20
-8.335552376262459
 30
0.0
 70
    16
  0
VERTEX
  5
1C1F
330
1BC1
100
AcDbEntity
  8
0
100
AcDbVertex
100
AcDb2dVertex
 10
2.479276834697081
 20
-8.276944123329087
 30
0.0
 70
    16
  0
VERTEX
  5
1C20
330
1BC1
100
AcDbEntity
  8
0
100
AcDbVertex
100
AcDb2dVertex
 10
2.30333486394182
 20
-8.293689410270847
 30
0.0
 70
    16
  0
VERTEX
  5
1C21
330
1BC1
100
AcDbEntity
  8
0
100
AcDbVertex
100
AcDb2dVertex
 10
2.194418108535369
 20
-8.360670055312287
 30
0.0
 70
    16
  0
VERTEX
  5
1C22
330
1BC1
100
AcDbEntity
  8
0
100
AcDbVertex
100
AcDb2dVertex
 10
2.152527111409618
 20
-8.536494478961948
 30
0.0
 70
    16
  0
VERTEX
  5
1C23
330
1BC1
100
AcDbEntity
  8
0
100
AcDbVertex
100
AcDb2dVertex
 10
2.102258132031501
 20
-10.16914998505887
 30
0.0
 70
    16
  0
VERTEX
  5
1C24
330
1BC1
100
AcDbEntity
  8
0
100
AcDbVertex
100
AcDb2dVertex
 10
2.31171311766014
 20
-10.42870017311651
 30
0.0
 70
    16
  0
SEQEND
  5
1C25
330
1BC1
100
AcDbEntity
  8
0
  0
LINE
  5
1C26
330
1854
100
AcDbEntity
  8
0
100
AcDbLine
 10
0.0
 20
0.0
 30
0.0
 11
0.0000000000000071
 21
-15.62553024703273
 31
0.0
  0
POLYLINE
  5
1C27
330
1854
100
AcDbEntity
  8
0
100
AcDb2dPolyline
 66
     1
 10
0.0
 20
0.0
 30
0.0
 70
     5
 75
     6
  0
VERTEX
  5
1C28
330
1C27
100
AcDbEntity
  8
0
100
AcDbVertex
100
AcDb2dVertex
 10
10.2132096418059
 20
-2.145729710469712
 30
0.0
 70
    16
  0
VERTEX
  5
1C29
330
1C27
100
AcDbEntity
  8
0
100
AcDbVertex
100
AcDb2dVertex
 10
8.870678343800172
 20
-2.155445301587871
 30
0.0
 70
     8
  0
VERTEX
  5
1C2A
330
1C27
100
AcDbEntity
  8
0
100
AcDbVertex
100
AcDb2dVertex
 10
8.769889409644754
 20
-2.162711285042941
 30
0.0
 70
     8
  0
VERTEX
  5
1C2B
330
1C27
100
AcDbEntity
  8
0
100
AcDbVertex
100
AcDb2dVertex
 10
8.687961178094873
 20
-2.172005947279998
 30
0.0
 70
     8
  0
VERTEX
  5
1C2C
330
1C27
100
AcDbEntity
  8
0
100
AcDbVertex
100
AcDb2dVertex
 10
8.622459675869034
 20
-2.183453493269389
 30
0.0
 70
     8
  0
VERTEX
  5
1C2D
330
1C27
100
AcDbEntity
  8
0
100
AcDbVertex
100
AcDb2dVertex
 10
8.570950929685732
 20
-2.197178127981448
 30
0.0
 70
     8
  0
VERTEX
  5
1C2E
330
1C27
100
AcDbEntity
  8
0
100
AcDbVertex
100
AcDb2dVertex
 10
8.531000966263498
 20
-2.213304056386498
 30
0.0
 70
     8
  0
VERTEX
  5
1C2F
330
1C27
100
AcDbEntity
  8
0
100
AcDbVertex
100
AcDb2dVertex
 10
8.500175812320847
 20
-2.231955483454886
 30
0.0
 70
     8
  0
VERTEX
  5
1C30
330
1C27
100
AcDbEntity
  8
0
100
AcDbVertex
100
AcDb2dVertex
 10
8.476041494576278
 20
-2.253256614156953
 30
0.0
 70
     8
  0
VERTEX
  5
1C31
330
1C27
100
AcDbEntity
  8
0
100
AcDbVertex
100
AcDb2dVertex
 10
8.456164039748323
 20
-2.277331653463022
 30
0.0
 70
     8
  0
VERTEX
  5
1C32
330
1C27
100
AcDbEntity
  8
0
100
AcDbVertex
100
AcDb2dVertex
 10
8.438522041742384
 20
-2.304227178277891
 30
0.0
 70
     8
  0
VERTEX
  5
1C33
330
1C27
100
AcDbEntity
  8
0
100
AcDbVertex
100
AcDb2dVertex
 10
8.422744363211666
 20
-2.333679253244149
 30
0.0
 70
     8
  0
VERTEX
  5
1C34
330
1C27
100
AcDbEntity
  8
0
100
AcDbVertex
100
AcDb2dVertex
 10
8.408872433996251
 20
-2.365346314938854
 30
0.0
 70
     8
  0
VERTEX
  5
1C35
330
1C27
100
AcDbEntity
  8
0
100
AcDbVertex
100
AcDb2dVertex
 10
8.396947683936225
 20
-2.398886799939038
 30
0.0
 70
     8
  0
VERTEX
  5
1C36
330
1C27
100
AcDbEntity
  8
0
100
AcDbVertex
100
AcDb2dVertex
 10
8.3870115428717
 20
-2.433959144821759
 30
0.0
 70
     8
  0
VERTEX
  5
1C37
330
1C27
100
AcDbEntity
  8
0
100
AcDbVertex
100
AcDb2dVertex
 10
8.379105440642753
 20
-2.470221786164053
 30
0.0
 70
     8
  0
VERTEX
  5
1C38
330
1C27
100
AcDbEntity
  8
0
100
AcDbVertex
100
AcDb2dVertex
 10
8.373270807089497
 20
-2.50733316054298
 30
0.0
 70
     8
  0
VERTEX
  5
1C39
330
1C27
100
AcDbEntity
  8
0
100
AcDbVertex
100
AcDb2dVertex
 10
8.369549072052013
 20
-2.544951704535581
 30
0.0
 70
     8
  0
VERTEX
  5
1C3A
330
1C27
100
AcDbEntity
  8
0
100
AcDbVertex
100
AcDb2dVertex
 10
8.367959224273313
 20
-2.582765180869724
 30
0.0
 70
     8
  0
VERTEX
  5
1C3B
330
1C27
100
AcDbEntity
  8
0
100
AcDbVertex
100
AcDb2dVertex
 10
8.368430488107915
 20
-2.620578656876578
 30
0.0
 70
     8
  0
VERTEX
  5
1C3C
330
1C27
100
AcDbEntity
  8
0
100
AcDbVertex
100
AcDb2dVertex
 10
8.370869646813279
 20
-2.658226526038109
 30
0.0
 70
     8
  0
VERTEX
  5
1C3D
330
1C27
100
AcDbEntity
  8
0
100
AcDbVertex
100
AcDb2dVertex
 10
8.375183483646836
 20
-2.695543181836317
 30
0.0
 70
     8
  0
VERTEX
  5
1C3E
330
1C27
100
AcDbEntity
  8
0
100
AcDbVertex
100
AcDb2dVertex
 10
8.381278781866033
 20
-2.732363017753183
 30
0.0
 70
     8
  0
VERTEX
  5
1C3F
330
1C27
100
AcDbEntity
  8
0
100
AcDbVertex
100
AcDb2dVertex
 10
8.389062324728289
 20
-2.768520427270686
 30
0.0
 70
     8
  0
VERTEX
  5
1C40
330
1C27
100
AcDbEntity
  8
0
100
AcDbVertex
100
AcDb2dVertex
 10
8.398440895491084
 20
-2.803849803870814
 30
0.0
 70
     8
  0
VERTEX
  5
1C41
330
1C27
100
AcDbEntity
  8
0
100
AcDbVertex
100
AcDb2dVertex
 10
8.409321277411812
 20
-2.838185541035546
 30
0.0
 70
     8
  0
VERTEX
  5
1C42
330
1C27
100
AcDbEntity
  8
0
100
AcDbVertex
100
AcDb2dVertex
 10
8.421627516225502
 20
-2.871363757365902
 30
0.0
 70
     8
  0
VERTEX
  5
1C43
330
1C27
100
AcDbEntity
  8
0
100
AcDbVertex
100
AcDb2dVertex
 10
8.435352707577372
 20
-2.903227471939043
 30
0.0
 70
     8
  0
VERTEX
  5
1C44
330
1C27
100
AcDbEntity
  8
0
100
AcDbVertex
100
AcDb2dVertex
 10
8.450507209590185
 20
-2.933621428951173
 30
0.0
 70
     8
  0
VERTEX
  5
1C45
330
1C27
100
AcDbEntity
  8
0
100
AcDbVertex
100
AcDb2dVertex
 10
8.467101380386754
 20
-2.962390372598491
 30
0.0
 70
     8
  0
VERTEX
  5
1C46
330
1C27
100
AcDbEntity
  8
0
100
AcDbVertex
100
AcDb2dVertex
 10
8.485145578089849
 20
-2.989379047077196
 30
0.0
 70
     8
  0
VERTEX
  5
1C47
330
1C27
100
AcDbEntity
  8
0
100
AcDbVertex
100
AcDb2dVertex
 10
8.504650160822254
 20
-3.014432196583488
 30
0.0
 70
     8
  0
VERTEX
  5
1C48
330
1C27
100
AcDbEntity
  8
0
100
AcDbVertex
100
AcDb2dVertex
 10
8.525625486706726
 20
-3.037394565313558
 30
0.0
 70
     8
  0
VERTEX
  5
1C49
330
1C27
100
AcDbEntity
  8
0
100
AcDbVertex
100
AcDb2dVertex
 10
8.548081913866095
 20
-3.05811089746361
 30
0.0
 70
     8
  0
VERTEX
  5
1C4A
330
1C27
100
AcDbEntity
  8
0
100
AcDbVertex
100
AcDb2dVertex
 10
8.57200563306057
 20
-3.076455263271565
 30
0.0
 70
     8
  0
VERTEX
  5
1C4B
330
1C27
100
AcDbEntity
  8
0
100
AcDbVertex
100
AcDb2dVertex
 10
8.597286165600241
 20
-3.092419037142256
 30
0.0
 70
     8
  0
VERTEX
  5
1C4C
330
1C27
100
AcDbEntity
  8
0
100
AcDbVertex
100
AcDb2dVertex
 10
8.623788865432679
 20
-3.106022919522207
 30
0.0
 70
     8
  0
VERTEX
  5
1C4D
330
1C27
100
AcDbEntity
  8
0
100
AcDbVertex
100
AcDb2dVertex
 10
8.651379086505414
 20
-3.117287610857975
 30
0.0
 70
     8
  0
VERTEX
  5
1C4E
330
1C27
100
AcDbEntity
  8
0
100
AcDbVertex
100
AcDb2dVertex
 10
8.679922182766024
 20
-3.126233811596112
 30
0.0
 70
     8
  0
VERTEX
  5
1C4F
330
1C27
100
AcDbEntity
  8
0
100
AcDbVertex
100
AcDb2dVertex
 10
8.70928350816203
 20
-3.132882222183152
 30
0.0
 70
     8
  0
VERTEX
  5
1C50
330
1C27
100
AcDbEntity
  8
0
100
AcDbVertex
100
AcDb2dVertex
 10
8.73932841664099
 20
-3.137253543065636
 30
0.0
 70
     8
  0
VERTEX
  5
1C51
330
1C27
100
AcDbEntity
  8
0
100
AcDbVertex
100
AcDb2dVertex
 10
8.769922262150476
 20
-3.139368474690115
 30
0.0
 70
     8
  0
VERTEX
  5
1C52
330
1C27
100
AcDbEntity
  8
0
100
AcDbVertex
100
AcDb2dVertex
 10
8.800949387204259
 20
-3.139252892860252
 30
0.0
 70
     8
  0
VERTEX
  5
1C53
330
1C27
100
AcDbEntity
  8
0
100
AcDbVertex
100
AcDb2dVertex
 10
8.832370088581164
 20
-3.136953374808108
 30
0.0
 70
     8
  0
VERTEX
  5
1C54
330
1C27
100
AcDbEntity
  8
0
100
AcDbVertex
100
AcDb2dVertex
 10
8.864163651626238
 20
-3.132521673122891
 30
0.0
 70
     8
  0
VERTEX
  5
1C55
330
1C27
100
AcDbEntity
  8
0
100
AcDbVertex
100
AcDb2dVertex
 10
8.896309361684547
 20
-3.126009540393791
 30
0.0
 70
     8
  0
VERTEX
  5
1C56
330
1C27
100
AcDbEntity
  8
0
100
AcDbVertex
100
AcDb2dVertex
 10
8.928786504101132
 20
-3.117468729209985
 30
0.0
 70
     8
  0
VERTEX
  5
1C57
330
1C27
100
AcDbEntity
  8
0
100
AcDbVertex
100
AcDb2dVertex
 10
8.961574364221068
 20
-3.10695099216068
 30
0.0
 70
     8
  0
VERTEX
  5
1C58
330
1C27
100
AcDbEntity
  8
0
100
AcDbVertex
100
AcDb2dVertex
 10
8.994652227389391
 20
-3.094508081835058
 30
0.0
 70
     8
  0
VERTEX
  5
1C59
330
1C27
100
AcDbEntity
  8
0
100
AcDbVertex
100
AcDb2dVertex
 10
9.027999378951154
 20
-3.080191750822304
 30
0.0
 70
     8
  0
VERTEX
  5
1C5A
330
1C27
100
AcDbEntity
  8
0
100
AcDbVertex
100
AcDb2dVertex
 10
9.061610640375199
 20
-3.064093428031181
 30
0.0
 70
     8
  0
VERTEX
  5
1C5B
330
1C27
100
AcDbEntity
  8
0
100
AcDbVertex
100
AcDb2dVertex
 10
9.095542977625353
 20
-3.046463247648578
 30
0.0
 70
     8
  0
VERTEX
  5
1C5C
330
1C27
100
AcDbEntity
  8
0
100
AcDbVertex
100
AcDb2dVertex
 10
9.129868892789247
 20
-3.027591020180977
 30
0.0
 70
     8
  0
VERTEX
  5
1C5D
330
1C27
100
AcDbEntity
  8
0
100
AcDbVertex
100
AcDb2dVertex
 10
9.1646608879545
 20
-3.00776655613485
 30
0.0
 70
     8
  0
VERTEX
  5
1C5E
330
1C27
100
AcDbEntity
  8
0
100
AcDbVertex
100
AcDb2dVertex
 10
9.199991465208718
 20
-2.987279666016647
 30
0.0
 70
     8
  0
VERTEX
  5
1C5F
330
1C27
100
AcDbEntity
  8
0
100
AcDbVertex
100
AcDb2dVertex
 10
9.235933126639519
 20
-2.966420160332855
 30
0.0
 70
     8
  0
VERTEX
  5
1C60
330
1C27
100
AcDbEntity
  8
0
100
AcDbVertex
100
AcDb2dVertex
 10
9.272558374334519
 20
-2.945477849589924
 30
0.0
 70
     8
  0
VERTEX
  5
1C61
330
1C27
100
AcDbEntity
  8
0
100
AcDbVertex
100
AcDb2dVertex
 10
9.30993971038135
 20
-2.924742544294321
 30
0.0
 70
     8
  0
VERTEX
  5
1C62
330
1C27
100
AcDbEntity
  8
0
100
AcDbVertex
100
AcDb2dVertex
 10
9.348172077522871
 20
-2.904455753310553
 30
0.0
 70
     8
  0
VERTEX
  5
1C63
330
1C27
100
AcDbEntity
  8
0
100
AcDbVertex
100
AcDb2dVertex
 10
9.387440181123068
 20
-2.884665778935168
 30
0.0
 70
     8
  0
VERTEX
  5
1C64
330
1C27
100
AcDbEntity
  8
0
100
AcDbVertex
100
AcDb2dVertex
 10
9.427951167201175
 20
-2.865372621822775
 30
0.0
 70
     8
  0
VERTEX
  5
1C65
330
1C27
100
AcDbEntity
  8
0
100
AcDbVertex
100
AcDb2dVertex
 10
9.469912181776411
 20
-2.846576282627946
 30
0.0
 70
     8
  0
VERTEX
  5
1C66
330
1C27
100
AcDbEntity
  8
0
100
AcDbVertex
100
AcDb2dVertex
 10
9.51353037086805
 20
-2.828276762005284
 30
0.0
 70
     8
  0
VERTEX
  5
1C67
330
1C27
100
AcDbEntity
  8
0
100
AcDbVertex
100
AcDb2dVertex
 10
9.559012880495291
 20
-2.810474060609376
 30
0.0
 70
     8
  0
VERTEX
  5
1C68
330
1C27
100
AcDbEntity
  8
0
100
AcDbVertex
100
AcDb2dVertex
 10
9.606566856677407
 20
-2.793168179094816
 30
0.0
 70
     8
  0
VERTEX
  5
1C69
330
1C27
100
AcDbEntity
  8
0
100
AcDbVertex
100
AcDb2dVertex
 10
9.656399445433606
 20
-2.776359118116186
 30
0.0
 70
     8
  0
VERTEX
  5
1C6A
330
1C27
100
AcDbEntity
  8
0
100
AcDbVertex
100
AcDb2dVertex
 10
9.708541718216121
 20
-2.76004860322892
 30
0.0
 70
     8
  0
VERTEX
  5
1C6B
330
1C27
100
AcDbEntity
  8
0
100
AcDbVertex
100
AcDb2dVertex
 10
9.762320448209024
 20
-2.74424525959181
 30
0.0
 70
     8
  0
VERTEX
  5
1C6C
330
1C27
100
AcDbEntity
  8
0
100
AcDbVertex
100
AcDb2dVertex
 10
9.816886334029412
 20
-2.728959437264467
 30
0.0
 70
     8
  0
VERTEX
  5
1C6D
330
1C27
100
AcDbEntity
  8
0
100
AcDbVertex
100
AcDb2dVertex
 10
9.871390074294346
 20
-2.714201486306532
 30
0.0
 70
     8
  0
VERTEX
  5
1C6E
330
1C27
100
AcDbEntity
  8
0
100
AcDbVertex
100
AcDb2dVertex
 10
9.924982367620888
 20
-2.699981756777621
 30
0.0
 70
     8
  0
VERTEX
  5
1C6F
330
1C27
100
AcDbEntity
  8
0
100
AcDbVertex
100
AcDb2dVertex
 10
9.976813912626131
 20
-2.686310598737357
 30
0.0
 70
     8
  0
VERTEX
  5
1C70
330
1C27
100
AcDbEntity
  8
0
100
AcDbVertex
100
AcDb2dVertex
 10
10.02603540792712
 20
-2.673198362245368
 30
0.0
 70
     8
  0
VERTEX
  5
1C71
330
1C27
100
AcDbEntity
  8
0
100
AcDbVertex
100
AcDb2dVertex
 10
10.07179755214095
 20
-2.660655397361278
 30
0.0
 70
     8
  0
VERTEX
  5
1C72
330
1C27
100
AcDbEntity
  8
0
100
AcDbVertex
100
AcDb2dVertex
 10
10.1134443808409
 20
-2.648636852081143
 30
0.0
 70
     8
  0
VERTEX
  5
1C73
330
1C27
100
AcDbEntity
  8
0
100
AcDbVertex
100
AcDb2dVertex
 10
10.15109327742513
 20
-2.636877066146716
 30
0.0
 70
     8
  0
VERTEX
  5
1C74
330
1C27
100
AcDbEntity
  8
0
100
AcDbVertex
100
AcDb2dVertex
 10
10.185054962248
 20
-2.625055177236173
 30
0.0
 70
     8
  0
VERTEX
  5
1C75
330
1C27
100
AcDbEntity
  8
0
100
AcDbVertex
100
AcDb2dVertex
 10
10.21564015566389
 20
-2.612850323027704
 30
0.0
 70
     8
  0
VERTEX
  5
1C76
330
1C27
100
AcDbEntity
  8
0
100
AcDbVertex
100
AcDb2dVertex
 10
10.24315957802718
 20
-2.599941641199482
 30
0.0
 70
     8
  0
VERTEX
  5
1C77
330
1C27
100
AcDbEntity
  8
0
100
AcDbVertex
100
AcDb2dVertex
 10
10.26792394969224
 20
-2.586008269429708
 30
0.0
 70
     8
  0
VERTEX
  5
1C78
330
1C27
100
AcDbEntity
  8
0
100
AcDbVertex
100
AcDb2dVertex
 10
10.29024399101344
 20
-2.57072934539655
 30
0.0
 70
     8
  0
VERTEX
  5
1C79
330
1C27
100
AcDbEntity
  8
0
100
AcDbVertex
100
AcDb2dVertex
 10
10.31043042234516
 20
-2.55378400677819
 30
0.0
 70
     8
  0
VERTEX
  5
1C7A
330
1C27
100
AcDbEntity
  8
0
100
AcDbVertex
100
AcDb2dVertex
 10
10.32870765289113
 20
-2.534946269963224
 30
0.0
 70
     8
  0
VERTEX
  5
1C7B
330
1C27
100
AcDbEntity
  8
0
100
AcDbVertex
100
AcDb2dVertex
 10
10.34495484725255
 20
-2.51436966618192
 30
0.0
 70
     8
  0
VERTEX
  5
1C7C
330
1C27
100
AcDbEntity
  8
0
100
AcDbVertex
100
AcDb2dVertex
 10
10.35896485887997
 20
-2.492302605374948
 30
0.0
 70
     8
  0
VERTEX
  5
1C7D
330
1C27
100
AcDbEntity
  8
0
100
AcDbVertex
100
AcDb2dVertex
 10
10.37053054122393
 20
-2.468993497482973
 30
0.0
 70
     8
  0
VERTEX
  5
1C7E
330
1C27
100
AcDbEntity
  8
0
100
AcDbVertex
100
AcDb2dVertex
 10
10.37944474773501
 20
-2.444690752446664
 30
0.0
 70
     8
  0
VERTEX
  5
1C7F
330
1C27
100
AcDbEntity
  8
0
100
AcDbVertex
100
AcDb2dVertex
 10
10.38550033186377
 20
-2.419642780206704
 30
0.0
 70
     8
  0
VERTEX
  5
1C80
330
1C27
100
AcDbEntity
  8
0
100
AcDbVertex
100
AcDb2dVertex
 10
10.38849014706074
 20
-2.394097990703766
 30
0.0
 70
     8
  0
VERTEX
  5
1C81
330
1C27
100
AcDbEntity
  8
0
100
AcDbVertex
100
AcDb2dVertex
 10
10.3882070467765
 20
-2.368304793878518
 30
0.0
 70
     8
  0
VERTEX
  5
1C82
330
1C27
100
AcDbEntity
  8
0
100
AcDbVertex
100
AcDb2dVertex
 10
10.38456471994877
 20
-2.342532300281824
 30
0.0
 70
     8
  0
VERTEX
  5
1C83
330
1C27
100
AcDbEntity
  8
0
100
AcDbVertex
100
AcDb2dVertex
 10
10.37796019746398
 20
-2.317132422905313
 30
0.0
 70
     8
  0
VERTEX
  5
1C84
330
1C27
100
AcDbEntity
  8
0
100
AcDbVertex
100
AcDb2dVertex
 10
10.36891134569575
 20
-2.292477775350825
 30
0.0
 70
     8
  0
VERTEX
  5
1C85
330
1C27
100
AcDbEntity
  8
0
100
AcDbVertex
100
AcDb2dVertex
 10
10.3579360310177
 20
-2.268940971220182
 30
0.0
 70
     8
  0
VERTEX
  5
1C86
330
1C27
100
AcDbEntity
  8
0
100
AcDbVertex
100
AcDb2dVertex
 10
10.34555211980342
 20
-2.246894624115213
 30
0.0
 70
     8
  0
VERTEX
  5
1C87
330
1C27
100
AcDbEntity
  8
0
100
AcDbVertex
100
AcDb2dVertex
 10
10.33227747842652
 20
-2.226711347637738
 30
0.0
 70
     8
  0
VERTEX
  5
1C88
330
1C27
100
AcDbEntity
  8
0
100
AcDbVertex
100
AcDb2dVertex
 10
10.31862997326063
 20
-2.20876375538959
 30
0.0
 70
     8
  0
VERTEX
  5
1C89
330
1C27
100
AcDbEntity
  8
0
100
AcDbVertex
100
AcDb2dVertex
 10
10.30512747067935
 20
-2.193424460972593
 30
0.0
 70
     8
  0
VERTEX
  5
1C8A
330
1C27
100
AcDbEntity
  8
0
100
AcDbVertex
100
AcDb2dVertex
 10
10.29170437401026
 20
-2.180943598519125
 30
0.0
 70
     8
  0
VERTEX
  5
1C8B
330
1C27
100
AcDbEntity
  8
0
100
AcDbVertex
100
AcDb2dVertex
 10
10.27596123439675
 20
-2.171081384283731
 30
0.0
 70
     8
  0
VERTEX
  5
1C8C
330
1C27
100
AcDbEntity
  8
0
100
AcDbVertex
100
AcDb2dVertex
 10
10.25491513993625
 20
-2.163475555051501
 30
0.0
 70
     8
  0
VERTEX
  5
1C8D
330
1C27
100
AcDbEntity
  8
0
100
AcDbVertex
100
AcDb2dVertex
 10
10.2255831787261
 20
-2.157763847607522
 30
0.0
 70
     8
  0
VERTEX
  5
1C8E
330
1C27
100
AcDbEntity
  8
0
100
AcDbVertex
100
AcDb2dVertex
 10
10.1849824388637
 20
-2.153583998736905
 30
0.0
 70
     8
  0
VERTEX
  5
1C8F
330
1C27
100
AcDbEntity
  8
0
100
AcDbVertex
100
AcDb2dVertex
 10
10.13013000844642
 20
-2.150573745224733
 30
0.0
 70
     8
  0
VERTEX
  5
1C90
330
1C27
100
AcDbEntity
  8
0
100
AcDbVertex
100
AcDb2dVertex
 10
10.05804297557165
 20
-2.148370823856094
 30
0.0
 70
     8
  0
VERTEX
  5
1C91
330
1C27
100
AcDbEntity
  8
0
100
AcDbVertex
100
AcDb2dVertex
 10
9.965738428336766
 20
-2.146612971416086
 30
0.0
 70
     8
  0
VERTEX
  5
1C92
330
1C27
100
AcDbEntity
  8
0
100
AcDbVertex
100
AcDb2dVertex
 10
9.85165758811771
 20
-2.145036253310998
 30
0.0
 70
     8
  0
VERTEX
  5
1C93
330
1C27
100
AcDbEntity
  8
0
100
AcDbVertex
100
AcDb2dVertex
 10
9.719938209404634
 20
-2.143770049431861
 30
0.0
 70
     8
  0
VERTEX
  5
1C94
330
1C27
100
AcDbEntity
  8
0
100
AcDbVertex
100
AcDb2dVertex
 10
9.576142179966272
 20
-2.143042068290942
 30
0.0
 70
     8
  0
VERTEX
  5
1C95
330
1C27
100
AcDbEntity
  8
0
100
AcDbVertex
100
AcDb2dVertex
 10
9.425831387571335
 20
-2.143080018400461
 30
0.0
 70
     8
  0
VERTEX
  5
1C96
330
1C27
100
AcDbEntity
  8
0
100
AcDbVertex
100
AcDb2dVertex
 10
9.274567719988535
 20
-2.14411160827268
 30
0.0
 70
     8
  0
VERTEX
  5
1C97
330
1C27
100
AcDbEntity
  8
0
100
AcDbVertex
100
AcDb2dVertex
 10
9.127913064986589
 20
-2.146364546419825
 30
0.0
 70
     8
  0
VERTEX
  5
1C98
330
1C27
100
AcDbEntity
  8
0
100
AcDbVertex
100
AcDb2dVertex
 10
8.991429310334225
 20
-2.150066541354139
 30
0.0
 70
     8
  0
VERTEX
  5
1C99
330
1C27
100
AcDbEntity
  8
0
100
AcDbVertex
100
AcDb2dVertex
 10
8.643535134338655
 20
-2.135130914263541
 30
0.0
 70
    16
  0
VERTEX
  5
1C9A
330
1C27
100
AcDbEntity
  8
0
100
AcDbVertex
100
AcDb2dVertex
 10
8.436719883640478
 20
-2.246418442003346
 30
0.0
 70
    16
  0
VERTEX
  5
1C9B
330
1C27
100
AcDbEntity
  8
0
100
AcDbVertex
100
AcDb2dVertex
 10
8.346569569589341
 20
-2.543185238501219
 30
0.0
 70
    16
  0
VERTEX
  5
1C9C
330
1C27
100
AcDbEntity
  8
0
100
AcDbVertex
100
AcDb2dVertex
 10
8.394296270314274
 20
-2.850550831205264
 30
0.0
 70
    16
  0
VERTEX
  5
1C9D
330
1C27
100
AcDbEntity
  8
0
100
AcDbVertex
100
AcDb2dVertex
 10
8.532173013624447
 20
-3.083724682891006
 30
0.0
 70
    16
  0
VERTEX
  5
1C9E
330
1C27
100
AcDbEntity
  8
0
100
AcDbVertex
100
AcDb2dVertex
 10
8.765503158384486
 20
-3.163215822012361
 30
0.0
 70
    16
  0
VERTEX
  5
1C9F
330
1C27
100
AcDbEntity
  8
0
100
AcDbVertex
100
AcDb2dVertex
 10
9.025347925740433
 20
-3.09962287720026
 30
0.0
 70
    16
  0
VERTEX
  5
1CA0
330
1C27
100
AcDbEntity
  8
0
100
AcDbVertex
100
AcDb2dVertex
 10
9.301101412360726
 20
-2.919443174120445
 30
0.0
 70
    16
  0
VERTEX
  5
1CA1
330
1C27
100
AcDbEntity
  8
0
100
AcDbVertex
100
AcDb2dVertex
 10
9.629884687104734
 20
-2.771059692083909
 30
0.0
 70
    16
  0
VERTEX
  5
1CA2
330
1C27
100
AcDbEntity
  8
0
100
AcDbVertex
100
AcDb2dVertex
 10
10.11775651182199
 20
-2.654472766241024
 30
0.0
 70
    16
  0
VERTEX
  5
1CA3
330
1C27
100
AcDbEntity
  8
0
100
AcDbVertex
100
AcDb2dVertex
 10
10.32987457845301
 20
-2.574981627119697
 30
0.0
 70
    16
  0
VERTEX
  5
1CA4
330
1C27
100
AcDbEntity
  8
0
100
AcDbVertex
100
AcDb2dVertex
 10
10.42532770843692
 20
-2.368304765949318
 30
0.0
 70
    16
  0
VERTEX
  5
1CA5
330
1C27
100
AcDbEntity
  8
0
100
AcDbVertex
100
AcDb2dVertex
 10
10.29805686845831
 20
-2.161628072354133
 30
0.0
 70
    16
  0
SEQEND
  5
1CA6
330
1C27
100
AcDbEntity
  8
0
  0
ENDBLK
  5
1CA7
330
1854
100
AcDbEntity
  8
0
100
AcDbBlockEnd
  0
BLOCK
  5
1D8A
330
1D7F
100
AcDbEntity
  8
0
100
AcDbBlockBegin
  2
*D1
 70
     1
 10
0.0
 20
0.0
 30
0.0
  3
*D1
  1

  0
LINE
  5
1DE5
330
1D7F
100
AcDbEntity
  8
DIM
 62
     0
370
    -2
100
AcDbLine
 10
14.89680584521981
 20
24.85869512879294
 30
0.0
 11
10.35894028217326
 21
24.85869512879294
 31
0.0
  0
LINE
  5
1DE6
330
1D7F
100
AcDbEntity
  8
DIM
 62
     0
370
    -2
100
AcDbLine
 10
14.89680584521982
 20
9.233164881760211
 30
0.0
 11
10.35894028217326
 21
9.233164881760213
 31
0.0
  0
LINE
  5
1DE7
330
1D7F
100
AcDbEntity
  8
DIM
 62
     0
370
    -2
100
AcDbLine
 10
10.53894028217326
 20
24.67869512879294
 30
0.0
 11
10.53894028217326
 21
18.30259667194324
 31
0.0
  0
LINE
  5
1DE8
330
1D7F
100
AcDbEntity
  8
DIM
 62
     0
370
    -2
100
AcDbLine
 10
10.53894028217325
 20
9.413164881760213
 30
0.0
 11
10.53894028217326
 21
15.78926333860991
 31
0.0
  0
SOLID
  5
1DE9
330
1D7F
100
AcDbEntity
  8
DIM
 62
     0
100
AcDbTrace
 10
10.50894028217326
 20
24.67869512879294
 30
0.0
 11
10.56894028217326
 21
24.67869512879294
 31
0.0
 12
10.53894028217326
 22
24.85869512879294
 32
0.0
 13
10.53894028217326
 23
24.85869512879294
 33
0.0
  0
SOLID
  5
1DEA
330
1D7F
100
AcDbEntity
  8
DIM
 62
     0
100
AcDbTrace
 10
10.50894028217326
 20
9.413164881760213
 30
0.0
 11
10.56894028217326
 21
9.413164881760213
 31
0.0
 12
10.53894028217325
 22
9.233164881760213
 32
0.0
 13
10.53894028217325
 23
9.233164881760213
 33
0.0
  0
MTEXT
  5
1DEB
330
1D7F
100
AcDbEntity
  8
DIM
 62
     0
100
AcDbMText
 10
10.53894028217325
 20
17.04593000527658
 30
0.0
 40
1.0
 41
0.0
 71
     5
 72
     1
  1
\A1;15{\H1.000000x;\S5/8;}
 73
     1
 44
1.0
  0
POINT
  5
1DEC
330
1D7F
100
AcDbEntity
  8
Defpoints
 62
     0
100
AcDbPoint
 10
14.95930584521981
 20
24.85869512879294
 30
0.0
  0
POINT
  5
1DED
330
1D7F
100
AcDbEntity
  8
Defpoints
 62
     0
100
AcDbPoint
 10
14.95930584521982
 20
9.233164881760211
 30
0.0
  0
POINT
  5
1DEE
330
1D7F
100
AcDbEntity
  8
Defpoints
 62
     0
100
AcDbPoint
 10
10.53894028217325
 20
9.233164881760213
 30
0.0
  0
ENDBLK
  5
1D8B
330
1D7F
100
AcDbEntity
  8
0
100
AcDbBlockEnd
  0
BLOCK
  5
1D9C
330
1D91
100
AcDbEntity
  8
0
100
AcDbBlockBegin
  2
*D2
 70
     1
 10
0.0
 20
0.0
 30
0.0
  3
*D2
  1

  0
LINE
  5
1DD1
330
1D91
100
AcDbEntity
  8
DIM
 62
     0
370
    -2
100
AcDbLine
 10
34.15668909537776
 20
17.10869512879294
 30
0.0
 11
34.15668909537776
 21
28.00315795915351
 31
0.0
  0
LINE
  5
1DD2
330
1D91
100
AcDbEntity
  8
DIM
 62
     0
370
    -2
100
AcDbLine
 10
35.28168909537776
 20
17.10869512879294
 30
0.0
 11
35.28168909537776
 21
28.00315795915351
 31
0.0
  0
LINE
  5
1DD3
330
1D91
100
AcDbEntity
  8
DIM
 62
     0
370
    -2
100
AcDbLine
 10
34.33668909537776
 20
27.82315795915351
 30
0.0
 11
35.10168909537776
 21
27.82315795915351
 31
0.0
  0
LINE
  5
1DD4
330
1D91
100
AcDbEntity
  8
DIM
 62
     0
370
    -2
100
AcDbLine
 10
35.28168909537776
 20
27.82315795915351
 30
0.0
 11
35.46168909537776
 21
27.82315795915351
 31
0.0
  0
SOLID
  5
1DD5
330
1D91
100
AcDbEntity
  8
DIM
 62
     0
100
AcDbTrace
 10
34.33668909537776
 20
27.85315795915351
 30
0.0
 11
34.33668909537776
 21
27.7931579591535
 31
0.0
 12
34.15668909537776
 22
27.82315795915351
 32
0.0
 13
34.15668909537776
 23
27.82315795915351
 33
0.0
  0
SOLID
  5
1DD6
330
1D91
100
AcDbEntity
  8
DIM
 62
     0
100
AcDbTrace
 10
35.10168909537776
 20
27.85315795915351
 30
0.0
 11
35.10168909537776
 21
27.7931579591535
 31
0.0
 12
35.28168909537776
 22
27.82315795915351
 32
0.0
 13
35.28168909537776
 23
27.82315795915351
 33
0.0
  0
MTEXT
  5
1DD7
330
1D91
100
AcDbEntity
  8
DIM
 62
     0
100
AcDbMText
 10
36.21835576204443
 20
27.82315795915351
 30
0.0
 40
1.0
 41
0.0
 71
     5
 72
     1
  1
\A1;1{\H1.000000x;\S1/8;}
 73
     1
 44
1.0
  0
POINT
  5
1DD8
330
1D91
100
AcDbEntity
  8
Defpoints
 62
     0
100
AcDbPoint
 10
34.15668909537776
 20
17.04619512879294
 30
0.0
  0
POINT
  5
1DD9
330
1D91
100
AcDbEntity
  8
Defpoints
 62
     0
100
AcDbPoint
 10
35.28168909537776
 20
17.04619512879294
 30
0.0
  0
POINT
  5
1DDA
330
1D91
100
AcDbEntity
  8
Defpoints
 62
     0
100
AcDbPoint
 10
35.28168909537776
 20
27.82315795915351
 30
0.0
  0
ENDBLK
  5
1D9D
330
1D91
100
AcDbEntity
  8
0
100
AcDbBlockEnd
  0
BLOCK
  5
1DAA
330
1D9F
100
AcDbEntity
  8
0
100
AcDbBlockBegin
  2
*D3
 70
     1
 10
0.0
 20
0.0
 30
0.0
  3
*D3
  1

  0
LINE
  5
1DDB
330
1D9F
100
AcDbEntity
  8
DIM
 62
     0
370
    -2
100
AcDbLine
 10
30.57710041101844
 20
24.92483098324009
 30
0.0
 11
30.57710041101844
 21
27.54198687757921
 31
0.0
  0
LINE
  5
1DDC
330
1D9F
100
AcDbEntity
  8
DIM
 62
     0
370
    -2
100
AcDbLine
 10
14.95930584521981
 20
24.92119512879294
 30
0.0
 11
14.95930584521981
 21
27.54198687757921
 31
0.0
  0
LINE
  5
1DDD
330
1D9F
100
AcDbEntity
  8
DIM
 62
     0
370
    -2
100
AcDbLine
 10
30.39710041101844
 20
27.36198687757922
 30
0.0
 11
24.0248697947858
 21
27.36198687757922
 31
0.0
  0
LINE
  5
1DDE
330
1D9F
100
AcDbEntity
  8
DIM
 62
     0
370
    -2
100
AcDbLine
 10
15.13930584521981
 20
27.36198687757922
 30
0.0
 11
21.51153646145246
 21
27.36198687757922
 31
0.0
  0
SOLID
  5
1DDF
330
1D9F
100
AcDbEntity
  8
DIM
 62
     0
100
AcDbTrace
 10
30.39710041101844
 20
27.39198687757922
 30
0.0
 11
30.39710041101844
 21
27.33198687757921
 31
0.0
 12
30.57710041101844
 22
27.36198687757922
 32
0.0
 13
30.57710041101844
 23
27.36198687757922
 33
0.0
  0
SOLID
  5
1DE0
330
1D9F
100
AcDbEntity
  8
DIM
 62
     0
100
AcDbTrace
 10
15.13930584521981
 20
27.39198687757922
 30
0.0
 11
15.13930584521981
 21
27.33198687757921
 31
0.0
 12
14.95930584521981
 22
27.36198687757922
 32
0.0
 13
14.95930584521981
 23
27.36198687757922
 33
0.0
  0
MTEXT
  5
1DE1
330
1D9F
100
AcDbEntity
  8
DIM
 62
     0
100
AcDbMText
 10
22.76820312811913
 20
27.36198687757922
 30
0.0
 40
1.0
 41
0.0
 71
     5
 72
     1
  1
\A1;15{\H1.000000x;\S5/8;}
 73
     1
 44
1.0
  0
POINT
  5
1DE2
330
1D9F
100
AcDbEntity
  8
Defpoints
 62
     0
100
AcDbPoint
 10
30.57710041101844
 20
24.86233098324009
 30
0.0
  0
POINT
  5
1DE3
330
1D9F
100
AcDbEntity
  8
Defpoints
 62
     0
100
AcDbPoint
 10
14.95930584521981
 20
24.85869512879294
 30
0.0
  0
POINT
  5
1DE4
330
1D9F
100
AcDbEntity
  8
Defpoints
 62
     0
100
AcDbPoint
 10
14.95930584521981
 20
27.36198687757922
 30
0.0
  0
ENDBLK
  5
1DAB
330
1D9F
100
AcDbEntity
  8
0
100
AcDbBlockEnd
  0
ENDSEC
  0
SECTION
  2
ENTITIES
  0
LINE
  5
12B1
330
18
100
AcDbEntity
  8
0
100
AcDbLine
 10
14.95930584521981
 20
24.85869512879294
 30
0.0
 11
30.57710041101844
 21
24.86233098324009
 31
0.0
  0
POLYLINE
  5
12B2
330
18
100
AcDbEntity
  8
0
100
AcDb2dPolyline
 66
     1
 10
0.0
 20
0.0
 30
0.0
 70
     5
 75
     6
  0
VERTEX
  5
12B3
330
12B2
100
AcDbEntity
  8
0
100
AcDbVertex
100
AcDb2dVertex
 10
18.32231213006451
 20
17.50981513642347
 30
0.0
 70
    16
  0
VERTEX
  5
12B4
330
12B2
100
AcDbEntity
  8
0
100
AcDbVertex
100
AcDb2dVertex
 10
18.48985345116029
 20
18.18309405218873
 30
0.0
 70
     8
  0
VERTEX
  5
12B5
330
12B2
100
AcDbEntity
  8
0
100
AcDbVertex
100
AcDb2dVertex
 10
18.51918570345405
 20
18.26405339220004
 30
0.0
 70
     8
  0
VERTEX
  5
12B6
330
12B2
100
AcDbEntity
  8
0
100
AcDbVertex
100
AcDb2dVertex
 10
18.55073197108955
 20
18.34384384511996
 30
0.0
 70
     8
  0
VERTEX
  5
12B7
330
12B2
100
AcDbEntity
  8
0
100
AcDbVertex
100
AcDb2dVertex
 10
18.58403274120862
 20
18.42229842717181
 30
0.0
 70
     8
  0
VERTEX
  5
12B8
330
12B2
100
AcDbEntity
  8
0
100
AcDbVertex
100
AcDb2dVertex
 10
18.61862850095304
 20
18.49925015457887
 30
0.0
 70
     8
  0
VERTEX
  5
12B9
330
12B2
100
AcDbEntity
  8
0
100
AcDbVertex
100
AcDb2dVertex
 10
18.65405973746464
 20
18.5745320435645
 30
0.0
 70
     8
  0
VERTEX
  5
12BA
330
12B2
100
AcDbEntity
  8
0
100
AcDbVertex
100
AcDb2dVertex
 10
18.68986693788521
 20
18.647977110352
 30
0.0
 70
     8
  0
VERTEX
  5
12BB
330
12B2
100
AcDbEntity
  8
0
100
AcDbVertex
100
AcDb2dVertex
 10
18.72559058935658
 20
18.71941837116468
 30
0.0
 70
     8
  0
VERTEX
  5
12BC
330
12B2
100
AcDbEntity
  8
0
100
AcDbVertex
100
AcDb2dVertex
 10
18.76077117902054
 20
18.78868884222583
 30
0.0
 70
     8
  0
VERTEX
  5
12BD
330
12B2
100
AcDbEntity
  8
0
100
AcDbVertex
100
AcDb2dVertex
 10
18.7949805244772
 20
18.85570851046902
 30
0.0
 70
     8
  0
VERTEX
  5
12BE
330
12B2
100
AcDbEntity
  8
0
100
AcDbVertex
100
AcDb2dVertex
 10
18.82791576515987
 20
18.92074524566856
 30
0.0
 70
     8
  0
VERTEX
  5
12BF
330
12B2
100
AcDbEntity
  8
0
100
AcDbVertex
100
AcDb2dVertex
 10
18.85930537096015
 20
18.98415388830899
 30
0.0
 70
     8
  0
VERTEX
  5
12C0
330
12B2
100
AcDbEntity
  8
0
100
AcDbVertex
100
AcDb2dVertex
 10
18.88887781176966
 20
19.04628927887488
 30
0.0
 70
     8
  0
VERTEX
  5
12C1
330
12B2
100
AcDbEntity
  8
0
100
AcDbVertex
100
AcDb2dVertex
 10
18.91636155748
 20
19.10750625785074
 30
0.0
 70
     8
  0
VERTEX
  5
12C2
330
12B2
100
AcDbEntity
  8
0
100
AcDbVertex
100
AcDb2dVertex
 10
18.94148507798277
 20
19.16815966572115
 30
0.0
 70
     8
  0
VERTEX
  5
12C3
330
12B2
100
AcDbEntity
  8
0
100
AcDbVertex
100
AcDb2dVertex
 10
18.96397684316958
 20
19.22860434297064
 30
0.0
 70
     8
  0
VERTEX
  5
12C4
330
12B2
100
AcDbEntity
  8
0
100
AcDbVertex
100
AcDb2dVertex
 10
18.98356532293205
 20
19.28919513008375
 30
0.0
 70
     8
  0
VERTEX
  5
12C5
330
12B2
100
AcDbEntity
  8
0
100
AcDbVertex
100
AcDb2dVertex
 10
19.00004861022571
 20
19.35018250272552
 30
0.0
 70
     8
  0
VERTEX
  5
12C6
330
12B2
100
AcDbEntity
  8
0
100
AcDbVertex
100
AcDb2dVertex
 10
19.01350329026182
 20
19.4113994772829
 30
0.0
 70
     8
  0
VERTEX
  5
12C7
330
12B2
100
AcDbEntity
  8
0
100
AcDbVertex
100
AcDb2dVertex
 10
19.02407557131557
 20
19.47257470532334
 30
0.0
 70
     8
  0
VERTEX
  5
12C8
330
12B2
100
AcDbEntity
  8
0
100
AcDbVertex
100
AcDb2dVertex
 10
19.03191166166216
 20
19.53343683841429
 30
0.0
 70
     8
  0
VERTEX
  5
12C9
330
12B2
100
AcDbEntity
  8
0
100
AcDbVertex
100
AcDb2dVertex
 10
19.03715776957677
 20
19.59371452812319
 30
0.0
 70
     8
  0
VERTEX
  5
12CA
330
12B2
100
AcDbEntity
  8
0
100
AcDbVertex
100
AcDb2dVertex
 10
19.03996010333462
 20
19.65313642601749
 30
0.0
 70
     8
  0
VERTEX
  5
12CB
330
12B2
100
AcDbEntity
  8
0
100
AcDbVertex
100
AcDb2dVertex
 10
19.04046487121088
 20
19.71143118366464
 30
0.0
 70
     8
  0
VERTEX
  5
12CC
330
12B2
100
AcDbEntity
  8
0
100
AcDbVertex
100
AcDb2dVertex
 10
19.03881828148074
 20
19.76832745263207
 30
0.0
 70
     8
  0
VERTEX
  5
12CD
330
12B2
100
AcDbEntity
  8
0
100
AcDbVertex
100
AcDb2dVertex
 10
19.03520135421647
 20
19.82359910917144
 30
0.0
 70
     8
  0
VERTEX
  5
12CE
330
12B2
100
AcDbEntity
  8
0
100
AcDbVertex
100
AcDb2dVertex
 10
19.02993435667861
 20
19.87720092827124
 30
0.0
 70
     8
  0
VERTEX
  5
12CF
330
12B2
100
AcDbEntity
  8
0
100
AcDbVertex
100
AcDb2dVertex
 10
19.02337236792477
 20
19.92913290960419
 30
0.0
 70
     8
  0
VERTEX
  5
12D0
330
12B2
100
AcDbEntity
  8
0
100
AcDbVertex
100
AcDb2dVertex
 10
19.01587046701255
 20
19.97939505284299
 30
0.0
 70
     8
  0
VERTEX
  5
12D1
330
12B2
100
AcDbEntity
  8
0
100
AcDbVertex
100
AcDb2dVertex
 10
19.00778373299955
 20
20.02798735766034
 30
0.0
 70
     8
  0
VERTEX
  5
12D2
330
12B2
100
AcDbEntity
  8
0
100
AcDbVertex
100
AcDb2dVertex
 10
18.9994672449434
 20
20.07490982372895
 30
0.0
 70
     8
  0
VERTEX
  5
12D3
330
12B2
100
AcDbEntity
  8
0
100
AcDbVertex
100
AcDb2dVertex
 10
18.99127608190169
 20
20.12016245072151
 30
0.0
 70
     8
  0
VERTEX
  5
12D4
330
12B2
100
AcDbEntity
  8
0
100
AcDbVertex
100
AcDb2dVertex
 10
18.98356532293202
 20
20.16374523831075
 30
0.0
 70
     8
  0
VERTEX
  5
12D5
330
12B2
100
AcDbEntity
  8
0
100
AcDbVertex
100
AcDb2dVertex
 10
18.9766552351182
 20
20.20567905920962
 30
0.0
 70
     8
  0
VERTEX
  5
12D6
330
12B2
100
AcDbEntity
  8
0
100
AcDbVertex
100
AcDb2dVertex
 10
18.97072683764882
 20
20.2460682782922
 30
0.0
 70
     8
  0
VERTEX
  5
12D7
330
12B2
100
AcDbEntity
  8
0
100
AcDbVertex
100
AcDb2dVertex
 10
18.96592633773866
 20
20.28503813347282
 30
0.0
 70
     8
  0
VERTEX
  5
12D8
330
12B2
100
AcDbEntity
  8
0
100
AcDbVertex
100
AcDb2dVertex
 10
18.96239994260248
 20
20.32271386266583
 30
0.0
 70
     8
  0
VERTEX
  5
12D9
330
12B2
100
AcDbEntity
  8
0
100
AcDbVertex
100
AcDb2dVertex
 10
18.96029385945508
 20
20.35922070378557
 30
0.0
 70
     8
  0
VERTEX
  5
12DA
330
12B2
100
AcDbEntity
  8
0
100
AcDbVertex
100
AcDb2dVertex
 10
18.95975429551121
 20
20.39468389474636
 30
0.0
 70
     8
  0
VERTEX
  5
12DB
330
12B2
100
AcDbEntity
  8
0
100
AcDbVertex
100
AcDb2dVertex
 10
18.96092745798569
 20
20.42922867346256
 30
0.0
 70
     8
  0
VERTEX
  5
12DC
330
12B2
100
AcDbEntity
  8
0
100
AcDbVertex
100
AcDb2dVertex
 10
18.96395955409328
 20
20.4629802778485
 30
0.0
 70
     8
  0
VERTEX
  5
12DD
330
12B2
100
AcDbEntity
  8
0
100
AcDbVertex
100
AcDb2dVertex
 10
18.96900723497669
 20
20.49601524225788
 30
0.0
 70
     8
  0
VERTEX
  5
12DE
330
12B2
100
AcDbEntity
  8
0
100
AcDbVertex
100
AcDb2dVertex
 10
18.9762689274904
 20
20.52821528680196
 30
0.0
 70
     8
  0
VERTEX
  5
12DF
330
12B2
100
AcDbEntity
  8
0
100
AcDbVertex
100
AcDb2dVertex
 10
18.98595350241683
 20
20.55941342803132
 30
0.0
 70
     8
  0
VERTEX
  5
12E0
330
12B2
100
AcDbEntity
  8
0
100
AcDbVertex
100
AcDb2dVertex
 10
18.99826983053837
 20
20.5894426824966
 30
0.0
 70
     8
  0
VERTEX
  5
12E1
330
12B2
100
AcDbEntity
  8
0
100
AcDbVertex
100
AcDb2dVertex
 10
19.01342678263748
 20
20.61813606674838
 30
0.0
 70
     8
  0
VERTEX
  5
12E2
330
12B2
100
AcDbEntity
  8
0
100
AcDbVertex
100
AcDb2dVertex
 10
19.03163322949653
 20
20.64532659733729
 30
0.0
 70
     8
  0
VERTEX
  5
12E3
330
12B2
100
AcDbEntity
  8
0
100
AcDbVertex
100
AcDb2dVertex
 10
19.05309804189794
 20
20.67084729081393
 30
0.0
 70
     8
  0
VERTEX
  5
12E4
330
12B2
100
AcDbEntity
  8
0
100
AcDbVertex
100
AcDb2dVertex
 10
19.07803009062415
 20
20.69453116372891
 30
0.0
 70
     8
  0
VERTEX
  5
12E5
330
12B2
100
AcDbEntity
  8
0
100
AcDbVertex
100
AcDb2dVertex
 10
19.10657558536421
 20
20.71621819016747
 30
0.0
 70
     8
  0
VERTEX
  5
12E6
330
12B2
100
AcDbEntity
  8
0
100
AcDbVertex
100
AcDb2dVertex
 10
19.13863009143388
 20
20.73577617435335
 30
0.0
 70
     8
  0
VERTEX
  5
12E7
330
12B2
100
AcDbEntity
  8
0
100
AcDbVertex
100
AcDb2dVertex
 10
19.17402651305553
 20
20.75307987804491
 30
0.0
 70
     8
  0
VERTEX
  5
12E8
330
12B2
100
AcDbEntity
  8
0
100
AcDbVertex
100
AcDb2dVertex
 10
19.21259775445159
 20
20.76800406300053
 30
0.0
 70
     8
  0
VERTEX
  5
12E9
330
12B2
100
AcDbEntity
  8
0
100
AcDbVertex
100
AcDb2dVertex
 10
19.25417671984444
 20
20.78042349097856
 30
0.0
 70
     8
  0
VERTEX
  5
12EA
330
12B2
100
AcDbEntity
  8
0
100
AcDbVertex
100
AcDb2dVertex
 10
19.29859631345648
 20
20.79021292373737
 30
0.0
 70
     8
  0
VERTEX
  5
12EB
330
12B2
100
AcDbEntity
  8
0
100
AcDbVertex
100
AcDb2dVertex
 10
19.34568943951014
 20
20.79724712303534
 30
0.0
 70
     8
  0
VERTEX
  5
12EC
330
12B2
100
AcDbEntity
  8
0
100
AcDbVertex
100
AcDb2dVertex
 10
19.39528900222778
 20
20.80140085063082
 30
0.0
 70
     8
  0
VERTEX
  5
12ED
330
12B2
100
AcDbEntity
  8
0
100
AcDbVertex
100
AcDb2dVertex
 10
19.44719309421148
 20
20.80264975444349
 30
0.0
 70
     8
  0
VERTEX
  5
12EE
330
12B2
100
AcDbEntity
  8
0
100
AcDbVertex
100
AcDb2dVertex
 10
19.50106056158198
 20
20.80137302703822
 30
0.0
 70
     8
  0
VERTEX
  5
12EF
330
12B2
100
AcDbEntity
  8
0
100
AcDbVertex
100
AcDb2dVertex
 10
19.55651543883969
 20
20.79805074714119
 30
0.0
 70
     8
  0
VERTEX
  5
12F0
330
12B2
100
AcDbEntity
  8
0
100
AcDbVertex
100
AcDb2dVertex
 10
19.61318176048499
 20
20.79316299347859
 30
0.0
 70
     8
  0
VERTEX
  5
12F1
330
12B2
100
AcDbEntity
  8
0
100
AcDbVertex
100
AcDb2dVertex
 10
19.67068356101829
 20
20.78718984477658
 30
0.0
 70
     8
  0
VERTEX
  5
12F2
330
12B2
100
AcDbEntity
  8
0
100
AcDbVertex
100
AcDb2dVertex
 10
19.72864487493999
 20
20.78061137976135
 30
0.0
 70
     8
  0
VERTEX
  5
12F3
330
12B2
100
AcDbEntity
  8
0
100
AcDbVertex
100
AcDb2dVertex
 10
19.78668973675049
 20
20.77390767715908
 30
0.0
 70
     8
  0
VERTEX
  5
12F4
330
12B2
100
AcDbEntity
  8
0
100
AcDbVertex
100
AcDb2dVertex
 10
19.84444218095018
 20
20.76755881569595
 30
0.0
 70
     8
  0
VERTEX
  5
12F5
330
12B2
100
AcDbEntity
  8
0
100
AcDbVertex
100
AcDb2dVertex
 10
19.90159934644219
 20
20.76197181856628
 30
0.0
 70
     8
  0
VERTEX
  5
12F6
330
12B2
100
AcDbEntity
  8
0
100
AcDbVertex
100
AcDb2dVertex
 10
19.95815078974039
 20
20.75726148683697
 30
0.0
 70
     8
  0
VERTEX
  5
12F7
330
12B2
100
AcDbEntity
  8
0
100
AcDbVertex
100
AcDb2dVertex
 10
20.01415917176139
 20
20.75346956604308
 30
0.0
 70
     8
  0
VERTEX
  5
12F8
330
12B2
100
AcDbEntity
  8
0
100
AcDbVertex
100
AcDb2dVertex
 10
20.06968715342179
 20
20.75063780171967
 30
0.0
 70
     8
  0
VERTEX
  5
12F9
330
12B2
100
AcDbEntity
  8
0
100
AcDbVertex
100
AcDb2dVertex
 10
20.1247973956382
 20
20.74880793940179
 30
0.0
 70
     8
  0
VERTEX
  5
12FA
330
12B2
100
AcDbEntity
  8
0
100
AcDbVertex
100
AcDb2dVertex
 10
20.17955255932719
 20
20.74802172462447
 30
0.0
 70
     8
  0
VERTEX
  5
12FB
330
12B2
100
AcDbEntity
  8
0
100
AcDbVertex
100
AcDb2dVertex
 10
20.23401530540539
 20
20.74832090292278
 30
0.0
 70
     8
  0
VERTEX
  5
12FC
330
12B2
100
AcDbEntity
  8
0
100
AcDbVertex
100
AcDb2dVertex
 10
20.28824829478939
 20
20.74974721983178
 30
0.0
 70
     8
  0
VERTEX
  5
12FD
330
12B2
100
AcDbEntity
  8
0
100
AcDbVertex
100
AcDb2dVertex
 10
20.34224456515512
 20
20.75235633639215
 30
0.0
 70
     8
  0
VERTEX
  5
12FE
330
12B2
100
AcDbEntity
  8
0
100
AcDbVertex
100
AcDb2dVertex
 10
20.39571866121587
 20
20.75625957566719
 30
0.0
 70
     8
  0
VERTEX
  5
12FF
330
12B2
100
AcDbEntity
  8
0
100
AcDbVertex
100
AcDb2dVertex
 10
20.4483155044442
 20
20.76158217622581
 30
0.0
 70
     8
  0
VERTEX
  5
1300
330
12B2
100
AcDbEntity
  8
0
100
AcDbVertex
100
AcDb2dVertex
 10
20.49968001631274
 20
20.76844937663696
 30
0.0
 70
     8
  0
VERTEX
  5
1301
330
12B2
100
AcDbEntity
  8
0
100
AcDbVertex
100
AcDb2dVertex
 10
20.54945711829408
 20
20.77698641546955
 30
0.0
 70
     8
  0
VERTEX
  5
1302
330
12B2
100
AcDbEntity
  8
0
100
AcDbVertex
100
AcDb2dVertex
 10
20.59729173186082
 20
20.78731853129252
 30
0.0
 70
     8
  0
VERTEX
  5
1303
330
12B2
100
AcDbEntity
  8
0
100
AcDbVertex
100
AcDb2dVertex
 10
20.64282877848556
 20
20.7995709626748
 30
0.0
 70
     8
  0
VERTEX
  5
1304
330
12B2
100
AcDbEntity
  8
0
100
AcDbVertex
100
AcDb2dVertex
 10
20.6857131796409
 20
20.81386894818532
 30
0.0
 70
     8
  0
VERTEX
  5
1305
330
12B2
100
AcDbEntity
  8
0
100
AcDbVertex
100
AcDb2dVertex
 10
20.72573954676689
 20
20.83029250143604
 30
0.0
 70
     8
  0
VERTEX
  5
1306
330
12B2
100
AcDbEntity
  8
0
100
AcDbVertex
100
AcDb2dVertex
 10
20.76330125117328
 20
20.84874073621112
 30
0.0
 70
     8
  0
VERTEX
  5
1307
330
12B2
100
AcDbEntity
  8
0
100
AcDbVertex
100
AcDb2dVertex
 10
20.79894135413727
 20
20.86906754133774
 30
0.0
 70
     8
  0
VERTEX
  5
1308
330
12B2
100
AcDbEntity
  8
0
100
AcDbVertex
100
AcDb2dVertex
 10
20.83320291693607
 20
20.89112680564312
 30
0.0
 70
     8
  0
VERTEX
  5
1309
330
12B2
100
AcDbEntity
  8
0
100
AcDbVertex
100
AcDb2dVertex
 10
20.86662900084685
 20
20.91477241795442
 30
0.0
 70
     8
  0
VERTEX
  5
130A
330
12B2
100
AcDbEntity
  8
0
100
AcDbVertex
100
AcDb2dVertex
 10
20.89976266714685
 20
20.93985826709886
 30
0.0
 70
     8
  0
VERTEX
  5
130B
330
12B2
100
AcDbEntity
  8
0
100
AcDbVertex
100
AcDb2dVertex
 10
20.93314697711323
 20
20.96623824190361
 30
0.0
 70
     8
  0
VERTEX
  5
130C
330
12B2
100
AcDbEntity
  8
0
100
AcDbVertex
100
AcDb2dVertex
 10
20.96732499202322
 20
20.99376623119587
 30
0.0
 70
     8
  0
VERTEX
  5
130D
330
12B2
100
AcDbEntity
  8
0
100
AcDbVertex
100
AcDb2dVertex
 10
21.00273185713098
 20
21.02229264498099
 30
0.0
 70
     8
  0
VERTEX
  5
130E
330
12B2
100
AcDbEntity
  8
0
100
AcDbVertex
100
AcDb2dVertex
 10
21.03937105359854
 20
21.05165397797682
 30
0.0
 70
     8
  0
VERTEX
  5
130F
330
12B2
100
AcDbEntity
  8
0
100
AcDbVertex
100
AcDb2dVertex
 10
21.0771381465649
 20
21.08168324607939
 30
0.0
 70
     8
  0
VERTEX
  5
1310
330
12B2
100
AcDbEntity
  8
0
100
AcDbVertex
100
AcDb2dVertex
 10
21.11592870116905
 20
21.11221346518473
 30
0.0
 70
     8
  0
VERTEX
  5
1311
330
12B2
100
AcDbEntity
  8
0
100
AcDbVertex
100
AcDb2dVertex
 10
21.15563828255
 20
21.14307765118885
 30
0.0
 70
     8
  0
VERTEX
  5
1312
330
12B2
100
AcDbEntity
  8
0
100
AcDbVertex
100
AcDb2dVertex
 10
21.19616245584675
 20
21.17410881998777
 30
0.0
 70
     8
  0
VERTEX
  5
1313
330
12B2
100
AcDbEntity
  8
0
100
AcDbVertex
100
AcDb2dVertex
 10
21.23739678619831
 20
21.20513998747751
 30
0.0
 70
     8
  0
VERTEX
  5
1314
330
12B2
100
AcDbEntity
  8
0
100
AcDbVertex
100
AcDb2dVertex
 10
21.27923683874365
 20
21.23600416955409
 30
0.0
 70
     8
  0
VERTEX
  5
1315
330
12B2
100
AcDbEntity
  8
0
100
AcDbVertex
100
AcDb2dVertex
 10
21.32157469745977
 20
21.26650307277131
 30
0.0
 70
     8
  0
VERTEX
  5
1316
330
12B2
100
AcDbEntity
  8
0
100
AcDbVertex
100
AcDb2dVertex
 10
21.36428852167548
 20
21.29631316631414
 30
0.0
 70
     8
  0
VERTEX
  5
1317
330
12B2
100
AcDbEntity
  8
0
100
AcDbVertex
100
AcDb2dVertex
 10
21.40725298955759
 20
21.32507961002532
 30
0.0
 70
     8
  0
VERTEX
  5
1318
330
12B2
100
AcDbEntity
  8
0
100
AcDbVertex
100
AcDb2dVertex
 10
21.45034277927292
 20
21.3524475637476
 30
0.0
 70
     8
  0
VERTEX
  5
1319
330
12B2
100
AcDbEntity
  8
0
100
AcDbVertex
100
AcDb2dVertex
 10
21.49343256898823
 20
21.37806218732374
 30
0.0
 70
     8
  0
VERTEX
  5
131A
330
12B2
100
AcDbEntity
  8
0
100
AcDbVertex
100
AcDb2dVertex
 10
21.53639703687034
 20
21.4015686405965
 30
0.0
 70
     8
  0
VERTEX
  5
131B
330
12B2
100
AcDbEntity
  8
0
100
AcDbVertex
100
AcDb2dVertex
 10
21.57911086108605
 20
21.42261208340861
 30
0.0
 70
     8
  0
VERTEX
  5
131C
330
12B2
100
AcDbEntity
  8
0
100
AcDbVertex
100
AcDb2dVertex
 10
21.62144871980218
 20
21.44083767560282
 30
0.0
 70
     8
  0
VERTEX
  5
131D
330
12B2
100
AcDbEntity
  8
0
100
AcDbVertex
100
AcDb2dVertex
 10
21.66335839558819
 20
21.4560088570743
 30
0.0
 70
     8
  0
VERTEX
  5
131E
330
12B2
100
AcDbEntity
  8
0
100
AcDbVertex
100
AcDb2dVertex
 10
21.70508008862441
 20
21.4683621879279
 30
0.0
 70
     8
  0
VERTEX
  5
131F
330
12B2
100
AcDbEntity
  8
0
100
AcDbVertex
100
AcDb2dVertex
 10
21.74692710349382
 20
21.47825250832084
 30
0.0
 70
     8
  0
VERTEX
  5
1320
330
12B2
100
AcDbEntity
  8
0
100
AcDbVertex
100
AcDb2dVertex
 10
21.78921274477944
 20
21.4860346584104
 30
0.0
 70
     8
  0
VERTEX
  5
1321
330
12B2
100
AcDbEntity
  8
0
100
AcDbVertex
100
AcDb2dVertex
 10
21.83225031706426
 20
21.4920634783538
 30
0.0
 70
     8
  0
VERTEX
  5
1322
330
12B2
100
AcDbEntity
  8
0
100
AcDbVertex
100
AcDb2dVertex
 10
21.87635312493127
 20
21.49669380830832
 30
0.0
 70
     8
  0
VERTEX
  5
1323
330
12B2
100
AcDbEntity
  8
0
100
AcDbVertex
100
AcDb2dVertex
 10
21.92183447296347
 20
21.5002804884312
 30
0.0
 70
     8
  0
VERTEX
  5
1324
330
12B2
100
AcDbEntity
  8
0
100
AcDbVertex
100
AcDb2dVertex
 10
21.96900766574388
 20
21.50317835887967
 30
0.0
 70
     8
  0
VERTEX
  5
1325
330
12B2
100
AcDbEntity
  8
0
100
AcDbVertex
100
AcDb2dVertex
 10
22.01797365705983
 20
21.50572834463265
 30
0.0
 70
     8
  0
VERTEX
  5
1326
330
12B2
100
AcDbEntity
  8
0
100
AcDbVertex
100
AcDb2dVertex
 10
22.06798399751598
 20
21.50821570995564
 30
0.0
 70
     8
  0
VERTEX
  5
1327
330
12B2
100
AcDbEntity
  8
0
100
AcDbVertex
100
AcDb2dVertex
 10
22.11807788692133
 20
21.51091180393577
 30
0.0
 70
     8
  0
VERTEX
  5
1328
330
12B2
100
AcDbEntity
  8
0
100
AcDbVertex
100
AcDb2dVertex
 10
22.16729452508491
 20
21.5140879756602
 30
0.0
 70
     8
  0
VERTEX
  5
1329
330
12B2
100
AcDbEntity
  8
0
100
AcDbVertex
100
AcDb2dVertex
 10
22.21467311181572
 20
21.51801557421605
 30
0.0
 70
     8
  0
VERTEX
  5
132A
330
12B2
100
AcDbEntity
  8
0
100
AcDbVertex
100
AcDb2dVertex
 10
22.25925284692277
 20
21.52296594869051
 30
0.0
 70
     8
  0
VERTEX
  5
132B
330
12B2
100
AcDbEntity
  8
0
100
AcDbVertex
100
AcDb2dVertex
 10
22.30007293021508
 20
21.52921044817068
 30
0.0
 70
     8
  0
VERTEX
  5
132C
330
12B2
100
AcDbEntity
  8
0
100
AcDbVertex
100
AcDb2dVertex
 10
22.33617256150161
 20
21.53702042174373
 30
0.0
 70
     8
  0
VERTEX
  5
132D
330
12B2
100
AcDbEntity
  8
0
100
AcDbVertex
100
AcDb2dVertex
 10
22.36680677246075
 20
21.54658372649937
 30
0.0
 70
     8
  0
VERTEX
  5
132E
330
12B2
100
AcDbEntity
  8
0
100
AcDbVertex
100
AcDb2dVertex
 10
22.39209392224816
 20
21.55775425153752
 30
0.0
 70
     8
  0
VERTEX
  5
132F
330
12B2
100
AcDbEntity
  8
0
100
AcDbVertex
100
AcDb2dVertex
 10
22.4123682018888
 20
21.57030239396068
 30
0.0
 70
     8
  0
VERTEX
  5
1330
330
12B2
100
AcDbEntity
  8
0
100
AcDbVertex
100
AcDb2dVertex
 10
22.42796380240768
 20
21.58399855087136
 30
0.0
 70
     8
  0
VERTEX
  5
1331
330
12B2
100
AcDbEntity
  8
0
100
AcDbVertex
100
AcDb2dVertex
 10
22.4392149148298
 20
21.59861311937205
 30
0.0
 70
     8
  0
VERTEX
  5
1332
330
12B2
100
AcDbEntity
  8
0
100
AcDbVertex
100
AcDb2dVertex
 10
22.44645573018015
 20
21.61391649656524
 30
0.0
 70
     8
  0
VERTEX
  5
1333
330
12B2
100
AcDbEntity
  8
0
100
AcDbVertex
100
AcDb2dVertex
 10
22.4500204394837
 20
21.62967907955344
 30
0.0
 70
     8
  0
VERTEX
  5
1334
330
12B2
100
AcDbEntity
  8
0
100
AcDbVertex
100
AcDb2dVertex
 10
22.45024323376547
 20
21.64567126543915
 30
0.0
 70
     8
  0
VERTEX
  5
1335
330
12B2
100
AcDbEntity
  8
0
100
AcDbVertex
100
AcDb2dVertex
 10
22.44737127517634
 20
21.66168084543416
 30
0.0
 70
     8
  0
VERTEX
  5
1336
330
12B2
100
AcDbEntity
  8
0
100
AcDbVertex
100
AcDb2dVertex
 10
22.44130361037082
 20
21.67756518718755
 30
0.0
 70
     8
  0
VERTEX
  5
1337
330
12B2
100
AcDbEntity
  8
0
100
AcDbVertex
100
AcDb2dVertex
 10
22.43185225712931
 20
21.69319905245766
 30
0.0
 70
     8
  0
VERTEX
  5
1338
330
12B2
100
AcDbEntity
  8
0
100
AcDbVertex
100
AcDb2dVertex
 10
22.41882923323224
 20
21.70845720300288
 30
0.0
 70
     8
  0
VERTEX
  5
1339
330
12B2
100
AcDbEntity
  8
0
100
AcDbVertex
100
AcDb2dVertex
 10
22.40204655645999
 20
21.72321440058155
 30
0.0
 70
     8
  0
VERTEX
  5
133A
330
12B2
100
AcDbEntity
  8
0
100
AcDbVertex
100
AcDb2dVertex
 10
22.38131624459298
 20
21.73734540695207
 30
0.0
 70
     8
  0
VERTEX
  5
133B
330
12B2
100
AcDbEntity
  8
0
100
AcDbVertex
100
AcDb2dVertex
 10
22.35645031541162
 20
21.75072498387278
 30
0.0
 70
     8
  0
VERTEX
  5
133C
330
12B2
100
AcDbEntity
  8
0
100
AcDbVertex
100
AcDb2dVertex
 10
22.3272607866963
 20
21.76322789310206
 30
0.0
 70
     8
  0
VERTEX
  5
133D
330
12B2
100
AcDbEntity
  8
0
100
AcDbVertex
100
AcDb2dVertex
 10
22.29369196020799
 20
21.77473237543833
 30
0.0
 70
     8
  0
VERTEX
  5
133E
330
12B2
100
AcDbEntity
  8
0
100
AcDbVertex
100
AcDb2dVertex
 10
22.25621727362971
 20
21.78513058784025
 30
0.0
 70
     8
  0
VERTEX
  5
133F
330
12B2
100
AcDbEntity
  8
0
100
AcDbVertex
100
AcDb2dVertex
 10
22.2154424486251
 20
21.79431816630654
 30
0.0
 70
     8
  0
VERTEX
  5
1340
330
12B2
100
AcDbEntity
  8
0
100
AcDbVertex
100
AcDb2dVertex
 10
22.17197320685771
 20
21.80219074683594
 30
0.0
 70
     8
  0
VERTEX
  5
1341
330
12B2
100
AcDbEntity
  8
0
100
AcDbVertex
100
AcDb2dVertex
 10
22.12641526999115
 20
21.80864396542715
 30
0.0
 70
     8
  0
VERTEX
  5
1342
330
12B2
100
AcDbEntity
  8
0
100
AcDbVertex
100
AcDb2dVertex
 10
22.07937435968903
 20
21.8135734580789
 30
0.0
 70
     8
  0
VERTEX
  5
1343
330
12B2
100
AcDbEntity
  8
0
100
AcDbVertex
100
AcDb2dVertex
 10
22.03145619761491
 20
21.81687486078992
 30
0.0
 70
     8
  0
VERTEX
  5
1344
330
12B2
100
AcDbEntity
  8
0
100
AcDbVertex
100
AcDb2dVertex
 10
21.9832665054324
 20
21.81844380955892
 30
0.0
 70
     8
  0
VERTEX
  5
1345
330
12B2
100
AcDbEntity
  8
0
100
AcDbVertex
100
AcDb2dVertex
 10
21.93529612654634
 20
21.81817246123546
 30
0.0
 70
     8
  0
VERTEX
  5
1346
330
12B2
100
AcDbEntity
  8
0
100
AcDbVertex
100
AcDb2dVertex
 10
21.88757639132671
 20
21.81593905607248
 30
0.0
 70
     8
  0
VERTEX
  5
1347
330
12B2
100
AcDbEntity
  8
0
100
AcDbVertex
100
AcDb2dVertex
 10
21.84002375188466
 20
21.81161835517376
 30
0.0
 70
     8
  0
VERTEX
  5
1348
330
12B2
100
AcDbEntity
  8
0
100
AcDbVertex
100
AcDb2dVertex
 10
21.79255466033142
 20
21.80508511964307
 30
0.0
 70
     8
  0
VERTEX
  5
1349
330
12B2
100
AcDbEntity
  8
0
100
AcDbVertex
100
AcDb2dVertex
 10
21.74508556877817
 20
21.79621411058419
 30
0.0
 70
     8
  0
VERTEX
  5
134A
330
12B2
100
AcDbEntity
  8
0
100
AcDbVertex
100
AcDb2dVertex
 10
21.69753292933612
 20
21.7848800891009
 30
0.0
 70
     8
  0
VERTEX
  5
134B
330
12B2
100
AcDbEntity
  8
0
100
AcDbVertex
100
AcDb2dVertex
 10
21.64981319411648
 20
21.77095781629696
 30
0.0
 70
     8
  0
VERTEX
  5
134C
330
12B2
100
AcDbEntity
  8
0
100
AcDbVertex
100
AcDb2dVertex
 10
21.60184281523044
 20
21.75432205327616
 30
0.0
 70
     8
  0
VERTEX
  5
134D
330
12B2
100
AcDbEntity
  8
0
100
AcDbVertex
100
AcDb2dVertex
 10
21.55360438686782
 20
21.73498671467136
 30
0.0
 70
     8
  0
VERTEX
  5
134E
330
12B2
100
AcDbEntity
  8
0
100
AcDbVertex
100
AcDb2dVertex
 10
21.50534507153302
 20
21.71352232923173
 30
0.0
 70
     8
  0
VERTEX
  5
134F
330
12B2
100
AcDbEntity
  8
0
100
AcDbVertex
100
AcDb2dVertex
 10
21.45737817380901
 20
21.69063857923556
 30
0.0
 70
     8
  0
VERTEX
  5
1350
330
12B2
100
AcDbEntity
  8
0
100
AcDbVertex
100
AcDb2dVertex
 10
21.41001699827879
 20
21.66704514696113
 30
0.0
 70
     8
  0
VERTEX
  5
1351
330
12B2
100
AcDbEntity
  8
0
100
AcDbVertex
100
AcDb2dVertex
 10
21.36357484952538
 20
21.64345171468669
 30
0.0
 70
     8
  0
VERTEX
  5
1352
330
12B2
100
AcDbEntity
  8
0
100
AcDbVertex
100
AcDb2dVertex
 10
21.31836503213177
 20
21.62056796469053
 30
0.0
 70
     8
  0
VERTEX
  5
1353
330
12B2
100
AcDbEntity
  8
0
100
AcDbVertex
100
AcDb2dVertex
 10
21.27470085068097
 20
21.59910357925091
 30
0.0
 70
     8
  0
VERTEX
  5
1354
330
12B2
100
AcDbEntity
  8
0
100
AcDbVertex
100
AcDb2dVertex
 10
21.23289560975594
 20
21.5797682406461
 30
0.0
 70
     8
  0
VERTEX
  5
1355
330
12B2
100
AcDbEntity
  8
0
100
AcDbVertex
100
AcDb2dVertex
 10
21.19321735874493
 20
21.56312204115971
 30
0.0
 70
     8
  0
VERTEX
  5
1356
330
12B2
100
AcDbEntity
  8
0
100
AcDbVertex
100
AcDb2dVertex
 10
21.1557531262569
 20
21.54912671309667
 30
0.0
 70
     8
  0
VERTEX
  5
1357
330
12B2
100
AcDbEntity
  8
0
100
AcDbVertex
100
AcDb2dVertex
 10
21.12054468570606
 20
21.53759439876723
 30
0.0
 70
     8
  0
VERTEX
  5
1358
330
12B2
100
AcDbEntity
  8
0
100
AcDbVertex
100
AcDb2dVertex
 10
21.08763381050658
 20
21.52833724048164
 30
0.0
 70
     8
  0
VERTEX
  5
1359
330
12B2
100
AcDbEntity
  8
0
100
AcDbVertex
100
AcDb2dVertex
 10
21.05706227407269
 20
21.52116738055015
 30
0.0
 70
     8
  0
VERTEX
  5
135A
330
12B2
100
AcDbEntity
  8
0
100
AcDbVertex
100
AcDb2dVertex
 10
21.02887184981856
 20
21.51589696128302
 30
0.0
 70
     8
  0
VERTEX
  5
135B
330
12B2
100
AcDbEntity
  8
0
100
AcDbVertex
100
AcDb2dVertex
 10
21.00310431115838
 20
21.51233812499051
 30
0.0
 70
     8
  0
VERTEX
  5
135C
330
12B2
100
AcDbEntity
  8
0
100
AcDbVertex
100
AcDb2dVertex
 10
20.97980143150636
 20
21.51030301398286
 30
0.0
 70
     8
  0
VERTEX
  5
135D
330
12B2
100
AcDbEntity
  8
0
100
AcDbVertex
100
AcDb2dVertex
 10
20.95897713515714
 20
21.50966291092385
 30
0.0
 70
     8
  0
VERTEX
  5
135E
330
12B2
100
AcDbEntity
  8
0
100
AcDbVertex
100
AcDb2dVertex
 10
20.94053394992727
 20
21.51052565989123
 30
0.0
 70
     8
  0
VERTEX
  5
135F
330
12B2
100
AcDbEntity
  8
0
100
AcDbVertex
100
AcDb2dVertex
 10
20.92434655451376
 20
21.51305824531629
 30
0.0
 70
     8
  0
VERTEX
  5
1360
330
12B2
100
AcDbEntity
  8
0
100
AcDbVertex
100
AcDb2dVertex
 10
20.91028962761361
 20
21.51742765163031
 30
0.0
 70
     8
  0
VERTEX
  5
1361
330
12B2
100
AcDbEntity
  8
0
100
AcDbVertex
100
AcDb2dVertex
 10
20.89823784792383
 20
21.52380086326455
 30
0.0
 70
     8
  0
VERTEX
  5
1362
330
12B2
100
AcDbEntity
  8
0
100
AcDbVertex
100
AcDb2dVertex
 10
20.88806589414143
 20
21.53234486465029
 30
0.0
 70
     8
  0
VERTEX
  5
1363
330
12B2
100
AcDbEntity
  8
0
100
AcDbVertex
100
AcDb2dVertex
 10
20.8796484449634
 20
21.54322664021883
 30
0.0
 70
     8
  0
VERTEX
  5
1364
330
12B2
100
AcDbEntity
  8
0
100
AcDbVertex
100
AcDb2dVertex
 10
20.87286017908679
 20
21.55661317440141
 30
0.0
 70
     8
  0
VERTEX
  5
1365
330
12B2
100
AcDbEntity
  8
0
100
AcDbVertex
100
AcDb2dVertex
 10
20.86755836931002
 20
21.57259143839922
 30
0.0
 70
     8
  0
VERTEX
  5
1366
330
12B2
100
AcDbEntity
  8
0
100
AcDbVertex
100
AcDb2dVertex
 10
20.86353066483746
 20
21.59092835049285
 30
0.0
 70
     8
  0
VERTEX
  5
1367
330
12B2
100
AcDbEntity
  8
0
100
AcDbVertex
100
AcDb2dVertex
 10
20.86054730897489
 20
21.61131081573286
 30
0.0
 70
     8
  0
VERTEX
  5
1368
330
12B2
100
AcDbEntity
  8
0
100
AcDbVertex
100
AcDb2dVertex
 10
20.85837854502813
 20
21.6334257391697
 30
0.0
 70
     8
  0
VERTEX
  5
1369
330
12B2
100
AcDbEntity
  8
0
100
AcDbVertex
100
AcDb2dVertex
 10
20.85679461630296
 20
21.65696002585391
 30
0.0
 70
     8
  0
VERTEX
  5
136A
330
12B2
100
AcDbEntity
  8
0
100
AcDbVertex
100
AcDb2dVertex
 10
20.8555657661052
 20
21.68160058083598
 30
0.0
 70
     8
  0
VERTEX
  5
136B
330
12B2
100
AcDbEntity
  8
0
100
AcDbVertex
100
AcDb2dVertex
 10
20.85446223774063
 20
21.70703430916645
 30
0.0
 70
     8
  0
VERTEX
  5
136C
330
12B2
100
AcDbEntity
  8
0
100
AcDbVertex
100
AcDb2dVertex
 10
20.85325427451507
 20
21.73294811589579
 30
0.0
 70
     8
  0
VERTEX
  5
136D
330
12B2
100
AcDbEntity
  8
0
100
AcDbVertex
100
AcDb2dVertex
 10
20.85174693135463
 20
21.75906369440224
 30
0.0
 70
     8
  0
VERTEX
  5
136E
330
12B2
100
AcDbEntity
  8
0
100
AcDbVertex
100
AcDb2dVertex
 10
20.8498845096668
 20
21.78524189137491
 30
0.0
 70
     8
  0
VERTEX
  5
136F
330
12B2
100
AcDbEntity
  8
0
100
AcDbVertex
100
AcDb2dVertex
 10
20.84764612247937
 20
21.81137834183065
 30
0.0
 70
     8
  0
VERTEX
  5
1370
330
12B2
100
AcDbEntity
  8
0
100
AcDbVertex
100
AcDb2dVertex
 10
20.84501088282015
 20
21.83736868078629
 30
0.0
 70
     8
  0
VERTEX
  5
1371
330
12B2
100
AcDbEntity
  8
0
100
AcDbVertex
100
AcDb2dVertex
 10
20.84195790371692
 20
21.86310854325865
 30
0.0
 70
     8
  0
VERTEX
  5
1372
330
12B2
100
AcDbEntity
  8
0
100
AcDbVertex
100
AcDb2dVertex
 10
20.8384662981975
 20
21.88849356426459
 30
0.0
 70
     8
  0
VERTEX
  5
1373
330
12B2
100
AcDbEntity
  8
0
100
AcDbVertex
100
AcDb2dVertex
 10
20.83451517928968
 20
21.91341937882093
 30
0.0
 70
     8
  0
VERTEX
  5
1374
330
12B2
100
AcDbEntity
  8
0
100
AcDbVertex
100
AcDb2dVertex
 10
20.83008366002125
 20
21.93778162194452
 30
0.0
 70
     8
  0
VERTEX
  5
1375
330
12B2
100
AcDbEntity
  8
0
100
AcDbVertex
100
AcDb2dVertex
 10
20.82516553378978
 20
21.96146740451853
 30
0.0
 70
     8
  0
VERTEX
  5
1376
330
12B2
100
AcDbEntity
  8
0
100
AcDbVertex
100
AcDb2dVertex
 10
20.81981331547185
 20
21.98432974089167
 30
0.0
 70
     8
  0
VERTEX
  5
1377
330
12B2
100
AcDbEntity
  8
0
100
AcDbVertex
100
AcDb2dVertex
 10
20.81409420031384
 20
22.00621312127897
 30
0.0
 70
     8
  0
VERTEX
  5
1378
330
12B2
100
AcDbEntity
  8
0
100
AcDbVertex
100
AcDb2dVertex
 10
20.80807538356209
 20
22.02696203589544
 30
0.0
 70
     8
  0
VERTEX
  5
1379
330
12B2
100
AcDbEntity
  8
0
100
AcDbVertex
100
AcDb2dVertex
 10
20.80182406046294
 20
22.04642097495614
 30
0.0
 70
     8
  0
VERTEX
  5
137A
330
12B2
100
AcDbEntity
  8
0
100
AcDbVertex
100
AcDb2dVertex
 10
20.79540742626274
 20
22.0644344286761
 30
0.0
 70
     8
  0
VERTEX
  5
137B
330
12B2
100
AcDbEntity
  8
0
100
AcDbVertex
100
AcDb2dVertex
 10
20.78889267620787
 20
22.08084688727037
 30
0.0
 70
     8
  0
VERTEX
  5
137C
330
12B2
100
AcDbEntity
  8
0
100
AcDbVertex
100
AcDb2dVertex
 10
20.78234700554467
 20
22.09550284095397
 30
0.0
 70
     8
  0
VERTEX
  5
137D
330
12B2
100
AcDbEntity
  8
0
100
AcDbVertex
100
AcDb2dVertex
 10
20.77581562077726
 20
22.10823321371495
 30
0.0
 70
     8
  0
VERTEX
  5
137E
330
12B2
100
AcDbEntity
  8
0
100
AcDbVertex
100
AcDb2dVertex
 10
20.76925577344088
 20
22.11881466463334
 30
0.0
 70
     8
  0
VERTEX
  5
137F
330
12B2
100
AcDbEntity
  8
0
100
AcDbVertex
100
AcDb2dVertex
 10
20.76260272632857
 20
22.12701028656218
 30
0.0
 70
     8
  0
VERTEX
  5
1380
330
12B2
100
AcDbEntity
  8
0
100
AcDbVertex
100
AcDb2dVertex
 10
20.75579174223334
 20
22.13258317235452
 30
0.0
 70
     8
  0
VERTEX
  5
1381
330
12B2
100
AcDbEntity
  8
0
100
AcDbVertex
100
AcDb2dVertex
 10
20.74875808394822
 20
22.13529641486339
 30
0.0
 70
     8
  0
VERTEX
  5
1382
330
12B2
100
AcDbEntity
  8
0
100
AcDbVertex
100
AcDb2dVertex
 10
20.74143701426622
 20
22.13491310694182
 30
0.0
 70
     8
  0
VERTEX
  5
1383
330
12B2
100
AcDbEntity
  8
0
100
AcDbVertex
100
AcDb2dVertex
 10
20.73376379598037
 20
22.13119634144285
 30
0.0
 70
     8
  0
VERTEX
  5
1384
330
12B2
100
AcDbEntity
  8
0
100
AcDbVertex
100
AcDb2dVertex
 10
20.72567369188371
 20
22.12390921121953
 30
0.0
 70
     8
  0
VERTEX
  5
1385
330
12B2
100
AcDbEntity
  8
0
100
AcDbVertex
100
AcDb2dVertex
 10
20.71710245759659
 20
22.11284726470983
 30
0.0
 70
     8
  0
VERTEX
  5
1386
330
12B2
100
AcDbEntity
  8
0
100
AcDbVertex
100
AcDb2dVertex
 10
20.70798782004879
 20
22.0979358726915
 30
0.0
 70
     8
  0
VERTEX
  5
1387
330
12B2
100
AcDbEntity
  8
0
100
AcDbVertex
100
AcDb2dVertex
 10
20.69826799899744
 20
22.07913286152721
 30
0.0
 70
     8
  0
VERTEX
  5
1388
330
12B2
100
AcDbEntity
  8
0
100
AcDbVertex
100
AcDb2dVertex
 10
20.68788121419968
 20
22.05639605757964
 30
0.0
 70
     8
  0
VERTEX
  5
1389
330
12B2
100
AcDbEntity
  8
0
100
AcDbVertex
100
AcDb2dVertex
 10
20.67676568541262
 20
22.02968328721148
 30
0.0
 70
     8
  0
VERTEX
  5
138A
330
12B2
100
AcDbEntity
  8
0
100
AcDbVertex
100
AcDb2dVertex
 10
20.66485963239339
 20
21.9989523767854
 30
0.0
 70
     8
  0
VERTEX
  5
138B
330
12B2
100
AcDbEntity
  8
0
100
AcDbVertex
100
AcDb2dVertex
 10
20.65210127489913
 20
21.96416115266409
 30
0.0
 70
     8
  0
VERTEX
  5
138C
330
12B2
100
AcDbEntity
  8
0
100
AcDbVertex
100
AcDb2dVertex
 10
20.63842883268696
 20
21.92526744121023
 30
0.0
 70
     8
  0
VERTEX
  5
138D
330
12B2
100
AcDbEntity
  8
0
100
AcDbVertex
100
AcDb2dVertex
 10
20.62373491304809
 20
21.88235545987131
 30
0.0
 70
     8
  0
VERTEX
  5
138E
330
12B2
100
AcDbEntity
  8
0
100
AcDbVertex
100
AcDb2dVertex
 10
20.6077296734101
 20
21.8360149904341
 30
0.0
 70
     8
  0
VERTEX
  5
138F
330
12B2
100
AcDbEntity
  8
0
100
AcDbVertex
100
AcDb2dVertex
 10
20.59007765873466
 20
21.7869622057702
 30
0.0
 70
     8
  0
VERTEX
  5
1390
330
12B2
100
AcDbEntity
  8
0
100
AcDbVertex
100
AcDb2dVertex
 10
20.57044341398341
 20
21.73591327875119
 30
0.0
 70
     8
  0
VERTEX
  5
1391
330
12B2
100
AcDbEntity
  8
0
100
AcDbVertex
100
AcDb2dVertex
 10
20.54849148411804
 20
21.68358438224865
 30
0.0
 70
     8
  0
VERTEX
  5
1392
330
12B2
100
AcDbEntity
  8
0
100
AcDbVertex
100
AcDb2dVertex
 10
20.52388641410019
 20
21.63069168913418
 30
0.0
 70
     8
  0
VERTEX
  5
1393
330
12B2
100
AcDbEntity
  8
0
100
AcDbVertex
100
AcDb2dVertex
 10
20.49629274889153
 20
21.57795137227937
 30
0.0
 70
     8
  0
VERTEX
  5
1394
330
12B2
100
AcDbEntity
  8
0
100
AcDbVertex
100
AcDb2dVertex
 10
20.46537503345373
 20
21.52607960455579
 30
0.0
 70
     8
  0
VERTEX
  5
1395
330
12B2
100
AcDbEntity
  8
0
100
AcDbVertex
100
AcDb2dVertex
 10
20.43094012691876
 20
21.47571383067541
 30
0.0
 70
     8
  0
VERTEX
  5
1396
330
12B2
100
AcDbEntity
  8
0
100
AcDbVertex
100
AcDb2dVertex
 10
20.39336414509989
 20
21.42717658271161
 30
0.0
 70
     8
  0
VERTEX
  5
1397
330
12B2
100
AcDbEntity
  8
0
100
AcDbVertex
100
AcDb2dVertex
 10
20.35316551798071
 20
21.38071166457816
 30
0.0
 70
     8
  0
VERTEX
  5
1398
330
12B2
100
AcDbEntity
  8
0
100
AcDbVertex
100
AcDb2dVertex
 10
20.3108626755448
 20
21.33656288018881
 30
0.0
 70
     8
  0
VERTEX
  5
1399
330
12B2
100
AcDbEntity
  8
0
100
AcDbVertex
100
AcDb2dVertex
 10
20.26697404777578
 20
21.29497403345733
 30
0.0
 70
     8
  0
VERTEX
  5
139A
330
12B2
100
AcDbEntity
  8
0
100
AcDbVertex
100
AcDb2dVertex
 10
20.22201806465719
 20
21.25618892829746
 30
0.0
 70
     8
  0
VERTEX
  5
139B
330
12B2
100
AcDbEntity
  8
0
100
AcDbVertex
100
AcDb2dVertex
 10
20.17651315617265
 20
21.22045136862298
 30
0.0
 70
     8
  0
VERTEX
  5
139C
330
12B2
100
AcDbEntity
  8
0
100
AcDbVertex
100
AcDb2dVertex
 10
20.13097775230575
 20
21.18800515834763
 30
0.0
 70
     8
  0
VERTEX
  5
139D
330
12B2
100
AcDbEntity
  8
0
100
AcDbVertex
100
AcDb2dVertex
 10
20.08586293792189
 20
21.15903315043402
 30
0.0
 70
     8
  0
VERTEX
  5
139E
330
12B2
100
AcDbEntity
  8
0
100
AcDbVertex
100
AcDb2dVertex
 10
20.04135041741374
 20
21.13347439404007
 30
0.0
 70
     8
  0
VERTEX
  5
139F
330
12B2
100
AcDbEntity
  8
0
100
AcDbVertex
100
AcDb2dVertex
 10
19.99755455005582
 20
21.11120698737255
 30
0.0
 70
     8
  0
VERTEX
  5
13A0
330
12B2
100
AcDbEntity
  8
0
100
AcDbVertex
100
AcDb2dVertex
 10
19.95458969512264
 20
21.09210902863824
 30
0.0
 70
     8
  0
VERTEX
  5
13A1
330
12B2
100
AcDbEntity
  8
0
100
AcDbVertex
100
AcDb2dVertex
 10
19.9125702118887
 20
21.07605861604389
 30
0.0
 70
     8
  0
VERTEX
  5
13A2
330
12B2
100
AcDbEntity
  8
0
100
AcDbVertex
100
AcDb2dVertex
 10
19.8716104596285
 20
21.06293384779629
 30
0.0
 70
     8
  0
VERTEX
  5
13A3
330
12B2
100
AcDbEntity
  8
0
100
AcDbVertex
100
AcDb2dVertex
 10
19.83182479761656
 20
21.05261282210218
 30
0.0
 70
     8
  0
VERTEX
  5
13A4
330
12B2
100
AcDbEntity
  8
0
100
AcDbVertex
100
AcDb2dVertex
 10
19.79332758512738
 20
21.04497363716836
 30
0.0
 70
     8
  0
VERTEX
  5
13A5
330
12B2
100
AcDbEntity
  8
0
100
AcDbVertex
100
AcDb2dVertex
 10
19.7562115802745
 20
21.03987788368072
 30
0.0
 70
     8
  0
VERTEX
  5
13A6
330
12B2
100
AcDbEntity
  8
0
100
AcDbVertex
100
AcDb2dVertex
 10
19.72048313652772
 20
21.03712112224171
 30
0.0
 70
     8
  0
VERTEX
  5
13A7
330
12B2
100
AcDbEntity
  8
0
100
AcDbVertex
100
AcDb2dVertex
 10
19.68612700619582
 20
21.03648240593293
 30
0.0
 70
     8
  0
VERTEX
  5
13A8
330
12B2
100
AcDbEntity
  8
0
100
AcDbVertex
100
AcDb2dVertex
 10
19.65312794158763
 20
21.03774078783597
 30
0.0
 70
     8
  0
VERTEX
  5
13A9
330
12B2
100
AcDbEntity
  8
0
100
AcDbVertex
100
AcDb2dVertex
 10
19.62147069501197
 20
21.04067532103242
 30
0.0
 70
     8
  0
VERTEX
  5
13AA
330
12B2
100
AcDbEntity
  8
0
100
AcDbVertex
100
AcDb2dVertex
 10
19.59114001877764
 20
21.04506505860387
 30
0.0
 70
     8
  0
VERTEX
  5
13AB
330
12B2
100
AcDbEntity
  8
0
100
AcDbVertex
100
AcDb2dVertex
 10
19.56212066519347
 20
21.05068905363191
 30
0.0
 70
     8
  0
VERTEX
  5
13AC
330
12B2
100
AcDbEntity
  8
0
100
AcDbVertex
100
AcDb2dVertex
 10
19.53439738656828
 20
21.05732635919813
 30
0.0
 70
     8
  0
VERTEX
  5
13AD
330
12B2
100
AcDbEntity
  8
0
100
AcDbVertex
100
AcDb2dVertex
 10
19.50796510042669
 20
21.06480047165079
 30
0.0
 70
     8
  0
VERTEX
  5
13AE
330
12B2
100
AcDbEntity
  8
0
100
AcDbVertex
100
AcDb2dVertex
 10
19.48285938515665
 20
21.07311266040474
 30
0.0
 70
     8
  0
VERTEX
  5
13AF
330
12B2
100
AcDbEntity
  8
0
100
AcDbVertex
100
AcDb2dVertex
 10
19.4591259843619
 20
21.08230863814151
 30
0.0
 70
     8
  0
VERTEX
  5
13B0
330
12B2
100
AcDbEntity
  8
0
100
AcDbVertex
100
AcDb2dVertex
 10
19.43681064164625
 20
21.09243411754261
 30
0.0
 70
     8
  0
VERTEX
  5
13B1
330
12B2
100
AcDbEntity
  8
0
100
AcDbVertex
100
AcDb2dVertex
 10
19.4159591006134
 20
21.10353481128957
 30
0.0
 70
     8
  0
VERTEX
  5
13B2
330
12B2
100
AcDbEntity
  8
0
100
AcDbVertex
100
AcDb2dVertex
 10
19.39661710486715
 20
21.1156564320639
 30
0.0
 70
     8
  0
VERTEX
  5
13B3
330
12B2
100
AcDbEntity
  8
0
100
AcDbVertex
100
AcDb2dVertex
 10
19.37883039801126
 20
21.1288446925471
 30
0.0
 70
     8
  0
VERTEX
  5
13B4
330
12B2
100
AcDbEntity
  8
0
100
AcDbVertex
100
AcDb2dVertex
 10
19.36264472364947
 20
21.14314530542073
 30
0.0
 70
     8
  0
VERTEX
  5
13B5
330
12B2
100
AcDbEntity
  8
0
100
AcDbVertex
100
AcDb2dVertex
 10
19.34805754023483
 20
21.15863826842291
 30
0.0
 70
     8
  0
VERTEX
  5
13B6
330
12B2
100
AcDbEntity
  8
0
100
AcDbVertex
100
AcDb2dVertex
 10
19.33487316561746
 20
21.17554071951833
 30
0.0
 70
     8
  0
VERTEX
  5
13B7
330
12B2
100
AcDbEntity
  8
0
100
AcDbVertex
100
AcDb2dVertex
 10
19.32284763249674
 20
21.19410408172829
 30
0.0
 70
     8
  0
VERTEX
  5
13B8
330
12B2
100
AcDbEntity
  8
0
100
AcDbVertex
100
AcDb2dVertex
 10
19.31173697357206
 20
21.2145797780741
 30
0.0
 70
     8
  0
VERTEX
  5
13B9
330
12B2
100
AcDbEntity
  8
0
100
AcDbVertex
100
AcDb2dVertex
 10
19.30129722154281
 20
21.23721923157706
 30
0.0
 70
     8
  0
VERTEX
  5
13BA
330
12B2
100
AcDbEntity
  8
0
100
AcDbVertex
100
AcDb2dVertex
 10
19.29128440910839
 20
21.2622738652585
 30
0.0
 70
     8
  0
VERTEX
  5
13BB
330
12B2
100
AcDbEntity
  8
0
100
AcDbVertex
100
AcDb2dVertex
 10
19.28145456896818
 20
21.28999510213969
 30
0.0
 70
     8
  0
VERTEX
  5
13BC
330
12B2
100
AcDbEntity
  8
0
100
AcDbVertex
100
AcDb2dVertex
 10
19.27156373382159
 20
21.32063436524196
 30
0.0
 70
     8
  0
VERTEX
  5
13BD
330
12B2
100
AcDbEntity
  8
0
100
AcDbVertex
100
AcDb2dVertex
 10
19.26136793663308
 20
21.35429196997813
 30
0.0
 70
     8
  0
VERTEX
  5
13BE
330
12B2
100
AcDbEntity
  8
0
100
AcDbVertex
100
AcDb2dVertex
 10
19.25062321142759
 20
21.39046380132713
 30
0.0
 70
     8
  0
VERTEX
  5
13BF
330
12B2
100
AcDbEntity
  8
0
100
AcDbVertex
100
AcDb2dVertex
 10
19.23908559249512
 20
21.42849463665938
 30
0.0
 70
     8
  0
VERTEX
  5
13C0
330
12B2
100
AcDbEntity
  8
0
100
AcDbVertex
100
AcDb2dVertex
 10
19.22651111412567
 20
21.46772925334533
 30
0.0
 70
     8
  0
VERTEX
  5
13C1
330
12B2
100
AcDbEntity
  8
0
100
AcDbVertex
100
AcDb2dVertex
 10
19.21265581060926
 20
21.50751242875541
 30
0.0
 70
     8
  0
VERTEX
  5
13C2
330
12B2
100
AcDbEntity
  8
0
100
AcDbVertex
100
AcDb2dVertex
 10
19.19727571623592
 20
21.54718894026006
 30
0.0
 70
     8
  0
VERTEX
  5
13C3
330
12B2
100
AcDbEntity
  8
0
100
AcDbVertex
100
AcDb2dVertex
 10
19.18012686529563
 20
21.58610356522971
 30
0.0
 70
     8
  0
VERTEX
  5
13C4
330
12B2
100
AcDbEntity
  8
0
100
AcDbVertex
100
AcDb2dVertex
 10
19.16096529207843
 20
21.62360108103482
 30
0.0
 70
     8
  0
VERTEX
  5
13C5
330
12B2
100
AcDbEntity
  8
0
100
AcDbVertex
100
AcDb2dVertex
 10
19.13955973710689
 20
21.65914816689359
 30
0.0
 70
     8
  0
VERTEX
  5
13C6
330
12B2
100
AcDbEntity
  8
0
100
AcDbVertex
100
AcDb2dVertex
 10
19.11572976583397
 20
21.69269910941536
 30
0.0
 70
     8
  0
VERTEX
  5
13C7
330
12B2
100
AcDbEntity
  8
0
100
AcDbVertex
100
AcDb2dVertex
 10
19.08930764994518
 20
21.72433009705725
 30
0.0
 70
     8
  0
VERTEX
  5
13C8
330
12B2
100
AcDbEntity
  8
0
100
AcDbVertex
100
AcDb2dVertex
 10
19.06012566112602
 20
21.7541173182764
 30
0.0
 70
     8
  0
VERTEX
  5
13C9
330
12B2
100
AcDbEntity
  8
0
100
AcDbVertex
100
AcDb2dVertex
 10
19.02801607106204
 20
21.78213696152992
 30
0.0
 70
     8
  0
VERTEX
  5
13CA
330
12B2
100
AcDbEntity
  8
0
100
AcDbVertex
100
AcDb2dVertex
 10
18.99281115143876
 20
21.80846521527493
 30
0.0
 70
     8
  0
VERTEX
  5
13CB
330
12B2
100
AcDbEntity
  8
0
100
AcDbVertex
100
AcDb2dVertex
 10
18.95434317394168
 20
21.83317826796856
 30
0.0
 70
     8
  0
VERTEX
  5
13CC
330
12B2
100
AcDbEntity
  8
0
100
AcDbVertex
100
AcDb2dVertex
 10
18.91244441025633
 20
21.85635230806791
 30
0.0
 70
     8
  0
VERTEX
  5
13CD
330
12B2
100
AcDbEntity
  8
0
100
AcDbVertex
100
AcDb2dVertex
 10
18.8670691158069
 20
21.87798606572176
 30
0.0
 70
     8
  0
VERTEX
  5
13CE
330
12B2
100
AcDbEntity
  8
0
100
AcDbVertex
100
AcDb2dVertex
 10
18.81865948097229
 20
21.8977684378453
 30
0.0
 70
     8
  0
VERTEX
  5
13CF
330
12B2
100
AcDbEntity
  8
0
100
AcDbVertex
100
AcDb2dVertex
 10
18.76777967987004
 20
21.91531086304538
 30
0.0
 70
     8
  0
VERTEX
  5
13D0
330
12B2
100
AcDbEntity
  8
0
100
AcDbVertex
100
AcDb2dVertex
 10
18.71499388661769
 20
21.93022477992884
 30
0.0
 70
     8
  0
VERTEX
  5
13D1
330
12B2
100
AcDbEntity
  8
0
100
AcDbVertex
100
AcDb2dVertex
 10
18.66086627533283
 20
21.94212162710253
 30
0.0
 70
     8
  0
VERTEX
  5
13D2
330
12B2
100
AcDbEntity
  8
0
100
AcDbVertex
100
AcDb2dVertex
 10
18.60596102013301
 20
21.95061284317328
 30
0.0
 70
     8
  0
VERTEX
  5
13D3
330
12B2
100
AcDbEntity
  8
0
100
AcDbVertex
100
AcDb2dVertex
 10
18.55084229513577
 20
21.95530986674794
 30
0.0
 70
     8
  0
VERTEX
  5
13D4
330
12B2
100
AcDbEntity
  8
0
100
AcDbVertex
100
AcDb2dVertex
 10
18.49607427445867
 20
21.95582413643335
 30
0.0
 70
     8
  0
VERTEX
  5
13D5
330
12B2
100
AcDbEntity
  8
0
100
AcDbVertex
100
AcDb2dVertex
 10
18.44215632829459
 20
21.95186232640775
 30
0.0
 70
     8
  0
VERTEX
  5
13D6
330
12B2
100
AcDbEntity
  8
0
100
AcDbVertex
100
AcDb2dVertex
 10
18.38932861113766
 20
21.943512053135
 30
0.0
 70
     8
  0
VERTEX
  5
13D7
330
12B2
100
AcDbEntity
  8
0
100
AcDbVertex
100
AcDb2dVertex
 10
18.33776647355733
 20
21.93095616865035
 30
0.0
 70
     8
  0
VERTEX
  5
13D8
330
12B2
100
AcDbEntity
  8
0
100
AcDbVertex
100
AcDb2dVertex
 10
18.28764526612306
 20
21.91437752498905
 30
0.0
 70
     8
  0
VERTEX
  5
13D9
330
12B2
100
AcDbEntity
  8
0
100
AcDbVertex
100
AcDb2dVertex
 10
18.23914033940429
 20
21.89395897418638
 30
0.0
 70
     8
  0
VERTEX
  5
13DA
330
12B2
100
AcDbEntity
  8
0
100
AcDbVertex
100
AcDb2dVertex
 10
18.19242704397048
 20
21.86988336827757
 30
0.0
 70
     8
  0
VERTEX
  5
13DB
330
12B2
100
AcDbEntity
  8
0
100
AcDbVertex
100
AcDb2dVertex
 10
18.14768073039107
 20
21.8423335592979
 30
0.0
 70
     8
  0
VERTEX
  5
13DC
330
12B2
100
AcDbEntity
  8
0
100
AcDbVertex
100
AcDb2dVertex
 10
18.10507674923551
 20
21.81149239928261
 30
0.0
 70
     8
  0
VERTEX
  5
13DD
330
12B2
100
AcDbEntity
  8
0
100
AcDbVertex
100
AcDb2dVertex
 10
18.06479553381372
 20
21.77754274043061
 30
0.0
 70
     8
  0
VERTEX
  5
13DE
330
12B2
100
AcDbEntity
  8
0
100
AcDbVertex
100
AcDb2dVertex
 10
18.02703784839747
 20
21.7406674355954
 30
0.0
 70
     8
  0
VERTEX
  5
13DF
330
12B2
100
AcDbEntity
  8
0
100
AcDbVertex
100
AcDb2dVertex
 10
17.992009539999
 20
21.7010493377941
 30
0.0
 70
     8
  0
VERTEX
  5
13E0
330
12B2
100
AcDbEntity
  8
0
100
AcDbVertex
100
AcDb2dVertex
 10
17.95991645563054
 20
21.65887130004389
 30
0.0
 70
     8
  0
VERTEX
  5
13E1
330
12B2
100
AcDbEntity
  8
0
100
AcDbVertex
100
AcDb2dVertex
 10
17.93096444230432
 20
21.61431617536189
 30
0.0
 70
     8
  0
VERTEX
  5
13E2
330
12B2
100
AcDbEntity
  8
0
100
AcDbVertex
100
AcDb2dVertex
 10
17.90535934703257
 20
21.56756681676524
 30
0.0
 70
     8
  0
VERTEX
  5
13E3
330
12B2
100
AcDbEntity
  8
0
100
AcDbVertex
100
AcDb2dVertex
 10
17.88330701682754
 20
21.51880607727109
 30
0.0
 70
     8
  0
VERTEX
  5
13E4
330
12B2
100
AcDbEntity
  8
0
100
AcDbVertex
100
AcDb2dVertex
 10
17.86501329870145
 20
21.46821680989658
 30
0.0
 70
     8
  0
VERTEX
  5
13E5
330
12B2
100
AcDbEntity
  8
0
100
AcDbVertex
100
AcDb2dVertex
 10
17.8506700626163
 20
21.41601488275513
 30
0.0
 70
     8
  0
VERTEX
  5
13E6
330
12B2
100
AcDbEntity
  8
0
100
AcDbVertex
100
AcDb2dVertex
 10
17.84041327033304
 20
21.36254822434525
 30
0.0
 70
     8
  0
VERTEX
  5
13E7
330
12B2
100
AcDbEntity
  8
0
100
AcDbVertex
100
AcDb2dVertex
 10
17.8343649065624
 20
21.30819777826175
 30
0.0
 70
     8
  0
VERTEX
  5
13E8
330
12B2
100
AcDbEntity
  8
0
100
AcDbVertex
100
AcDb2dVertex
 10
17.83264695601509
 20
21.25334448809939
 30
0.0
 70
     8
  0
VERTEX
  5
13E9
330
12B2
100
AcDbEntity
  8
0
100
AcDbVertex
100
AcDb2dVertex
 10
17.83538140340183
 20
21.198369297453
 30
0.0
 70
     8
  0
VERTEX
  5
13EA
330
12B2
100
AcDbEntity
  8
0
100
AcDbVertex
100
AcDb2dVertex
 10
17.84269023343335
 20
21.14365314991734
 30
0.0
 70
     8
  0
VERTEX
  5
13EB
330
12B2
100
AcDbEntity
  8
0
100
AcDbVertex
100
AcDb2dVertex
 10
17.85469543082036
 20
21.08957698908722
 30
0.0
 70
     8
  0
VERTEX
  5
13EC
330
12B2
100
AcDbEntity
  8
0
100
AcDbVertex
100
AcDb2dVertex
 10
17.87151898027358
 20
21.03652175855741
 30
0.0
 70
     8
  0
VERTEX
  5
13ED
330
12B2
100
AcDbEntity
  8
0
100
AcDbVertex
100
AcDb2dVertex
 10
17.8931748598153
 20
20.98486205272099
 30
0.0
 70
     8
  0
VERTEX
  5
13EE
330
12B2
100
AcDbEntity
  8
0
100
AcDbVertex
100
AcDb2dVertex
 10
17.91924502071416
 20
20.93494706916402
 30
0.0
 70
     8
  0
VERTEX
  5
13EF
330
12B2
100
AcDbEntity
  8
0
100
AcDbVertex
100
AcDb2dVertex
 10
17.94920340755033
 20
20.88711965627085
 30
0.0
 70
     8
  0
VERTEX
  5
13F0
330
12B2
100
AcDbEntity
  8
0
100
AcDbVertex
100
AcDb2dVertex
 10
17.98252396490402
 20
20.84172266242584
 30
0.0
 70
     8
  0
VERTEX
  5
13F1
330
12B2
100
AcDbEntity
  8
0
100
AcDbVertex
100
AcDb2dVertex
 10
18.01868063735543
 20
20.79909893601333
 30
0.0
 70
     8
  0
VERTEX
  5
13F2
330
12B2
100
AcDbEntity
  8
0
100
AcDbVertex
100
AcDb2dVertex
 10
18.05714736948478
 20
20.75959132541765
 30
0.0
 70
     8
  0
VERTEX
  5
13F3
330
12B2
100
AcDbEntity
  8
0
100
AcDbVertex
100
AcDb2dVertex
 10
18.09739810587224
 20
20.72354267902314
 30
0.0
 70
     8
  0
VERTEX
  5
13F4
330
12B2
100
AcDbEntity
  8
0
100
AcDbVertex
100
AcDb2dVertex
 10
18.13890679109803
 20
20.69129584521418
 30
0.0
 70
     8
  0
VERTEX
  5
13F5
330
12B2
100
AcDbEntity
  8
0
100
AcDbVertex
100
AcDb2dVertex
 10
18.18114737027253
 20
20.66306161215363
 30
0.0
 70
     8
  0
VERTEX
  5
13F6
330
12B2
100
AcDbEntity
  8
0
100
AcDbVertex
100
AcDb2dVertex
 10
18.22359379062699
 20
20.6385225271186
 30
0.0
 70
     8
  0
VERTEX
  5
13F7
330
12B2
100
AcDbEntity
  8
0
100
AcDbVertex
100
AcDb2dVertex
 10
18.26571999992285
 20
20.6172290771647
 30
0.0
 70
     8
  0
VERTEX
  5
13F8
330
12B2
100
AcDbEntity
  8
0
100
AcDbVertex
100
AcDb2dVertex
 10
18.30699994592156
 20
20.59873174934758
 30
0.0
 70
     8
  0
VERTEX
  5
13F9
330
12B2
100
AcDbEntity
  8
0
100
AcDbVertex
100
AcDb2dVertex
 10
18.34690757638454
 20
20.58258103072287
 30
0.0
 70
     8
  0
VERTEX
  5
13FA
330
12B2
100
AcDbEntity
  8
0
100
AcDbVertex
100
AcDb2dVertex
 10
18.38491683907324
 20
20.56832740834621
 30
0.0
 70
     8
  0
VERTEX
  5
13FB
330
12B2
100
AcDbEntity
  8
0
100
AcDbVertex
100
AcDb2dVertex
 10
18.4205016817491
 20
20.55552136927323
 30
0.0
 70
     8
  0
VERTEX
  5
13FC
330
12B2
100
AcDbEntity
  8
0
100
AcDbVertex
100
AcDb2dVertex
 10
18.45313605217356
 20
20.54371340055956
 30
0.0
 70
     8
  0
VERTEX
  5
13FD
330
12B2
100
AcDbEntity
  8
0
100
AcDbVertex
100
AcDb2dVertex
 10
18.48244984787536
 20
20.5324441433451
 30
0.0
 70
     8
  0
VERTEX
  5
13FE
330
12B2
100
AcDbEntity
  8
0
100
AcDbVertex
100
AcDb2dVertex
 10
18.50869676545246
 20
20.52121485510675
 30
0.0
 70
     8
  0
VERTEX
  5
13FF
330
12B2
100
AcDbEntity
  8
0
100
AcDbVertex
100
AcDb2dVertex
 10
18.53228645127014
 20
20.50951694740565
 30
0.0
 70
     8
  0
VERTEX
  5
1400
330
12B2
100
AcDbEntity
  8
0
100
AcDbVertex
100
AcDb2dVertex
 10
18.55362855169365
 20
20.49684183180295
 30
0.0
 70
     8
  0
VERTEX
  5
1401
330
12B2
100
AcDbEntity
  8
0
100
AcDbVertex
100
AcDb2dVertex
 10
18.57313271308827
 20
20.48268091985981
 30
0.0
 70
     8
  0
VERTEX
  5
1402
330
12B2
100
AcDbEntity
  8
0
100
AcDbVertex
100
AcDb2dVertex
 10
18.59120858181925
 20
20.46652562313739
 30
0.0
 70
     8
  0
VERTEX
  5
1403
330
12B2
100
AcDbEntity
  8
0
100
AcDbVertex
100
AcDb2dVertex
 10
18.60826580425186
 20
20.44786735319683
 30
0.0
 70
     8
  0
VERTEX
  5
1404
330
12B2
100
AcDbEntity
  8
0
100
AcDbVertex
100
AcDb2dVertex
 10
18.62471402675137
 20
20.42619752159929
 30
0.0
 70
     8
  0
VERTEX
  5
1405
330
12B2
100
AcDbEntity
  8
0
100
AcDbVertex
100
AcDb2dVertex
 10
18.6408449072304
 20
20.40115189699404
 30
0.0
 70
     8
  0
VERTEX
  5
1406
330
12B2
100
AcDbEntity
  8
0
100
AcDbVertex
100
AcDb2dVertex
 10
18.65647814979099
 20
20.37294367638293
 30
0.0
 70
     8
  0
VERTEX
  5
1407
330
12B2
100
AcDbEntity
  8
0
100
AcDbVertex
100
AcDb2dVertex
 10
18.67131547008257
 20
20.34193041385594
 30
0.0
 70
     8
  0
VERTEX
  5
1408
330
12B2
100
AcDbEntity
  8
0
100
AcDbVertex
100
AcDb2dVertex
 10
18.68505858375453
 20
20.30846966350302
 30
0.0
 70
     8
  0
VERTEX
  5
1409
330
12B2
100
AcDbEntity
  8
0
100
AcDbVertex
100
AcDb2dVertex
 10
18.69740920645628
 20
20.27291897941416
 30
0.0
 70
     8
  0
VERTEX
  5
140A
330
12B2
100
AcDbEntity
  8
0
100
AcDbVertex
100
AcDb2dVertex
 10
18.70806905383723
 20
20.2356359156793
 30
0.0
 70
     8
  0
VERTEX
  5
140B
330
12B2
100
AcDbEntity
  8
0
100
AcDbVertex
100
AcDb2dVertex
 10
18.71673984154679
 20
20.19697802638845
 30
0.0
 70
     8
  0
VERTEX
  5
140C
330
12B2
100
AcDbEntity
  8
0
100
AcDbVertex
100
AcDb2dVertex
 10
18.72312328523436
 20
20.15730286563155
 30
0.0
 70
     8
  0
VERTEX
  5
140D
330
12B2
100
AcDbEntity
  8
0
100
AcDbVertex
100
AcDb2dVertex
 10
18.72694920399149
 20
20.11693180936587
 30
0.0
 70
     8
  0
VERTEX
  5
140E
330
12B2
100
AcDbEntity
  8
0
100
AcDbVertex
100
AcDb2dVertex
 10
18.7280598306782
 20
20.07604152101782
 30
0.0
 70
     8
  0
VERTEX
  5
140F
330
12B2
100
AcDbEntity
  8
0
100
AcDbVertex
100
AcDb2dVertex
 10
18.72632550159667
 20
20.0347724858811
 30
0.0
 70
     8
  0
VERTEX
  5
1410
330
12B2
100
AcDbEntity
  8
0
100
AcDbVertex
100
AcDb2dVertex
 10
18.72161655304907
 20
19.99326518924943
 30
0.0
 70
     8
  0
VERTEX
  5
1411
330
12B2
100
AcDbEntity
  8
0
100
AcDbVertex
100
AcDb2dVertex
 10
18.71380332133755
 20
19.9516601164165
 30
0.0
 70
     8
  0
VERTEX
  5
1412
330
12B2
100
AcDbEntity
  8
0
100
AcDbVertex
100
AcDb2dVertex
 10
18.70275614276429
 20
19.91009775267602
 30
0.0
 70
     8
  0
VERTEX
  5
1413
330
12B2
100
AcDbEntity
  8
0
100
AcDbVertex
100
AcDb2dVertex
 10
18.68834535363146
 20
19.8687185833217
 30
0.0
 70
     8
  0
VERTEX
  5
1414
330
12B2
100
AcDbEntity
  8
0
100
AcDbVertex
100
AcDb2dVertex
 10
18.67044129024123
 20
19.82766309364723
 30
0.0
 70
     8
  0
VERTEX
  5
1415
330
12B2
100
AcDbEntity
  8
0
100
AcDbVertex
100
AcDb2dVertex
 10
18.64898525046711
 20
19.78707253028977
 30
0.0
 70
     8
  0
VERTEX
  5
1416
330
12B2
100
AcDbEntity
  8
0
100
AcDbVertex
100
AcDb2dVertex
 10
18.62420237846803
 20
19.74709118526021
 30
0.0
 70
     8
  0
VERTEX
  5
1417
330
12B2
100
AcDbEntity
  8
0
100
AcDbVertex
100
AcDb2dVertex
 10
18.59638877997425
 20
19.70786411191295
 30
0.0
 70
     8
  0
VERTEX
  5
1418
330
12B2
100
AcDbEntity
  8
0
100
AcDbVertex
100
AcDb2dVertex
 10
18.56584056071607
 20
19.66953636360233
 30
0.0
 70
     8
  0
VERTEX
  5
1419
330
12B2
100
AcDbEntity
  8
0
100
AcDbVertex
100
AcDb2dVertex
 10
18.53285382642375
 20
19.63225299368273
 30
0.0
 70
     8
  0
VERTEX
  5
141A
330
12B2
100
AcDbEntity
  8
0
100
AcDbVertex
100
AcDb2dVertex
 10
18.49772468282757
 20
19.59615905550847
 30
0.0
 70
     8
  0
VERTEX
  5
141B
330
12B2
100
AcDbEntity
  8
0
100
AcDbVertex
100
AcDb2dVertex
 10
18.4607492356578
 20
19.56139960243396
 30
0.0
 70
     8
  0
VERTEX
  5
141C
330
12B2
100
AcDbEntity
  8
0
100
AcDbVertex
100
AcDb2dVertex
 10
18.42222359064471
 20
19.52811968781353
 30
0.0
 70
     8
  0
VERTEX
  5
141D
330
12B2
100
AcDbEntity
  8
0
100
AcDbVertex
100
AcDb2dVertex
 10
18.38245449768803
 20
19.49644405747304
 30
0.0
 70
     8
  0
VERTEX
  5
141E
330
12B2
100
AcDbEntity
  8
0
100
AcDbVertex
100
AcDb2dVertex
 10
18.34179128336513
 20
19.46641622712421
 30
0.0
 70
     8
  0
VERTEX
  5
141F
330
12B2
100
AcDbEntity
  8
0
100
AcDbVertex
100
AcDb2dVertex
 10
18.30059391842287
 20
19.43805940495028
 30
0.0
 70
     8
  0
VERTEX
  5
1420
330
12B2
100
AcDbEntity
  8
0
100
AcDbVertex
100
AcDb2dVertex
 10
18.2592223736081
 20
19.41139679913446
 30
0.0
 70
     8
  0
VERTEX
  5
1421
330
12B2
100
AcDbEntity
  8
0
100
AcDbVertex
100
AcDb2dVertex
 10
18.21803661966762
 20
19.38645161785996
 30
0.0
 70
     8
  0
VERTEX
  5
1422
330
12B2
100
AcDbEntity
  8
0
100
AcDbVertex
100
AcDb2dVertex
 10
18.17739662734829
 20
19.36324706931001
 30
0.0
 70
     8
  0
VERTEX
  5
1423
330
12B2
100
AcDbEntity
  8
0
100
AcDbVertex
100
AcDb2dVertex
 10
18.13766236739694
 20
19.34180636166783
 30
0.0
 70
     8
  0
VERTEX
  5
1424
330
12B2
100
AcDbEntity
  8
0
100
AcDbVertex
100
AcDb2dVertex
 10
18.09919381056041
 20
19.32215270311663
 30
0.0
 70
     8
  0
VERTEX
  5
1425
330
12B2
100
AcDbEntity
  8
0
100
AcDbVertex
100
AcDb2dVertex
 10
18.06231125361409
 20
19.30426191798827
 30
0.0
 70
     8
  0
VERTEX
  5
1426
330
12B2
100
AcDbEntity
  8
0
100
AcDbVertex
100
AcDb2dVertex
 10
18.02717629744759
 20
19.28792029520905
 30
0.0
 70
     8
  0
VERTEX
  5
1427
330
12B2
100
AcDbEntity
  8
0
100
AcDbVertex
100
AcDb2dVertex
 10
17.99391086897907
 20
19.27286673985395
 30
0.0
 70
     8
  0
VERTEX
  5
1428
330
12B2
100
AcDbEntity
  8
0
100
AcDbVertex
100
AcDb2dVertex
 10
17.96263689512668
 20
19.25884015699792
 30
0.0
 70
     8
  0
VERTEX
  5
1429
330
12B2
100
AcDbEntity
  8
0
100
AcDbVertex
100
AcDb2dVertex
 10
17.9334763028086
 20
19.2455794517159
 30
0.0
 70
     8
  0
VERTEX
  5
142A
330
12B2
100
AcDbEntity
  8
0
100
AcDbVertex
100
AcDb2dVertex
 10
17.90655101894299
 20
19.23282352908284
 30
0.0
 70
     8
  0
VERTEX
  5
142B
330
12B2
100
AcDbEntity
  8
0
100
AcDbVertex
100
AcDb2dVertex
 10
17.881982970448
 20
19.22031129417371
 30
0.0
 70
     8
  0
VERTEX
  5
142C
330
12B2
100
AcDbEntity
  8
0
100
AcDbVertex
100
AcDb2dVertex
 10
17.8598940842418
 20
19.20778165206347
 30
0.0
 70
     8
  0
VERTEX
  5
142D
330
12B2
100
AcDbEntity
  8
0
100
AcDbVertex
100
AcDb2dVertex
 10
17.84039564254292
 20
19.19503442997622
 30
0.0
 70
     8
  0
VERTEX
  5
142E
330
12B2
100
AcDbEntity
  8
0
100
AcDbVertex
100
AcDb2dVertex
 10
17.82355634877134
 20
19.18211314373283
 30
0.0
 70
     8
  0
VERTEX
  5
142F
330
12B2
100
AcDbEntity
  8
0
100
AcDbVertex
100
AcDb2dVertex
 10
17.80943426164744
 20
19.16912223130329
 30
0.0
 70
     8
  0
VERTEX
  5
1430
330
12B2
100
AcDbEntity
  8
0
100
AcDbVertex
100
AcDb2dVertex
 10
17.79808743989158
 20
19.15616613065765
 30
0.0
 70
     8
  0
VERTEX
  5
1431
330
12B2
100
AcDbEntity
  8
0
100
AcDbVertex
100
AcDb2dVertex
 10
17.7895739422241
 20
19.14334927976591
 30
0.0
 70
     8
  0
VERTEX
  5
1432
330
12B2
100
AcDbEntity
  8
0
100
AcDbVertex
100
AcDb2dVertex
 10
17.78395182736537
 20
19.1307761165981
 30
0.0
 70
     8
  0
VERTEX
  5
1433
330
12B2
100
AcDbEntity
  8
0
100
AcDbVertex
100
AcDb2dVertex
 10
17.78127915403575
 20
19.11855107912422
 30
0.0
 70
     8
  0
VERTEX
  5
1434
330
12B2
100
AcDbEntity
  8
0
100
AcDbVertex
100
AcDb2dVertex
 10
17.7816139809556
 20
19.1067786053143
 30
0.0
 70
     8
  0
VERTEX
  5
1435
330
12B2
100
AcDbEntity
  8
0
100
AcDbVertex
100
AcDb2dVertex
 10
17.78496888684274
 20
19.09556700122346
 30
0.0
 70
     8
  0
VERTEX
  5
1436
330
12B2
100
AcDbEntity
  8
0
100
AcDbVertex
100
AcDb2dVertex
 10
17.7911745304048
 20
19.08504004524712
 30
0.0
 70
     8
  0
VERTEX
  5
1437
330
12B2
100
AcDbEntity
  8
0
100
AcDbVertex
100
AcDb2dVertex
 10
17.80001609034687
 20
19.07532538386582
 30
0.0
 70
     8
  0
VERTEX
  5
1438
330
12B2
100
AcDbEntity
  8
0
100
AcDbVertex
100
AcDb2dVertex
 10
17.81127874537408
 20
19.06655066356011
 30
0.0
 70
     8
  0
VERTEX
  5
1439
330
12B2
100
AcDbEntity
  8
0
100
AcDbVertex
100
AcDb2dVertex
 10
17.82474767419149
 20
19.05884353081052
 30
0.0
 70
     8
  0
VERTEX
  5
143A
330
12B2
100
AcDbEntity
  8
0
100
AcDbVertex
100
AcDb2dVertex
 10
17.84020805550422
 20
19.05233163209755
 30
0.0
 70
     8
  0
VERTEX
  5
143B
330
12B2
100
AcDbEntity
  8
0
100
AcDbVertex
100
AcDb2dVertex
 10
17.85744506801736
 20
19.04714261390178
 30
0.0
 70
     8
  0
VERTEX
  5
143C
330
12B2
100
AcDbEntity
  8
0
100
AcDbVertex
100
AcDb2dVertex
 10
17.87624389043601
 20
19.0434041227037
 30
0.0
 70
     8
  0
VERTEX
  5
143D
330
12B2
100
AcDbEntity
  8
0
100
AcDbVertex
100
AcDb2dVertex
 10
17.89640808709785
 20
19.04117224562799
 30
0.0
 70
     8
  0
VERTEX
  5
143E
330
12B2
100
AcDbEntity
  8
0
100
AcDbVertex
100
AcDb2dVertex
 10
17.91781476487095
 20
19.04021683237571
 30
0.0
 70
     8
  0
VERTEX
  5
143F
330
12B2
100
AcDbEntity
  8
0
100
AcDbVertex
100
AcDb2dVertex
 10
17.94035941625595
 20
19.04023617329208
 30
0.0
 70
     8
  0
VERTEX
  5
1440
330
12B2
100
AcDbEntity
  8
0
100
AcDbVertex
100
AcDb2dVertex
 10
17.9639375337535
 20
19.0409285587223
 30
0.0
 70
     8
  0
VERTEX
  5
1441
330
12B2
100
AcDbEntity
  8
0
100
AcDbVertex
100
AcDb2dVertex
 10
17.98844460986426
 20
19.04199227901156
 30
0.0
 70
     8
  0
VERTEX
  5
1442
330
12B2
100
AcDbEntity
  8
0
100
AcDbVertex
100
AcDb2dVertex
 10
18.01377613708886
 20
19.04312562450507
 30
0.0
 70
     8
  0
VERTEX
  5
1443
330
12B2
100
AcDbEntity
  8
0
100
AcDbVertex
100
AcDb2dVertex
 10
18.03982760792797
 20
19.04402688554803
 30
0.0
 70
     8
  0
VERTEX
  5
1444
330
12B2
100
AcDbEntity
  8
0
100
AcDbVertex
100
AcDb2dVertex
 10
18.06649451488222
 20
19.04439435248564
 30
0.0
 70
     8
  0
VERTEX
  5
1445
330
12B2
100
AcDbEntity
  8
0
100
AcDbVertex
100
AcDb2dVertex
 10
18.09362803557949
 20
19.04398506969904
 30
0.0
 70
     8
  0
VERTEX
  5
1446
330
12B2
100
AcDbEntity
  8
0
100
AcDbVertex
100
AcDb2dVertex
 10
18.12090208815644
 20
19.04279109771311
 30
0.0
 70
     8
  0
VERTEX
  5
1447
330
12B2
100
AcDbEntity
  8
0
100
AcDbVertex
100
AcDb2dVertex
 10
18.14794627587698
 20
19.04086325108869
 30
0.0
 70
     8
  0
VERTEX
  5
1448
330
12B2
100
AcDbEntity
  8
0
100
AcDbVertex
100
AcDb2dVertex
 10
18.174390202005
 20
19.03825234438662
 30
0.0
 70
     8
  0
VERTEX
  5
1449
330
12B2
100
AcDbEntity
  8
0
100
AcDbVertex
100
AcDb2dVertex
 10
18.19986346980438
 20
19.03500919216771
 30
0.0
 70
     8
  0
VERTEX
  5
144A
330
12B2
100
AcDbEntity
  8
0
100
AcDbVertex
100
AcDb2dVertex
 10
18.22399568253903
 20
19.0311846089928
 30
0.0
 70
     8
  0
VERTEX
  5
144B
330
12B2
100
AcDbEntity
  8
0
100
AcDbVertex
100
AcDb2dVertex
 10
18.24641644347284
 20
19.0268294094227
 30
0.0
 70
     8
  0
VERTEX
  5
144C
330
12B2
100
AcDbEntity
  8
0
100
AcDbVertex
100
AcDb2dVertex
 10
18.2667553558697
 20
19.02199440801826
 30
0.0
 70
     8
  0
VERTEX
  5
144D
330
12B2
100
AcDbEntity
  8
0
100
AcDbVertex
100
AcDb2dVertex
 10
18.28473252401609
 20
19.01666891618741
 30
0.0
 70
     8
  0
VERTEX
  5
144E
330
12B2
100
AcDbEntity
  8
0
100
AcDbVertex
100
AcDb2dVertex
 10
18.30043005628901
 20
19.01059623272644
 30
0.0
 70
     8
  0
VERTEX
  5
144F
330
12B2
100
AcDbEntity
  8
0
100
AcDbVertex
100
AcDb2dVertex
 10
18.31402056208801
 20
19.00345815327876
 30
0.0
 70
     8
  0
VERTEX
  5
1450
330
12B2
100
AcDbEntity
  8
0
100
AcDbVertex
100
AcDb2dVertex
 10
18.32567665081266
 20
18.99493647348778
 30
0.0
 70
     8
  0
VERTEX
  5
1451
330
12B2
100
AcDbEntity
  8
0
100
AcDbVertex
100
AcDb2dVertex
 10
18.33557093186253
 20
18.98471298899689
 30
0.0
 70
     8
  0
VERTEX
  5
1452
330
12B2
100
AcDbEntity
  8
0
100
AcDbVertex
100
AcDb2dVertex
 10
18.34387601463719
 20
18.97246949544953
 30
0.0
 70
     8
  0
VERTEX
  5
1453
330
12B2
100
AcDbEntity
  8
0
100
AcDbVertex
100
AcDb2dVertex
 10
18.35076450853622
 20
18.95788778848906
 30
0.0
 70
     8
  0
VERTEX
  5
1454
330
12B2
100
AcDbEntity
  8
0
100
AcDbVertex
100
AcDb2dVertex
 10
18.35640902295918
 20
18.94064966375891
 30
0.0
 70
     8
  0
VERTEX
  5
1455
330
12B2
100
AcDbEntity
  8
0
100
AcDbVertex
100
AcDb2dVertex
 10
18.36091053882232
 20
18.92045576785777
 30
0.0
 70
     8
  0
VERTEX
  5
1456
330
12B2
100
AcDbEntity
  8
0
100
AcDbVertex
100
AcDb2dVertex
 10
18.36408352310867
 20
18.89708215120549
 30
0.0
 70
     8
  0
VERTEX
  5
1457
330
12B2
100
AcDbEntity
  8
0
100
AcDbVertex
100
AcDb2dVertex
 10
18.36567081431788
 20
18.87032371517724
 30
0.0
 70
     8
  0
VERTEX
  5
1458
330
12B2
100
AcDbEntity
  8
0
100
AcDbVertex
100
AcDb2dVertex
 10
18.36541525094965
 20
18.83997536114815
 30
0.0
 70
     8
  0
VERTEX
  5
1459
330
12B2
100
AcDbEntity
  8
0
100
AcDbVertex
100
AcDb2dVertex
 10
18.36305967150366
 20
18.80583199049336
 30
0.0
 70
     8
  0
VERTEX
  5
145A
330
12B2
100
AcDbEntity
  8
0
100
AcDbVertex
100
AcDb2dVertex
 10
18.35834691447961
 20
18.76768850458805
 30
0.0
 70
     8
  0
VERTEX
  5
145B
330
12B2
100
AcDbEntity
  8
0
100
AcDbVertex
100
AcDb2dVertex
 10
18.35101981837717
 20
18.72533980480734
 30
0.0
 70
     8
  0
VERTEX
  5
145C
330
12B2
100
AcDbEntity
  8
0
100
AcDbVertex
100
AcDb2dVertex
 10
18.34082122169602
 20
18.6785807925264
 30
0.0
 70
     8
  0
VERTEX
  5
145D
330
12B2
100
AcDbEntity
  8
0
100
AcDbVertex
100
AcDb2dVertex
 10
18.32763304196017
 20
18.62740287738882
 30
0.0
 70
     8
  0
VERTEX
  5
145E
330
12B2
100
AcDbEntity
  8
0
100
AcDbVertex
100
AcDb2dVertex
 10
18.31189351279084
 20
18.5725835021121
 30
0.0
 70
     8
  0
VERTEX
  5
145F
330
12B2
100
AcDbEntity
  8
0
100
AcDbVertex
100
AcDb2dVertex
 10
18.29417994683356
 20
18.5150966176822
 30
0.0
 70
     8
  0
VERTEX
  5
1460
330
12B2
100
AcDbEntity
  8
0
100
AcDbVertex
100
AcDb2dVertex
 10
18.27506965673385
 20
18.45591617508506
 30
0.0
 70
     8
  0
VERTEX
  5
1461
330
12B2
100
AcDbEntity
  8
0
100
AcDbVertex
100
AcDb2dVertex
 10
18.25513995513727
 20
18.39601612530661
 30
0.0
 70
     8
  0
VERTEX
  5
1462
330
12B2
100
AcDbEntity
  8
0
100
AcDbVertex
100
AcDb2dVertex
 10
18.23496815468933
 20
18.33637041933284
 30
0.0
 70
     8
  0
VERTEX
  5
1463
330
12B2
100
AcDbEntity
  8
0
100
AcDbVertex
100
AcDb2dVertex
 10
18.21513156803557
 20
18.27795300814969
 30
0.0
 70
     8
  0
VERTEX
  5
1464
330
12B2
100
AcDbEntity
  8
0
100
AcDbVertex
100
AcDb2dVertex
 10
18.19620750782152
 20
18.22173784274311
 30
0.0
 70
     8
  0
VERTEX
  5
1465
330
12B2
100
AcDbEntity
  8
0
100
AcDbVertex
100
AcDb2dVertex
 10
18.17867810252894
 20
18.16850759922805
 30
0.0
 70
     8
  0
VERTEX
  5
1466
330
12B2
100
AcDbEntity
  8
0
100
AcDbVertex
100
AcDb2dVertex
 10
18.16264474398446
 20
18.11827985423551
 30
0.0
 70
     8
  0
VERTEX
  5
1467
330
12B2
100
AcDbEntity
  8
0
100
AcDbVertex
100
AcDb2dVertex
 10
18.14811363985094
 20
18.0708809095255
 30
0.0
 70
     8
  0
VERTEX
  5
1468
330
12B2
100
AcDbEntity
  8
0
100
AcDbVertex
100
AcDb2dVertex
 10
18.13509099779122
 20
18.02613706685803
 30
0.0
 70
     8
  0
VERTEX
  5
1469
330
12B2
100
AcDbEntity
  8
0
100
AcDbVertex
100
AcDb2dVertex
 10
18.12358302546818
 20
17.98387462799309
 30
0.0
 70
     8
  0
VERTEX
  5
146A
330
12B2
100
AcDbEntity
  8
0
100
AcDbVertex
100
AcDb2dVertex
 10
18.11359593054466
 20
17.94391989469071
 30
0.0
 70
     8
  0
VERTEX
  5
146B
330
12B2
100
AcDbEntity
  8
0
100
AcDbVertex
100
AcDb2dVertex
 10
18.10513592068351
 20
17.90609916871088
 30
0.0
 70
     8
  0
VERTEX
  5
146C
330
12B2
100
AcDbEntity
  8
0
100
AcDbVertex
100
AcDb2dVertex
 10
18.0982092035476
 20
17.8702387518136
 30
0.0
 70
     8
  0
VERTEX
  5
146D
330
12B2
100
AcDbEntity
  8
0
100
AcDbVertex
100
AcDb2dVertex
 10
18.09280750225311
 20
17.83617942061222
 30
0.0
 70
     8
  0
VERTEX
  5
146E
330
12B2
100
AcDbEntity
  8
0
100
AcDbVertex
100
AcDb2dVertex
 10
18.08886460172959
 20
17.80381985113341
 30
0.0
 70
     8
  0
VERTEX
  5
146F
330
12B2
100
AcDbEntity
  8
0
100
AcDbVertex
100
AcDb2dVertex
 10
18.08629980235992
 20
17.77307319425717
 30
0.0
 70
     8
  0
VERTEX
  5
1470
330
12B2
100
AcDbEntity
  8
0
100
AcDbVertex
100
AcDb2dVertex
 10
18.08503240452698
 20
17.74385260086349
 30
0.0
 70
     8
  0
VERTEX
  5
1471
330
12B2
100
AcDbEntity
  8
0
100
AcDbVertex
100
AcDb2dVertex
 10
18.08498170861367
 20
17.7160712218324
 30
0.0
 70
     8
  0
VERTEX
  5
1472
330
12B2
100
AcDbEntity
  8
0
100
AcDbVertex
100
AcDb2dVertex
 10
18.08606701500284
 20
17.68964220804388
 30
0.0
 70
     8
  0
VERTEX
  5
1473
330
12B2
100
AcDbEntity
  8
0
100
AcDbVertex
100
AcDb2dVertex
 10
18.08820762407741
 20
17.66447871037793
 30
0.0
 70
     8
  0
VERTEX
  5
1474
330
12B2
100
AcDbEntity
  8
0
100
AcDbVertex
100
AcDb2dVertex
 10
18.09132283622024
 20
17.64049387971459
 30
0.0
 70
     8
  0
VERTEX
  5
1475
330
12B2
100
AcDbEntity
  8
0
100
AcDbVertex
100
AcDb2dVertex
 10
18.09533815947707
 20
17.61762361308516
 30
0.0
 70
     8
  0
VERTEX
  5
1476
330
12B2
100
AcDbEntity
  8
0
100
AcDbVertex
100
AcDb2dVertex
 10
18.10020393254506
 20
17.59589479212635
 30
0.0
 70
     8
  0
VERTEX
  5
1477
330
12B2
100
AcDbEntity
  8
0
100
AcDbVertex
100
AcDb2dVertex
 10
18.10587670178422
 20
17.57535704462618
 30
0.0
 70
     8
  0
VERTEX
  5
1478
330
12B2
100
AcDbEntity
  8
0
100
AcDbVertex
100
AcDb2dVertex
 10
18.11231301355459
 20
17.5560599983727
 30
0.0
 70
     8
  0
VERTEX
  5
1479
330
12B2
100
AcDbEntity
  8
0
100
AcDbVertex
100
AcDb2dVertex
 10
18.11946941421614
 20
17.53805328115393
 30
0.0
 70
     8
  0
VERTEX
  5
147A
330
12B2
100
AcDbEntity
  8
0
100
AcDbVertex
100
AcDb2dVertex
 10
18.12730245012891
 20
17.5213865207579
 30
0.0
 70
     8
  0
VERTEX
  5
147B
330
12B2
100
AcDbEntity
  8
0
100
AcDbVertex
100
AcDb2dVertex
 10
18.13576866765292
 20
17.50610934497263
 30
0.0
 70
     8
  0
VERTEX
  5
147C
330
12B2
100
AcDbEntity
  8
0
100
AcDbVertex
100
AcDb2dVertex
 10
18.14482461314816
 20
17.49227138158618
 30
0.0
 70
     8
  0
VERTEX
  5
147D
330
12B2
100
AcDbEntity
  8
0
100
AcDbVertex
100
AcDb2dVertex
 10
18.15441234842801
 20
17.47990468191921
 30
0.0
 70
     8
  0
VERTEX
  5
147E
330
12B2
100
AcDbEntity
  8
0
100
AcDbVertex
100
AcDb2dVertex
 10
18.16441599711914
 20
17.46897099142301
 30
0.0
 70
     8
  0
VERTEX
  5
147F
330
12B2
100
AcDbEntity
  8
0
100
AcDbVertex
100
AcDb2dVertex
 10
18.17470519830162
 20
17.45941447908153
 30
0.0
 70
     8
  0
VERTEX
  5
1480
330
12B2
100
AcDbEntity
  8
0
100
AcDbVertex
100
AcDb2dVertex
 10
18.18514959105548
 20
17.45117931387868
 30
0.0
 70
     8
  0
VERTEX
  5
1481
330
12B2
100
AcDbEntity
  8
0
100
AcDbVertex
100
AcDb2dVertex
 10
18.19561881446076
 20
17.44420966479841
 30
0.0
 70
     8
  0
VERTEX
  5
1482
330
12B2
100
AcDbEntity
  8
0
100
AcDbVertex
100
AcDb2dVertex
 10
18.2059825075975
 20
17.43844970082466
 30
0.0
 70
     8
  0
VERTEX
  5
1483
330
12B2
100
AcDbEntity
  8
0
100
AcDbVertex
100
AcDb2dVertex
 10
18.21611030954574
 20
17.43384359094138
 30
0.0
 70
     8
  0
VERTEX
  5
1484
330
12B2
100
AcDbEntity
  8
0
100
AcDbVertex
100
AcDb2dVertex
 10
18.22587185938553
 20
17.43033550413248
 30
0.0
 70
     8
  0
VERTEX
  5
1485
330
12B2
100
AcDbEntity
  8
0
100
AcDbVertex
100
AcDb2dVertex
 10
18.23515922289006
 20
17.42788048965993
 30
0.0
 70
     8
  0
VERTEX
  5
1486
330
12B2
100
AcDbEntity
  8
0
100
AcDbVertex
100
AcDb2dVertex
 10
18.24395417260513
 20
17.42647711789783
 30
0.0
 70
     8
  0
VERTEX
  5
1487
330
12B2
100
AcDbEntity
  8
0
100
AcDbVertex
100
AcDb2dVertex
 10
18.25226090776973
 20
17.42613483949827
 30
0.0
 70
     8
  0
VERTEX
  5
1488
330
12B2
100
AcDbEntity
  8
0
100
AcDbVertex
100
AcDb2dVertex
 10
18.2600836276228
 20
17.42686310511336
 30
0.0
 70
     8
  0
VERTEX
  5
1489
330
12B2
100
AcDbEntity
  8
0
100
AcDbVertex
100
AcDb2dVertex
 10
18.26742653140333
 20
17.42867136539523
 30
0.0
 70
     8
  0
VERTEX
  5
148A
330
12B2
100
AcDbEntity
  8
0
100
AcDbVertex
100
AcDb2dVertex
 10
18.27429381835026
 20
17.43156907099597
 30
0.0
 70
     8
  0
VERTEX
  5
148B
330
12B2
100
AcDbEntity
  8
0
100
AcDbVertex
100
AcDb2dVertex
 10
18.28068968770258
 20
17.4355656725677
 30
0.0
 70
     8
  0
VERTEX
  5
148C
330
12B2
100
AcDbEntity
  8
0
100
AcDbVertex
100
AcDb2dVertex
 10
18.28661833869925
 20
17.44067062076252
 30
0.0
 70
     8
  0
VERTEX
  5
148D
330
12B2
100
AcDbEntity
  8
0
100
AcDbVertex
100
AcDb2dVertex
 10
18.29212816067665
 20
17.44706475960441
 30
0.0
 70
     8
  0
VERTEX
  5
148E
330
12B2
100
AcDbEntity
  8
0
100
AcDbVertex
100
AcDb2dVertex
 10
18.29744430336088
 20
17.4556145066048
 30
0.0
 70
     8
  0
VERTEX
  5
148F
330
12B2
100
AcDbEntity
  8
0
100
AcDbVertex
100
AcDb2dVertex
 10
18.30283610657548
 20
17.46735767264698
 30
0.0
 70
     8
  0
VERTEX
  5
1490
330
12B2
100
AcDbEntity
  8
0
100
AcDbVertex
100
AcDb2dVertex
 10
18.30857291014396
 20
17.48333206861424
 30
0.0
 70
     8
  0
VERTEX
  5
1491
330
12B2
100
AcDbEntity
  8
0
100
AcDbVertex
100
AcDb2dVertex
 10
18.31492405388984
 20
17.50457550538988
 30
0.0
 70
     8
  0
VERTEX
  5
1492
330
12B2
100
AcDbEntity
  8
0
100
AcDbVertex
100
AcDb2dVertex
 10
18.32215887763664
 20
17.53212579385718
 30
0.0
 70
     8
  0
VERTEX
  5
1493
330
12B2
100
AcDbEntity
  8
0
100
AcDbVertex
100
AcDb2dVertex
 10
18.3305467212079
 20
17.56702074489945
 30
0.0
 70
     8
  0
VERTEX
  5
1494
330
12B2
100
AcDbEntity
  8
0
100
AcDbVertex
100
AcDb2dVertex
 10
18.34035692442714
 20
17.61029816939997
 30
0.0
 70
     8
  0
VERTEX
  5
1495
330
12B2
100
AcDbEntity
  8
0
100
AcDbVertex
100
AcDb2dVertex
 10
18.35183439191246
 20
17.66260578085199
 30
0.0
 70
     8
  0
VERTEX
  5
1496
330
12B2
100
AcDbEntity
  8
0
100
AcDbVertex
100
AcDb2dVertex
 10
18.36512628746033
 20
17.72303090318851
 30
0.0
 70
     8
  0
VERTEX
  5
1497
330
12B2
100
AcDbEntity
  8
0
100
AcDbVertex
100
AcDb2dVertex
 10
18.38035533966182
 20
17.79027076295253
 30
0.0
 70
     8
  0
VERTEX
  5
1498
330
12B2
100
AcDbEntity
  8
0
100
AcDbVertex
100
AcDb2dVertex
 10
18.39764427710796
 20
17.86302258668699
 30
0.0
 70
     8
  0
VERTEX
  5
1499
330
12B2
100
AcDbEntity
  8
0
100
AcDbVertex
100
AcDb2dVertex
 10
18.41711582838982
 20
17.93998360093487
 30
0.0
 70
     8
  0
VERTEX
  5
149A
330
12B2
100
AcDbEntity
  8
0
100
AcDbVertex
100
AcDb2dVertex
 10
18.43889272209846
 20
18.01985103223914
 30
0.0
 70
     8
  0
VERTEX
  5
149B
330
12B2
100
AcDbEntity
  8
0
100
AcDbVertex
100
AcDb2dVertex
 10
18.46309768682493
 20
18.10132210714278
 30
0.0
 70
     8
  0
VERTEX
  5
149C
330
12B2
100
AcDbEntity
  8
0
100
AcDbVertex
100
AcDb2dVertex
 10
18.46133581702758
 20
18.19378102087893
 30
0.0
 70
    16
  0
VERTEX
  5
149D
330
12B2
100
AcDbEntity
  8
0
100
AcDbVertex
100
AcDb2dVertex
 10
18.77146530878692
 20
18.81362509319322
 30
0.0
 70
    16
  0
VERTEX
  5
149E
330
12B2
100
AcDbEntity
  8
0
100
AcDbVertex
100
AcDb2dVertex
 10
19.01743002194797
 20
19.28385165970326
 30
0.0
 70
    16
  0
VERTEX
  5
149F
330
12B2
100
AcDbEntity
  8
0
100
AcDbVertex
100
AcDb2dVertex
 10
19.06020654101352
 20
19.78613904849625
 30
0.0
 70
    16
  0
VERTEX
  5
14A0
330
12B2
100
AcDbEntity
  8
0
100
AcDbVertex
100
AcDb2dVertex
 10
18.97465350288235
 20
20.18155686210413
 30
0.0
 70
    16
  0
VERTEX
  5
14A1
330
12B2
100
AcDbEntity
  8
0
100
AcDbVertex
100
AcDb2dVertex
 10
18.94257138504915
 20
20.47010493295168
 30
0.0
 70
    16
  0
VERTEX
  5
14A2
330
12B2
100
AcDbEntity
  8
0
100
AcDbVertex
100
AcDb2dVertex
 10
19.03881828148072
 20
20.7159050731801
 30
0.0
 70
    16
  0
VERTEX
  5
14A3
330
12B2
100
AcDbEntity
  8
0
100
AcDbVertex
100
AcDb2dVertex
 10
19.37033603277287
 20
20.83346175670139
 30
0.0
 70
    16
  0
VERTEX
  5
14A4
330
12B2
100
AcDbEntity
  8
0
100
AcDbVertex
100
AcDb2dVertex
 10
19.85157160079445
 20
20.75865300379926
 30
0.0
 70
    16
  0
VERTEX
  5
14A5
330
12B2
100
AcDbEntity
  8
0
100
AcDbVertex
100
AcDb2dVertex
 10
20.29003064975046
 20
20.73727912227729
 30
0.0
 70
    16
  0
VERTEX
  5
14A6
330
12B2
100
AcDbEntity
  8
0
100
AcDbVertex
100
AcDb2dVertex
 10
20.71779556894007
 20
20.79071382608223
 30
0.0
 70
    16
  0
VERTEX
  5
14A7
330
12B2
100
AcDbEntity
  8
0
100
AcDbVertex
100
AcDb2dVertex
 10
20.95306615233471
 20
20.98307926250568
 30
0.0
 70
    16
  0
VERTEX
  5
14A8
330
12B2
100
AcDbEntity
  8
0
100
AcDbVertex
100
AcDb2dVertex
 10
21.27388977386046
 20
21.23956651107028
 30
0.0
 70
    16
  0
VERTEX
  5
14A9
330
12B2
100
AcDbEntity
  8
0
100
AcDbVertex
100
AcDb2dVertex
 10
21.62679578468537
 20
21.47467971053769
 30
0.0
 70
    16
  0
VERTEX
  5
14AA
330
12B2
100
AcDbEntity
  8
0
100
AcDbVertex
100
AcDb2dVertex
 10
21.94761940621112
 20
21.50674070039586
 30
0.0
 70
    16
  0
VERTEX
  5
14AB
330
12B2
100
AcDbEntity
  8
0
100
AcDbVertex
100
AcDb2dVertex
 10
22.39677258493348
 20
21.51742764115685
 30
0.0
 70
    16
  0
VERTEX
  5
14AC
330
12B2
100
AcDbEntity
  8
0
100
AcDbVertex
100
AcDb2dVertex
 10
22.48232562306465
 20
21.64567126543915
 30
0.0
 70
    16
  0
VERTEX
  5
14AD
330
12B2
100
AcDbEntity
  8
0
100
AcDbVertex
100
AcDb2dVertex
 10
22.37538432540073
 20
21.77391488972145
 30
0.0
 70
    16
  0
VERTEX
  5
14AE
330
12B2
100
AcDbEntity
  8
0
100
AcDbVertex
100
AcDb2dVertex
 10
21.97970179551027
 20
21.8380365342874
 30
0.0
 70
    16
  0
VERTEX
  5
14AF
330
12B2
100
AcDbEntity
  8
0
100
AcDbVertex
100
AcDb2dVertex
 10
21.60540752515256
 20
21.78460183048243
 30
0.0
 70
    16
  0
VERTEX
  5
14B0
330
12B2
100
AcDbEntity
  8
0
100
AcDbVertex
100
AcDb2dVertex
 10
21.2097249952621
 20
21.54948846343982
 30
0.0
 70
    16
  0
VERTEX
  5
14B1
330
12B2
100
AcDbEntity
  8
0
100
AcDbVertex
100
AcDb2dVertex
 10
20.95306615233471
 20
21.49605375963488
 30
0.0
 70
    16
  0
VERTEX
  5
14B2
330
12B2
100
AcDbEntity
  8
0
100
AcDbVertex
100
AcDb2dVertex
 10
20.85681898443719
 20
21.52811458191783
 30
0.0
 70
    16
  0
VERTEX
  5
14B3
330
12B2
100
AcDbEntity
  8
0
100
AcDbVertex
100
AcDb2dVertex
 10
20.85681898443719
 20
21.73116695910229
 30
0.0
 70
    16
  0
VERTEX
  5
14B4
330
12B2
100
AcDbEntity
  8
0
100
AcDbVertex
100
AcDb2dVertex
 10
20.83543072490444
 20
21.94490627704771
 30
0.0
 70
    16
  0
VERTEX
  5
14B5
330
12B2
100
AcDbEntity
  8
0
100
AcDbVertex
100
AcDb2dVertex
 10
20.78196007607249
 20
22.11589766437397
 30
0.0
 70
    16
  0
VERTEX
  5
14B6
330
12B2
100
AcDbEntity
  8
0
100
AcDbVertex
100
AcDb2dVertex
 10
20.73081100407362
 20
22.16452011118025
 30
0.0
 70
    16
  0
VERTEX
  5
14B7
330
12B2
100
AcDbEntity
  8
0
100
AcDbVertex
100
AcDb2dVertex
 10
20.64883805893531
 20
21.9694771582222
 30
0.0
 70
    16
  0
VERTEX
  5
14B8
330
12B2
100
AcDbEntity
  8
0
100
AcDbVertex
100
AcDb2dVertex
 10
20.50440975630691
 20
21.50917590319229
 30
0.0
 70
    16
  0
VERTEX
  5
14B9
330
12B2
100
AcDbEntity
  8
0
100
AcDbVertex
100
AcDb2dVertex
 10
20.12577311655943
 20
21.1502968563434
 30
0.0
 70
    16
  0
VERTEX
  5
14BA
330
12B2
100
AcDbEntity
  8
0
100
AcDbVertex
100
AcDb2dVertex
 10
19.7783642912899
 20
21.0176676215199
 30
0.0
 70
    16
  0
VERTEX
  5
14BB
330
12B2
100
AcDbEntity
  8
0
100
AcDbVertex
100
AcDb2dVertex
 10
19.52073522904523
 20
21.04887448058718
 30
0.0
 70
    16
  0
VERTEX
  5
14BC
330
12B2
100
AcDbEntity
  8
0
100
AcDbVertex
100
AcDb2dVertex
 10
19.34507911193883
 20
21.13079261132017
 30
0.0
 70
    16
  0
VERTEX
  5
14BD
330
12B2
100
AcDbEntity
  8
0
100
AcDbVertex
100
AcDb2dVertex
 10
19.2748166650963
 20
21.28682690665654
 30
0.0
 70
    16
  0
VERTEX
  5
14BE
330
12B2
100
AcDbEntity
  8
0
100
AcDbVertex
100
AcDb2dVertex
 10
19.18503663060548
 20
21.6457059535054
 30
0.0
 70
    16
  0
VERTEX
  5
14BF
330
12B2
100
AcDbEntity
  8
0
100
AcDbVertex
100
AcDb2dVertex
 10
18.95082856495233
 20
21.87195576553076
 30
0.0
 70
    16
  0
VERTEX
  5
14C0
330
12B2
100
AcDbEntity
  8
0
100
AcDbVertex
100
AcDb2dVertex
 10
18.48631557112319
 20
22.00458483277906
 30
0.0
 70
    16
  0
VERTEX
  5
14C1
330
12B2
100
AcDbEntity
  8
0
100
AcDbVertex
100
AcDb2dVertex
 10
18.08035479730692
 20
21.8446497219531
 30
0.0
 70
    16
  0
VERTEX
  5
14C2
330
12B2
100
AcDbEntity
  8
0
100
AcDbVertex
100
AcDb2dVertex
 10
17.8227257350622
 20
21.48577067510421
 30
0.0
 70
    16
  0
VERTEX
  5
14C3
330
12B2
100
AcDbEntity
  8
0
100
AcDbVertex
100
AcDb2dVertex
 10
17.81882205465303
 20
21.02156843700951
 30
0.0
 70
    16
  0
VERTEX
  5
14C4
330
12B2
100
AcDbEntity
  8
0
100
AcDbVertex
100
AcDb2dVertex
 10
18.13109992796716
 20
20.6470861282022
 30
0.0
 70
    16
  0
VERTEX
  5
14C5
330
12B2
100
AcDbEntity
  8
0
100
AcDbVertex
100
AcDb2dVertex
 10
18.49021898006647
 20
20.53786212146675
 30
0.0
 70
    16
  0
VERTEX
  5
14C6
330
12B2
100
AcDbEntity
  8
0
100
AcDbVertex
100
AcDb2dVertex
 10
18.62684046480831
 20
20.46374578928816
 30
0.0
 70
    16
  0
VERTEX
  5
14C7
330
12B2
100
AcDbEntity
  8
0
100
AcDbVertex
100
AcDb2dVertex
 10
18.75070332120852
 20
20.16433985097629
 30
0.0
 70
    16
  0
VERTEX
  5
14C8
330
12B2
100
AcDbEntity
  8
0
100
AcDbVertex
100
AcDb2dVertex
 10
18.70908596176377
 20
19.82271200059593
 30
0.0
 70
    16
  0
VERTEX
  5
14C9
330
12B2
100
AcDbEntity
  8
0
100
AcDbVertex
100
AcDb2dVertex
 10
18.43560057318377
 20
19.51079070852337
 30
0.0
 70
    16
  0
VERTEX
  5
14CA
330
12B2
100
AcDbEntity
  8
0
100
AcDbVertex
100
AcDb2dVertex
 10
18.08185328936943
 20
19.30284329219179
 30
0.0
 70
    16
  0
VERTEX
  5
14CB
330
12B2
100
AcDbEntity
  8
0
100
AcDbVertex
100
AcDb2dVertex
 10
17.83214913270098
 20
19.21075234140929
 30
0.0
 70
    16
  0
VERTEX
  5
14CC
330
12B2
100
AcDbEntity
  8
0
100
AcDbVertex
100
AcDb2dVertex
 10
17.74891468527743
 20
19.10083725455186
 30
0.0
 70
    16
  0
VERTEX
  5
14CD
330
12B2
100
AcDbEntity
  8
0
100
AcDbVertex
100
AcDb2dVertex
 10
17.8618760119229
 20
19.02657027226911
 30
0.0
 70
    16
  0
VERTEX
  5
14CE
330
12B2
100
AcDbEntity
  8
0
100
AcDbVertex
100
AcDb2dVertex
 10
18.06104460964703
 20
19.0533063925939
 30
0.0
 70
    16
  0
VERTEX
  5
14CF
330
12B2
100
AcDbEntity
  8
0
100
AcDbVertex
100
AcDb2dVertex
 10
18.29291263878233
 20
19.02657027226911
 30
0.0
 70
    16
  0
VERTEX
  5
14D0
330
12B2
100
AcDbEntity
  8
0
100
AcDbVertex
100
AcDb2dVertex
 10
18.3678369704418
 20
18.97237896643924
 30
0.0
 70
    16
  0
VERTEX
  5
14D1
330
12B2
100
AcDbEntity
  8
0
100
AcDbVertex
100
AcDb2dVertex
 10
18.37419361720553
 20
18.72781184452738
 30
0.0
 70
    16
  0
VERTEX
  5
14D2
330
12B2
100
AcDbEntity
  8
0
100
AcDbVertex
100
AcDb2dVertex
 10
18.18031589091222
 20
18.18785841060958
 30
0.0
 70
    16
  0
VERTEX
  5
14D3
330
12B2
100
AcDbEntity
  8
0
100
AcDbVertex
100
AcDb2dVertex
 10
18.08178786607467
 20
17.85118156949292
 30
0.0
 70
    16
  0
VERTEX
  5
14D4
330
12B2
100
AcDbEntity
  8
0
100
AcDbVertex
100
AcDb2dVertex
 10
18.08178786607467
 20
17.62884782230033
 30
0.0
 70
    16
  0
VERTEX
  5
14D5
330
12B2
100
AcDbEntity
  8
0
100
AcDbVertex
100
AcDb2dVertex
 10
18.13899768694809
 20
17.47639041959328
 30
0.0
 70
    16
  0
VERTEX
  5
14D6
330
12B2
100
AcDbEntity
  8
0
100
AcDbVertex
100
AcDb2dVertex
 10
18.23116906502196
 20
17.41921878884364
 30
0.0
 70
    16
  0
VERTEX
  5
14D7
330
12B2
100
AcDbEntity
  8
0
100
AcDbVertex
100
AcDb2dVertex
 10
18.29155720927725
 20
17.428747449827
 30
0.0
 70
    16
  0
SEQEND
  5
14D8
330
12B2
100
AcDbEntity
  8
0
  0
POLYLINE
  5
14DB
330
18
100
AcDbEntity
  8
0
100
AcDb2dPolyline
 66
     1
 10
0.0
 20
0.0
 30
0.0
 70
     5
 75
     6
  0
VERTEX
  5
14DC
330
14DB
100
AcDbEntity
  8
0
100
AcDbVertex
100
AcDb2dVertex
 10
25.17251548702573
 20
22.71296541832323
 30
0.0
 70
    16
  0
VERTEX
  5
14DD
330
14DB
100
AcDbEntity
  8
0
100
AcDbVertex
100
AcDb2dVertex
 10
23.82998418901999
 20
22.70324982720507
 30
0.0
 70
     8
  0
VERTEX
  5
14DE
330
14DB
100
AcDbEntity
  8
0
100
AcDbVertex
100
AcDb2dVertex
 10
23.72919525486457
 20
22.69598384375
 30
0.0
 70
     8
  0
VERTEX
  5
14DF
330
14DB
100
AcDbEntity
  8
0
100
AcDbVertex
100
AcDb2dVertex
 10
23.64726702331469
 20
22.68668918151294
 30
0.0
 70
     8
  0
VERTEX
  5
14E0
330
14DB
100
AcDbEntity
  8
0
100
AcDbVertex
100
AcDb2dVertex
 10
23.58176552108885
 20
22.67524163552355
 30
0.0
 70
     8
  0
VERTEX
  5
14E1
330
14DB
100
AcDbEntity
  8
0
100
AcDbVertex
100
AcDb2dVertex
 10
23.53025677490555
 20
22.66151700081149
 30
0.0
 70
     8
  0
VERTEX
  5
14E2
330
14DB
100
AcDbEntity
  8
0
100
AcDbVertex
100
AcDb2dVertex
 10
23.49030681148331
 20
22.64539107240644
 30
0.0
 70
     8
  0
VERTEX
  5
14E3
330
14DB
100
AcDbEntity
  8
0
100
AcDbVertex
100
AcDb2dVertex
 10
23.45948165754066
 20
22.62673964533806
 30
0.0
 70
     8
  0
VERTEX
  5
14E4
330
14DB
100
AcDbEntity
  8
0
100
AcDbVertex
100
AcDb2dVertex
 10
23.43534733979609
 20
22.60543851463599
 30
0.0
 70
     8
  0
VERTEX
  5
14E5
330
14DB
100
AcDbEntity
  8
0
100
AcDbVertex
100
AcDb2dVertex
 10
23.41546988496814
 20
22.58136347532992
 30
0.0
 70
     8
  0
VERTEX
  5
14E6
330
14DB
100
AcDbEntity
  8
0
100
AcDbVertex
100
AcDb2dVertex
 10
23.3978278869622
 20
22.55446795051505
 30
0.0
 70
     8
  0
VERTEX
  5
14E7
330
14DB
100
AcDbEntity
  8
0
100
AcDbVertex
100
AcDb2dVertex
 10
23.38205020843148
 20
22.52501587554879
 30
0.0
 70
     8
  0
VERTEX
  5
14E8
330
14DB
100
AcDbEntity
  8
0
100
AcDbVertex
100
AcDb2dVertex
 10
23.36817827921607
 20
22.49334881385409
 30
0.0
 70
     8
  0
VERTEX
  5
14E9
330
14DB
100
AcDbEntity
  8
0
100
AcDbVertex
100
AcDb2dVertex
 10
23.35625352915604
 20
22.4598083288539
 30
0.0
 70
     8
  0
VERTEX
  5
14EA
330
14DB
100
AcDbEntity
  8
0
100
AcDbVertex
100
AcDb2dVertex
 10
23.34631738809152
 20
22.42473598397118
 30
0.0
 70
     8
  0
VERTEX
  5
14EB
330
14DB
100
AcDbEntity
  8
0
100
AcDbVertex
100
AcDb2dVertex
 10
23.33841128586257
 20
22.38847334262889
 30
0.0
 70
     8
  0
VERTEX
  5
14EC
330
14DB
100
AcDbEntity
  8
0
100
AcDbVertex
100
AcDb2dVertex
 10
23.33257665230931
 20
22.35136196824996
 30
0.0
 70
     8
  0
VERTEX
  5
14ED
330
14DB
100
AcDbEntity
  8
0
100
AcDbVertex
100
AcDb2dVertex
 10
23.32885491727183
 20
22.31374342425736
 30
0.0
 70
     8
  0
VERTEX
  5
14EE
330
14DB
100
AcDbEntity
  8
0
100
AcDbVertex
100
AcDb2dVertex
 10
23.32726506949313
 20
22.27592994792322
 30
0.0
 70
     8
  0
VERTEX
  5
14EF
330
14DB
100
AcDbEntity
  8
0
100
AcDbVertex
100
AcDb2dVertex
 10
23.32773633332773
 20
22.23811647191636
 30
0.0
 70
     8
  0
VERTEX
  5
14F0
330
14DB
100
AcDbEntity
  8
0
100
AcDbVertex
100
AcDb2dVertex
 10
23.3301754920331
 20
22.20046860275483
 30
0.0
 70
     8
  0
VERTEX
  5
14F1
330
14DB
100
AcDbEntity
  8
0
100
AcDbVertex
100
AcDb2dVertex
 10
23.33448932886665
 20
22.16315194695662
 30
0.0
 70
     8
  0
VERTEX
  5
14F2
330
14DB
100
AcDbEntity
  8
0
100
AcDbVertex
100
AcDb2dVertex
 10
23.34058462708585
 20
22.12633211103976
 30
0.0
 70
     8
  0
VERTEX
  5
14F3
330
14DB
100
AcDbEntity
  8
0
100
AcDbVertex
100
AcDb2dVertex
 10
23.34836816994811
 20
22.09017470152225
 30
0.0
 70
     8
  0
VERTEX
  5
14F4
330
14DB
100
AcDbEntity
  8
0
100
AcDbVertex
100
AcDb2dVertex
 10
23.3577467407109
 20
22.05484532492213
 30
0.0
 70
     8
  0
VERTEX
  5
14F5
330
14DB
100
AcDbEntity
  8
0
100
AcDbVertex
100
AcDb2dVertex
 10
23.36862712263163
 20
22.02050958775739
 30
0.0
 70
     8
  0
VERTEX
  5
14F6
330
14DB
100
AcDbEntity
  8
0
100
AcDbVertex
100
AcDb2dVertex
 10
23.38093336144532
 20
21.98733137142704
 30
0.0
 70
     8
  0
VERTEX
  5
14F7
330
14DB
100
AcDbEntity
  8
0
100
AcDbVertex
100
AcDb2dVertex
 10
23.39465855279719
 20
21.9554676568539
 30
0.0
 70
     8
  0
VERTEX
  5
14F8
330
14DB
100
AcDbEntity
  8
0
100
AcDbVertex
100
AcDb2dVertex
 10
23.40981305481
 20
21.92507369984177
 30
0.0
 70
     8
  0
VERTEX
  5
14F9
330
14DB
100
AcDbEntity
  8
0
100
AcDbVertex
100
AcDb2dVertex
 10
23.42640722560657
 20
21.89630475619445
 30
0.0
 70
     8
  0
VERTEX
  5
14FA
330
14DB
100
AcDbEntity
  8
0
100
AcDbVertex
100
AcDb2dVertex
 10
23.44445142330966
 20
21.86931608171574
 30
0.0
 70
     8
  0
VERTEX
  5
14FB
330
14DB
100
AcDbEntity
  8
0
100
AcDbVertex
100
AcDb2dVertex
 10
23.46395600604207
 20
21.84426293220945
 30
0.0
 70
     8
  0
VERTEX
  5
14FC
330
14DB
100
AcDbEntity
  8
0
100
AcDbVertex
100
AcDb2dVertex
 10
23.48493133192654
 20
21.82130056347938
 30
0.0
 70
     8
  0
VERTEX
  5
14FD
330
14DB
100
AcDbEntity
  8
0
100
AcDbVertex
100
AcDb2dVertex
 10
23.50738775908591
 20
21.80058423132933
 30
0.0
 70
     8
  0
VERTEX
  5
14FE
330
14DB
100
AcDbEntity
  8
0
100
AcDbVertex
100
AcDb2dVertex
 10
23.53131147828039
 20
21.78223986552138
 30
0.0
 70
     8
  0
VERTEX
  5
14FF
330
14DB
100
AcDbEntity
  8
0
100
AcDbVertex
100
AcDb2dVertex
 10
23.55659201082006
 20
21.76627609165068
 30
0.0
 70
     8
  0
VERTEX
  5
1500
330
14DB
100
AcDbEntity
  8
0
100
AcDbVertex
100
AcDb2dVertex
 10
23.5830947106525
 20
21.75267220927073
 30
0.0
 70
     8
  0
VERTEX
  5
1501
330
14DB
100
AcDbEntity
  8
0
100
AcDbVertex
100
AcDb2dVertex
 10
23.61068493172523
 20
21.74140751793497
 30
0.0
 70
     8
  0
VERTEX
  5
1502
330
14DB
100
AcDbEntity
  8
0
100
AcDbVertex
100
AcDb2dVertex
 10
23.63922802798584
 20
21.73246131719683
 30
0.0
 70
     8
  0
VERTEX
  5
1503
330
14DB
100
AcDbEntity
  8
0
100
AcDbVertex
100
AcDb2dVertex
 10
23.66858935338185
 20
21.72581290660979
 30
0.0
 70
     8
  0
VERTEX
  5
1504
330
14DB
100
AcDbEntity
  8
0
100
AcDbVertex
100
AcDb2dVertex
 10
23.69863426186081
 20
21.72144158572731
 30
0.0
 70
     8
  0
VERTEX
  5
1505
330
14DB
100
AcDbEntity
  8
0
100
AcDbVertex
100
AcDb2dVertex
 10
23.72922810737029
 20
21.71932665410283
 30
0.0
 70
     8
  0
VERTEX
  5
1506
330
14DB
100
AcDbEntity
  8
0
100
AcDbVertex
100
AcDb2dVertex
 10
23.76025523242407
 20
21.71944223593269
 30
0.0
 70
     8
  0
VERTEX
  5
1507
330
14DB
100
AcDbEntity
  8
0
100
AcDbVertex
100
AcDb2dVertex
 10
23.79167593380098
 20
21.72174175398483
 30
0.0
 70
     8
  0
VERTEX
  5
1508
330
14DB
100
AcDbEntity
  8
0
100
AcDbVertex
100
AcDb2dVertex
 10
23.82346949684606
 20
21.72617345567005
 30
0.0
 70
     8
  0
VERTEX
  5
1509
330
14DB
100
AcDbEntity
  8
0
100
AcDbVertex
100
AcDb2dVertex
 10
23.85561520690437
 20
21.73268558839915
 30
0.0
 70
     8
  0
VERTEX
  5
150A
330
14DB
100
AcDbEntity
  8
0
100
AcDbVertex
100
AcDb2dVertex
 10
23.88809234932095
 20
21.74122639958296
 30
0.0
 70
     8
  0
VERTEX
  5
150B
330
14DB
100
AcDbEntity
  8
0
100
AcDbVertex
100
AcDb2dVertex
 10
23.92088020944088
 20
21.75174413663226
 30
0.0
 70
     8
  0
VERTEX
  5
150C
330
14DB
100
AcDbEntity
  8
0
100
AcDbVertex
100
AcDb2dVertex
 10
23.95395807260921
 20
21.76418704695788
 30
0.0
 70
     8
  0
VERTEX
  5
150D
330
14DB
100
AcDbEntity
  8
0
100
AcDbVertex
100
AcDb2dVertex
 10
23.98730522417097
 20
21.77850337797064
 30
0.0
 70
     8
  0
VERTEX
  5
150E
330
14DB
100
AcDbEntity
  8
0
100
AcDbVertex
100
AcDb2dVertex
 10
24.02091648559502
 20
21.79460170076176
 30
0.0
 70
     8
  0
VERTEX
  5
150F
330
14DB
100
AcDbEntity
  8
0
100
AcDbVertex
100
AcDb2dVertex
 10
24.05484882284517
 20
21.81223188114437
 30
0.0
 70
     8
  0
VERTEX
  5
1510
330
14DB
100
AcDbEntity
  8
0
100
AcDbVertex
100
AcDb2dVertex
 10
24.08917473800907
 20
21.83110410861196
 30
0.0
 70
     8
  0
VERTEX
  5
1511
330
14DB
100
AcDbEntity
  8
0
100
AcDbVertex
100
AcDb2dVertex
 10
24.12396673317432
 20
21.85092857265809
 30
0.0
 70
     8
  0
VERTEX
  5
1512
330
14DB
100
AcDbEntity
  8
0
100
AcDbVertex
100
AcDb2dVertex
 10
24.15929731042854
 20
21.87141546277629
 30
0.0
 70
     8
  0
VERTEX
  5
1513
330
14DB
100
AcDbEntity
  8
0
100
AcDbVertex
100
AcDb2dVertex
 10
24.19523897185934
 20
21.89227496846009
 30
0.0
 70
     8
  0
VERTEX
  5
1514
330
14DB
100
AcDbEntity
  8
0
100
AcDbVertex
100
AcDb2dVertex
 10
24.23186421955433
 20
21.91321727920302
 30
0.0
 70
     8
  0
VERTEX
  5
1515
330
14DB
100
AcDbEntity
  8
0
100
AcDbVertex
100
AcDb2dVertex
 10
24.26924555560117
 20
21.93395258449862
 30
0.0
 70
     8
  0
VERTEX
  5
1516
330
14DB
100
AcDbEntity
  8
0
100
AcDbVertex
100
AcDb2dVertex
 10
24.30747792274269
 20
21.95423937548239
 30
0.0
 70
     8
  0
VERTEX
  5
1517
330
14DB
100
AcDbEntity
  8
0
100
AcDbVertex
100
AcDb2dVertex
 10
24.34674602634288
 20
21.97402934985777
 30
0.0
 70
     8
  0
VERTEX
  5
1518
330
14DB
100
AcDbEntity
  8
0
100
AcDbVertex
100
AcDb2dVertex
 10
24.38725701242099
 20
21.99332250697016
 30
0.0
 70
     8
  0
VERTEX
  5
1519
330
14DB
100
AcDbEntity
  8
0
100
AcDbVertex
100
AcDb2dVertex
 10
24.42921802699623
 20
22.01211884616499
 30
0.0
 70
     8
  0
VERTEX
  5
151A
330
14DB
100
AcDbEntity
  8
0
100
AcDbVertex
100
AcDb2dVertex
 10
24.47283621608787
 20
22.03041836678766
 30
0.0
 70
     8
  0
VERTEX
  5
151B
330
14DB
100
AcDbEntity
  8
0
100
AcDbVertex
100
AcDb2dVertex
 10
24.51831872571511
 20
22.04822106818356
 30
0.0
 70
     8
  0
VERTEX
  5
151C
330
14DB
100
AcDbEntity
  8
0
100
AcDbVertex
100
AcDb2dVertex
 10
24.56587270189722
 20
22.06552694969813
 30
0.0
 70
     8
  0
VERTEX
  5
151D
330
14DB
100
AcDbEntity
  8
0
100
AcDbVertex
100
AcDb2dVertex
 10
24.61570529065343
 20
22.08233601067675
 30
0.0
 70
     8
  0
VERTEX
  5
151E
330
14DB
100
AcDbEntity
  8
0
100
AcDbVertex
100
AcDb2dVertex
 10
24.66784756343594
 20
22.09864652556402
 30
0.0
 70
     8
  0
VERTEX
  5
151F
330
14DB
100
AcDbEntity
  8
0
100
AcDbVertex
100
AcDb2dVertex
 10
24.72162629342884
 20
22.11444986920113
 30
0.0
 70
     8
  0
VERTEX
  5
1520
330
14DB
100
AcDbEntity
  8
0
100
AcDbVertex
100
AcDb2dVertex
 10
24.77619217924923
 20
22.12973569152847
 30
0.0
 70
     8
  0
VERTEX
  5
1521
330
14DB
100
AcDbEntity
  8
0
100
AcDbVertex
100
AcDb2dVertex
 10
24.83069591951416
 20
22.14449364248641
 30
0.0
 70
     8
  0
VERTEX
  5
1522
330
14DB
100
AcDbEntity
  8
0
100
AcDbVertex
100
AcDb2dVertex
 10
24.88428821284071
 20
22.15871337201532
 30
0.0
 70
     8
  0
VERTEX
  5
1523
330
14DB
100
AcDbEntity
  8
0
100
AcDbVertex
100
AcDb2dVertex
 10
24.93611975784595
 20
22.17238453005558
 30
0.0
 70
     8
  0
VERTEX
  5
1524
330
14DB
100
AcDbEntity
  8
0
100
AcDbVertex
100
AcDb2dVertex
 10
24.98534125314694
 20
22.18549676654757
 30
0.0
 70
     8
  0
VERTEX
  5
1525
330
14DB
100
AcDbEntity
  8
0
100
AcDbVertex
100
AcDb2dVertex
 10
25.03110339736077
 20
22.19803973143166
 30
0.0
 70
     8
  0
VERTEX
  5
1526
330
14DB
100
AcDbEntity
  8
0
100
AcDbVertex
100
AcDb2dVertex
 10
25.07275022606072
 20
22.2100582767118
 30
0.0
 70
     8
  0
VERTEX
  5
1527
330
14DB
100
AcDbEntity
  8
0
100
AcDbVertex
100
AcDb2dVertex
 10
25.11039912264495
 20
22.22181806264623
 30
0.0
 70
     8
  0
VERTEX
  5
1528
330
14DB
100
AcDbEntity
  8
0
100
AcDbVertex
100
AcDb2dVertex
 10
25.14436080746782
 20
22.23363995155677
 30
0.0
 70
     8
  0
VERTEX
  5
1529
330
14DB
100
AcDbEntity
  8
0
100
AcDbVertex
100
AcDb2dVertex
 10
25.17494600088371
 20
22.24584480576524
 30
0.0
 70
     8
  0
VERTEX
  5
152A
330
14DB
100
AcDbEntity
  8
0
100
AcDbVertex
100
AcDb2dVertex
 10
25.202465423247
 20
22.25875348759346
 30
0.0
 70
     8
  0
VERTEX
  5
152B
330
14DB
100
AcDbEntity
  8
0
100
AcDbVertex
100
AcDb2dVertex
 10
25.22722979491206
 20
22.27268685936323
 30
0.0
 70
     8
  0
VERTEX
  5
152C
330
14DB
100
AcDbEntity
  8
0
100
AcDbVertex
100
AcDb2dVertex
 10
25.24954983623326
 20
22.28796578339639
 30
0.0
 70
     8
  0
VERTEX
  5
152D
330
14DB
100
AcDbEntity
  8
0
100
AcDbVertex
100
AcDb2dVertex
 10
25.26973626756498
 20
22.30491112201475
 30
0.0
 70
     8
  0
VERTEX
  5
152E
330
14DB
100
AcDbEntity
  8
0
100
AcDbVertex
100
AcDb2dVertex
 10
25.28801349811095
 20
22.32374885882972
 30
0.0
 70
     8
  0
VERTEX
  5
152F
330
14DB
100
AcDbEntity
  8
0
100
AcDbVertex
100
AcDb2dVertex
 10
25.30426069247237
 20
22.34432546261102
 30
0.0
 70
     8
  0
VERTEX
  5
1530
330
14DB
100
AcDbEntity
  8
0
100
AcDbVertex
100
AcDb2dVertex
 10
25.31827070409979
 20
22.36639252341799
 30
0.0
 70
     8
  0
VERTEX
  5
1531
330
14DB
100
AcDbEntity
  8
0
100
AcDbVertex
100
AcDb2dVertex
 10
25.32983638644374
 20
22.38970163130997
 30
0.0
 70
     8
  0
VERTEX
  5
1532
330
14DB
100
AcDbEntity
  8
0
100
AcDbVertex
100
AcDb2dVertex
 10
25.33875059295483
 20
22.41400437634628
 30
0.0
 70
     8
  0
VERTEX
  5
1533
330
14DB
100
AcDbEntity
  8
0
100
AcDbVertex
100
AcDb2dVertex
 10
25.34480617708359
 20
22.43905234858624
 30
0.0
 70
     8
  0
VERTEX
  5
1534
330
14DB
100
AcDbEntity
  8
0
100
AcDbVertex
100
AcDb2dVertex
 10
25.34779599228056
 20
22.46459713808917
 30
0.0
 70
     8
  0
VERTEX
  5
1535
330
14DB
100
AcDbEntity
  8
0
100
AcDbVertex
100
AcDb2dVertex
 10
25.34751289199632
 20
22.49039033491442
 30
0.0
 70
     8
  0
VERTEX
  5
1536
330
14DB
100
AcDbEntity
  8
0
100
AcDbVertex
100
AcDb2dVertex
 10
25.34387056516859
 20
22.51616282851112
 30
0.0
 70
     8
  0
VERTEX
  5
1537
330
14DB
100
AcDbEntity
  8
0
100
AcDbVertex
100
AcDb2dVertex
 10
25.3372660426838
 20
22.54156270588763
 30
0.0
 70
     8
  0
VERTEX
  5
1538
330
14DB
100
AcDbEntity
  8
0
100
AcDbVertex
100
AcDb2dVertex
 10
25.32821719091558
 20
22.56621735344212
 30
0.0
 70
     8
  0
VERTEX
  5
1539
330
14DB
100
AcDbEntity
  8
0
100
AcDbVertex
100
AcDb2dVertex
 10
25.31724187623752
 20
22.58975415757276
 30
0.0
 70
     8
  0
VERTEX
  5
153A
330
14DB
100
AcDbEntity
  8
0
100
AcDbVertex
100
AcDb2dVertex
 10
25.30485796502324
 20
22.61180050467773
 30
0.0
 70
     8
  0
VERTEX
  5
153B
330
14DB
100
AcDbEntity
  8
0
100
AcDbVertex
100
AcDb2dVertex
 10
25.29158332364634
 20
22.6319837811552
 30
0.0
 70
     8
  0
VERTEX
  5
153C
330
14DB
100
AcDbEntity
  8
0
100
AcDbVertex
100
AcDb2dVertex
 10
25.27793581848045
 20
22.64993137340335
 30
0.0
 70
     8
  0
VERTEX
  5
153D
330
14DB
100
AcDbEntity
  8
0
100
AcDbVertex
100
AcDb2dVertex
 10
25.26443331589917
 20
22.66527066782035
 30
0.0
 70
     8
  0
VERTEX
  5
153E
330
14DB
100
AcDbEntity
  8
0
100
AcDbVertex
100
AcDb2dVertex
 10
25.25101021923008
 20
22.67775153027382
 30
0.0
 70
     8
  0
VERTEX
  5
153F
330
14DB
100
AcDbEntity
  8
0
100
AcDbVertex
100
AcDb2dVertex
 10
25.23526707961657
 20
22.68761374450921
 30
0.0
 70
     8
  0
VERTEX
  5
1540
330
14DB
100
AcDbEntity
  8
0
100
AcDbVertex
100
AcDb2dVertex
 10
25.21422098515607
 20
22.69521957374144
 30
0.0
 70
     8
  0
VERTEX
  5
1541
330
14DB
100
AcDbEntity
  8
0
100
AcDbVertex
100
AcDb2dVertex
 10
25.18488902394592
 20
22.70093128118542
 30
0.0
 70
     8
  0
VERTEX
  5
1542
330
14DB
100
AcDbEntity
  8
0
100
AcDbVertex
100
AcDb2dVertex
 10
25.14428828408352
 20
22.70511113005603
 30
0.0
 70
     8
  0
VERTEX
  5
1543
330
14DB
100
AcDbEntity
  8
0
100
AcDbVertex
100
AcDb2dVertex
 10
25.08943585366624
 20
22.70812138356821
 30
0.0
 70
     8
  0
VERTEX
  5
1544
330
14DB
100
AcDbEntity
  8
0
100
AcDbVertex
100
AcDb2dVertex
 10
25.01734882079146
 20
22.71032430493685
 30
0.0
 70
     8
  0
VERTEX
  5
1545
330
14DB
100
AcDbEntity
  8
0
100
AcDbVertex
100
AcDb2dVertex
 10
24.92504427355659
 20
22.71208215737686
 30
0.0
 70
     8
  0
VERTEX
  5
1546
330
14DB
100
AcDbEntity
  8
0
100
AcDbVertex
100
AcDb2dVertex
 10
24.81096343333753
 20
22.71365887548194
 30
0.0
 70
     8
  0
VERTEX
  5
1547
330
14DB
100
AcDbEntity
  8
0
100
AcDbVertex
100
AcDb2dVertex
 10
24.67924405462445
 20
22.71492507936108
 30
0.0
 70
     8
  0
VERTEX
  5
1548
330
14DB
100
AcDbEntity
  8
0
100
AcDbVertex
100
AcDb2dVertex
 10
24.53544802518609
 20
22.715653060502
 30
0.0
 70
     8
  0
VERTEX
  5
1549
330
14DB
100
AcDbEntity
  8
0
100
AcDbVertex
100
AcDb2dVertex
 10
24.38513723279115
 20
22.71561511039248
 30
0.0
 70
     8
  0
VERTEX
  5
154A
330
14DB
100
AcDbEntity
  8
0
100
AcDbVertex
100
AcDb2dVertex
 10
24.23387356520835
 20
22.71458352052026
 30
0.0
 70
     8
  0
VERTEX
  5
154B
330
14DB
100
AcDbEntity
  8
0
100
AcDbVertex
100
AcDb2dVertex
 10
24.08721891020641
 20
22.71233058237312
 30
0.0
 70
     8
  0
VERTEX
  5
154C
330
14DB
100
AcDbEntity
  8
0
100
AcDbVertex
100
AcDb2dVertex
 10
23.95073515555404
 20
22.7086285874388
 30
0.0
 70
     8
  0
VERTEX
  5
154D
330
14DB
100
AcDbEntity
  8
0
100
AcDbVertex
100
AcDb2dVertex
 10
23.60284097955847
 20
22.7235642145294
 30
0.0
 70
    16
  0
VERTEX
  5
154E
330
14DB
100
AcDbEntity
  8
0
100
AcDbVertex
100
AcDb2dVertex
 10
23.39602572886029
 20
22.6122766867896
 30
0.0
 70
    16
  0
VERTEX
  5
154F
330
14DB
100
AcDbEntity
  8
0
100
AcDbVertex
100
AcDb2dVertex
 10
23.30587541480916
 20
22.31550989029172
 30
0.0
 70
    16
  0
VERTEX
  5
1550
330
14DB
100
AcDbEntity
  8
0
100
AcDbVertex
100
AcDb2dVertex
 10
23.35360211553409
 20
22.00814429758768
 30
0.0
 70
    16
  0
VERTEX
  5
1551
330
14DB
100
AcDbEntity
  8
0
100
AcDbVertex
100
AcDb2dVertex
 10
23.49147885884427
 20
21.77497044590193
 30
0.0
 70
    16
  0
VERTEX
  5
1552
330
14DB
100
AcDbEntity
  8
0
100
AcDbVertex
100
AcDb2dVertex
 10
23.72480900360431
 20
21.69547930678058
 30
0.0
 70
    16
  0
VERTEX
  5
1553
330
14DB
100
AcDbEntity
  8
0
100
AcDbVertex
100
AcDb2dVertex
 10
23.98465377096025
 20
21.75907225159268
 30
0.0
 70
    16
  0
VERTEX
  5
1554
330
14DB
100
AcDbEntity
  8
0
100
AcDbVertex
100
AcDb2dVertex
 10
24.26040725758054
 20
21.9392519546725
 30
0.0
 70
    16
  0
VERTEX
  5
1555
330
14DB
100
AcDbEntity
  8
0
100
AcDbVertex
100
AcDb2dVertex
 10
24.58919053232455
 20
22.08763543670903
 30
0.0
 70
    16
  0
VERTEX
  5
1556
330
14DB
100
AcDbEntity
  8
0
100
AcDbVertex
100
AcDb2dVertex
 10
25.07706235704181
 20
22.20422236255192
 30
0.0
 70
    16
  0
VERTEX
  5
1557
330
14DB
100
AcDbEntity
  8
0
100
AcDbVertex
100
AcDb2dVertex
 10
25.28918042367283
 20
22.28371350167325
 30
0.0
 70
    16
  0
VERTEX
  5
1558
330
14DB
100
AcDbEntity
  8
0
100
AcDbVertex
100
AcDb2dVertex
 10
25.38463355365674
 20
22.49039036284362
 30
0.0
 70
    16
  0
VERTEX
  5
1559
330
14DB
100
AcDbEntity
  8
0
100
AcDbVertex
100
AcDb2dVertex
 10
25.25736271367813
 20
22.69706705643881
 30
0.0
 70
    16
  0
SEQEND
  5
155A
330
14DB
100
AcDbEntity
  8
0
  0
POLYLINE
  5
155B
330
18
100
AcDbEntity
  8
0
100
AcDb2dPolyline
 66
     1
 10
0.0
 20
0.0
 30
0.0
 70
     5
 75
     6
  0
VERTEX
  5
155C
330
155B
100
AcDbEntity
  8
0
100
AcDbVertex
100
AcDb2dVertex
 10
17.51398669191592
 20
14.57232897301777
 30
0.0
 70
    16
  0
VERTEX
  5
155D
330
155B
100
AcDbEntity
  8
0
100
AcDbVertex
100
AcDb2dVertex
 10
17.72902704429043
 20
15.31190792715244
 30
0.0
 70
     8
  0
VERTEX
  5
155E
330
155B
100
AcDbEntity
  8
0
100
AcDbVertex
100
AcDb2dVertex
 10
17.7599270836009
 20
15.39279119386003
 30
0.0
 70
     8
  0
VERTEX
  5
155F
330
155B
100
AcDbEntity
  8
0
100
AcDbVertex
100
AcDb2dVertex
 10
17.79138348495986
 20
15.4702240355011
 30
0.0
 70
     8
  0
VERTEX
  5
1560
330
155B
100
AcDbEntity
  8
0
100
AcDbVertex
100
AcDb2dVertex
 10
17.82264352099731
 20
15.54441903758075
 30
0.0
 70
     8
  0
VERTEX
  5
1561
330
155B
100
AcDbEntity
  8
0
100
AcDbVertex
100
AcDb2dVertex
 10
17.8529544643432
 20
15.61558878560407
 30
0.0
 70
     8
  0
VERTEX
  5
1562
330
155B
100
AcDbEntity
  8
0
100
AcDbVertex
100
AcDb2dVertex
 10
17.88156358762753
 20
15.68394586507617
 30
0.0
 70
     8
  0
VERTEX
  5
1563
330
155B
100
AcDbEntity
  8
0
100
AcDbVertex
100
AcDb2dVertex
 10
17.90771816348027
 20
15.74970286150213
 30
0.0
 70
     8
  0
VERTEX
  5
1564
330
155B
100
AcDbEntity
  8
0
100
AcDbVertex
100
AcDb2dVertex
 10
17.93066546453139
 20
15.81307236038703
 30
0.0
 70
     8
  0
VERTEX
  5
1565
330
155B
100
AcDbEntity
  8
0
100
AcDbVertex
100
AcDb2dVertex
 10
17.94965276341087
 20
15.87426694723599
 30
0.0
 70
     8
  0
VERTEX
  5
1566
330
155B
100
AcDbEntity
  8
0
100
AcDbVertex
100
AcDb2dVertex
 10
17.96408005991821
 20
15.93343652215597
 30
0.0
 70
     8
  0
VERTEX
  5
1567
330
155B
100
AcDbEntity
  8
0
100
AcDbVertex
100
AcDb2dVertex
 10
17.97395826253099
 20
15.99048024366149
 30
0.0
 70
     8
  0
VERTEX
  5
1568
330
155B
100
AcDbEntity
  8
0
100
AcDbVertex
100
AcDb2dVertex
 10
17.97945100689632
 20
16.04523458486894
 30
0.0
 70
     8
  0
VERTEX
  5
1569
330
155B
100
AcDbEntity
  8
0
100
AcDbVertex
100
AcDb2dVertex
 10
17.98072192866132
 20
16.09753601889471
 30
0.0
 70
     8
  0
VERTEX
  5
156A
330
155B
100
AcDbEntity
  8
0
100
AcDbVertex
100
AcDb2dVertex
 10
17.97793466347309
 20
16.14722101885517
 30
0.0
 70
     8
  0
VERTEX
  5
156B
330
155B
100
AcDbEntity
  8
0
100
AcDbVertex
100
AcDb2dVertex
 10
17.97125284697874
 20
16.19412605786674
 30
0.0
 70
     8
  0
VERTEX
  5
156C
330
155B
100
AcDbEntity
  8
0
100
AcDbVertex
100
AcDb2dVertex
 10
17.96084011482537
 20
16.23808760904579
 30
0.0
 70
     8
  0
VERTEX
  5
156D
330
155B
100
AcDbEntity
  8
0
100
AcDbVertex
100
AcDb2dVertex
 10
17.9468601026601
 20
16.27894214550873
 30
0.0
 70
     8
  0
VERTEX
  5
156E
330
155B
100
AcDbEntity
  8
0
100
AcDbVertex
100
AcDb2dVertex
 10
17.92949553720296
 20
16.31657247300532
 30
0.0
 70
     8
  0
VERTEX
  5
156F
330
155B
100
AcDbEntity
  8
0
100
AcDbVertex
100
AcDb2dVertex
 10
17.90900550946568
 20
16.3510467278189
 30
0.0
 70
     8
  0
VERTEX
  5
1570
330
155B
100
AcDbEntity
  8
0
100
AcDbVertex
100
AcDb2dVertex
 10
17.88566820153295
 20
16.38247937886616
 30
0.0
 70
     8
  0
VERTEX
  5
1571
330
155B
100
AcDbEntity
  8
0
100
AcDbVertex
100
AcDb2dVertex
 10
17.85976179548939
 20
16.41098489506385
 30
0.0
 70
     8
  0
VERTEX
  5
1572
330
155B
100
AcDbEntity
  8
0
100
AcDbVertex
100
AcDb2dVertex
 10
17.83156447341971
 20
16.43667774532867
 30
0.0
 70
     8
  0
VERTEX
  5
1573
330
155B
100
AcDbEntity
  8
0
100
AcDbVertex
100
AcDb2dVertex
 10
17.80135441740854
 20
16.45967239857733
 30
0.0
 70
     8
  0
VERTEX
  5
1574
330
155B
100
AcDbEntity
  8
0
100
AcDbVertex
100
AcDb2dVertex
 10
17.76940980954056
 20
16.48008332372655
 30
0.0
 70
     8
  0
VERTEX
  5
1575
330
155B
100
AcDbEntity
  8
0
100
AcDbVertex
100
AcDb2dVertex
 10
17.73600883190043
 20
16.49802498969306
 30
0.0
 70
     8
  0
VERTEX
  5
1576
330
155B
100
AcDbEntity
  8
0
100
AcDbVertex
100
AcDb2dVertex
 10
17.70145148503025
 20
16.5136173162242
 30
0.0
 70
     8
  0
VERTEX
  5
1577
330
155B
100
AcDbEntity
  8
0
100
AcDbVertex
100
AcDb2dVertex
 10
17.66612504330179
 20
16.52700202639003
 30
0.0
 70
     8
  0
VERTEX
  5
1578
330
155B
100
AcDbEntity
  8
0
100
AcDbVertex
100
AcDb2dVertex
 10
17.6304385995443
 20
16.53832629409121
 30
0.0
 70
     8
  0
VERTEX
  5
1579
330
155B
100
AcDbEntity
  8
0
100
AcDbVertex
100
AcDb2dVertex
 10
17.59480124658697
 20
16.54773729322843
 30
0.0
 70
     8
  0
VERTEX
  5
157A
330
155B
100
AcDbEntity
  8
0
100
AcDbVertex
100
AcDb2dVertex
 10
17.55962207725904
 20
16.55538219770236
 30
0.0
 70
     8
  0
VERTEX
  5
157B
330
155B
100
AcDbEntity
  8
0
100
AcDbVertex
100
AcDb2dVertex
 10
17.52531018438972
 20
16.56140818141371
 30
0.0
 70
     8
  0
VERTEX
  5
157C
330
155B
100
AcDbEntity
  8
0
100
AcDbVertex
100
AcDb2dVertex
 10
17.49227466080824
 20
16.56596241826313
 30
0.0
 70
     8
  0
VERTEX
  5
157D
330
155B
100
AcDbEntity
  8
0
100
AcDbVertex
100
AcDb2dVertex
 10
17.4609245993438
 20
16.56919208215133
 30
0.0
 70
     8
  0
VERTEX
  5
157E
330
155B
100
AcDbEntity
  8
0
100
AcDbVertex
100
AcDb2dVertex
 10
17.43157909223002
 20
16.57122799448699
 30
0.0
 70
     8
  0
VERTEX
  5
157F
330
155B
100
AcDbEntity
  8
0
100
AcDbVertex
100
AcDb2dVertex
 10
17.40419722931795
 20
16.5721355667109
 30
0.0
 70
     8
  0
VERTEX
  5
1580
330
155B
100
AcDbEntity
  8
0
100
AcDbVertex
100
AcDb2dVertex
 10
17.37864809986303
 20
16.5719638577718
 30
0.0
 70
     8
  0
VERTEX
  5
1581
330
155B
100
AcDbEntity
  8
0
100
AcDbVertex
100
AcDb2dVertex
 10
17.35480079312073
 20
16.5707619266185
 30
0.0
 70
     8
  0
VERTEX
  5
1582
330
155B
100
AcDbEntity
  8
0
100
AcDbVertex
100
AcDb2dVertex
 10
17.33252439834648
 20
16.56857883219977
 30
0.0
 70
     8
  0
VERTEX
  5
1583
330
155B
100
AcDbEntity
  8
0
100
AcDbVertex
100
AcDb2dVertex
 10
17.31168800479571
 20
16.56546363346439
 30
0.0
 70
     8
  0
VERTEX
  5
1584
330
155B
100
AcDbEntity
  8
0
100
AcDbVertex
100
AcDb2dVertex
 10
17.29216070172388
 20
16.56146538936115
 30
0.0
 70
     8
  0
VERTEX
  5
1585
330
155B
100
AcDbEntity
  8
0
100
AcDbVertex
100
AcDb2dVertex
 10
17.27381157838643
 20
16.5566331588388
 30
0.0
 70
     8
  0
VERTEX
  5
1586
330
155B
100
AcDbEntity
  8
0
100
AcDbVertex
100
AcDb2dVertex
 10
17.25653154267298
 20
16.55098874609282
 30
0.0
 70
     8
  0
VERTEX
  5
1587
330
155B
100
AcDbEntity
  8
0
100
AcDbVertex
100
AcDb2dVertex
 10
17.24029877700976
 20
16.54444493630522
 30
0.0
 70
     8
  0
VERTEX
  5
1588
330
155B
100
AcDbEntity
  8
0
100
AcDbVertex
100
AcDb2dVertex
 10
17.22511328245719
 20
16.5368872599047
 30
0.0
 70
     8
  0
VERTEX
  5
1589
330
155B
100
AcDbEntity
  8
0
100
AcDbVertex
100
AcDb2dVertex
 10
17.21097506007569
 20
16.52820124731995
 30
0.0
 70
     8
  0
VERTEX
  5
158A
330
155B
100
AcDbEntity
  8
0
100
AcDbVertex
100
AcDb2dVertex
 10
17.19788411092568
 20
16.51827242897968
 30
0.0
 70
     8
  0
VERTEX
  5
158B
330
155B
100
AcDbEntity
  8
0
100
AcDbVertex
100
AcDb2dVertex
 10
17.18584043606755
 20
16.50698633531257
 30
0.0
 70
     8
  0
VERTEX
  5
158C
330
155B
100
AcDbEntity
  8
0
100
AcDbVertex
100
AcDb2dVertex
 10
17.17484403656174
 20
16.49422849674732
 30
0.0
 70
     8
  0
VERTEX
  5
158D
330
155B
100
AcDbEntity
  8
0
100
AcDbVertex
100
AcDb2dVertex
 10
17.16489491346863
 20
16.47988444371262
 30
0.0
 70
     8
  0
VERTEX
  5
158E
330
155B
100
AcDbEntity
  8
0
100
AcDbVertex
100
AcDb2dVertex
 10
17.15596852218348
 20
16.46341998694859
 30
0.0
 70
     8
  0
VERTEX
  5
158F
330
155B
100
AcDbEntity
  8
0
100
AcDbVertex
100
AcDb2dVertex
 10
17.14794213544074
 20
16.44262205844097
 30
0.0
 70
     8
  0
VERTEX
  5
1590
330
155B
100
AcDbEntity
  8
0
100
AcDbVertex
100
AcDb2dVertex
 10
17.14066848030968
 20
16.414857870487
 30
0.0
 70
     8
  0
VERTEX
  5
1591
330
155B
100
AcDbEntity
  8
0
100
AcDbVertex
100
AcDb2dVertex
 10
17.13400028385957
 20
16.37749463538383
 30
0.0
 70
     8
  0
VERTEX
  5
1592
330
155B
100
AcDbEntity
  8
0
100
AcDbVertex
100
AcDb2dVertex
 10
17.12779027315967
 20
16.32789956542868
 30
0.0
 70
     8
  0
VERTEX
  5
1593
330
155B
100
AcDbEntity
  8
0
100
AcDbVertex
100
AcDb2dVertex
 10
17.12189117527927
 20
16.26343987291871
 30
0.0
 70
     8
  0
VERTEX
  5
1594
330
155B
100
AcDbEntity
  8
0
100
AcDbVertex
100
AcDb2dVertex
 10
17.11615571728764
 20
16.18148277015112
 30
0.0
 70
     8
  0
VERTEX
  5
1595
330
155B
100
AcDbEntity
  8
0
100
AcDbVertex
100
AcDb2dVertex
 10
17.11043662625404
 20
16.07939546942311
 30
0.0
 70
     8
  0
VERTEX
  5
1596
330
155B
100
AcDbEntity
  8
0
100
AcDbVertex
100
AcDb2dVertex
 10
17.10469844750549
 20
15.9559051842377
 30
0.0
 70
     8
  0
VERTEX
  5
1597
330
155B
100
AcDbEntity
  8
0
100
AcDbVertex
100
AcDb2dVertex
 10
17.09935299939999
 20
15.81517913292125
 30
0.0
 70
     8
  0
VERTEX
  5
1598
330
155B
100
AcDbEntity
  8
0
100
AcDbVertex
100
AcDb2dVertex
 10
17.09492391855327
 20
15.66274453500595
 30
0.0
 70
     8
  0
VERTEX
  5
1599
330
155B
100
AcDbEntity
  8
0
100
AcDbVertex
100
AcDb2dVertex
 10
17.09193484158108
 20
15.50412861002403
 30
0.0
 70
     8
  0
VERTEX
  5
159A
330
155B
100
AcDbEntity
  8
0
100
AcDbVertex
100
AcDb2dVertex
 10
17.09090940509918
 20
15.34485857750766
 30
0.0
 70
     8
  0
VERTEX
  5
159B
330
155B
100
AcDbEntity
  8
0
100
AcDbVertex
100
AcDb2dVertex
 10
17.09237124572327
 20
15.19046165698905
 30
0.0
 70
     8
  0
VERTEX
  5
159C
330
155B
100
AcDbEntity
  8
0
100
AcDbVertex
100
AcDb2dVertex
 10
17.09684400006911
 20
15.04646506800042
 30
0.0
 70
     8
  0
VERTEX
  5
159D
330
155B
100
AcDbEntity
  8
0
100
AcDbVertex
100
AcDb2dVertex
 10
17.10485130475244
 20
14.91839603007394
 30
0.0
 70
     8
  0
VERTEX
  5
159E
330
155B
100
AcDbEntity
  8
0
100
AcDbVertex
100
AcDb2dVertex
 10
17.11675588715435
 20
14.81054440678053
 30
0.0
 70
     8
  0
VERTEX
  5
159F
330
155B
100
AcDbEntity
  8
0
100
AcDbVertex
100
AcDb2dVertex
 10
17.1322768377173
 20
14.72225063784585
 30
0.0
 70
     8
  0
VERTEX
  5
15A0
330
155B
100
AcDbEntity
  8
0
100
AcDbVertex
100
AcDb2dVertex
 10
17.15097233764911
 20
14.65161780703429
 30
0.0
 70
     8
  0
VERTEX
  5
15A1
330
155B
100
AcDbEntity
  8
0
100
AcDbVertex
100
AcDb2dVertex
 10
17.17240056815759
 20
14.59674899811021
 30
0.0
 70
     8
  0
VERTEX
  5
15A2
330
155B
100
AcDbEntity
  8
0
100
AcDbVertex
100
AcDb2dVertex
 10
17.19611971045057
 20
14.55574729483799
 30
0.0
 70
     8
  0
VERTEX
  5
15A3
330
155B
100
AcDbEntity
  8
0
100
AcDbVertex
100
AcDb2dVertex
 10
17.22168794573583
 20
14.52671578098201
 30
0.0
 70
     8
  0
VERTEX
  5
15A4
330
155B
100
AcDbEntity
  8
0
100
AcDbVertex
100
AcDb2dVertex
 10
17.2486634552212
 20
14.50775754030664
 30
0.0
 70
     8
  0
VERTEX
  5
15A5
330
155B
100
AcDbEntity
  8
0
100
AcDbVertex
100
AcDb2dVertex
 10
17.27660442011451
 20
14.49697565657626
 30
0.0
 70
     8
  0
VERTEX
  5
15A6
330
155B
100
AcDbEntity
  8
0
100
AcDbVertex
100
AcDb2dVertex
 10
17.30511811260047
 20
14.49286567903596
 30
0.0
 70
     8
  0
VERTEX
  5
15A7
330
155B
100
AcDbEntity
  8
0
100
AcDbVertex
100
AcDb2dVertex
 10
17.33400816877142
 20
14.49549301885377
 30
0.0
 70
     8
  0
VERTEX
  5
15A8
330
155B
100
AcDbEntity
  8
0
100
AcDbVertex
100
AcDb2dVertex
 10
17.36312731569667
 20
14.50531555267843
 30
0.0
 70
     8
  0
VERTEX
  5
15A9
330
155B
100
AcDbEntity
  8
0
100
AcDbVertex
100
AcDb2dVertex
 10
17.39232828044547
 20
14.52279115715869
 30
0.0
 70
     8
  0
VERTEX
  5
15AA
330
155B
100
AcDbEntity
  8
0
100
AcDbVertex
100
AcDb2dVertex
 10
17.42146379008709
 20
14.54837770894329
 30
0.0
 70
     8
  0
VERTEX
  5
15AB
330
155B
100
AcDbEntity
  8
0
100
AcDbVertex
100
AcDb2dVertex
 10
17.45038657169082
 20
14.58253308468098
 30
0.0
 70
     8
  0
VERTEX
  5
15AC
330
155B
100
AcDbEntity
  8
0
100
AcDbVertex
100
AcDb2dVertex
 10
17.4789493523259
 20
14.62571516102052
 30
0.0
 70
     8
  0
VERTEX
  5
15AD
330
155B
100
AcDbEntity
  8
0
100
AcDbVertex
100
AcDb2dVertex
 10
17.50700485906163
 20
14.67838181461063
 30
0.0
 70
     8
  0
VERTEX
  5
15AE
330
155B
100
AcDbEntity
  8
0
100
AcDbVertex
100
AcDb2dVertex
 10
17.53447127354424
 20
14.74063116214881
 30
0.0
 70
     8
  0
VERTEX
  5
15AF
330
155B
100
AcDbEntity
  8
0
100
AcDbVertex
100
AcDb2dVertex
 10
17.56152859572783
 20
14.81112228052746
 30
0.0
 70
     8
  0
VERTEX
  5
15B0
330
155B
100
AcDbEntity
  8
0
100
AcDbVertex
100
AcDb2dVertex
 10
17.58842228014349
 20
14.88815448668769
 30
0.0
 70
     8
  0
VERTEX
  5
15B1
330
155B
100
AcDbEntity
  8
0
100
AcDbVertex
100
AcDb2dVertex
 10
17.61539778132229
 20
14.97002709757065
 30
0.0
 70
     8
  0
VERTEX
  5
15B2
330
155B
100
AcDbEntity
  8
0
100
AcDbVertex
100
AcDb2dVertex
 10
17.64270055379531
 20
15.05503943011747
 30
0.0
 70
     8
  0
VERTEX
  5
15B3
330
155B
100
AcDbEntity
  8
0
100
AcDbVertex
100
AcDb2dVertex
 10
17.67057605209362
 20
15.14149080126929
 30
0.0
 70
     8
  0
VERTEX
  5
15B4
330
155B
100
AcDbEntity
  8
0
100
AcDbVertex
100
AcDb2dVertex
 10
17.6992697307483
 20
15.22768052796724
 30
0.0
 70
     8
  0
VERTEX
  5
15B5
330
155B
100
AcDbEntity
  8
0
100
AcDbVertex
100
AcDb2dVertex
 10
17.71506342382618
 20
15.35098003991627
 30
0.0
 70
    16
  0
VERTEX
  5
15B6
330
155B
100
AcDbEntity
  8
0
100
AcDbVertex
100
AcDb2dVertex
 10
17.99992187852194
 20
15.89519843023179
 30
0.0
 70
    16
  0
VERTEX
  5
15B7
330
155B
100
AcDbEntity
  8
0
100
AcDbVertex
100
AcDb2dVertex
 10
17.98316564255126
 20
16.31382792257253
 30
0.0
 70
    16
  0
VERTEX
  5
15B8
330
155B
100
AcDbEntity
  8
0
100
AcDbVertex
100
AcDb2dVertex
 10
17.74857616723361
 20
16.52314275253048
 30
0.0
 70
    16
  0
VERTEX
  5
15B9
330
155B
100
AcDbEntity
  8
0
100
AcDbVertex
100
AcDb2dVertex
 10
17.4385826799169
 20
16.58175100546385
 30
0.0
 70
    16
  0
VERTEX
  5
15BA
330
155B
100
AcDbEntity
  8
0
100
AcDbVertex
100
AcDb2dVertex
 10
17.26264070916164
 20
16.56500571852209
 30
0.0
 70
    16
  0
VERTEX
  5
15BB
330
155B
100
AcDbEntity
  8
0
100
AcDbVertex
100
AcDb2dVertex
 10
17.15372395375518
 20
16.49802507348065
 30
0.0
 70
    16
  0
VERTEX
  5
15BC
330
155B
100
AcDbEntity
  8
0
100
AcDbVertex
100
AcDb2dVertex
 10
17.11183295662943
 20
16.32220064983099
 30
0.0
 70
    16
  0
VERTEX
  5
15BD
330
155B
100
AcDbEntity
  8
0
100
AcDbVertex
100
AcDb2dVertex
 10
17.06156397725132
 20
14.68954514373406
 30
0.0
 70
    16
  0
VERTEX
  5
15BE
330
155B
100
AcDbEntity
  8
0
100
AcDbVertex
100
AcDb2dVertex
 10
17.27101896287996
 20
14.42999495567643
 30
0.0
 70
    16
  0
SEQEND
  5
15BF
330
155B
100
AcDbEntity
  8
0
  0
LINE
  5
15C0
330
18
100
AcDbEntity
  8
0
100
AcDbLine
 10
14.95930584521981
 20
24.85869512879294
 30
0.0
 11
14.95930584521982
 21
9.233164881760211
 31
0.0
  0
LWPOLYLINE
  5
1709
330
18
100
AcDbEntity
  8
0
100
AcDbPolyline
 90
      321
 70
     0
 43
0.0
 10
14.95930584521982
 20
9.233164881760211
 10
15.0351723195741
 20
9.225682232057302
 10
15.11026673812945
 20
9.224756016056051
 10
15.18271265796388
 20
9.229851980758276
 10
15.25239273553313
 20
9.240262374600735
 10
15.31918962729293
 20
9.255279446020214
 10
15.38298598969901
 20
9.274195443453466
 10
15.44366447920709
 20
9.296302615337271
 10
15.50110775227291
 20
9.32089321010835
 10
15.55522640407671
 20
9.347347421380984
 10
15.60604278469674
 20
9.375397223479151
 10
15.65360718293574
 20
9.404862535904261
 10
15.69796988759649
 20
9.43556327815779
 10
15.73918118748173
 20
9.467319369741145
 10
15.77729137139422
 20
9.499950730155777
 10
15.81235072813671
 20
9.533277278903113
 10
15.84440954651197
 20
9.567118935484597
 10
15.87353348111752
 20
9.601243271080477
 10
15.89984964973002
 20
9.635208463586137
 10
15.92350053592092
 20
9.668520342575789
 10
15.94462862326164
 20
9.700684737623625
 10
15.96337639532363
 20
9.731207478303854
 10
15.97988633567833
 20
9.759594394190671
 10
15.99430092789717
 20
9.78535131485826
 10
16.0067626555516
 20
9.80798406988084
 10
16.01743635264477
 20
9.827152044664551
 10
16.02657625490673
 20
9.843128847943377
 10
16.03445894849927
 20
9.856341644283245
 10
16.04136101958415
 20
9.867217598250078
 10
16.04755905432315
 20
9.876183874409811
 10
16.05332963887804
 20
9.883667637328365
 10
16.0589493594106
 20
9.890096051571674
 10
16.06469480208259
 20
9.895896281705663
 10
16.07078667702067
 20
9.901435465954355
 10
16.07722219021101
 20
9.906840637174118
 10
16.08394267160464
 20
9.912178801879424
 10
16.0908894511526
 20
9.917516966584727
 10
16.09800385880592
 20
9.922922137804505
 10
16.10522722451565
 20
9.928461322053189
 10
16.11250087823283
 20
9.934201525845274
 10
16.11976614990849
 20
9.940209755695201
 10
16.12696856024932
 20
9.946572561520525
 10
16.13407039298464
 20
9.953454666851033
 10
16.14103812259942
 20
9.961040338619643
 10
16.14783822357863
 20
9.96951384375923
 10
16.15443717040723
 20
9.979059449202676
 10
16.16080143757019
 20
9.989861421882864
 10
16.16689749955249
 20
10.00210402873269
 10
16.17269183083907
 20
10.01597153668504
 10
16.17815369975203
 20
10.03173057457408
 10
16.18326354996183
 20
10.04997721883909
 10
16.18800461897608
 20
10.07138990782067
 10
16.19236014430236
 20
10.09664707985938
 10
16.19631336344825
 20
10.1264271732958
 10
16.19984751392134
 20
10.16140862647048
 10
16.20294583322921
 20
10.20226987772401
 10
16.20559155887947
 20
10.24968936539697
 10
16.20778608787901
 20
10.30392115492936
 10
16.2096034552321
 20
10.36352182015888
 10
16.21113585544232
 20
10.42662356202268
 10
16.21247548301323
 20
10.4913585814579
 10
16.21371453244843
 20
10.55585907940169
 10
16.21494519825149
 20
10.61825725679118
 10
16.21625967492599
 20
10.6766853145635
 10
16.21775015697553
 20
10.72927545365582
 10
16.2195172205917
 20
10.77460099942535
 10
16.22169496871833
 20
10.81299977490969
 10
16.22442588598727
 20
10.84525072756649
 10
16.22785245703036
 20
10.87213280485347
 10
16.23211716647947
 20
10.89442495422827
 10
16.23736249896644
 20
10.91290612314857
 10
16.24373093912313
 20
10.92835525907208
 10
16.25136497158138
 20
10.94155130945646
 10
16.2603595862725
 20
10.95315875273355
 10
16.2706197943256
 20
10.96338419123198
 10
16.28200311216925
 20
10.97231975825456
 10
16.29436705623201
 20
10.98005758710406
 10
16.30756914294243
 20
10.98668981108328
 10
16.32146688872907
 20
10.99230856349502
 10
16.33591781002051
 20
10.99700597764209
 10
16.35077942324529
 20
11.00087418682727
 10
16.36611428928766
 20
11.00411634794144
 10
16.38280514685448
 20
11.00737971222774
 10
16.40193977910827
 20
11.01142255451742
 10
16.4246059692116
 20
11.01700314964171
 10
16.45189150032697
 20
11.02487977243184
 10
16.48488415561692
 20
11.03581069771905
 10
16.52467171824401
 20
11.05055420033456
 10
16.57234197137076
 20
11.06986855510964
 10
16.62855069120041
 20
11.09436828572007
 10
16.69222562609908
 20
11.12409291122001
 10
16.76186251747356
 20
11.1589381995082
 10
16.83595710673067
 20
11.19879991848337
 10
16.9130051352772
 20
11.24357383604424
 10
16.99150234452
 20
11.29315572008954
 10
17.06994447586584
 20
11.34744133851803
 10
17.14682727072157
 20
11.40632645922842
 10
17.22088264587338
 20
11.46963057061967
 10
17.29178721962519
 20
11.53686804309168
 10
17.35945378566031
 20
11.60747696754459
 10
17.42379513766204
 20
11.6808954348785
 10
17.48472406931371
 20
11.75656153599354
 10
17.54215337429861
 20
11.83391336178985
 10
17.59599584630008
 20
11.91238900316754
 10
17.64616427900141
 20
11.99142655102675
 10
17.69267673222303
 20
12.07075145445939
 10
17.73597233033385
 20
12.15123859532459
 10
17.77659546383984
 20
12.23405021367326
 10
17.815090523247
 20
12.32034854955631
 10
17.85200189906135
 20
12.41129584302467
 10
17.88787398178887
 20
12.50805433412925
 10
17.92325116193556
 20
12.61178626292097
 10
17.95867783000742
 20
12.72365386945075
 10
17.9946323899592
 20
12.84443198047376
 10
18.03132929954055
 20
12.97334576956209
 10
18.06891702994991
 20
13.10923299699218
 10
18.10754405238567
 20
13.25093142304037
 10
18.14735883804625
 20
13.39727880798304
 10
18.18850985813008
 20
13.54711291209658
 10
18.23114558383556
 20
13.69927149565736
 10
18.2754144863611
 20
13.85259231894176
 10
18.32141554650565
 20
14.00600381344626
 10
18.36904978347026
 20
14.15879709554769
 10
18.41816872605652
 20
14.31035395284296
 10
18.46862390306602
 20
14.46005617292902
 10
18.52026684330035
 20
14.60728554340279
 10
18.57294907556108
 20
14.7514238518612
 10
18.62652212864982
 20
14.89185288590118
 10
18.68083753136813
 20
15.02795443311965
 10
18.73580867538441
 20
15.15932871614954
 10
18.79159640383417
 20
15.28644969776775
 10
18.84842342271971
 20
15.41000977578717
 10
18.90651243804336
 20
15.53070134802066
 10
18.96608615580742
 20
15.64921681228114
 10
19.0273672820142
 20
15.7662485663815
 10
19.090578522666
 20
15.88248900813462
 10
19.15594258376514
 20
15.9986305353534
 10
19.22375982109236
 20
16.11534821818235
 10
19.29464118954213
 20
16.23324781609256
 10
19.36927529378732
 20
16.35291776088672
 10
19.44835073850083
 20
16.47494648436757
 10
19.53255612835555
 20
16.59992241833778
 10
19.62258006802435
 20
16.72843399460009
 10
19.71911116218016
 20
16.8610696449572
 10
19.82283801549582
 20
16.99841780121182
 10
19.93415153788378
 20
17.14077945973317
 10
20.05225186021454
 20
17.2873058751565
 10
20.17604141859814
 20
17.43686086668356
 10
20.30442264914463
 20
17.58830825351612
 10
20.43629798796404
 20
17.74051185485591
 10
20.57056987116641
 20
17.89233548990473
 10
20.70614073486178
 20
18.0426429778643
 10
20.8419130151602
 20
18.1902981379364
 10
20.97693664317077
 20
18.33432224493292
 10
21.11085152999888
 20
18.47436639610629
 10
21.24344508174896
 20
18.61023914431909
 10
21.3745047045255
 20
18.74174904243391
 10
21.50381780443292
 20
18.86870464331333
 10
21.63117178757569
 20
18.99091449981989
 10
21.75635406005825
 20
19.10818716481621
 10
21.87915202798507
 20
19.22033119116484
 10
21.99943311956161
 20
19.32725109880479
 10
22.11738485139738
 20
19.42923527598076
 10
22.23327476220297
 20
19.52666807801384
 10
22.34737039068891
 20
19.61993386022516
 10
22.45993927556572
 20
19.70941697793586
 10
22.57124895554399
 20
19.795501786467
 10
22.68156696933424
 20
19.87857264113975
 10
22.79116085564702
 20
19.95901389727519
 10
22.90046367469772
 20
20.03726275742281
 10
23.010570572721
 20
20.11396781304552
 10
23.1227422174564
 20
20.18983050283458
 10
23.23823927664339
 20
20.26555226548127
 10
23.35832241802149
 20
20.34183453967685
 10
23.48425230933021
 20
20.4193787641126
 10
23.61728961830907
 20
20.49888637747979
 10
23.75869501269754
 20
20.58105881846968
 10
23.90928492440629
 20
20.66627275374559
 10
24.06809884203035
 20
20.75360576185901
 10
24.23373201833586
 20
20.84181064933344
 10
24.40477970608903
 20
20.92964022269246
 10
24.57983715805599
 20
21.01584728845955
 10
24.75749962700291
 20
21.09918465315826
 10
24.93636236569596
 20
21.17840512331212
 10
25.11502062690131
 20
21.25226150544465
 10
25.29215851042718
 20
21.31979636809159
 10
25.46681550425005
 20
21.38121132783753
 10
25.63811994338845
 20
21.43699776327927
 10
25.80520016286093
 20
21.48764705301359
 10
25.96718449768605
 20
21.5336505756373
 10
26.12320128288235
 20
21.57549970974721
 10
26.27237885346835
 20
21.61368583394009
 10
26.41384554446261
 20
21.64870032681275
 10
26.54702397093471
 20
21.68105690257589
 10
26.67251386815844
 20
21.71135861789593
 10
26.79120925145858
 20
21.74023086505316
 10
26.90400413615995
 20
21.76829903632792
 10
27.01179253758737
 20
21.7961885240005
 10
27.11546847106566
 20
21.82452472035121
 10
27.21592595191961
 20
21.85393301766038
 10
27.31405899547405
 20
21.88503880820832
 10
27.41056046352174
 20
21.91834463932611
 10
27.50531860372736
 20
21.95386167854798
 10
27.5980205102235
 20
21.99147824845891
 10
27.68835327714281
 20
22.0310826716439
 10
27.77600399861788
 20
22.07256327068794
 10
27.86065976878135
 20
22.11580836817604
 10
27.94200768176581
 20
22.16070628669317
 10
28.01973483170392
 20
22.20714534882433
 10
28.09360653928349
 20
22.25502876750925
 10
28.1637010314132
 20
22.30431931710658
 10
28.23017476155696
 20
22.35499466232969
 10
28.29318418317866
 20
22.40703246789195
 10
28.35288574974219
 20
22.46041039850673
 10
28.40943591471145
 20
22.51510611888744
 10
28.46299113155036
 20
22.57109729374742
 10
28.51370785372279
 20
22.62836158780006
 10
28.56168826695191
 20
22.68682768006955
 10
28.60681748599793
 20
22.74622830682339
 10
28.64892635788033
 20
22.80624721863985
 10
28.68784572961857
 20
22.86656816609724
 10
28.72340644823211
 20
22.92687489977386
 10
28.75543936074045
 20
22.986851170248
 10
28.78377531416306
 20
23.04618072809796
 10
28.80824515551939
 20
23.10454732390205
 10
28.82878378008072
 20
23.16159232175018
 10
28.84574227612534
 20
23.21678753977881
 10
28.8595757801834
 20
23.26956240963602
 10
28.870739428785
 20
23.31934636296988
 10
28.87968835846022
 20
23.36556883142847
 10
28.88687770573921
 20
23.40765924665987
 10
28.89276260715205
 20
23.44504704031216
 10
28.89779819922885
 20
23.4771616440334
 10
28.902387382512
 20
23.50364103800732
 10
28.90672411359286
 20
23.52495739656013
 10
28.9109501130751
 20
23.54179144255367
 10
28.91520710156238
 20
23.5548238988498
 10
28.91963679965833
 20
23.56473548831035
 10
28.92438092796663
 20
23.57220693379716
 10
28.9295812070909
 20
23.57791895817209
 10
28.93537935763482
 20
23.58255228429698
 10
28.94209971310429
 20
23.58667062783273
 10
28.95079705861438
 20
23.59036967563643
 10
28.96270879218239
 20
23.59362810736419
 10
28.97907231182565
 20
23.59642460267217
 10
29.00112501556148
 20
23.59873784121651
 10
29.03010430140718
 20
23.60054650265333
 10
29.06724756738008
 20
23.60182926663876
 10
29.11379221149751
 20
23.60256481282896
 10
29.12045967130412
 20
23.60639491780697
 10
29.1849809553051
 20
23.60616276473351
 10
29.25483585071838
 20
23.60564634259048
 10
29.32737177516919
 20
23.60498778591268
 10
29.39993614628273
 20
23.60432922923488
 10
29.46987638168427
 20
23.60381280709186
 10
29.53453989899902
 20
23.60358065401839
 10
29.5912741158522
 20
23.60377490454926
 10
29.63808189133498
 20
23.60452821758357
 10
29.67558785040226
 20
23.60593534947785
 10
29.70507205947486
 20
23.60808158095299
 10
29.7278145849736
 20
23.61105219272982
 10
29.7450954933193
 20
23.61493246552922
 10
29.75819485093282
 20
23.61980768007206
 10
29.76839272423496
 20
23.62576311707921
 10
29.77696917964656
 20
23.63288405727152
 10
29.78498856871811
 20
23.64119655864704
 10
29.79265238351875
 20
23.65048978831253
 10
29.79994640124735
 20
23.66049369065189
 10
29.80685639910272
 20
23.67093821004907
 10
29.81336815428369
 20
23.68155329088798
 10
29.8194674439891
 20
23.69206887755255
 10
29.82514004541776
 20
23.7022149144267
 10
29.83037173576853
 20
23.71172134589434
 10
29.8351625150414
 20
23.72037497015333
 10
29.83956927444103
 20
23.72819000065714
 10
29.84366312797329
 20
23.73523750467315
 10
29.847515189644
 20
23.74158854946875
 10
29.85119657345904
 20
23.74731420231135
 10
29.85477839342422
 20
23.75248553046831
 10
29.85833176354543
 20
23.75717360120702
 10
29.86192779782848
 20
23.76144948179489
 10
29.86570872543386
 20
23.76541503531516
 10
29.87010123614055
 20
23.76929530811457
 10
29.87560313488219
 20
23.7733461423557
 10
29.88271222659236
 20
23.77782338020117
 10
29.8919263162047
 20
23.78298286381356
 10
29.90374320865283
 20
23.78908043535549
 10
29.91866070887035
 20
23.79637193698954
 10
29.93717662179088
 20
23.8051132108783
 10
29.95959555686873
 20
23.81551272095159
 10
29.98544934164082
 20
23.82758941820794
 10
30.0140766081648
 20
23.84131487541312
 10
30.04481598849829
 20
23.85666066533286
 10
30.07700611469892
 20
23.87359836073291
 10
30.10998561882431
 20
23.89209953437903
 10
30.14309313293208
 20
23.91213575903698
 10
30.17566728907986
 20
23.93367860747249
 10
30.2071557619497
 20
23.95670083704214
 10
30.23744239672128
 20
23.98117994346584
 10
30.2665200811987
 20
24.0070946070543
 10
30.29438170318607
 20
24.03442350811826
 10
30.3210201504875
 20
24.06314532696844
 10
30.3464283109071
 20
24.09323874391557
 10
30.37059907224897
 20
24.12468243927036
 10
30.39352532231721
 20
24.15745509334357
 10
30.415196393304
 20
24.19156025990766
 10
30.43558739495381
 20
24.22710098658218
 10
30.45466988139924
 20
24.26420519444841
 10
30.4724154067728
 20
24.30300080458768
 10
30.48879552520708
 20
24.34361573808127
 10
30.50378179083462
 20
24.38617791601049
 10
30.51734575778799
 20
24.43081525945662
 10
30.52945898019972
 20
24.47765568950098
 10
30.54010723491521
 20
24.52670749713383
 10
30.54933318963102
 20
24.57750045298135
 10
30.55719373475648
 20
24.62944469757867
 10
30.563745760701
 20
24.68195037146093
 10
30.56904615787392
 20
24.73442761516329
 10
30.57315181668461
 20
24.78628656922088
 10
30.57611962754244
 20
24.83693737416885
 10
30.57710041101844
 20
24.86233098324009
  0
DIMENSION
  5
1D7E
330
18
100
AcDbEntity
  8
DIM
100
AcDbDimension
  2
*D1
 10
10.53894028217325
 20
9.233164881760213
 30
0.0
 11
10.53894028217325
 21
17.04593000527658
 31
0.0
 70
    32
 71
     5
 42
15.62553024703273
  3
STANDARD
100
AcDbAlignedDimension
 13
14.95930584521981
 23
24.85869512879294
 33
0.0
 14
14.95930584521982
 24
9.233164881760211
 34
0.0
 50
90.0
100
AcDbRotatedDimension
  0
LINE
  5
1D8C
330
18
100
AcDbEntity
  8
0
100
AcDbLine
 10
34.15668909537776
 20
24.85869512879294
 30
0.0
 11
35.28168909537776
 21
24.85869512879294
 31
0.0
  0
LINE
  5
1D8D
330
18
100
AcDbEntity
  8
0
100
AcDbLine
 10
35.28168909537776
 20
24.85869512879294
 30
0.0
 11
35.28168909537776
 21
9.233695128792941
 31
0.0
  0
LINE
  5
1D8E
330
18
100
AcDbEntity
  8
0
100
AcDbLine
 10
35.28168909537776
 20
9.233695128792941
 30
0.0
 11
34.15668909537776
 21
9.233695128792941
 31
0.0
  0
LINE
  5
1D8F
330
18
100
AcDbEntity
  8
0
100
AcDbLine
 10
34.15668909537776
 20
9.233695128792941
 30
0.0
 11
34.15668909537776
 21
24.85869512879294
 31
0.0
  0
DIMENSION
  5
1D90
330
18
100
AcDbEntity
  8
DIM
100
AcDbDimension
  2
*D2
 10
35.28168909537776
 20
27.82315795915351
 30
0.0
 11
36.21835576204443
 21
27.82315795915351
 31
0.0
 70
    32
 71
     5
 42
1.125
  3
STANDARD
100
AcDbAlignedDimension
 13
34.15668909537776
 23
17.04619512879294
 33
0.0
 14
35.28168909537776
 24
17.04619512879294
 34
0.0
100
AcDbRotatedDimension
  0
DIMENSION
  5
1D9E
330
18
100
AcDbEntity
  8
DIM
100
AcDbDimension
  2
*D3
 10
14.95930584521981
 20
27.36198687757922
 30
0.0
 11
22.76820312811913
 21
27.36198687757922
 31
0.0
 70
    32
 71
     5
 42
15.61779456579862
  3
STANDARD
100
AcDbAlignedDimension
 13
30.57710041101844
 23
24.86233098324009
 33
0.0
 14
14.95930584521981
 24
24.85869512879294
 34
0.0
100
AcDbRotatedDimension
  0
ENDSEC
  0
SECTION
  2
OBJECTS
  0
DICTIONARY
  5
C
330
0
100
AcDbDictionary
281
     1
  3
ACAD_COLOR
350
1CB1
  3
ACAD_GROUP
350
D
  3
ACAD_IMAGE_DICT
350
21
  3
ACAD_IMAGE_VARS
350
20
  3
ACAD_LAYOUT
350
1CB2
  3
ACAD_MATERIAL
350
1CB0
  3
ACAD_MLINESTYLE
350
1B
  3
ACAD_PLOTSETTINGS
350
1CB3
  3
ACAD_PLOTSTYLENAME
350
1CAE
  0
DICTIONARY
  5
1CB1
102
{ACAD_REACTORS
330
C
102
}
330
C
100
AcDbDictionary
281
     1
  0
DICTIONARY
  5
D
102
{ACAD_REACTORS
330
C
102
}
330
C
100
AcDbDictionary
281
     1
  0
DICTIONARY
  5
21
102
{ACAD_REACTORS
330
C
102
}
330
C
100
AcDbDictionary
281
     1
  3
3309-1
350
22
  3
3309-2
350
25
  3
3309-3
350
28
  0
RASTERVARIABLES
  5
20
102
{ACAD_REACTORS
330
C
102
}
330
C
100
AcDbRasterVariables
 90
        0
 70
     1
 71
     1
 72
     0
  0
DICTIONARY
  5
1CB2
102
{ACAD_REACTORS
330
C
102
}
330
C
100
AcDbDictionary
281
     1
  3
Layout1
350
1CB5
  3
Model
350
1CB4
  0
DICTIONARY
  5
1CB0
102
{ACAD_REACTORS
330
C
102
}
330
C
100
AcDbDictionary
281
     1
  0
DICTIONARY
  5
1B
102
{ACAD_REACTORS
330
C
102
}
330
C
100
AcDbDictionary
281
     1
  3
STANDARD
350
1C
  0
DICTIONARY
  5
1CB3
102
{ACAD_REACTORS
330
C
102
}
330
C
100
AcDbDictionary
281
     1
  0
ACDBDICTIONARYWDFLT
  5
1CAE
102
{ACAD_REACTORS
330
C
102
}
330
C
100
AcDbDictionary
281
     1
  3
Normal
350
1CAF
100
AcDbDictionaryWithDefault
340
1CAF
  0
IMAGEDEF
  5
22
102
{ACAD_REACTORS
330
21
102
}
330
21
100
AcDbRasterImageDef
 90
        0
  1
U:\TPDWG\MichelQ\3309-1.tif
 10
2874.0
 20
3065.0
 11
0.0705555555555556
 21
0.0705555555555556
280
     1
281
     5
  0
IMAGEDEF
  5
25
102
{ACAD_REACTORS
330
21
102
}
330
21
100
AcDbRasterImageDef
 90
        0
  1
U:\TPDWG\MichelQ\3309-2.tif
 10
2874.0
 20
3065.0
 11
0.0705555555555556
 21
0.0705555555555556
280
     1
281
     5
  0
IMAGEDEF
  5
28
102
{ACAD_REACTORS
330
21
102
}
330
21
100
AcDbRasterImageDef
 90
        0
  1
U:\TPDWG\MichelQ\3309-3.tif
 10
2874.0
 20
3065.0
 11
0.0705555555555556
 21
0.0705555555555556
280
     1
281
     5
  0
LAYOUT
  5
1CB5
102
{ACAD_REACTORS
330
1CB2
102
}
330
1CB2
100
AcDbPlotSettings
  1

  2
None
  4

  6

 40
0.0
 41
0.0
 42
0.0
 43
0.0
 44
0.0
 45
0.0
 46
0.0
 47
0.0
 48
0.0
 49
0.0
140
0.0
141
0.0
142
1.0
143
1.0
 70
   688
 72
     0
 73
     0
 74
     5
  7

 75
    16
147
1.0
 76
     0
 77
     2
 78
   300
148
0.0
149
0.0
100
AcDbLayout
  1
Layout1
 70
     1
 71
     1
 10
0.0
 20
0.0
 11
12.0
 21
9.0
 12
0.0
 22
0.0
 32
0.0
 14
1.000000000000000E+20
 24
1.000000000000000E+20
 34
1.000000000000000E+20
 15
-1.000000000000000E+20
 25
-1.000000000000000E+20
 35
-1.000000000000000E+20
146
0.0
 13
0.0
 23
0.0
 33
0.0
 16
1.0
 26
0.0
 36
0.0
 17
0.0
 27
1.0
 37
0.0
 76
     0
330
15
  0
LAYOUT
  5
1CB4
102
{ACAD_REACTORS
330
1CB2
102
}
330
1CB2
100
AcDbPlotSettings
  1

  2
None
  4

  6

 40
0.0
 41
0.0
 42
0.0
 43
0.0
 44
0.0
 45
0.0
 46
0.0
 47
0.0
 48
0.0
 49
0.0
140
0.0
141
0.0
142
1.0
143
1.0
 70
  1712
 72
     0
 73
     0
 74
     0
  7

 75
     0
147
1.0
 76
     0
 77
     2
 78
   300
148
0.0
149
0.0
100
AcDbLayout
  1
Model
 70
     1
 71
     0
 10
0.0
 20
0.0
 11
12.0
 21
9.0
 12
0.0
 22
0.0
 32
0.0
 14
0.0
 24
0.0
 34
0.0
 15
0.0
 25
0.0
 35
0.0
146
0.0
 13
0.0
 23
0.0
 33
0.0
 16
1.0
 26
0.0
 36
0.0
 17
0.0
 27
1.0
 37
0.0
 76
     0
330
18
  0
MLINESTYLE
  5
1C
102
{ACAD_REACTORS
330
1B
102
}
330
1B
100
AcDbMlineStyle
  2
STANDARD
 70
     0
  3

 62
   256
 51
90.0
 52
90.0
 71
     2
 49
0.5
 62
   256
  6
BYLAYER
 49
-0.5
 62
   256
  6
BYLAYER
  0
ACDBPLACEHOLDER
  5
1CAF
102
{ACAD_REACTORS
330
1CAE
102
}
330
1CAE
  0
ENDSEC
  0
EOF
