  0
SECTION
  2
HEADER
  9
$ACADVER
  1
AC1018
  9
$ACADMAINTVER
 70
     0
  9
$DWGCODEPAGE
  3
ANSI_1252
  9
$INSBASE
 10
0.0
 20
0.0
 30
0.0
  9
$EXTMIN
 10
1.637348826123614
 20
2.738739673053589
 30
0.0
  9
$EXTMAX
 10
27.80984207783177
 20
25.25539715057712
 30
0.0
  9
$LIMMIN
 10
0.0
 20
0.0
  9
$LIMMAX
 10
12.0
 20
9.0
  9
$ORTHOMODE
 70
     0
  9
$REGENMODE
 70
     1
  9
$FILLMODE
 70
     1
  9
$QTEXTMODE
 70
     0
  9
$MIRRTEXT
 70
     1
  9
$LTSCALE
 40
1.0
  9
$ATTMODE
 70
     1
  9
$TEXTSIZE
 40
0.2
  9
$TRACEWID
 40
0.05
  9
$TEXTSTYLE
  7
STANDARD
  9
$CLAYER
  8
0
  9
$CELTYPE
  6
BYLAYER
  9
$CECOLOR
 62
   256
  9
$CELTSCALE
 40
1.0
  9
$DISPSILH
 70
     0
  9
$DIMSCALE
 40
1.0
  9
$DIMASZ
 40
0.18
  9
$DIMEXO
 40
0.0625
  9
$DIMDLI
 40
0.38
  9
$DIMRND
 40
0.0
  9
$DIMDLE
 40
0.0
  9
$DIMEXE
 40
0.18
  9
$DIMTP
 40
0.0
  9
$DIMTM
 40
0.0
  9
$DIMTXT
 40
1.0
  9
$DIMCEN
 40
0.09
  9
$DIMTSZ
 40
0.0
  9
$DIMTOL
 70
     0
  9
$DIMLIM
 70
     0
  9
$DIMTIH
 70
     1
  9
$DIMTOH
 70
     1
  9
$DIMSE1
 70
     0
  9
$DIMSE2
 70
     0
  9
$DIMTAD
 70
     0
  9
$DIMZIN
 70
     0
  9
$DIMBLK
  1

  9
$DIMASO
 70
     1
  9
$DIMSHO
 70
     1
  9
$DIMPOST
  1

  9
$DIMAPOST
  1

  9
$DIMALT
 70
     0
  9
$DIMALTD
 70
     2
  9
$DIMALTF
 40
25.4
  9
$DIMLFAC
 40
1.0
  9
$DIMTOFL
 70
     0
  9
$DIMTVP
 40
0.0
  9
$DIMTIX
 70
     0
  9
$DIMSOXD
 70
     0
  9
$DIMSAH
 70
     0
  9
$DIMBLK1
  1

  9
$DIMBLK2
  1

  9
$DIMSTYLE
  2
STANDARD
  9
$DIMCLRD
 70
     0
  9
$DIMCLRE
 70
     0
  9
$DIMCLRT
 70
     0
  9
$DIMTFAC
 40
1.0
  9
$DIMGAP
 40
0.09
  9
$DIMJUST
 70
     0
  9
$DIMSD1
 70
     0
  9
$DIMSD2
 70
     0
  9
$DIMTOLJ
 70
     1
  9
$DIMTZIN
 70
     0
  9
$DIMALTZ
 70
     0
  9
$DIMALTTZ
 70
     0
  9
$DIMUPT
 70
     0
  9
$DIMDEC
 70
     4
  9
$DIMTDEC
 70
     4
  9
$DIMALTU
 70
     2
  9
$DIMALTTD
 70
     2
  9
$DIMTXSTY
  7
STANDARD
  9
$DIMAUNIT
 70
     0
  9
$DIMADEC
 70
     0
  9
$DIMALTRND
 40
0.0
  9
$DIMAZIN
 70
     0
  9
$DIMDSEP
 70
    46
  9
$DIMATFIT
 70
     3
  9
$DIMFRAC
 70
     0
  9
$DIMLDRBLK
  1

  9
$DIMLUNIT
 70
     5
  9
$DIMLWD
 70
    -2
  9
$DIMLWE
 70
    -2
  9
$DIMTMOVE
 70
     0
  9
$LUNITS
 70
     4
  9
$LUPREC
 70
     4
  9
$SKETCHINC
 40
0.1
  9
$FILLETRAD
 40
0.0
  9
$AUNITS
 70
     0
  9
$AUPREC
 70
     0
  9
$MENU
  1
.
  9
$ELEVATION
 40
0.0
  9
$PELEVATION
 40
0.0
  9
$THICKNESS
 40
0.0
  9
$LIMCHECK
 70
     0
  9
$CHAMFERA
 40
0.5
  9
$CHAMFERB
 40
0.5
  9
$CHAMFERC
 40
1.0
  9
$CHAMFERD
 40
0.0
  9
$SKPOLY
 70
     0
  9
$TDCREATE
 40
2451160.318790972
  9
$TDUCREATE
 40
2451160.485457639
  9
$TDUPDATE
 40
2453488.684520833
  9
$TDUUPDATE
 40
2453488.851187500
  9
$TDINDWG
 40
0.1647900116
  9
$TDUSRTIMER
 40
0.1647900116
  9
$USRTIMER
 70
     1
  9
$ANGBASE
 50
0.0
  9
$ANGDIR
 70
     0
  9
$PDMODE
 70
     3
  9
$PDSIZE
 40
1.0
  9
$PLINEWID
 40
0.0
  9
$SPLFRAME
 70
     0
  9
$SPLINETYPE
 70
     6
  9
$SPLINESEGS
 70
     8
  9
$HANDSEED
  5
965E
  9
$SURFTAB1
 70
     6
  9
$SURFTAB2
 70
     6
  9
$SURFTYPE
 70
     6
  9
$SURFU
 70
     6
  9
$SURFV
 70
     6
  9
$UCSBASE
  2

  9
$UCSNAME
  2

  9
$UCSORG
 10
0.0
 20
0.0
 30
0.0
  9
$UCSXDIR
 10
1.0
 20
0.0
 30
0.0
  9
$UCSYDIR
 10
0.0
 20
1.0
 30
0.0
  9
$UCSORTHOREF
  2

  9
$UCSORTHOVIEW
 70
     0
  9
$UCSORGTOP
 10
0.0
 20
0.0
 30
0.0
  9
$UCSORGBOTTOM
 10
0.0
 20
0.0
 30
0.0
  9
$UCSORGLEFT
 10
0.0
 20
0.0
 30
0.0
  9
$UCSORGRIGHT
 10
0.0
 20
0.0
 30
0.0
  9
$UCSORGFRONT
 10
0.0
 20
0.0
 30
0.0
  9
$UCSORGBACK
 10
0.0
 20
0.0
 30
0.0
  9
$PUCSBASE
  2

  9
$PUCSNAME
  2

  9
$PUCSORG
 10
0.0
 20
0.0
 30
0.0
  9
$PUCSXDIR
 10
1.0
 20
0.0
 30
0.0
  9
$PUCSYDIR
 10
0.0
 20
1.0
 30
0.0
  9
$PUCSORTHOREF
  2

  9
$PUCSORTHOVIEW
 70
     0
  9
$PUCSORGTOP
 10
0.0
 20
0.0
 30
0.0
  9
$PUCSORGBOTTOM
 10
0.0
 20
0.0
 30
0.0
  9
$PUCSORGLEFT
 10
0.0
 20
0.0
 30
0.0
  9
$PUCSORGRIGHT
 10
0.0
 20
0.0
 30
0.0
  9
$PUCSORGFRONT
 10
0.0
 20
0.0
 30
0.0
  9
$PUCSORGBACK
 10
0.0
 20
0.0
 30
0.0
  9
$USERI1
 70
     0
  9
$USERI2
 70
     0
  9
$USERI3
 70
     0
  9
$USERI4
 70
     0
  9
$USERI5
 70
     0
  9
$USERR1
 40
0.0
  9
$USERR2
 40
0.0
  9
$USERR3
 40
0.0
  9
$USERR4
 40
0.0
  9
$USERR5
 40
0.0
  9
$WORLDVIEW
 70
     1
  9
$SHADEDGE
 70
     3
  9
$SHADEDIF
 70
    70
  9
$TILEMODE
 70
     1
  9
$MAXACTVP
 70
    48
  9
$PINSBASE
 10
0.0
 20
0.0
 30
0.0
  9
$PLIMCHECK
 70
     0
  9
$PEXTMIN
 10
1.000000000000000E+20
 20
1.000000000000000E+20
 30
1.000000000000000E+20
  9
$PEXTMAX
 10
-1.000000000000000E+20
 20
-1.000000000000000E+20
 30
-1.000000000000000E+20
  9
$PLIMMIN
 10
0.0
 20
0.0
  9
$PLIMMAX
 10
12.0
 20
9.0
  9
$UNITMODE
 70
     0
  9
$VISRETAIN
 70
     1
  9
$PLINEGEN
 70
     0
  9
$PSLTSCALE
 70
     1
  9
$TREEDEPTH
 70
  3020
  9
$CMLSTYLE
  2
STANDARD
  9
$CMLJUST
 70
     0
  9
$CMLSCALE
 40
1.0
  9
$PROXYGRAPHICS
 70
     1
  9
$MEASUREMENT
 70
     0
  9
$CELWEIGHT
370
    -1
  9
$ENDCAPS
280
     0
  9
$JOINSTYLE
280
     0
  9
$LWDISPLAY
290
     0
  9
$INSUNITS
 70
     0
  9
$HYPERLINKBASE
  1

  9
$STYLESHEET
  1

  9
$XEDIT
290
     1
  9
$CEPSNTYPE
380
     0
  9
$PSTYLEMODE
290
     1
  9
$FINGERPRINTGUID
  2
{C8B765B3-EF8C-4F0C-9DCE-60E2C613FD75}
  9
$VERSIONGUID
  2
{055987E7-A249-4D16-B63D-F9CE473B5C11}
  9
$EXTNAMES
290
     1
  9
$PSVPSCALE
 40
0.0
  9
$OLESTARTUP
290
     0
  9
$SORTENTS
280
   127
  9
$INDEXCTL
280
     0
  9
$HIDETEXT
280
     0
  9
$XCLIPFRAME
290
     0
  9
$HALOGAP
280
     0
  9
$OBSCOLOR
 70
   257
  9
$OBSLTYPE
280
     0
  9
$INTERSECTIONDISPLAY
280
     0
  9
$INTERSECTIONCOLOR
 70
   257
  9
$DIMASSOC
280
     1
  9
$PROJECTNAME
  1

  0
ENDSEC
  0
SECTION
  2
CLASSES
  0
CLASS
  1
RASTERVARIABLES
  2
AcDbRasterVariables
  3
ISM
 90
        0
 91
        1
280
     0
281
     0
  0
CLASS
  1
IMAGEDEF
  2
AcDbRasterImageDef
  3
ISM
 90
        0
 91
        3
280
     0
281
     0
  0
CLASS
  1
IMAGEDEF_REACTOR
  2
AcDbRasterImageDefReactor
  3
ISM
 90
        1
 91
        0
280
     0
281
     0
  0
CLASS
  1
IMAGE
  2
AcDbRasterImage
  3
ISM
 90
      127
 91
        0
280
     0
281
     1
  0
CLASS
  1
ACDBDICTIONARYWDFLT
  2
AcDbDictionaryWithDefault
  3
ObjectDBX Classes
 90
        0
 91
        1
280
     0
281
     0
  0
ENDSEC
  0
SECTION
  2
TABLES
  0
TABLE
  2
VPORT
  5
8
330
0
100
AcDbSymbolTable
 70
     2
  0
VPORT
  5
965D
330
8
100
AcDbSymbolTableRecord
100
AcDbViewportTableRecord
  2
*Active
 70
     0
 10
0.0
 20
0.0
 11
1.0
 21
1.0
 12
15.76230867317176
 22
12.75709809295213
 13
0.0
 23
0.0
 14
0.5
 24
0.5
 15
0.5
 25
0.5
 16
0.0
 26
0.0
 36
1.0
 17
0.0
 27
0.0
 37
0.0
 40
26.72618195676051
 41
1.977142857142857
 42
50.0
 43
0.0
 44
0.0
 50
0.0
 51
0.0
 71
     0
 72
   100
 73
     1
 74
     1
 75
     0
 76
     0
 77
     0
 78
     0
281
     0
 65
     1
110
0.0
120
0.0
130
0.0
111
1.0
121
0.0
131
0.0
112
0.0
122
1.0
132
0.0
 79
     0
146
0.0
  0
ENDTAB
  0
TABLE
  2
LTYPE
  5
5
330
0
100
AcDbSymbolTable
 70
     1
  0
LTYPE
  5
12
330
5
100
AcDbSymbolTableRecord
100
AcDbLinetypeTableRecord
  2
BYBLOCK
 70
     0
  3

 72
    65
 73
     0
 40
0.0
  0
LTYPE
  5
13
330
5
100
AcDbSymbolTableRecord
100
AcDbLinetypeTableRecord
  2
BYLAYER
 70
     0
  3

 72
    65
 73
     0
 40
0.0
  0
LTYPE
  5
14
330
5
100
AcDbSymbolTableRecord
100
AcDbLinetypeTableRecord
  2
CONTINUOUS
 70
     0
  3
Solid line
 72
    65
 73
     0
 40
0.0
  0
ENDTAB
  0
TABLE
  2
LAYER
  5
2
330
0
100
AcDbSymbolTable
 70
     3
  0
LAYER
  5
E
330
2
100
AcDbSymbolTableRecord
100
AcDbLayerTableRecord
  2
0
 70
     0
 62
     7
  6
CONTINUOUS
370
    -3
390
950D
  0
LAYER
  5
9517
330
2
100
AcDbSymbolTableRecord
100
AcDbLayerTableRecord
  2
Defpoints
 70
     0
 62
     7
  6
CONTINUOUS
290
     0
370
    -3
390
950D
  0
LAYER
  5
961B
330
2
100
AcDbSymbolTableRecord
100
AcDbLayerTableRecord
  2
DIM
 70
     0
 62
    -3
  6
CONTINUOUS
370
    -3
390
950D
  0
ENDTAB
  0
TABLE
  2
STYLE
  5
3
330
0
100
AcDbSymbolTable
 70
     1
  0
STYLE
  5
F
330
3
100
AcDbSymbolTableRecord
100
AcDbTextStyleTableRecord
  2
STANDARD
 70
     0
 40
0.0
 41
1.0
 50
0.0
 71
     0
 42
0.2
  3
txt
  4

  0
ENDTAB
  0
TABLE
  2
VIEW
  5
6
330
0
100
AcDbSymbolTable
 70
     0
  0
ENDTAB
  0
TABLE
  2
UCS
  5
7
330
0
100
AcDbSymbolTable
 70
     0
  0
ENDTAB
  0
TABLE
  2
APPID
  5
9
330
0
100
AcDbSymbolTable
 70
     1
  0
APPID
  5
10
330
9
100
AcDbSymbolTableRecord
100
AcDbRegAppTableRecord
  2
ACAD
 70
     0
  0
ENDTAB
  0
TABLE
  2
DIMSTYLE
  5
A
330
0
100
AcDbSymbolTable
 70
     1
100
AcDbDimStyleTable
 71
     1
340
1D
  0
DIMSTYLE
105
1D
102
{ACAD_REACTORS
330
95E6
330
95F9
330
9607
102
}
330
A
100
AcDbSymbolTableRecord
100
AcDbDimStyleTableRecord
  2
STANDARD
 70
     0
140
1.0
277
     5
340
F
  0
ENDTAB
  0
TABLE
  2
BLOCK_RECORD
  5
1
330
0
100
AcDbSymbolTable
 70
     4
  0
BLOCK_RECORD
  5
18
330
1
100
AcDbSymbolTableRecord
100
AcDbBlockTableRecord
  2
*MODEL_SPACE
340
9512
  0
BLOCK_RECORD
  5
15
330
1
100
AcDbSymbolTableRecord
100
AcDbBlockTableRecord
  2
*PAPER_SPACE
340
9513
  0
BLOCK_RECORD
  5
8F1F
330
1
100
AcDbSymbolTableRecord
100
AcDbBlockTableRecord
  2
3310_E
340
0
  0
BLOCK_RECORD
  5
95E7
330
1
100
AcDbSymbolTableRecord
100
AcDbBlockTableRecord
  2
*D1
340
0
  0
BLOCK_RECORD
  5
95FA
330
1
100
AcDbSymbolTableRecord
100
AcDbBlockTableRecord
  2
*D2
340
0
  0
BLOCK_RECORD
  5
9608
330
1
100
AcDbSymbolTableRecord
100
AcDbBlockTableRecord
  2
*D3
340
0
  0
ENDTAB
  0
ENDSEC
  0
SECTION
  2
BLOCKS
  0
BLOCK
  5
19
330
18
100
AcDbEntity
  8
0
100
AcDbBlockBegin
  2
*MODEL_SPACE
 70
     0
 10
0.0
 20
0.0
 30
0.0
  3
*MODEL_SPACE
  1

  0
ENDBLK
  5
1A
330
18
100
AcDbEntity
  8
0
100
AcDbBlockEnd
  0
BLOCK
  5
16
330
15
100
AcDbEntity
 67
     1
  8
0
100
AcDbBlockBegin
  2
*PAPER_SPACE
 70
     0
 10
0.0
 20
0.0
 30
0.0
  3
*PAPER_SPACE
  1

  0
ENDBLK
  5
17
330
15
100
AcDbEntity
 67
     1
  8
0
100
AcDbBlockEnd
  0
BLOCK
  5
8F20
330
8F1F
100
AcDbEntity
  8
0
100
AcDbBlockBegin
  2
3310_E
 70
     0
 10
0.0
 20
0.0
 30
0.0
  3
3310_E
  1

  0
LINE
  5
8F21
330
8F1F
100
AcDbEntity
  8
0
100
AcDbLine
 10
0.0
 20
-18.3546121871771
 30
0.0
 11
0.0
 21
0.0
 31
0.0
  0
LWPOLYLINE
  5
8F22
330
8F1F
100
AcDbEntity
  8
0
100
AcDbPolyline
 90
      701
 70
     0
 43
0.0
 10
0.0
 20
-18.3546121871771
 10
0.0499916774053286
 20
-18.35852420610084
 10
0.1069443984570206
 20
-18.36014852228395
 10
0.1604412130002757
 20
-18.35894338238155
 10
0.2110057432333336
 20
-18.3552231700761
 10
0.2591616113544486
 20
-18.34930226904999
 10
0.3054324395618622
 20
-18.34149506298564
 10
0.3503418500538356
 20
-18.33211593556547
 10
0.3943261946117538
 20
-18.32139849128867
 10
0.4374727433496144
 20
-18.30925321792161
 10
0.4797814959645593
 20
-18.29550982404747
 10
0.5212524521537141
 20
-18.27999801824938
 10
0.5618856116142262
 20
-18.26254750911051
 10
0.6016809740432372
 20
-18.24298800521403
 10
0.6406385391378713
 20
-18.22114921514308
 10
0.678758306595281
 20
-18.19686084748082
 10
0.7159835503113499
 20
-18.17008142103501
 10
0.752030640977031
 20
-18.14128469551179
 10
0.7865592234820209
 20
-18.11107324084193
 10
0.8192289427160126
 20
-18.08004962695617
 10
0.8496994435687152
 20
-18.04881642378526
 10
0.8776303709298147
 20
-18.01797620125995
 10
0.9026813696890183
 20
-17.98813152931098
 10
0.924512084736035
 20
-17.9598849778691
 10
0.9429087033072693
 20
-17.93372122276952
 10
0.9581635820260618
 20
-17.90965336346522
 10
0.9706956198624467
 20
-17.88757660531359
 10
0.9809237157864689
 20
-17.86738615367211
 10
0.9892667687681804
 20
-17.84897721389814
 10
0.9961436777776278
 20
-17.83224499134914
 10
1.00197334178485
 20
-17.81708469138254
 10
1.007174659759899
 20
-17.80339151935575
 10
1.012120713497017
 20
-17.79105849734316
 10
1.017001316087236
 20
-17.77996991428694
 10
1.021960463445786
 20
-17.77000787584621
 10
1.0271421514879
 20
-17.76105448768013
 10
1.032690376128797
 20
-17.75299185544783
 10
1.038749133283719
 20
-17.74570208480841
 10
1.045462418867886
 20
-17.73906728142103
 10
1.052974228796539
 20
-17.73296955094484
 10
1.061387105592416
 20
-17.72726916678085
 10
1.070637778208356
 20
-17.72173907329776
 10
1.080621522204705
 20
-17.71613038260619
 10
1.091233613141815
 20
-17.71019420681671
 10
1.102369326580035
 20
-17.70368165803993
 10
1.113923938079711
 20
-17.69634384838647
 10
1.125792723201204
 20
-17.68793188996691
 10
1.137870957504853
 20
-17.67819689489187
 10
1.150040825958198
 20
-17.66697730438606
 10
1.162132151157525
 20
-17.6544608761307
 10
1.173961665106295
 20
-17.64092269692119
 10
1.185346099807983
 20
-17.62663785355282
 10
1.196102187266044
 20
-17.61188143282101
 10
1.206046659483943
 20
-17.59692852152108
 10
1.214996248465158
 20
-17.58205420644839
 10
1.22276768621316
 20
-17.56753357439832
 10
1.22923224876717
 20
-17.55346923746631
 10
1.234479388309512
 20
-17.53927390894824
 10
1.238653101058284
 20
-17.52418782744017
 10
1.241897383231579
 20
-17.50745123153811
 10
1.244356231047486
 20
-17.48830435983803
 10
1.246173640724089
 20
-17.46598745093599
 10
1.247493608479496
 20
-17.43974074342798
 10
1.248460130531775
 20
-17.40880447590999
 10
1.249199749025763
 20
-17.37276820245333
 10
1.249769189813171
 20
-17.33261873903025
 10
1.250207724672439
 20
-17.2896922170883
 10
1.250554625382006
 20
-17.24532476807498
 10
1.250849163720321
 20
-17.20085252343783
 10
1.251130611465821
 20
-17.15761161462439
 10
1.251438240396945
 20
-17.11693817308218
 10
1.251811322292143
 20
-17.08016833025874
 10
1.252306583003125
 20
-17.04831291774923
 10
1.25305056467471
 20
-17.02108156773948
 10
1.254187263524991
 20
-16.99785861256294
 10
1.255860675772058
 20
-16.97802838455308
 10
1.258214797634005
 20
-16.96097521604333
 10
1.261393625328917
 20
-16.9460834393672
 10
1.265541155074895
 20
-16.93273738685813
 10
1.27080138309002
 20
-16.92032139084957
 10
1.277329214470215
 20
-16.90833112767609
 10
1.285323189822678
 20
-16.89670764967664
 10
1.294992758632428
 20
-16.88550335319123
 10
1.306547370384491
 20
-16.87477063455992
 10
1.320196474563896
 20
-16.86456189012274
 10
1.336149520655659
 20
-16.85492951621971
 10
1.354615958144796
 20
-16.8459259091909
 10
1.375805236516345
 20
-16.83760346537635
 10
1.39984389821798
 20
-16.8299469014676
 10
1.426526857547987
 20
-16.82267021556241
 10
1.455566121767347
 20
-16.81541972611004
 10
1.486673698136991
 20
-16.80784175155978
 10
1.519561593917883
 20
-16.79958261036091
 10
1.553941816370983
 20
-16.79028862096267
 10
1.589526372757235
 20
-16.7796061018144
 10
1.626027270337603
 20
-16.76718137136531
 10
1.663156516322571
 20
-16.75275026005303
 10
1.700626117720691
 20
-16.73640664626843
 10
1.738148081490072
 20
-16.71833392039071
 10
1.775434414588797
 20
-16.69871547279904
 10
1.812197123974966
 20
-16.67773469387264
 10
1.848148216606672
 20
-16.6555749739907
 10
1.882999699442006
 20
-16.63241970353242
 10
1.916463579439065
 20
-16.60845227287698
 10
1.948315134805023
 20
-16.58382114101961
 10
1.978582728743344
 20
-16.55853504141956
 10
2.007357995706611
 20
-16.53256777615218
 10
2.034732570147362
 20
-16.50589314729269
 10
2.060798086518168
 20
-16.47848495691643
 10
2.085646179271597
 20
-16.45031700709868
 10
2.109368482860181
 20
-16.42136309991473
 10
2.132056631736514
 20
-16.39159703743991
 10
2.153795714955766
 20
-16.36100353751055
 10
2.174644639983704
 20
-16.32961098100732
 10
2.194655768888726
 20
-16.29745866457199
 10
2.213881463739213
 20
-16.26458588484629
 10
2.232374086603567
 20
-16.23103193847197
 10
2.250185999550184
 20
-16.1968361220908
 10
2.267369564647463
 20
-16.16203773234448
 10
2.283977143963788
 20
-16.12667606587477
 10
2.300091644284108
 20
-16.09081661847472
 10
2.315918151259664
 20
-16.05462968254238
 10
2.33169229525825
 20
-16.01831174962714
 10
2.347649706647633
 20
-15.98205931127834
 10
2.364026015795634
 20
-15.94606885904536
 10
2.381056853070015
 20
-15.91053688447755
 10
2.398977848838562
 20
-15.87565987912427
 10
2.418024633469077
 20
-15.84163433453491
 10
2.438419746787031
 20
-15.80862399350373
 10
2.460333366448487
 20
-15.77666160380454
 10
2.483922579567236
 20
-15.7457471644561
 10
2.509344473257044
 20
-15.71588067447719
 10
2.536756134631678
 20
-15.68706213288653
 10
2.566314650804915
 20
-15.65929153870288
 10
2.598177108890496
 20
-15.63256889094499
 10
2.632500596002211
 20
-15.60689418863162
 10
2.669315656957564
 20
-15.58224996525304
 10
2.70814666738911
 20
-15.55854889218576
 10
2.748391460633097
 20
-15.53568617527784
 10
2.789447870025833
 20
-15.51355702037732
 10
2.830713728903592
 20
-15.49205663333226
 10
2.871586870602657
 20
-15.47108021999071
 10
2.911465128459301
 20
-15.45052298620073
 10
2.94974633580983
 20
-15.43028013781034
 10
2.985976635111132
 20
-15.41022570838244
 10
3.020295405302745
 20
-15.39014904233936
 10
3.052990334444775
 20
-15.36981831181825
 10
3.084349110597379
 20
-15.34900168895624
 10
3.114659421820697
 20
-15.32746734589052
 10
3.144208956174855
 20
-15.30498345475821
 10
3.173285401719992
 20
-15.28131818769649
 10
3.20217644651624
 20
-15.25623971684248
 10
3.231069620632423
 20
-15.22960440629404
 10
3.259751822171899
 20
-15.20162138799165
 10
3.287909791246717
 20
-15.17258798583651
 10
3.315230267968953
 20
-15.14280152372977
 10
3.341399992450627
 20
-15.1125593255726
 10
3.366105704803791
 20
-15.08215871526619
 10
3.389034145140506
 20
-15.05189701671171
 10
3.409872053572795
 20
-15.02207155381034
 10
3.428377457808132
 20
-14.99287663294765
 10
3.444593535935629
 20
-14.96409449044688
 10
3.45863475363981
 20
-14.93540434511563
 10
3.470615576605197
 20
-14.90648541576153
 10
3.480650470516319
 20
-14.87701692119223
 10
3.488853901057696
 20
-14.84667808021535
 10
3.495340333913867
 20
-14.81514811163852
 10
3.500224234769344
 20
-14.78210623426934
 10
3.503603376528825
 20
-14.74736149261202
 10
3.505508760977727
 20
-14.71124223395678
 10
3.505954697121627
 20
-14.67420663129045
 10
3.504955493966086
 20
-14.63671285759981
 10
3.5025254605167
 20
-14.59921908587169
 10
3.498678905779042
 20
-14.56218348909286
 10
3.493430138758679
 20
-14.52606424025014
 10
3.486793468461188
 20
-14.49131951233031
 10
3.478845206302001
 20
-14.45831679807103
 10
3.469909673335859
 20
-14.42706086921317
 10
3.460373193027344
 20
-14.39746581724847
 10
3.450622088841047
 20
-14.36944573366867
 10
3.441042684241555
 20
-14.34291470996552
 10
3.432021302693458
 20
-14.31778683763071
 10
3.42394426766134
 20
-14.29397620815602
 10
3.417197902609784
 20
-14.27139691303312
 10
3.412096989710775
 20
-14.24997258936167
 10
3.408670145965945
 20
-14.22966505667269
 10
3.406874447084316
 20
-14.21044568010509
 10
3.406666968774912
 20
-14.19228582479777
 10
3.408004786746726
 20
-14.17515685588966
 10
3.410844976708824
 20
-14.15903013851969
 10
3.41514461437019
 20
-14.14387703782672
 10
3.420860775439882
 20
-14.12966891894969
 10
3.42795530494207
 20
-14.11637714678221
 10
3.436409125161743
 20
-14.10397308523662
 10
3.446207927699045
 20
-14.09242809797994
 10
3.457337404154097
 20
-14.08171354867922
 10
3.469783246127072
 20
-14.07180080100151
 10
3.483531145218099
 20
-14.06266121861382
 10
3.498566793027343
 20
-14.05426616518318
 10
3.514875881154919
 20
-14.04658700437664
 10
3.53240594566996
 20
-14.039576009545
 10
3.55095190051742
 20
-14.03310909277405
 10
3.570270504111228
 20
-14.02704307583335
 10
3.590118514865295
 20
-14.02123478049245
 10
3.610252691193551
 20
-14.0155410285209
 10
3.630429791509936
 20
-14.00981864168827
 10
3.650406574228352
 20
-14.00392444176411
 10
3.669939797762735
 20
-13.99771525051797
 10
3.688860146906254
 20
-13.99104311691547
 10
3.707294011969031
 20
-13.98374099870652
 10
3.725441709640447
 20
-13.97563708083706
 10
3.743503556609866
 20
-13.96655954825308
 10
3.761679869566682
 20
-13.95633658590055
 10
3.780170965200257
 20
-13.94479637872542
 10
3.799177160199976
 20
-13.93176711167366
 10
3.818898771255197
 20
-13.91707696969123
 10
3.839493190007173
 20
-13.90056368308665
 10
3.860946107904622
 20
-13.88210316361865
 10
3.883200291348126
 20
-13.86158086840848
 10
3.906198506738256
 20
-13.83888225457741
 10
3.929883520475607
 20
-13.81389277924672
 10
3.954198098960764
 20
-13.78649789953766
 10
3.979085008594298
 20
-13.75658307257155
 10
4.004487015776806
 20
-13.7240337554696
 10
4.030277730248615
 20
-13.68889051567512
 10
4.056054135109137
 20
-13.65181436191967
 10
4.081344056797487
 20
-13.61362141325674
 10
4.105675321752848
 20
-13.57512778873986
 10
4.12857575641436
 20
-13.53714960742259
 10
4.149573187221168
 20
-13.50050298835846
 10
4.168195440612411
 20
-13.46600405060101
 10
4.183970343027247
 20
-13.43446891320377
 10
4.196554495493991
 20
-13.4065060860175
 10
4.206119597397528
 20
-13.38189364208177
 10
4.212966122711893
 20
-13.36020204523336
 10
4.217394545411137
 20
-13.34100175930908
 10
4.219705339469321
 20
-13.32386324814572
 10
4.22019897886048
 20
-13.30835697558005
 10
4.219175937558652
 20
-13.29405340544888
 10
4.216936689537906
 20
-13.28052300158898
 10
4.213710167378714
 20
-13.26742929399767
 10
4.209439138087393
 20
-13.25480807731434
 10
4.203994827276703
 20
-13.24278821233886
 10
4.197248460559407
 20
-13.23149855987116
 10
4.189071263548262
 20
-13.22106798071113
 10
4.179334461856017
 20
-13.21162533565868
 10
4.167909281095443
 20
-13.2032994855137
 10
4.154666946879277
 20
-13.1962192910761
 10
4.139526379032187
 20
-13.19044918266404
 10
4.122597274226373
 20
-13.18579586866884
 10
4.104037023345913
 20
-13.18200162700007
 10
4.084003017274906
 20
-13.17880873556727
 10
4.062652646897422
 20
-13.17595947228006
 10
4.040143303097575
 20
-13.17319611504797
 10
4.016632376759428
 20
-13.17026094178062
 10
3.992277258767076
 20
-13.16689623038753
 10
3.967228186006609
 20
-13.16286812206205
 10
3.941606779371985
 20
-13.15803821113231
 10
3.9155275057592
 20
-13.15229195521021
 10
3.889104832064225
 20
-13.14551481190767
 10
3.862453225183031
 20
-13.13759223883657
 10
3.835687152011589
 20
-13.12840969360879
 10
3.808921079445859
 20
-13.11785263383625
 10
3.782269474381834
 20
-13.10580651713084
 10
3.755832495315623
 20
-13.09218543661967
 10
3.729653067143923
 20
-13.07701802749097
 10
3.703759806363581
 20
-13.06036156044812
 10
3.678181329471458
 20
-13.04227330619458
 10
3.652946252964387
 20
-13.02281053543378
 10
3.628083193339227
 20
-13.0020305188691
 10
3.603620767092809
 20
-12.97999052720403
 10
3.579587590721985
 20
-12.95674783114196
 10
3.556031358438648
 20
-12.93231436171148
 10
3.533076075314854
 20
-12.90652069124176
 10
3.510864824137687
 20
-12.87915205238714
 10
3.489540687694251
 20
-12.84999367780196
 10
3.469246748771643
 20
-12.81883080014056
 10
3.450126090156956
 20
-12.78544865205725
 10
3.432321794637298
 20
-12.74963246620636
 10
3.415976944999748
 20
-12.71116747524225
 10
3.401244162964641
 20
-12.66990572829406
 10
3.388314225985261
 20
-12.62596654039028
 10
3.377387450448118
 20
-12.57953604303427
 10
3.368664152739723
 20
-12.53080036772936
 10
3.362344649246587
 20
-12.47994564597883
 10
3.35862925635523
 20
-12.42715800928605
 10
3.357718290452169
 20
-12.37262358915434
 10
3.359812067923895
 20
-12.31652851708702
 10
3.365070364993542
 20
-12.25905653851254
 10
3.373490797230676
 20
-12.20038185455983
 10
3.385030440041445
 20
-12.14067628028289
 10
3.399646368831998
 20
-12.08011163073579
 10
3.417295659008521
 20
-12.01885972097255
 10
3.437935385977164
 20
-11.9570923660472
 10
3.461522625144075
 20
-11.89498138101378
 10
3.488014451915425
 20
-11.83269858092633
 10
3.517353633247036
 20
-11.77041100811674
 10
3.549425702293437
 20
-11.70826661402819
 10
3.584101883758776
 20
-11.64640857738179
 10
3.621253402347228
 20
-11.5849800768986
 10
3.660751482762972
 20
-11.52412429129971
 10
3.70246734971019
 20
-11.46398439930616
 10
3.746272227893047
 20
-11.40470357963903
 10
3.792037342015703
 20
-11.34642501101938
 10
3.839645840549851
 20
-11.2892656228097
 10
3.889028567037152
 20
-11.23323734693804
 10
3.940128288786768
 20
-11.17832586597383
 10
3.992887773107877
 20
-11.12451686248657
 10
4.047249787309652
 20
-11.0717960190457
 10
4.103157098701242
 20
-11.02014901822067
 10
4.160552474591835
 20
-10.96956154258092
 10
4.219378682290571
 20
-10.92001927469594
 10
4.279547487624107
 20
-10.87152937377158
 10
4.340846650488895
 20
-10.82418490555957
 10
4.403032929298865
 20
-10.77810041244795
 10
4.465863082467926
 20
-10.73339043682487
 10
4.529093868410022
 20
-10.69016952107842
 10
4.592482045539068
 20
-10.64855220759669
 10
4.655784372268987
 20
-10.60865303876783
 10
4.71875760701371
 20
-10.57058655697991
 10
4.781148969405339
 20
-10.53444105542597
 10
4.842667523948781
 20
-10.50019983051883
 10
4.903012796367146
 20
-10.46781992947623
 10
4.961884312383499
 20
-10.43725839951591
 10
5.018981597720957
 20
-10.40847228785561
 10
5.074004178102583
 20
-10.38141864171307
 10
5.12665157925149
 20
-10.35605450830603
 10
5.176623326890773
 20
-10.33233693485226
 10
5.223721489619599
 20
-10.31021819560199
 10
5.268158307541501
 20
-10.28963147293563
 10
5.310248563636118
 20
-10.27050517626605
 10
5.350307040883063
 20
-10.25276771500616
 10
5.388648522261973
 20
-10.23634749856887
 10
5.425587790752443
 20
-10.22117293636708
 10
5.461439629334128
 20
-10.20717243781368
 10
5.496518820986651
 20
-10.19427441232158
 10
5.531049529328633
 20
-10.18239295179139
 10
5.564893440534854
 20
-10.17138487807441
 10
5.597821621419081
 20
-10.16109269550964
 10
5.629605138795096
 20
-10.1513589084361
 10
5.660015059476679
 20
-10.14202602119282
 10
5.688822450277585
 20
-10.13293653811879
 10
5.715798378011637
 20
-10.12393296355303
 10
5.740713909492574
 20
-10.11485780183455
 10
5.763392575364132
 20
-10.10556310233782
 10
5.78386776158976
 20
-10.09593909457922
 10
5.802225317962886
 20
-10.08588555311051
 10
5.818551094276894
 20
-10.07530225248354
 10
5.832930940325175
 20
-10.06408896725011
 10
5.845450705901168
 20
-10.05214547196205
 10
5.856196240798237
 20
-10.03937154117115
 10
5.865253394809792
 20
-10.02566694942921
 10
5.872712787246356
 20
-10.01090999440634
 10
5.87868411548678
 20
-9.994893066245538
 10
5.883281846427049
 20
-9.977387078208098
 10
5.886620446963121
 20
-9.958162943555336
 10
5.888814383990995
 20
-9.936991575548503
 10
5.889978124406614
 20
-9.913643887448889
 10
5.890226135105974
 20
-9.887890792517815
 10
5.889672882985022
 20
-9.859503204016515
 10
5.888435219471167
 20
-9.828395214254483
 10
5.886639534117364
 20
-9.795053631733757
 10
5.884414601007986
 20
-9.760108444004531
 10
5.881889194227429
 20
-9.724189638617017
 10
5.879192087860069
 20
-9.687927203121461
 10
5.876452055990284
 20
-9.651951125068023
 10
5.873797872702457
 20
-9.616891392006946
 10
5.871358312080959
 20
-9.58337799148842
 10
5.869247840062715
 20
-9.551907277377058
 10
5.867523689994747
 20
-9.522441068795068
 10
5.866228787076613
 20
-9.494807551179022
 10
5.86540605650789
 20
-9.468834909965515
 10
5.865098423488126
 20
-9.44435133059115
 10
5.865348813216897
 20
-9.421184998492501
 10
5.866200150893753
 20
-9.399164099106162
 10
5.867695361718268
 20
-9.378116817868733
 10
5.869886909772771
 20
-9.357911907414804
 10
5.872865414670586
 20
-9.338580389170962
 10
5.876731034907869
 20
-9.320193851761818
 10
5.881583928980727
 20
-9.302823883811957
 10
5.887524255385276
 20
-9.286542073945978
 10
5.894652172617629
 20
-9.271420010788478
 10
5.903067839173909
 20
-9.257529282964055
 10
5.912871413550227
 20
-9.244941479097308
 10
5.924239093637824
 20
-9.233642014857471
 10
5.937651234908271
 20
-9.223271614092329
 10
5.953664232228288
 20
-9.213384827694332
 10
5.972834480464554
 20
-9.203536206555888
 10
5.995718374483775
 20
-9.193280301569448
 10
6.02287230915266
 20
-9.182171663627418
 10
6.054852679337898
 20
-9.169764843622262
 10
6.092215879906198
 20
-9.155614392446389
 10
6.135341096274819
 20
-9.139294464993279
 10
6.183898676063412
 20
-9.120457632160579
 10
6.237381757442197
 20
-9.09877606884701
 10
6.295283478581389
 20
-9.073921949951266
 10
6.357096977651224
 20
-9.045567450372026
 10
6.422315392821893
 20
-9.013384745008009
 10
6.49043186226364
 20
-8.977046008757922
 10
6.560939524146688
 20
-8.936223416520446
 10
6.633344705411731
 20
-8.890650155325294
 10
6.707206488081462
 20
-8.840303460726083
 10
6.782097142949066
 20
-8.78522158040745
 10
6.85758894080771
 20
-8.725442762054044
 10
6.933254152450594
 20
-8.661005253350477
 10
7.008665048670888
 20
-8.5919473019814
 10
7.083393900261778
 20
-8.518307155631438
 10
7.157012978016432
 20
-8.440123061985211
 10
7.229156689103705
 20
-8.357365077847228
 10
7.299707986195176
 20
-8.269730496501482
 10
7.368611958338052
 20
-8.176848420351786
 10
7.435813694579593
 20
-8.07834795180199
 10
7.501258283967036
 20
-7.97385819325596
 10
7.564890815547615
 20
-7.863008247117516
 10
7.626656378368551
 20
-7.745427215790511
 10
7.68650006147709
 20
-7.620744201678796
 10
7.744344074382048
 20
-7.488856177208941
 10
7.800019108438615
 20
-7.350731594898519
 10
7.853332975463523
 20
-7.207606777287857
 10
7.90409348727355
 20
-7.060718046917234
 10
7.95210845568544
 20
-6.911301726326987
 10
7.997185692515941
 20
-6.760594138057424
 10
8.039133009581833
 20
-6.609831604648842
 10
8.077758218699868
 20
-6.460250448641561
 10
8.112951498065454
 20
-6.312958781118707
 10
8.144932491388713
 20
-6.168551867334711
 10
8.174003208758412
 20
-6.027496761086799
 10
8.200465660263315
 20
-5.890260516172231
 10
8.224621855992189
 20
-5.757310186388219
 10
8.246773806033825
 20
-5.629112825532036
 10
8.267223520476962
 20
-5.506135487400907
 10
8.286273009410408
 20
-5.388845225792078
 10
8.304240298453414
 20
-5.277519067515513
 10
8.321507475347281
 20
-5.171673931432131
 10
8.338472643363836
 20
-5.070636709415587
 10
8.355533905774876
 20
-4.973734293339493
 10
8.373089365852216
 20
-4.880293575077537
 10
8.391537126867639
 20
-4.789641446503321
 10
8.411275292092959
 20
-4.701104799490526
 10
8.432701964799999
 20
-4.614010525912771
 10
8.456071107375514
 20
-4.527896150243776
 10
8.481060118666075
 20
-4.443141727357563
 10
8.507202256633192
 20
-4.360337944728204
 10
8.534030779238396
 20
-4.280075489829805
 10
8.561078944443202
 20
-4.202945050136435
 10
8.587880010209147
 20
-4.129537313122181
 10
8.613967234497756
 20
-4.060442966261149
 10
8.638873875270519
 20
-3.996252697027394
 10
8.6622453001616
 20
-3.937428981601385
 10
8.684175315495529
 20
-3.883921450989021
 10
8.704869837269448
 20
-3.835551524902577
 10
8.724534781480514
 20
-3.792140623054301
 10
8.743376064125882
 20
-3.753510165156487
 10
8.761599601202689
 20
-3.719481570921384
 10
8.779411308708084
 20
-3.68987626006125
 10
8.797017102639244
 20
-3.664515652288383
 10
8.814567987990038
 20
-3.643212009464782
 10
8.831995325741445
 20
-3.625740962051445
 10
8.849175565871146
 20
-3.611868982659132
 10
8.865985158356856
 20
-3.601362543898606
 10
8.882300553176275
 20
-3.593988118380607
 10
8.897998200307103
 20
-3.58951217871591
 10
8.912954549727057
 20
-3.58770119751524
 10
8.927046051413825
 20
-3.588321647389367
 10
8.940178898891446
 20
-3.591252185718534
 10
8.952378259869224
 20
-3.596820208960984
 10
8.963699045602766
 20
-3.605465298344466
 10
8.974196167347706
 20
-3.617627035096695
 10
8.983924536359676
 20
-3.633745000445408
 10
8.992939063894308
 20
-3.654258775618359
 10
9.001294661207218
 20
-3.679607941843258
 10
9.009046239554027
 20
-3.710232080347861
 10
9.016321924592155
 20
-3.746369297691842
 10
9.023542699586101
 20
-3.787451801762696
 10
9.031202762202148
 20
-3.832710325779846
 10
9.039796310106606
 20
-3.881375602962712
 10
9.049817540965754
 20
-3.932678366530751
 10
9.061760652445897
 20
-3.985849349703375
 10
9.076119842213298
 20
-4.040119285700026
 10
9.093389307934259
 20
-4.094718907740137
 10
9.113921394207594
 20
-4.148933896635277
 10
9.137501033362106
 20
-4.202269723565571
 10
9.163771304659121
 20
-4.25428680730328
 10
9.192375287359979
 20
-4.304545566620689
 10
9.222956060725998
 20
-4.352606420290026
 10
9.255156704018496
 20
-4.398029787083594
 10
9.288620296498812
 20
-4.440376085773628
 10
9.322989917428273
 20
-4.479205735132413
 10
9.358038261199617
 20
-4.514206787432655
 10
9.39405648273129
 20
-4.545577828948882
 10
9.431465352073139
 20
-4.573645079456071
 10
9.470685639274989
 20
-4.598734758729197
 10
9.512138114386729
 20
-4.621173086543254
 10
9.556243547458187
 20
-4.641286282673195
 10
9.603422708539209
 20
-4.659400566894003
 10
9.654096367679663
 20
-4.675842158980671
 10
9.708548870204229
 20
-4.690768226447559
 10
9.766518862536912
 20
-4.703659727766567
 10
9.827608566376532
 20
-4.713828569149001
 10
9.891420203421922
 20
-4.720586656806151
 10
9.957555995371947
 20
-4.72324589694934
 10
10.02561816392542
 20
-4.721118195789845
 10
10.09520893078119
 20
-4.713515459538978
 10
10.16593051763808
 20
-4.699749594408036
 10
10.23733821988897
 20
-4.679294876305611
 10
10.30879962770292
 20
-4.652275059929486
 10
10.379635404943
 20
-4.618976269674725
 10
10.44916621547234
 20
-4.579684629936412
 10
10.51671272315403
 20
-4.53468626510962
 10
10.58159559185114
 20
-4.484267299589415
 10
10.6431354854268
 20
-4.428713857770869
 10
10.70065306774405
 20
-4.368312064049071
 10
10.75356441602543
 20
-4.303422133551457
 10
10.80166726093099
 20
-4.234700644335074
 10
10.84485474648016
 20
-4.162878265189277
 10
10.88302001669241
 20
-4.088685664903497
 10
10.91605621558718
 20
-4.01285351226711
 10
10.94385648718395
 20
-3.936112476069521
 10
10.96631397550214
 20
-3.859193225100128
 10
10.98332182456122
 20
-3.782826428148322
 10
10.99486816132302
 20
-3.707665528992482
 10
11.00132104451897
 20
-3.634055071366972
 10
11.00314351582281
 20
-3.562262373995125
 10
11.00079861690835
 20
-3.492554755600249
 10
10.99474938944939
 20
-3.425199534905683
 10
10.9854588751197
 20
-3.360464030634769
 10
10.97339011559306
 20
-3.298615561510835
 10
10.9590061525433
 20
-3.239921446257213
 10
10.94279674141214
 20
-3.184595539819863
 10
10.92535849271337
 20
-3.132637842035229
 10
10.90731473072869
 20
-3.083994888962415
 10
10.88928877973984
 20
-3.038613216660486
 10
10.87190396402855
 20
-2.996439361188542
 10
10.85578360787656
 20
-2.957419858605646
 10
10.84155103556558
 20
-2.921501244970915
 10
10.82982957137736
 20
-2.888630056343394
 10
10.82110303365412
 20
-2.858749858617766
 10
10.81529721697999
 20
-2.831792337030982
 10
10.81219840999959
 20
-2.807686206655549
 10
10.81159290135757
 20
-2.786360182564028
 10
10.81326697969855
 20
-2.767742979828931
 10
10.81700693366716
 20
-2.751763313522779
 10
10.82259905190802
 20
-2.738349898718116
 10
10.82982962306576
 20
-2.727431450487447
 10
10.83851758609734
 20
-2.71891292234261
 10
10.8486124812089
 20
-2.712604221552503
 10
10.86009649891892
 20
-2.708291493825374
 10
10.8729518297459
 20
-2.705760884869402
 10
10.8871606642083
 20
-2.704798540392804
 10
10.90270519282459
 20
-2.705190606103791
 10
10.91956760611327
 20
-2.706723227710572
 10
10.93773009459281
 20
-2.709182550921365
 10
10.95711845284736
 20
-2.712366602265625
 10
10.97743289172371
 20
-2.716120931557775
 10
10.99831722613438
 20
-2.7203029694335
 10
11.01941527099183
 20
-2.724770146528502
 10
11.04037084120854
 20
-2.729379893478441
 10
11.06082775169702
 20
-2.733989640919002
 10
11.08042981736972
 20
-2.738456819485868
 10
11.09882085313915
 20
-2.742638859814732
 10
11.11574262485471
 20
-2.746390222295062
 10
11.1313287021135
 20
-2.749553486331571
 10
11.14581060544957
 20
-2.751968261082755
 10
11.15941985539692
 20
-2.753474155707113
 10
11.17238797248963
 20
-2.753910779363138
 10
11.18494647726169
 20
-2.75311774120934
 10
11.19732689024714
 20
-2.750934650404232
 10
11.20976073198002
 20
-2.747201116106293
 10
11.22244687263159
 20
-2.741759717638466
 10
11.23545358092192
 20
-2.734464914981359
 10
11.24881647520836
 20
-2.725174138280067
 10
11.26257117384822
 20
-2.713744817679607
 10
11.27675329519883
 20
-2.700034383325061
 10
11.29139845761751
 20
-2.683900265361472
 10
11.30654227946156
 20
-2.665199893933895
 10
11.32222037908831
 20
-2.643790699187402
 10
11.33849212057809
 20
-2.619607336523358
 10
11.35551185090307
 20
-2.592893362368453
 10
11.37345766275846
 20
-2.563969558405663
 10
11.39250764883944
 20
-2.533156706318003
 10
11.41283990184121
 20
-2.500775587788456
 10
11.43463251445894
 20
-2.467146984500047
 10
11.45806357938783
 20
-2.432591678135739
 10
11.48331118932307
 20
-2.397430450378543
 10
11.51049704097504
 20
-2.361933589543834
 10
11.5395172471149
 20
-2.326169410476421
 10
11.57021152452894
 20
-2.29015573465347
 10
11.60241959000352
 20
-2.253910383552184
 10
11.63598116032499
 20
-2.217451178649742
 10
11.67073595227965
 20
-2.180795941423298
 10
11.70652368265386
 20
-2.143962493350056
 10
11.74318406823392
 20
-2.106968655907191
 10
11.78050933436024
 20
-2.06984710147579
 10
11.81810174058936
 20
-2.032689906052524
 10
11.85551605503188
 20
-1.995603996537976
 10
11.89230704579839
 20
-1.958696299832734
 10
11.92802948099948
 20
-1.92207374283738
 10
11.96223812874576
 20
-1.885843252452499
 10
11.99448775714782
 20
-1.850111755578659
 10
12.02433313431627
 20
-1.814986179116463
 10
12.05142401110216
 20
-1.780552658651959
 10
12.07579006931853
 20
-1.746814164513121
 10
12.09755597351883
 20
-1.713752875713382
 10
12.11684638825655
 20
-1.681350971266194
 10
12.13378597808518
 20
-1.649590630185013
 10
12.14849940755823
 20
-1.618454031483256
 10
12.16111134122914
 20
-1.587923354174392
 10
12.17174644365143
 20
-1.557980777271865
 10
12.18055015700606
 20
-1.5286470923355
 10
12.18775103398395
 20
-1.500097541110694
 10
12.19359840490351
 20
-1.47254597788924
 10
12.19834160008318
 20
-1.446206256962931
 10
12.20222994984137
 20
-1.421292232623564
 10
12.20551278449647
 20
-1.398017759162915
 10
12.20843943436694
 20
-1.376596690872794
 10
12.21125922977115
 20
-1.357242882044968
 10
12.21419775520362
 20
-1.340110782946773
 10
12.21738561186308
 20
-1.325117227747742
 10
12.22092965512436
 20
-1.312119646592915
 10
12.2249367403623
 20
-1.300975469627349
 10
12.22951372295171
 20
-1.291542126996109
 10
12.23476745826742
 20
-1.283677048844243
 10
12.24080480168425
 20
-1.277237665316818
 10
12.24773260857703
 20
-1.272081406558864
 10
12.2557260032426
 20
-1.268059762386613
 10
12.26523318566583
 20
-1.265000461300857
 10
12.27677062475364
 20
-1.262725291473532
 10
12.29085478941295
 20
-1.261056041076596
 10
12.30800214855066
 20
-1.259814498281986
 10
12.32872917107368
 20
-1.258822451261647
 10
12.35355232588889
 20
-1.257901688187537
 10
12.38298808190323
 20
-1.25687399723159
 10
12.41726202325783
 20
-1.255593838701525
 10
12.4554361950308
 20
-1.254046361448114
 10
12.49628175753446
 20
-1.252249386457943
 10
12.53856987108115
 20
-1.250220734717544
 10
12.58107169598322
 20
-1.247978227213476
 10
12.622558392553
 20
-1.245539684932307
 10
12.66180112110282
 20
-1.242922928860568
 10
12.69757104194502
 20
-1.24014577998485
 10
12.72892129551789
 20
-1.23719635748387
 10
12.75603294276354
 20
-1.233943973305208
 10
12.77936902475006
 20
-1.23022823758859
 10
12.79939258254547
 20
-1.2258887604738
 10
12.81656665721786
 20
-1.220765152100558
 10
12.83135428983528
 20
-1.214697022608635
 10
12.84421852146582
 20
-1.207523982137782
 10
12.85562239317752
 20
-1.199085640827743
 10
12.8659606771669
 20
-1.189289923090701
 10
12.87535507014437
 20
-1.178318010428494
 10
12.88385899994875
 20
-1.16641939861541
 10
12.8915258944189
 20
-1.153843583425729
 10
12.89840918139363
 20
-1.140840060633713
 10
12.90456228871182
 20
-1.127658326013644
 10
12.9100386442123
 20
-1.114547875339791
 10
12.9148916757339
 20
-1.101758204386442
 10
12.91920449318088
 20
-1.089506136955638
 10
12.92317893471898
 20
-1.077877808960515
 10
12.92704652057942
 20
-1.066926684342
 10
12.93103877099333
 20
-1.056706227041004
 10
12.9353872061919
 20
-1.047269900998454
 10
12.94032334640629
 20
-1.038671170155254
 10
12.94607871186768
 20
-1.030963498452322
 10
12.95288482280723
 20
-1.024200349830579
 10
12.96095539032793
 20
-1.018360933220805
 10
12.97043288902005
 20
-1.013127437513301
 10
12.98144198434563
 20
-1.008107796588213
 10
12.99410734176676
 20
-1.002909944325686
 10
13.00855362674549
 20
-0.9971418146058823
 10
13.02490550474393
 20
-0.9904113413089739
 10
13.0432876412241
 20
-0.9823264583151072
 10
13.0638247016481
 20
-0.9724950995044245
 10
13.08654933673205
 20
-0.9605964834392608
 10
13.11112613820829
 20
-0.9465949674105473
 10
13.13712768306322
 20
-0.9305261933914046
 10
13.16412654828321
 20
-0.9124258033549601
 10
13.19169531085469
 20
-0.8923294392742988
 10
13.21940654776403
 20
-0.8702727431225376
 10
13.24683283599763
 20
-0.8462913568727934
 10
13.27354675254188
 20
-0.8204209224981724
 10
13.29918617510878
 20
-0.7927178735316254
 10
13.32365018431253
 20
-0.763321809745424
 10
13.34690316149299
 20
-0.7323931224717235
 10
13.36890948798994
 20
-0.7000922030426189
 10
13.38963354514322
 20
-0.6665794427902477
 10
13.40903971429264
 20
-0.6320152330467402
 10
13.42709237677802
 20
-0.5965599651442055
 10
13.44375591393916
 20
-0.5603740304147778
 10
13.45900806422705
 20
-0.5235747520295746
 10
13.4728799945372
 20
-0.486107180515738
 10
13.48541622887627
 20
-0.4478732982393865
 10
13.49666129125094
 20
-0.4087750875666636
 10
13.50665970566787
 20
-0.3687145308637056
 10
13.51545599613373
 20
-0.3275936104966242
 10
13.52309468665519
 20
-0.2853143088315768
 10
13.5296203012389
 20
-0.241778608234668
 10
13.53508329998158
 20
-0.1968528491807078
 10
13.53955788733999
 20
-0.1502608045791192
 10
13.54312420386098
 20
-0.1016906054480096
 10
13.54586239009135
 20
-0.0508303828054615
 10
13.54785258657795
 20
0.0026317323315368
  0
LINE
  5
91E1
330
8F1F
100
AcDbEntity
  8
0
100
AcDbLine
 10
13.54775461693297
 20
0.0000000000000071
 30
0.0
 11
0.0
 21
0.0
 31
0.0
  0
POLYLINE
  5
91E2
330
8F1F
100
AcDbEntity
  8
0
100
AcDb2dPolyline
 66
     1
 10
0.0
 20
0.0
 30
0.0
 70
     5
 75
     6
  0
VERTEX
  5
91E3
330
91E2
100
AcDbEntity
  8
0
100
AcDbVertex
100
AcDb2dVertex
 10
2.692211297519722
 20
-10.36377899488637
 30
0.0
 70
    16
  0
VERTEX
  5
91E4
330
91E2
100
AcDbEntity
  8
0
100
AcDbVertex
100
AcDb2dVertex
 10
2.694172691501846
 20
-10.49920295231013
 30
0.0
 70
     8
  0
VERTEX
  5
91E5
330
91E2
100
AcDbEntity
  8
0
100
AcDbVertex
100
AcDb2dVertex
 10
2.698486134105918
 20
-10.51090995290652
 30
0.0
 70
     8
  0
VERTEX
  5
91E6
330
91E2
100
AcDbEntity
  8
0
100
AcDbVertex
100
AcDb2dVertex
 10
2.704040743778882
 20
-10.52109895506805
 30
0.0
 70
     8
  0
VERTEX
  5
91E7
330
91E2
100
AcDbEntity
  8
0
100
AcDbVertex
100
AcDb2dVertex
 10
2.710790551863617
 20
-10.52990795847406
 30
0.0
 70
     8
  0
VERTEX
  5
91E8
330
91E2
100
AcDbEntity
  8
0
100
AcDbVertex
100
AcDb2dVertex
 10
2.718689589702941
 20
-10.53747496280382
 30
0.0
 70
     8
  0
VERTEX
  5
91E9
330
91E2
100
AcDbEntity
  8
0
100
AcDbVertex
100
AcDb2dVertex
 10
2.727691888639736
 20
-10.54393796773665
 30
0.0
 70
     8
  0
VERTEX
  5
91EA
330
91E2
100
AcDbEntity
  8
0
100
AcDbVertex
100
AcDb2dVertex
 10
2.737751480016843
 20
-10.54943497295186
 30
0.0
 70
     8
  0
VERTEX
  5
91EB
330
91E2
100
AcDbEntity
  8
0
100
AcDbVertex
100
AcDb2dVertex
 10
2.748822395177107
 20
-10.55410397812873
 30
0.0
 70
     8
  0
VERTEX
  5
91EC
330
91E2
100
AcDbEntity
  8
0
100
AcDbVertex
100
AcDb2dVertex
 10
2.760858665463381
 20
-10.55808298294658
 30
0.0
 70
     8
  0
VERTEX
  5
91ED
330
91E2
100
AcDbEntity
  8
0
100
AcDbVertex
100
AcDb2dVertex
 10
2.773856460583322
 20
-10.56136048706417
 30
0.0
 70
     8
  0
VERTEX
  5
91EE
330
91E2
100
AcDbEntity
  8
0
100
AcDbVertex
100
AcDb2dVertex
 10
2.787980503703598
 20
-10.56332699005806
 30
0.0
 70
     8
  0
VERTEX
  5
91EF
330
91E2
100
AcDbEntity
  8
0
100
AcDbVertex
100
AcDb2dVertex
 10
2.803437656355729
 20
-10.56322349148427
 30
0.0
 70
     8
  0
VERTEX
  5
91F0
330
91E2
100
AcDbEntity
  8
0
100
AcDbVertex
100
AcDb2dVertex
 10
2.820434780071208
 20
-10.56029099089878
 30
0.0
 70
     8
  0
VERTEX
  5
91F1
330
91E2
100
AcDbEntity
  8
0
100
AcDbVertex
100
AcDb2dVertex
 10
2.839178736381501
 20
-10.55377048785764
 30
0.0
 70
     8
  0
VERTEX
  5
91F2
330
91E2
100
AcDbEntity
  8
0
100
AcDbVertex
100
AcDb2dVertex
 10
2.859876386818106
 20
-10.54290298191688
 30
0.0
 70
     8
  0
VERTEX
  5
91F3
330
91E2
100
AcDbEntity
  8
0
100
AcDbVertex
100
AcDb2dVertex
 10
2.882734592912525
 20
-10.52692947263246
 30
0.0
 70
     8
  0
VERTEX
  5
91F4
330
91E2
100
AcDbEntity
  8
0
100
AcDbVertex
100
AcDb2dVertex
 10
2.907960216196228
 20
-10.50509095956043
 30
0.0
 70
     8
  0
VERTEX
  5
91F5
330
91E2
100
AcDbEntity
  8
0
100
AcDbVertex
100
AcDb2dVertex
 10
2.935714148887361
 20
-10.47686610913435
 30
0.0
 70
     8
  0
VERTEX
  5
91F6
330
91E2
100
AcDbEntity
  8
0
100
AcDbVertex
100
AcDb2dVertex
 10
2.965973405950686
 20
-10.44268425529801
 30
0.0
 70
     8
  0
VERTEX
  5
91F7
330
91E2
100
AcDbEntity
  8
0
100
AcDbVertex
100
AcDb2dVertex
 10
2.998669033037597
 20
-10.4032123988727
 30
0.0
 70
     8
  0
VERTEX
  5
91F8
330
91E2
100
AcDbEntity
  8
0
100
AcDbVertex
100
AcDb2dVertex
 10
3.033732075799484
 20
-10.35911754067976
 30
0.0
 70
     8
  0
VERTEX
  5
91F9
330
91E2
100
AcDbEntity
  8
0
100
AcDbVertex
100
AcDb2dVertex
 10
3.071093579887758
 20
-10.31106668154052
 30
0.0
 70
     8
  0
VERTEX
  5
91FA
330
91E2
100
AcDbEntity
  8
0
100
AcDbVertex
100
AcDb2dVertex
 10
3.110684590953818
 20
-10.25972682227631
 30
0.0
 70
     8
  0
VERTEX
  5
91FB
330
91E2
100
AcDbEntity
  8
0
100
AcDbVertex
100
AcDb2dVertex
 10
3.152436154649063
 20
-10.20576496370844
 30
0.0
 70
     8
  0
VERTEX
  5
91FC
330
91E2
100
AcDbEntity
  8
0
100
AcDbVertex
100
AcDb2dVertex
 10
3.196279316624892
 20
-10.14984810665825
 30
0.0
 70
     8
  0
VERTEX
  5
91FD
330
91E2
100
AcDbEntity
  8
0
100
AcDbVertex
100
AcDb2dVertex
 10
3.242133630343191
 20
-10.09262791851307
 30
0.0
 70
     8
  0
VERTEX
  5
91FE
330
91E2
100
AcDbEntity
  8
0
100
AcDbVertex
100
AcDb2dVertex
 10
3.28987268050772
 20
-10.03469473292428
 30
0.0
 70
     8
  0
VERTEX
  5
91FF
330
91E2
100
AcDbEntity
  8
0
100
AcDbVertex
100
AcDb2dVertex
 10
3.339358559632749
 20
-9.976623550109335
 30
0.0
 70
     8
  0
VERTEX
  5
9200
330
91E2
100
AcDbEntity
  8
0
100
AcDbVertex
100
AcDb2dVertex
 10
3.390453360232498
 20
-9.91898937028561
 30
0.0
 70
     8
  0
VERTEX
  5
9201
330
91E2
100
AcDbEntity
  8
0
100
AcDbVertex
100
AcDb2dVertex
 10
3.443019174821225
 20
-9.862367193670532
 30
0.0
 70
     8
  0
VERTEX
  5
9202
330
91E2
100
AcDbEntity
  8
0
100
AcDbVertex
100
AcDb2dVertex
 10
3.496918095913176
 20
-9.807332020481545
 30
0.0
 70
     8
  0
VERTEX
  5
9203
330
91E2
100
AcDbEntity
  8
0
100
AcDbVertex
100
AcDb2dVertex
 10
3.552012216022625
 20
-9.754458850936012
 30
0.0
 70
     8
  0
VERTEX
  5
9204
330
91E2
100
AcDbEntity
  8
0
100
AcDbVertex
100
AcDb2dVertex
 10
3.608163627663786
 20
-9.704322685251366
 30
0.0
 70
     8
  0
VERTEX
  5
9205
330
91E2
100
AcDbEntity
  8
0
100
AcDbVertex
100
AcDb2dVertex
 10
3.665219100313777
 20
-9.65738352342165
 30
0.0
 70
     8
  0
VERTEX
  5
9206
330
91E2
100
AcDbEntity
  8
0
100
AcDbVertex
100
AcDb2dVertex
 10
3.722964111301125
 20
-9.61364136454738
 30
0.0
 70
     8
  0
VERTEX
  5
9207
330
91E2
100
AcDbEntity
  8
0
100
AcDbVertex
100
AcDb2dVertex
 10
3.781168814917176
 20
-9.572981207505696
 30
0.0
 70
     8
  0
VERTEX
  5
9208
330
91E2
100
AcDbEntity
  8
0
100
AcDbVertex
100
AcDb2dVertex
 10
3.839603365453303
 20
-9.535288051173743
 30
0.0
 70
     8
  0
VERTEX
  5
9209
330
91E2
100
AcDbEntity
  8
0
100
AcDbVertex
100
AcDb2dVertex
 10
3.898037917200877
 20
-9.50044689442865
 30
0.0
 70
     8
  0
VERTEX
  5
920A
330
91E2
100
AcDbEntity
  8
0
100
AcDbVertex
100
AcDb2dVertex
 10
3.956242624451258
 20
-9.468342736147562
 30
0.0
 70
     8
  0
VERTEX
  5
920B
330
91E2
100
AcDbEntity
  8
0
100
AcDbVertex
100
AcDb2dVertex
 10
4.013987641495827
 20
-9.438860575207646
 30
0.0
 70
     8
  0
VERTEX
  5
920C
330
91E2
100
AcDbEntity
  8
0
100
AcDbVertex
100
AcDb2dVertex
 10
4.071043122625958
 20
-9.411885410486009
 30
0.0
 70
     8
  0
VERTEX
  5
920D
330
91E2
100
AcDbEntity
  8
0
100
AcDbVertex
100
AcDb2dVertex
 10
4.127137083465363
 20
-9.387267741226184
 30
0.0
 70
     8
  0
VERTEX
  5
920E
330
91E2
100
AcDbEntity
  8
0
100
AcDbVertex
100
AcDb2dVertex
 10
4.181828984967252
 20
-9.36472006813717
 30
0.0
 70
     8
  0
VERTEX
  5
920F
330
91E2
100
AcDbEntity
  8
0
100
AcDbVertex
100
AcDb2dVertex
 10
4.234636149417188
 20
-9.343920392294332
 30
0.0
 70
     8
  0
VERTEX
  5
9210
330
91E2
100
AcDbEntity
  8
0
100
AcDbVertex
100
AcDb2dVertex
 10
4.285075899100707
 20
-9.324546714773061
 30
0.0
 70
     8
  0
VERTEX
  5
9211
330
91E2
100
AcDbEntity
  8
0
100
AcDbVertex
100
AcDb2dVertex
 10
4.3326655563034
 20
-9.30627703664871
 30
0.0
 70
     8
  0
VERTEX
  5
9212
330
91E2
100
AcDbEntity
  8
0
100
AcDbVertex
100
AcDb2dVertex
 10
4.376922443310807
 20
-9.28878935899668
 30
0.0
 70
     8
  0
VERTEX
  5
9213
330
91E2
100
AcDbEntity
  8
0
100
AcDbVertex
100
AcDb2dVertex
 10
4.417363882408512
 20
-9.271761682892325
 30
0.0
 70
     8
  0
VERTEX
  5
9214
330
91E2
100
AcDbEntity
  8
0
100
AcDbVertex
100
AcDb2dVertex
 10
4.453507195882043
 20
-9.254872009411021
 30
0.0
 70
     8
  0
VERTEX
  5
9215
330
91E2
100
AcDbEntity
  8
0
100
AcDbVertex
100
AcDb2dVertex
 10
4.484988460072273
 20
-9.237852005952047
 30
0.0
 70
     8
  0
VERTEX
  5
9216
330
91E2
100
AcDbEntity
  8
0
100
AcDbVertex
100
AcDb2dVertex
 10
4.511918767541114
 20
-9.220648005210254
 30
0.0
 70
     8
  0
VERTEX
  5
9217
330
91E2
100
AcDbEntity
  8
0
100
AcDbVertex
100
AcDb2dVertex
 10
4.534527964905802
 20
-9.203260006204388
 30
0.0
 70
     8
  0
VERTEX
  5
9218
330
91E2
100
AcDbEntity
  8
0
100
AcDbVertex
100
AcDb2dVertex
 10
4.55304589878354
 20
-9.18568800795321
 30
0.0
 70
     8
  0
VERTEX
  5
9219
330
91E2
100
AcDbEntity
  8
0
100
AcDbVertex
100
AcDb2dVertex
 10
4.567702415791563
 20
-9.167932009475446
 30
0.0
 70
     8
  0
VERTEX
  5
921A
330
91E2
100
AcDbEntity
  8
0
100
AcDbVertex
100
AcDb2dVertex
 10
4.578727362547054
 20
-9.149992009789869
 30
0.0
 70
     8
  0
VERTEX
  5
921B
330
91E2
100
AcDbEntity
  8
0
100
AcDbVertex
100
AcDb2dVertex
 10
4.586350585667279
 20
-9.131868007915215
 30
0.0
 70
     8
  0
VERTEX
  5
921C
330
91E2
100
AcDbEntity
  8
0
100
AcDbVertex
100
AcDb2dVertex
 10
4.590801931769416
 20
-9.113560002870235
 30
0.0
 70
     8
  0
VERTEX
  5
921D
330
91E2
100
AcDbEntity
  8
0
100
AcDbVertex
100
AcDb2dVertex
 10
4.592165678188754
 20
-9.095029660620228
 30
0.0
 70
     8
  0
VERTEX
  5
921E
330
91E2
100
AcDbEntity
  8
0
100
AcDbVertex
100
AcDb2dVertex
 10
4.589943825132767
 20
-9.076085314916671
 30
0.0
 70
     8
  0
VERTEX
  5
921F
330
91E2
100
AcDbEntity
  8
0
100
AcDbVertex
100
AcDb2dVertex
 10
4.583492803526958
 20
-9.056496966457626
 30
0.0
 70
     8
  0
VERTEX
  5
9220
330
91E2
100
AcDbEntity
  8
0
100
AcDbVertex
100
AcDb2dVertex
 10
4.572169044296895
 20
-9.036034615941108
 30
0.0
 70
     8
  0
VERTEX
  5
9221
330
91E2
100
AcDbEntity
  8
0
100
AcDbVertex
100
AcDb2dVertex
 10
4.555328978368082
 20
-9.014468264065143
 30
0.0
 70
     8
  0
VERTEX
  5
9222
330
91E2
100
AcDbEntity
  8
0
100
AcDbVertex
100
AcDb2dVertex
 10
4.532329036666059
 20
-8.991567911527798
 30
0.0
 70
     8
  0
VERTEX
  5
9223
330
91E2
100
AcDbEntity
  8
0
100
AcDbVertex
100
AcDb2dVertex
 10
4.502525650116336
 20
-8.967103559027073
 30
0.0
 70
     8
  0
VERTEX
  5
9224
330
91E2
100
AcDbEntity
  8
0
100
AcDbVertex
100
AcDb2dVertex
 10
4.465275249644458
 20
-8.94084520726103
 30
0.0
 70
     8
  0
VERTEX
  5
9225
330
91E2
100
AcDbEntity
  8
0
100
AcDbVertex
100
AcDb2dVertex
 10
4.420248389169358
 20
-8.912582023454419
 30
0.0
 70
     8
  0
VERTEX
  5
9226
330
91E2
100
AcDbEntity
  8
0
100
AcDbVertex
100
AcDb2dVertex
 10
4.368372114583713
 20
-8.88217984093891
 30
0.0
 70
     8
  0
VERTEX
  5
9227
330
91E2
100
AcDbEntity
  8
0
100
AcDbVertex
100
AcDb2dVertex
 10
4.310887594773575
 20
-8.84952365957289
 30
0.0
 70
     8
  0
VERTEX
  5
9228
330
91E2
100
AcDbEntity
  8
0
100
AcDbVertex
100
AcDb2dVertex
 10
4.249035998625029
 20
-8.81449847921475
 30
0.0
 70
     8
  0
VERTEX
  5
9229
330
91E2
100
AcDbEntity
  8
0
100
AcDbVertex
100
AcDb2dVertex
 10
4.184058495024132
 20
-8.776989299722885
 30
0.0
 70
     8
  0
VERTEX
  5
922A
330
91E2
100
AcDbEntity
  8
0
100
AcDbVertex
100
AcDb2dVertex
 10
4.117196252856974
 20
-8.73688112095569
 30
0.0
 70
     8
  0
VERTEX
  5
922B
330
91E2
100
AcDbEntity
  8
0
100
AcDbVertex
100
AcDb2dVertex
 10
4.049690441009616
 20
-8.694058942771556
 30
0.0
 70
     8
  0
VERTEX
  5
922C
330
91E2
100
AcDbEntity
  8
0
100
AcDbVertex
100
AcDb2dVertex
 10
3.982782228368144
 20
-8.648407765028883
 30
0.0
 70
     8
  0
VERTEX
  5
922D
330
91E2
100
AcDbEntity
  8
0
100
AcDbVertex
100
AcDb2dVertex
 10
3.917532737715692
 20
-8.599785754301441
 30
0.0
 70
     8
  0
VERTEX
  5
922E
330
91E2
100
AcDbEntity
  8
0
100
AcDbVertex
100
AcDb2dVertex
 10
3.854282907423828
 20
-8.547943744024614
 30
0.0
 70
     8
  0
VERTEX
  5
922F
330
91E2
100
AcDbEntity
  8
0
100
AcDbVertex
100
AcDb2dVertex
 10
3.793193629761148
 20
-8.492605734349155
 30
0.0
 70
     8
  0
VERTEX
  5
9230
330
91E2
100
AcDbEntity
  8
0
100
AcDbVertex
100
AcDb2dVertex
 10
3.73442579699628
 20
-8.433495725425851
 30
0.0
 70
     8
  0
VERTEX
  5
9231
330
91E2
100
AcDbEntity
  8
0
100
AcDbVertex
100
AcDb2dVertex
 10
3.678140301397821
 20
-8.370337717405469
 30
0.0
 70
     8
  0
VERTEX
  5
9232
330
91E2
100
AcDbEntity
  8
0
100
AcDbVertex
100
AcDb2dVertex
 10
3.624498035234401
 20
-8.302855710438757
 30
0.0
 70
     8
  0
VERTEX
  5
9233
330
91E2
100
AcDbEntity
  8
0
100
AcDbVertex
100
AcDb2dVertex
 10
3.573659890774642
 20
-8.230773704676494
 30
0.0
 70
     8
  0
VERTEX
  5
9234
330
91E2
100
AcDbEntity
  8
0
100
AcDbVertex
100
AcDb2dVertex
 10
3.525786760287173
 20
-8.153815700269444
 30
0.0
 70
     8
  0
VERTEX
  5
9235
330
91E2
100
AcDbEntity
  8
0
100
AcDbVertex
100
AcDb2dVertex
 10
3.481085505353924
 20
-8.071759363855807
 30
0.0
 70
     8
  0
VERTEX
  5
9236
330
91E2
100
AcDbEntity
  8
0
100
AcDbVertex
100
AcDb2dVertex
 10
3.439946864810295
 20
-7.984597028023546
 30
0.0
 70
     8
  0
VERTEX
  5
9237
330
91E2
100
AcDbEntity
  8
0
100
AcDbVertex
100
AcDb2dVertex
 10
3.402807546804956
 20
-7.892374691848045
 30
0.0
 70
     8
  0
VERTEX
  5
9238
330
91E2
100
AcDbEntity
  8
0
100
AcDbVertex
100
AcDb2dVertex
 10
3.370104259486641
 20
-7.795138354404718
 30
0.0
 70
     8
  0
VERTEX
  5
9239
330
91E2
100
AcDbEntity
  8
0
100
AcDbVertex
100
AcDb2dVertex
 10
3.342273711004041
 20
-7.692934014768924
 30
0.0
 70
     8
  0
VERTEX
  5
923A
330
91E2
100
AcDbEntity
  8
0
100
AcDbVertex
100
AcDb2dVertex
 10
3.319752609505879
 20
-7.585807672016077
 30
0.0
 70
     8
  0
VERTEX
  5
923B
330
91E2
100
AcDbEntity
  8
0
100
AcDbVertex
100
AcDb2dVertex
 10
3.302977663140834
 20
-7.47380532522156
 30
0.0
 70
     8
  0
VERTEX
  5
923C
330
91E2
100
AcDbEntity
  8
0
100
AcDbVertex
100
AcDb2dVertex
 10
3.292385580057629
 20
-7.356972973460774
 30
0.0
 70
     8
  0
VERTEX
  5
923D
330
91E2
100
AcDbEntity
  8
0
100
AcDbVertex
100
AcDb2dVertex
 10
3.288317299082091
 20
-7.235582782836042
 30
0.0
 70
     8
  0
VERTEX
  5
923E
330
91E2
100
AcDbEntity
  8
0
100
AcDbVertex
100
AcDb2dVertex
 10
3.290730681748485
 20
-7.1108115875574
 30
0.0
 70
     8
  0
VERTEX
  5
923F
330
91E2
100
AcDbEntity
  8
0
100
AcDbVertex
100
AcDb2dVertex
 10
3.299487820268202
 20
-6.984062388861865
 30
0.0
 70
     8
  0
VERTEX
  5
9240
330
91E2
100
AcDbEntity
  8
0
100
AcDbVertex
100
AcDb2dVertex
 10
3.314450806852617
 20
-6.856738187986412
 30
0.0
 70
     8
  0
VERTEX
  5
9241
330
91E2
100
AcDbEntity
  8
0
100
AcDbVertex
100
AcDb2dVertex
 10
3.335481733713125
 20
-6.73024198616804
 30
0.0
 70
     8
  0
VERTEX
  5
9242
330
91E2
100
AcDbEntity
  8
0
100
AcDbVertex
100
AcDb2dVertex
 10
3.36244269306111
 20
-6.605976784643729
 30
0.0
 70
     8
  0
VERTEX
  5
9243
330
91E2
100
AcDbEntity
  8
0
100
AcDbVertex
100
AcDb2dVertex
 10
3.39519577710797
 20
-6.485345584650463
 30
0.0
 70
     8
  0
VERTEX
  5
9244
330
91E2
100
AcDbEntity
  8
0
100
AcDbVertex
100
AcDb2dVertex
 10
3.433603078065072
 20
-6.369751387425234
 30
0.0
 70
     8
  0
VERTEX
  5
9245
330
91E2
100
AcDbEntity
  8
0
100
AcDbVertex
100
AcDb2dVertex
 10
3.477384949608536
 20
-6.2603096939328
 30
0.0
 70
     8
  0
VERTEX
  5
9246
330
91E2
100
AcDbEntity
  8
0
100
AcDbVertex
100
AcDb2dVertex
 10
3.525694791273343
 20
-6.156986004048876
 30
0.0
 70
     8
  0
VERTEX
  5
9247
330
91E2
100
AcDbEntity
  8
0
100
AcDbVertex
100
AcDb2dVertex
 10
3.577544264059183
 20
-6.059458317376993
 30
0.0
 70
     8
  0
VERTEX
  5
9248
330
91E2
100
AcDbEntity
  8
0
100
AcDbVertex
100
AcDb2dVertex
 10
3.631945028965784
 20
-5.967404633520636
 30
0.0
 70
     8
  0
VERTEX
  5
9249
330
91E2
100
AcDbEntity
  8
0
100
AcDbVertex
100
AcDb2dVertex
 10
3.687908746992823
 20
-5.880502952083295
 30
0.0
 70
     8
  0
VERTEX
  5
924A
330
91E2
100
AcDbEntity
  8
0
100
AcDbVertex
100
AcDb2dVertex
 10
3.744447079140016
 20
-5.798431272668469
 30
0.0
 70
     8
  0
VERTEX
  5
924B
330
91E2
100
AcDbEntity
  8
0
100
AcDbVertex
100
AcDb2dVertex
 10
3.80057168640705
 20
-5.720867594879674
 30
0.0
 70
     8
  0
VERTEX
  5
924C
330
91E2
100
AcDbEntity
  8
0
100
AcDbVertex
100
AcDb2dVertex
 10
3.855294229793642
 20
-5.647489918320399
 30
0.0
 70
     8
  0
VERTEX
  5
924D
330
91E2
100
AcDbEntity
  8
0
100
AcDbVertex
100
AcDb2dVertex
 10
3.907768108935728
 20
-5.57794174255166
 30
0.0
 70
     8
  0
VERTEX
  5
924E
330
91E2
100
AcDbEntity
  8
0
100
AcDbVertex
100
AcDb2dVertex
 10
3.957713678014183
 20
-5.511728566964535
 30
0.0
 70
     8
  0
VERTEX
  5
924F
330
91E2
100
AcDbEntity
  8
0
100
AcDbVertex
100
AcDb2dVertex
 10
4.004993029846112
 20
-5.448321390907633
 30
0.0
 70
     8
  0
VERTEX
  5
9250
330
91E2
100
AcDbEntity
  8
0
100
AcDbVertex
100
AcDb2dVertex
 10
4.049468257248609
 20
-5.387191213729563
 30
0.0
 70
     8
  0
VERTEX
  5
9251
330
91E2
100
AcDbEntity
  8
0
100
AcDbVertex
100
AcDb2dVertex
 10
4.091001453038821
 20
-5.327809034778933
 30
0.0
 70
     8
  0
VERTEX
  5
9252
330
91E2
100
AcDbEntity
  8
0
100
AcDbVertex
100
AcDb2dVertex
 10
4.129454710033842
 20
-5.269645853404341
 30
0.0
 70
     8
  0
VERTEX
  5
9253
330
91E2
100
AcDbEntity
  8
0
100
AcDbVertex
100
AcDb2dVertex
 10
4.164690121050767
 20
-5.212172668954391
 30
0.0
 70
     8
  0
VERTEX
  5
9254
330
91E2
100
AcDbEntity
  8
0
100
AcDbVertex
100
AcDb2dVertex
 10
4.196569778906727
 20
-5.154860480777692
 30
0.0
 70
     8
  0
VERTEX
  5
9255
330
91E2
100
AcDbEntity
  8
0
100
AcDbVertex
100
AcDb2dVertex
 10
4.224948114774061
 20
-5.097322121894368
 30
0.0
 70
     8
  0
VERTEX
  5
9256
330
91E2
100
AcDbEntity
  8
0
100
AcDbVertex
100
AcDb2dVertex
 10
4.249648913246041
 20
-5.039737760010652
 30
0.0
 70
     8
  0
VERTEX
  5
9257
330
91E2
100
AcDbEntity
  8
0
100
AcDbVertex
100
AcDb2dVertex
 10
4.270488297271182
 20
-4.982429396504297
 30
0.0
 70
     8
  0
VERTEX
  5
9258
330
91E2
100
AcDbEntity
  8
0
100
AcDbVertex
100
AcDb2dVertex
 10
4.287282389798015
 20
-4.925719032753036
 30
0.0
 70
     8
  0
VERTEX
  5
9259
330
91E2
100
AcDbEntity
  8
0
100
AcDbVertex
100
AcDb2dVertex
 10
4.299847313775055
 20
-4.869928670134651
 30
0.0
 70
     8
  0
VERTEX
  5
925A
330
91E2
100
AcDbEntity
  8
0
100
AcDbVertex
100
AcDb2dVertex
 10
4.307999192150793
 20
-4.815380310026874
 30
0.0
 70
     8
  0
VERTEX
  5
925B
330
91E2
100
AcDbEntity
  8
0
100
AcDbVertex
100
AcDb2dVertex
 10
4.311554147873771
 20
-4.762395953807466
 30
0.0
 70
     8
  0
VERTEX
  5
925C
330
91E2
100
AcDbEntity
  8
0
100
AcDbVertex
100
AcDb2dVertex
 10
4.310328303892489
 20
-4.71129760285418
 30
0.0
 70
     8
  0
VERTEX
  5
925D
330
91E2
100
AcDbEntity
  8
0
100
AcDbVertex
100
AcDb2dVertex
 10
4.304214398543102
 20
-4.662380424769533
 30
0.0
 70
     8
  0
VERTEX
  5
925E
330
91E2
100
AcDbEntity
  8
0
100
AcDbVertex
100
AcDb2dVertex
 10
4.293411631712359
 20
-4.615832252055138
 30
0.0
 70
     8
  0
VERTEX
  5
925F
330
91E2
100
AcDbEntity
  8
0
100
AcDbVertex
100
AcDb2dVertex
 10
4.2781958186746
 20
-4.571814083437345
 30
0.0
 70
     8
  0
VERTEX
  5
9260
330
91E2
100
AcDbEntity
  8
0
100
AcDbVertex
100
AcDb2dVertex
 10
4.258842774704199
 20
-4.530486917642562
 30
0.0
 70
     8
  0
VERTEX
  5
9261
330
91E2
100
AcDbEntity
  8
0
100
AcDbVertex
100
AcDb2dVertex
 10
4.235628315075516
 20
-4.492011753397143
 30
0.0
 70
     8
  0
VERTEX
  5
9262
330
91E2
100
AcDbEntity
  8
0
100
AcDbVertex
100
AcDb2dVertex
 10
4.208828255062917
 20
-4.456549589427478
 30
0.0
 70
     8
  0
VERTEX
  5
9263
330
91E2
100
AcDbEntity
  8
0
100
AcDbVertex
100
AcDb2dVertex
 10
4.178718409940776
 20
-4.42426142445992
 30
0.0
 70
     8
  0
VERTEX
  5
9264
330
91E2
100
AcDbEntity
  8
0
100
AcDbVertex
100
AcDb2dVertex
 10
4.14557459498345
 20
-4.395308257220868
 30
0.0
 70
     8
  0
VERTEX
  5
9265
330
91E2
100
AcDbEntity
  8
0
100
AcDbVertex
100
AcDb2dVertex
 10
4.109772225484373
 20
-4.369755253475954
 30
0.0
 70
     8
  0
VERTEX
  5
9266
330
91E2
100
AcDbEntity
  8
0
100
AcDbVertex
100
AcDb2dVertex
 10
4.072085116813312
 20
-4.34728424714801
 30
0.0
 70
     8
  0
VERTEX
  5
9267
330
91E2
100
AcDbEntity
  8
0
100
AcDbVertex
100
AcDb2dVertex
 10
4.033386684359093
 20
-4.327481239199101
 30
0.0
 70
     8
  0
VERTEX
  5
9268
330
91E2
100
AcDbEntity
  8
0
100
AcDbVertex
100
AcDb2dVertex
 10
3.994550343510537
 20
-4.309932230591332
 30
0.0
 70
     8
  0
VERTEX
  5
9269
330
91E2
100
AcDbEntity
  8
0
100
AcDbVertex
100
AcDb2dVertex
 10
3.956449509656456
 20
-4.294223222286781
 30
0.0
 70
     8
  0
VERTEX
  5
926A
330
91E2
100
AcDbEntity
  8
0
100
AcDbVertex
100
AcDb2dVertex
 10
3.919957598185707
 20
-4.279940215247545
 30
0.0
 70
     8
  0
VERTEX
  5
926B
330
91E2
100
AcDbEntity
  8
0
100
AcDbVertex
100
AcDb2dVertex
 10
3.885948024487092
 20
-4.266669210435711
 30
0.0
 70
     8
  0
VERTEX
  5
926C
330
91E2
100
AcDbEntity
  8
0
100
AcDbVertex
100
AcDb2dVertex
 10
3.855294203949467
 20
-4.253996208813365
 30
0.0
 70
     8
  0
VERTEX
  5
926D
330
91E2
100
AcDbEntity
  8
0
100
AcDbVertex
100
AcDb2dVertex
 10
3.828678013568239
 20
-4.241545544314266
 30
0.0
 70
     8
  0
VERTEX
  5
926E
330
91E2
100
AcDbEntity
  8
0
100
AcDbVertex
100
AcDb2dVertex
 10
3.80601517676531
 20
-4.229094882758936
 30
0.0
 70
     8
  0
VERTEX
  5
926F
330
91E2
100
AcDbEntity
  8
0
100
AcDbVertex
100
AcDb2dVertex
 10
3.78702987856918
 20
-4.216460222939517
 30
0.0
 70
     8
  0
VERTEX
  5
9270
330
91E2
100
AcDbEntity
  8
0
100
AcDbVertex
100
AcDb2dVertex
 10
3.771446304008341
 20
-4.203457563648218
 30
0.0
 70
     8
  0
VERTEX
  5
9271
330
91E2
100
AcDbEntity
  8
0
100
AcDbVertex
100
AcDb2dVertex
 10
3.758988638111285
 20
-4.189902903677204
 30
0.0
 70
     8
  0
VERTEX
  5
9272
330
91E2
100
AcDbEntity
  8
0
100
AcDbVertex
100
AcDb2dVertex
 10
3.749381065906527
 20
-4.175612241818644
 30
0.0
 70
     8
  0
VERTEX
  5
9273
330
91E2
100
AcDbEntity
  8
0
100
AcDbVertex
100
AcDb2dVertex
 10
3.742347772422547
 20
-4.160401576864721
 30
0.0
 70
     8
  0
VERTEX
  5
9274
330
91E2
100
AcDbEntity
  8
0
100
AcDbVertex
100
AcDb2dVertex
 10
3.737612942687835
 20
-4.144086907607615
 30
0.0
 70
     8
  0
VERTEX
  5
9275
330
91E2
100
AcDbEntity
  8
0
100
AcDbVertex
100
AcDb2dVertex
 10
3.735000361548062
 20
-4.126507233194899
 30
0.0
 70
     8
  0
VERTEX
  5
9276
330
91E2
100
AcDbEntity
  8
0
100
AcDbVertex
100
AcDb2dVertex
 10
3.734732213117602
 20
-4.107593554195791
 30
0.0
 70
     8
  0
VERTEX
  5
9277
330
91E2
100
AcDbEntity
  8
0
100
AcDbVertex
100
AcDb2dVertex
 10
3.737130281327932
 20
-4.087299871534867
 30
0.0
 70
     8
  0
VERTEX
  5
9278
330
91E2
100
AcDbEntity
  8
0
100
AcDbVertex
100
AcDb2dVertex
 10
3.742516350110564
 20
-4.065580186136774
 30
0.0
 70
     8
  0
VERTEX
  5
9279
330
91E2
100
AcDbEntity
  8
0
100
AcDbVertex
100
AcDb2dVertex
 10
3.751212203397031
 20
-4.042388498926101
 30
0.0
 70
     8
  0
VERTEX
  5
927A
330
91E2
100
AcDbEntity
  8
0
100
AcDbVertex
100
AcDb2dVertex
 10
3.763539625118831
 20
-4.017678810827444
 30
0.0
 70
     8
  0
VERTEX
  5
927B
330
91E2
100
AcDbEntity
  8
0
100
AcDbVertex
100
AcDb2dVertex
 10
3.779820399207494
 20
-3.991405122765431
 30
0.0
 70
     8
  0
VERTEX
  5
927C
330
91E2
100
AcDbEntity
  8
0
100
AcDbVertex
100
AcDb2dVertex
 10
3.800376309594508
 20
-3.963521435664656
 30
0.0
 70
     8
  0
VERTEX
  5
927D
330
91E2
100
AcDbEntity
  8
0
100
AcDbVertex
100
AcDb2dVertex
 10
3.825410386610425
 20
-3.93406608364161
 30
0.0
 70
     8
  0
VERTEX
  5
927E
330
91E2
100
AcDbEntity
  8
0
100
AcDbVertex
100
AcDb2dVertex
 10
3.854650646181815
 20
-3.903414733580209
 30
0.0
 70
     8
  0
VERTEX
  5
927F
330
91E2
100
AcDbEntity
  8
0
100
AcDbVertex
100
AcDb2dVertex
 10
3.887706350634314
 20
-3.872027385556275
 30
0.0
 70
     8
  0
VERTEX
  5
9280
330
91E2
100
AcDbEntity
  8
0
100
AcDbVertex
100
AcDb2dVertex
 10
3.924186762293528
 20
-3.84036403964561
 30
0.0
 70
     8
  0
VERTEX
  5
9281
330
91E2
100
AcDbEntity
  8
0
100
AcDbVertex
100
AcDb2dVertex
 10
3.963701143485065
 20
-3.808884695924021
 30
0.0
 70
     8
  0
VERTEX
  5
9282
330
91E2
100
AcDbEntity
  8
0
100
AcDbVertex
100
AcDb2dVertex
 10
4.00585875653452
 20
-3.778049354467302
 30
0.0
 70
     8
  0
VERTEX
  5
9283
330
91E2
100
AcDbEntity
  8
0
100
AcDbVertex
100
AcDb2dVertex
 10
4.05026886376754
 20
-3.748318015351273
 30
0.0
 70
     8
  0
VERTEX
  5
9284
330
91E2
100
AcDbEntity
  8
0
100
AcDbVertex
100
AcDb2dVertex
 10
4.096540727509704
 20
-3.720150678651737
 30
0.0
 70
     8
  0
VERTEX
  5
9285
330
91E2
100
AcDbEntity
  8
0
100
AcDbVertex
100
AcDb2dVertex
 10
4.144302763668552
 20
-3.69396901106397
 30
0.0
 70
     8
  0
VERTEX
  5
9286
330
91E2
100
AcDbEntity
  8
0
100
AcDbVertex
100
AcDb2dVertex
 10
4.19326000247922
 20
-3.670041345761084
 30
0.0
 70
     8
  0
VERTEX
  5
9287
330
91E2
100
AcDbEntity
  8
0
100
AcDbVertex
100
AcDb2dVertex
 10
4.243136627758758
 20
-3.648597682535662
 30
0.0
 70
     8
  0
VERTEX
  5
9288
330
91E2
100
AcDbEntity
  8
0
100
AcDbVertex
100
AcDb2dVertex
 10
4.293656823324205
 20
-3.629868021180314
 30
0.0
 70
     8
  0
VERTEX
  5
9289
330
91E2
100
AcDbEntity
  8
0
100
AcDbVertex
100
AcDb2dVertex
 10
4.344544772992623
 20
-3.614082361487632
 30
0.0
 70
     8
  0
VERTEX
  5
928A
330
91E2
100
AcDbEntity
  8
0
100
AcDbVertex
100
AcDb2dVertex
 10
4.395524660581063
 20
-3.601470703250186
 30
0.0
 70
     8
  0
VERTEX
  5
928B
330
91E2
100
AcDbEntity
  8
0
100
AcDbVertex
100
AcDb2dVertex
 10
4.446320669906574
 20
-3.592263046260587
 30
0.0
 70
     8
  0
VERTEX
  5
928C
330
91E2
100
AcDbEntity
  8
0
100
AcDbVertex
100
AcDb2dVertex
 10
4.496656984786209
 20
-3.586689390311409
 30
0.0
 70
     8
  0
VERTEX
  5
928D
330
91E2
100
AcDbEntity
  8
0
100
AcDbVertex
100
AcDb2dVertex
 10
4.546299927704637
 20
-3.584929901800553
 30
0.0
 70
     8
  0
VERTEX
  5
928E
330
91E2
100
AcDbEntity
  8
0
100
AcDbVertex
100
AcDb2dVertex
 10
4.595184375817087
 20
-3.586965413547119
 30
0.0
 70
     8
  0
VERTEX
  5
928F
330
91E2
100
AcDbEntity
  8
0
100
AcDbVertex
100
AcDb2dVertex
 10
4.643287344946426
 20
-3.592726924975533
 30
0.0
 70
     8
  0
VERTEX
  5
9290
330
91E2
100
AcDbEntity
  8
0
100
AcDbVertex
100
AcDb2dVertex
 10
4.690585850915503
 20
-3.602145435510184
 30
0.0
 70
     8
  0
VERTEX
  5
9291
330
91E2
100
AcDbEntity
  8
0
100
AcDbVertex
100
AcDb2dVertex
 10
4.737056909547185
 20
-3.61515194457549
 30
0.0
 70
     8
  0
VERTEX
  5
9292
330
91E2
100
AcDbEntity
  8
0
100
AcDbVertex
100
AcDb2dVertex
 10
4.782677536664309
 20
-3.631677451595873
 30
0.0
 70
     8
  0
VERTEX
  5
9293
330
91E2
100
AcDbEntity
  8
0
100
AcDbVertex
100
AcDb2dVertex
 10
4.827424748089743
 20
-3.651652955995722
 30
0.0
 70
     8
  0
VERTEX
  5
9294
330
91E2
100
AcDbEntity
  8
0
100
AcDbVertex
100
AcDb2dVertex
 10
4.871275559646353
 20
-3.675009457199458
 30
0.0
 70
     8
  0
VERTEX
  5
9295
330
91E2
100
AcDbEntity
  8
0
100
AcDbVertex
100
AcDb2dVertex
 10
4.914206987106499
 20
-3.701658788268307
 30
0.0
 70
     8
  0
VERTEX
  5
9296
330
91E2
100
AcDbEntity
  8
0
100
AcDbVertex
100
AcDb2dVertex
 10
4.956196046040687
 20
-3.731436116810755
 30
0.0
 70
     8
  0
VERTEX
  5
9297
330
91E2
100
AcDbEntity
  8
0
100
AcDbVertex
100
AcDb2dVertex
 10
4.99721975196887
 20
-3.764157444072107
 30
0.0
 70
     8
  0
VERTEX
  5
9298
330
91E2
100
AcDbEntity
  8
0
100
AcDbVertex
100
AcDb2dVertex
 10
5.037255120411064
 20
-3.799638771297676
 30
0.0
 70
     8
  0
VERTEX
  5
9299
330
91E2
100
AcDbEntity
  8
0
100
AcDbVertex
100
AcDb2dVertex
 10
5.076279166887287
 20
-3.837696099732745
 30
0.0
 70
     8
  0
VERTEX
  5
929A
330
91E2
100
AcDbEntity
  8
0
100
AcDbVertex
100
AcDb2dVertex
 10
5.114268906917487
 20
-3.878145430622641
 30
0.0
 70
     8
  0
VERTEX
  5
929B
330
91E2
100
AcDbEntity
  8
0
100
AcDbVertex
100
AcDb2dVertex
 10
5.151201356021697
 20
-3.920802765212645
 30
0.0
 70
     8
  0
VERTEX
  5
929C
330
91E2
100
AcDbEntity
  8
0
100
AcDbVertex
100
AcDb2dVertex
 10
5.187053529719893
 20
-3.965484104748082
 30
0.0
 70
     8
  0
VERTEX
  5
929D
330
91E2
100
AcDbEntity
  8
0
100
AcDbVertex
100
AcDb2dVertex
 10
5.221771797255879
 20
-4.011928783386078
 30
0.0
 70
     8
  0
VERTEX
  5
929E
330
91E2
100
AcDbEntity
  8
0
100
AcDbVertex
100
AcDb2dVertex
 10
5.255179942768638
 20
-4.059569466931179
 30
0.0
 70
     8
  0
VERTEX
  5
929F
330
91E2
100
AcDbEntity
  8
0
100
AcDbVertex
100
AcDb2dVertex
 10
5.287071104120951
 20
-4.107762154099752
 30
0.0
 70
     8
  0
VERTEX
  5
92A0
330
91E2
100
AcDbEntity
  8
0
100
AcDbVertex
100
AcDb2dVertex
 10
5.31723841917563
 20
-4.155862843608169
 30
0.0
 70
     8
  0
VERTEX
  5
92A1
330
91E2
100
AcDbEntity
  8
0
100
AcDbVertex
100
AcDb2dVertex
 10
5.34547502579543
 20
-4.203227534172789
 30
0.0
 70
     8
  0
VERTEX
  5
92A2
330
91E2
100
AcDbEntity
  8
0
100
AcDbVertex
100
AcDb2dVertex
 10
5.371574061843173
 20
-4.249212224509989
 30
0.0
 70
     8
  0
VERTEX
  5
92A3
330
91E2
100
AcDbEntity
  8
0
100
AcDbVertex
100
AcDb2dVertex
 10
5.395328665181601
 20
-4.29317291333616
 30
0.0
 70
     8
  0
VERTEX
  5
92A4
330
91E2
100
AcDbEntity
  8
0
100
AcDbVertex
100
AcDb2dVertex
 10
5.416531973673555
 20
-4.334465599367643
 30
0.0
 70
     8
  0
VERTEX
  5
92A5
330
91E2
100
AcDbEntity
  8
0
100
AcDbVertex
100
AcDb2dVertex
 10
5.435095879237056
 20
-4.372549781611812
 30
0.0
 70
     8
  0
VERTEX
  5
92A6
330
91E2
100
AcDbEntity
  8
0
100
AcDbVertex
100
AcDb2dVertex
 10
5.451407290011296
 20
-4.407298960239991
 30
0.0
 70
     8
  0
VERTEX
  5
92A7
330
91E2
100
AcDbEntity
  8
0
100
AcDbVertex
100
AcDb2dVertex
 10
5.465971868190708
 20
-4.438690135714466
 30
0.0
 70
     8
  0
VERTEX
  5
92A8
330
91E2
100
AcDbEntity
  8
0
100
AcDbVertex
100
AcDb2dVertex
 10
5.479295275969736
 20
-4.466700308497554
 30
0.0
 70
     8
  0
VERTEX
  5
92A9
330
91E2
100
AcDbEntity
  8
0
100
AcDbVertex
100
AcDb2dVertex
 10
5.491883175542831
 20
-4.491306479051552
 30
0.0
 70
     8
  0
VERTEX
  5
92AA
330
91E2
100
AcDbEntity
  8
0
100
AcDbVertex
100
AcDb2dVertex
 10
5.504241229104419
 20
-4.512485647838769
 30
0.0
 70
     8
  0
VERTEX
  5
92AB
330
91E2
100
AcDbEntity
  8
0
100
AcDbVertex
100
AcDb2dVertex
 10
5.516875098848966
 20
-4.530214815321503
 30
0.0
 70
     8
  0
VERTEX
  5
92AC
330
91E2
100
AcDbEntity
  8
0
100
AcDbVertex
100
AcDb2dVertex
 10
5.530290446970901
 20
-4.544470981962074
 30
0.0
 70
     8
  0
VERTEX
  5
92AD
330
91E2
100
AcDbEntity
  8
0
100
AcDbVertex
100
AcDb2dVertex
 10
5.544935473959903
 20
-4.555288648130023
 30
0.0
 70
     8
  0
VERTEX
  5
92AE
330
91E2
100
AcDbEntity
  8
0
100
AcDbVertex
100
AcDb2dVertex
 10
5.561028533486494
 20
-4.562932313823974
 30
0.0
 70
     8
  0
VERTEX
  5
92AF
330
91E2
100
AcDbEntity
  8
0
100
AcDbVertex
100
AcDb2dVertex
 10
5.578730517516433
 20
-4.567723978949814
 30
0.0
 70
     8
  0
VERTEX
  5
92B0
330
91E2
100
AcDbEntity
  8
0
100
AcDbVertex
100
AcDb2dVertex
 10
5.598202318015488
 20
-4.569985643413417
 30
0.0
 70
     8
  0
VERTEX
  5
92B1
330
91E2
100
AcDbEntity
  8
0
100
AcDbVertex
100
AcDb2dVertex
 10
5.619604826949409
 20
-4.570039307120641
 30
0.0
 70
     8
  0
VERTEX
  5
92B2
330
91E2
100
AcDbEntity
  8
0
100
AcDbVertex
100
AcDb2dVertex
 10
5.643098936283946
 20
-4.568206969977385
 30
0.0
 70
     8
  0
VERTEX
  5
92B3
330
91E2
100
AcDbEntity
  8
0
100
AcDbVertex
100
AcDb2dVertex
 10
5.668845537984852
 20
-4.5648106318895
 30
0.0
 70
     8
  0
VERTEX
  5
92B4
330
91E2
100
AcDbEntity
  8
0
100
AcDbVertex
100
AcDb2dVertex
 10
5.697005524017889
 20
-4.560172292762892
 30
0.0
 70
     8
  0
VERTEX
  5
92B5
330
91E2
100
AcDbEntity
  8
0
100
AcDbVertex
100
AcDb2dVertex
 10
5.727682324896413
 20
-4.554606285909073
 30
0.0
 70
     8
  0
VERTEX
  5
92B6
330
91E2
100
AcDbEntity
  8
0
100
AcDbVertex
100
AcDb2dVertex
 10
5.760749525324211
 20
-4.548396278262259
 30
0.0
 70
     8
  0
VERTEX
  5
92B7
330
91E2
100
AcDbEntity
  8
0
100
AcDbVertex
100
AcDb2dVertex
 10
5.796023248552648
 20
-4.541818270162295
 30
0.0
 70
     8
  0
VERTEX
  5
92B8
330
91E2
100
AcDbEntity
  8
0
100
AcDbVertex
100
AcDb2dVertex
 10
5.833319617833113
 20
-4.535148261949043
 30
0.0
 70
     8
  0
VERTEX
  5
92B9
330
91E2
100
AcDbEntity
  8
0
100
AcDbVertex
100
AcDb2dVertex
 10
5.872454756416972
 20
-4.528662253962366
 30
0.0
 70
     8
  0
VERTEX
  5
92BA
330
91E2
100
AcDbEntity
  8
0
100
AcDbVertex
100
AcDb2dVertex
 10
5.913244787555603
 20
-4.522636246542123
 30
0.0
 70
     8
  0
VERTEX
  5
92BB
330
91E2
100
AcDbEntity
  8
0
100
AcDbVertex
100
AcDb2dVertex
 10
5.955505834500383
 20
-4.517346240028167
 30
0.0
 70
     8
  0
VERTEX
  5
92BC
330
91E2
100
AcDbEntity
  8
0
100
AcDbVertex
100
AcDb2dVertex
 10
5.99905402050269
 20
-4.513068234760357
 30
0.0
 70
     8
  0
VERTEX
  5
92BD
330
91E2
100
AcDbEntity
  8
0
100
AcDbVertex
100
AcDb2dVertex
 10
6.043640345716745
 20
-4.510036064359969
 30
0.0
 70
     8
  0
VERTEX
  5
92BE
330
91E2
100
AcDbEntity
  8
0
100
AcDbVertex
100
AcDb2dVertex
 10
6.088755317908107
 20
-4.50831489557391
 30
0.0
 70
     8
  0
VERTEX
  5
92BF
330
91E2
100
AcDbEntity
  8
0
100
AcDbVertex
100
AcDb2dVertex
 10
6.133824321745198
 20
-4.507927728430505
 30
0.0
 70
     8
  0
VERTEX
  5
92C0
330
91E2
100
AcDbEntity
  8
0
100
AcDbVertex
100
AcDb2dVertex
 10
6.178272741896394
 20
-4.508897562958065
 30
0.0
 70
     8
  0
VERTEX
  5
92C1
330
91E2
100
AcDbEntity
  8
0
100
AcDbVertex
100
AcDb2dVertex
 10
6.221525963030106
 20
-4.51124739918492
 30
0.0
 70
     8
  0
VERTEX
  5
92C2
330
91E2
100
AcDbEntity
  8
0
100
AcDbVertex
100
AcDb2dVertex
 10
6.263009369814751
 20
-4.515000237139389
 30
0.0
 70
     8
  0
VERTEX
  5
92C3
330
91E2
100
AcDbEntity
  8
0
100
AcDbVertex
100
AcDb2dVertex
 10
6.302148346918727
 20
-4.520179076849792
 30
0.0
 70
     8
  0
VERTEX
  5
92C4
330
91E2
100
AcDbEntity
  8
0
100
AcDbVertex
100
AcDb2dVertex
 10
6.338368279010431
 20
-4.526806918344444
 30
0.0
 70
     8
  0
VERTEX
  5
92C5
330
91E2
100
AcDbEntity
  8
0
100
AcDbVertex
100
AcDb2dVertex
 10
6.37122479680117
 20
-4.5348837615416
 30
0.0
 70
     8
  0
VERTEX
  5
92C6
330
91E2
100
AcDbEntity
  8
0
100
AcDbVertex
100
AcDb2dVertex
 10
6.40079451517381
 20
-4.54431760591909
 30
0.0
 70
     8
  0
VERTEX
  5
92C7
330
91E2
100
AcDbEntity
  8
0
100
AcDbVertex
100
AcDb2dVertex
 10
6.427284295054107
 20
-4.55499345084469
 30
0.0
 70
     8
  0
VERTEX
  5
92C8
330
91E2
100
AcDbEntity
  8
0
100
AcDbVertex
100
AcDb2dVertex
 10
6.45090099736786
 20
-4.566796295686177
 30
0.0
 70
     8
  0
VERTEX
  5
92C9
330
91E2
100
AcDbEntity
  8
0
100
AcDbVertex
100
AcDb2dVertex
 10
6.471851483040797
 20
-4.579611139811298
 30
0.0
 70
     8
  0
VERTEX
  5
92CA
330
91E2
100
AcDbEntity
  8
0
100
AcDbVertex
100
AcDb2dVertex
 10
6.490342612998702
 20
-4.593322982587842
 30
0.0
 70
     8
  0
VERTEX
  5
92CB
330
91E2
100
AcDbEntity
  8
0
100
AcDbVertex
100
AcDb2dVertex
 10
6.506581248167332
 20
-4.607816823383569
 30
0.0
 70
     8
  0
VERTEX
  5
92CC
330
91E2
100
AcDbEntity
  8
0
100
AcDbVertex
100
AcDb2dVertex
 10
6.52077424947247
 20
-4.622977661566235
 30
0.0
 70
     8
  0
VERTEX
  5
92CD
330
91E2
100
AcDbEntity
  8
0
100
AcDbVertex
100
AcDb2dVertex
 10
6.533063354995093
 20
-4.638770996766279
 30
0.0
 70
     8
  0
VERTEX
  5
92CE
330
91E2
100
AcDbEntity
  8
0
100
AcDbVertex
100
AcDb2dVertex
 10
6.543329811437066
 20
-4.655484329664815
 30
0.0
 70
     8
  0
VERTEX
  5
92CF
330
91E2
100
AcDbEntity
  8
0
100
AcDbVertex
100
AcDb2dVertex
 10
6.551389742655523
 20
-4.673485661205607
 30
0.0
 70
     8
  0
VERTEX
  5
92D0
330
91E2
100
AcDbEntity
  8
0
100
AcDbVertex
100
AcDb2dVertex
 10
6.557059272507522
 20
-4.693142992332415
 30
0.0
 70
     8
  0
VERTEX
  5
92D1
330
91E2
100
AcDbEntity
  8
0
100
AcDbVertex
100
AcDb2dVertex
 10
6.56015452485019
 20
-4.714824323989027
 30
0.0
 70
     8
  0
VERTEX
  5
92D2
330
91E2
100
AcDbEntity
  8
0
100
AcDbVertex
100
AcDb2dVertex
 10
6.560491623540631
 20
-4.738897657119192
 30
0.0
 70
     8
  0
VERTEX
  5
92D3
330
91E2
100
AcDbEntity
  8
0
100
AcDbVertex
100
AcDb2dVertex
 10
6.557886692435943
 20
-4.765730992666707
 30
0.0
 70
     8
  0
VERTEX
  5
92D4
330
91E2
100
AcDbEntity
  8
0
100
AcDbVertex
100
AcDb2dVertex
 10
6.552155855393216
 20
-4.795692331575313
 30
0.0
 70
     8
  0
VERTEX
  5
92D5
330
91E2
100
AcDbEntity
  8
0
100
AcDbVertex
100
AcDb2dVertex
 10
6.543172697621004
 20
-4.829027007807546
 30
0.0
 70
     8
  0
VERTEX
  5
92D6
330
91E2
100
AcDbEntity
  8
0
100
AcDbVertex
100
AcDb2dVertex
 10
6.531040649733606
 20
-4.865489687400881
 30
0.0
 70
     8
  0
VERTEX
  5
92D7
330
91E2
100
AcDbEntity
  8
0
100
AcDbVertex
100
AcDb2dVertex
 10
6.515920603696784
 20
-4.904712369411555
 30
0.0
 70
     8
  0
VERTEX
  5
92D8
330
91E2
100
AcDbEntity
  8
0
100
AcDbVertex
100
AcDb2dVertex
 10
6.497973451476305
 20
-4.946327052895796
 30
0.0
 70
     8
  0
VERTEX
  5
92D9
330
91E2
100
AcDbEntity
  8
0
100
AcDbVertex
100
AcDb2dVertex
 10
6.477360085037915
 20
-4.989965736909827
 30
0.0
 70
     8
  0
VERTEX
  5
92DA
330
91E2
100
AcDbEntity
  8
0
100
AcDbVertex
100
AcDb2dVertex
 10
6.454241396347383
 20
-5.035260420509889
 30
0.0
 70
     8
  0
VERTEX
  5
92DB
330
91E2
100
AcDbEntity
  8
0
100
AcDbVertex
100
AcDb2dVertex
 10
6.428778277370458
 20
-5.081843102752202
 30
0.0
 70
     8
  0
VERTEX
  5
92DC
330
91E2
100
AcDbEntity
  8
0
100
AcDbVertex
100
AcDb2dVertex
 10
6.40113162007289
 20
-5.129345782693
 30
0.0
 70
     8
  0
VERTEX
  5
92DD
330
91E2
100
AcDbEntity
  8
0
100
AcDbVertex
100
AcDb2dVertex
 10
6.371504454936648
 20
-5.177362126335054
 30
0.0
 70
     8
  0
VERTEX
  5
92DE
330
91E2
100
AcDbEntity
  8
0
100
AcDbVertex
100
AcDb2dVertex
 10
6.340268366508503
 20
-5.225332467467346
 30
0.0
 70
     8
  0
VERTEX
  5
92DF
330
91E2
100
AcDbEntity
  8
0
100
AcDbVertex
100
AcDb2dVertex
 10
6.307837077851429
 20
-5.272658806825372
 30
0.0
 70
     8
  0
VERTEX
  5
92E0
330
91E2
100
AcDbEntity
  8
0
100
AcDbVertex
100
AcDb2dVertex
 10
6.274624312028411
 20
-5.318743145144669
 30
0.0
 70
     8
  0
VERTEX
  5
92E1
330
91E2
100
AcDbEntity
  8
0
100
AcDbVertex
100
AcDb2dVertex
 10
6.241043792102427
 20
-5.362987483160736
 30
0.0
 70
     8
  0
VERTEX
  5
92E2
330
91E2
100
AcDbEntity
  8
0
100
AcDbVertex
100
AcDb2dVertex
 10
6.207509241136449
 20
-5.404793821609105
 30
0.0
 70
     8
  0
VERTEX
  5
92E3
330
91E2
100
AcDbEntity
  8
0
100
AcDbVertex
100
AcDb2dVertex
 10
6.174434382193464
 20
-5.443564161225289
 30
0.0
 70
     8
  0
VERTEX
  5
92E4
330
91E2
100
AcDbEntity
  8
0
100
AcDbVertex
100
AcDb2dVertex
 10
6.14223293833643
 20
-5.478700502744791
 30
0.0
 70
     8
  0
VERTEX
  5
92E5
330
91E2
100
AcDbEntity
  8
0
100
AcDbVertex
100
AcDb2dVertex
 10
6.111276494162627
 20
-5.509785013301025
 30
0.0
 70
     8
  0
VERTEX
  5
92E6
330
91E2
100
AcDbEntity
  8
0
100
AcDbVertex
100
AcDb2dVertex
 10
6.081768080406378
 20
-5.537120525618973
 30
0.0
 70
     8
  0
VERTEX
  5
92E7
330
91E2
100
AcDbEntity
  8
0
100
AcDbVertex
100
AcDb2dVertex
 10
6.053868589336321
 20
-5.561190038821525
 30
0.0
 70
     8
  0
VERTEX
  5
92E8
330
91E2
100
AcDbEntity
  8
0
100
AcDbVertex
100
AcDb2dVertex
 10
6.027738913221046
 20
-5.582476552031547
 30
0.0
 70
     8
  0
VERTEX
  5
92E9
330
91E2
100
AcDbEntity
  8
0
100
AcDbVertex
100
AcDb2dVertex
 10
6.003539944329201
 20
-5.601463064371902
 30
0.0
 70
     8
  0
VERTEX
  5
92EA
330
91E2
100
AcDbEntity
  8
0
100
AcDbVertex
100
AcDb2dVertex
 10
5.981432574929389
 20
-5.618632574965497
 30
0.0
 70
     8
  0
VERTEX
  5
92EB
330
91E2
100
AcDbEntity
  8
0
100
AcDbVertex
100
AcDb2dVertex
 10
5.96157769729022
 20
-5.634468082935184
 30
0.0
 70
     8
  0
VERTEX
  5
92EC
330
91E2
100
AcDbEntity
  8
0
100
AcDbVertex
100
AcDb2dVertex
 10
5.944136203680322
 20
-5.649452587403837
 30
0.0
 70
     8
  0
VERTEX
  5
92ED
330
91E2
100
AcDbEntity
  8
0
100
AcDbVertex
100
AcDb2dVertex
 10
5.929230678699733
 20
-5.664000087818248
 30
0.0
 70
     8
  0
VERTEX
  5
92EE
330
91E2
100
AcDbEntity
  8
0
100
AcDbVertex
100
AcDb2dVertex
 10
5.916830476274164
 20
-5.678248584920725
 30
0.0
 70
     8
  0
VERTEX
  5
92EF
330
91E2
100
AcDbEntity
  8
0
100
AcDbVertex
100
AcDb2dVertex
 10
5.906866642660723
 20
-5.692267079777474
 30
0.0
 70
     8
  0
VERTEX
  5
92F0
330
91E2
100
AcDbEntity
  8
0
100
AcDbVertex
100
AcDb2dVertex
 10
5.899270224116545
 20
-5.706124573454729
 30
0.0
 70
     8
  0
VERTEX
  5
92F1
330
91E2
100
AcDbEntity
  8
0
100
AcDbVertex
100
AcDb2dVertex
 10
5.893972266898757
 20
-5.719890067018699
 30
0.0
 70
     8
  0
VERTEX
  5
92F2
330
91E2
100
AcDbEntity
  8
0
100
AcDbVertex
100
AcDb2dVertex
 10
5.890903817264462
 20
-5.7336325615356
 30
0.0
 70
     8
  0
VERTEX
  5
92F3
330
91E2
100
AcDbEntity
  8
0
100
AcDbVertex
100
AcDb2dVertex
 10
5.889995921470813
 20
-5.74742105807164
 30
0.0
 70
     8
  0
VERTEX
  5
92F4
330
91E2
100
AcDbEntity
  8
0
100
AcDbVertex
100
AcDb2dVertex
 10
5.89117962577492
 20
-5.76132455769304
 30
0.0
 70
     8
  0
VERTEX
  5
92F5
330
91E2
100
AcDbEntity
  8
0
100
AcDbVertex
100
AcDb2dVertex
 10
5.894405130268193
 20
-5.77546956112797
 30
0.0
 70
     8
  0
VERTEX
  5
92F6
330
91E2
100
AcDbEntity
  8
0
100
AcDbVertex
100
AcDb2dVertex
 10
5.899699250379235
 20
-5.790212567752387
 30
0.0
 70
     8
  0
VERTEX
  5
92F7
330
91E2
100
AcDbEntity
  8
0
100
AcDbVertex
100
AcDb2dVertex
 10
5.907107955370879
 20
-5.805967576604203
 30
0.0
 70
     8
  0
VERTEX
  5
92F8
330
91E2
100
AcDbEntity
  8
0
100
AcDbVertex
100
AcDb2dVertex
 10
5.916677214506027
 20
-5.823148586721325
 30
0.0
 70
     8
  0
VERTEX
  5
92F9
330
91E2
100
AcDbEntity
  8
0
100
AcDbVertex
100
AcDb2dVertex
 10
5.928452997047553
 20
-5.842169597141664
 30
0.0
 70
     8
  0
VERTEX
  5
92FA
330
91E2
100
AcDbEntity
  8
0
100
AcDbVertex
100
AcDb2dVertex
 10
5.942481272258294
 20
-5.863444606903154
 30
0.0
 70
     8
  0
VERTEX
  5
92FB
330
91E2
100
AcDbEntity
  8
0
100
AcDbVertex
100
AcDb2dVertex
 10
5.95880800940116
 20
-5.88738761504368
 30
0.0
 70
     8
  0
VERTEX
  5
92FC
330
91E2
100
AcDbEntity
  8
0
100
AcDbVertex
100
AcDb2dVertex
 10
5.977479177739002
 20
-5.914412620601163
 30
0.0
 70
     8
  0
VERTEX
  5
92FD
330
91E2
100
AcDbEntity
  8
0
100
AcDbVertex
100
AcDb2dVertex
 10
5.998391346506082
 20
-5.944895289641829
 30
0.0
 70
     8
  0
VERTEX
  5
92FE
330
91E2
100
AcDbEntity
  8
0
100
AcDbVertex
100
AcDb2dVertex
 10
6.020843484822176
 20
-5.979057956345187
 30
0.0
 70
     8
  0
VERTEX
  5
92FF
330
91E2
100
AcDbEntity
  8
0
100
AcDbVertex
100
AcDb2dVertex
 10
6.04398516177849
 20
-6.017084621919064
 30
0.0
 70
     8
  0
VERTEX
  5
9300
330
91E2
100
AcDbEntity
  8
0
100
AcDbVertex
100
AcDb2dVertex
 10
6.066965946466179
 20
-6.059159287571283
 30
0.0
 70
     8
  0
VERTEX
  5
9301
330
91E2
100
AcDbEntity
  8
0
100
AcDbVertex
100
AcDb2dVertex
 10
6.088935407976435
 20
-6.105465954509647
 30
0.0
 70
     8
  0
VERTEX
  5
9302
330
91E2
100
AcDbEntity
  8
0
100
AcDbVertex
100
AcDb2dVertex
 10
6.109043115400424
 20
-6.156188623942016
 30
0.0
 70
     8
  0
VERTEX
  5
9303
330
91E2
100
AcDbEntity
  8
0
100
AcDbVertex
100
AcDb2dVertex
 10
6.12643863782932
 20
-6.211511297076182
 30
0.0
 70
     8
  0
VERTEX
  5
9304
330
91E2
100
AcDbEntity
  8
0
100
AcDbVertex
100
AcDb2dVertex
 10
6.140271544354309
 20
-6.271617975119978
 30
0.0
 70
     8
  0
VERTEX
  5
9305
330
91E2
100
AcDbEntity
  8
0
100
AcDbVertex
100
AcDb2dVertex
 10
6.149882942611386
 20
-6.336431992211824
 30
0.0
 70
     8
  0
VERTEX
  5
9306
330
91E2
100
AcDbEntity
  8
0
100
AcDbVertex
100
AcDb2dVertex
 10
6.155380094415818
 20
-6.404834014212447
 30
0.0
 70
     8
  0
VERTEX
  5
9307
330
91E2
100
AcDbEntity
  8
0
100
AcDbVertex
100
AcDb2dVertex
 10
6.157061800127721
 20
-6.475444039913199
 30
0.0
 70
     8
  0
VERTEX
  5
9308
330
91E2
100
AcDbEntity
  8
0
100
AcDbVertex
100
AcDb2dVertex
 10
6.155226860107159
 20
-6.5468820681054
 30
0.0
 70
     8
  0
VERTEX
  5
9309
330
91E2
100
AcDbEntity
  8
0
100
AcDbVertex
100
AcDb2dVertex
 10
6.150174074714236
 20
-6.61776809758038
 30
0.0
 70
     8
  0
VERTEX
  5
930A
330
91E2
100
AcDbEntity
  8
0
100
AcDbVertex
100
AcDb2dVertex
 10
6.142202244309032
 20
-6.686722127129483
 30
0.0
 70
     8
  0
VERTEX
  5
930B
330
91E2
100
AcDbEntity
  8
0
100
AcDbVertex
100
AcDb2dVertex
 10
6.131610169251676
 20
-6.752364155544038
 30
0.0
 70
     8
  0
VERTEX
  5
930C
330
91E2
100
AcDbEntity
  8
0
100
AcDbVertex
100
AcDb2dVertex
 10
6.118696649902231
 20
-6.813314181615361
 30
0.0
 70
     8
  0
VERTEX
  5
930D
330
91E2
100
AcDbEntity
  8
0
100
AcDbVertex
100
AcDb2dVertex
 10
6.103748994128412
 20
-6.868483537663339
 30
0.0
 70
     8
  0
VERTEX
  5
930E
330
91E2
100
AcDbEntity
  8
0
100
AcDbVertex
100
AcDb2dVertex
 10
6.087008539828378
 20
-6.917948890121952
 30
0.0
 70
     8
  0
VERTEX
  5
930F
330
91E2
100
AcDbEntity
  8
0
100
AcDbVertex
100
AcDb2dVertex
 10
6.068705132407892
 20
-6.962078238953711
 30
0.0
 70
     8
  0
VERTEX
  5
9310
330
91E2
100
AcDbEntity
  8
0
100
AcDbVertex
100
AcDb2dVertex
 10
6.049068617272734
 20
-7.00123958412114
 30
0.0
 70
     8
  0
VERTEX
  5
9311
330
91E2
100
AcDbEntity
  8
0
100
AcDbVertex
100
AcDb2dVertex
 10
6.028328839828674
 20
-7.035800925586777
 30
0.0
 70
     8
  0
VERTEX
  5
9312
330
91E2
100
AcDbEntity
  8
0
100
AcDbVertex
100
AcDb2dVertex
 10
6.006715645481474
 20
-7.066130263313116
 30
0.0
 70
     8
  0
VERTEX
  5
9313
330
91E2
100
AcDbEntity
  8
0
100
AcDbVertex
100
AcDb2dVertex
 10
5.984458879636893
 20
-7.092595597262683
 30
0.0
 70
     8
  0
VERTEX
  5
9314
330
91E2
100
AcDbEntity
  8
0
100
AcDbVertex
100
AcDb2dVertex
 10
5.96178838770073
 20
-7.115564927397999
 30
0.0
 70
     8
  0
VERTEX
  5
9315
330
91E2
100
AcDbEntity
  8
0
100
AcDbVertex
100
AcDb2dVertex
 10
5.938911030699701
 20
-7.135367920546366
 30
0.0
 70
     8
  0
VERTEX
  5
9316
330
91E2
100
AcDbEntity
  8
0
100
AcDbVertex
100
AcDb2dVertex
 10
5.915941732144293
 20
-7.152180910994184
 30
0.0
 70
     8
  0
VERTEX
  5
9317
330
91E2
100
AcDbEntity
  8
0
100
AcDbVertex
100
AcDb2dVertex
 10
5.892972431166004
 20
-7.166141899892625
 30
0.0
 70
     8
  0
VERTEX
  5
9318
330
91E2
100
AcDbEntity
  8
0
100
AcDbVertex
100
AcDb2dVertex
 10
5.870095066896279
 20
-7.177388888392892
 30
0.0
 70
     8
  0
VERTEX
  5
9319
330
91E2
100
AcDbEntity
  8
0
100
AcDbVertex
100
AcDb2dVertex
 10
5.847401578466595
 20
-7.186059877646133
 30
0.0
 70
     8
  0
VERTEX
  5
931A
330
91E2
100
AcDbEntity
  8
0
100
AcDbVertex
100
AcDb2dVertex
 10
5.824983905008416
 20
-7.192292868803551
 30
0.0
 70
     8
  0
VERTEX
  5
931B
330
91E2
100
AcDbEntity
  8
0
100
AcDbVertex
100
AcDb2dVertex
 10
5.802933985653208
 20
-7.196225863016319
 30
0.0
 70
     8
  0
VERTEX
  5
931C
330
91E2
100
AcDbEntity
  8
0
100
AcDbVertex
100
AcDb2dVertex
 10
5.781343759532425
 20
-7.19799686143563
 30
0.0
 70
     8
  0
VERTEX
  5
931D
330
91E2
100
AcDbEntity
  8
0
100
AcDbVertex
100
AcDb2dVertex
 10
5.760247704123251
 20
-7.197655698110317
 30
0.0
 70
     8
  0
VERTEX
  5
931E
330
91E2
100
AcDbEntity
  8
0
100
AcDbVertex
100
AcDb2dVertex
 10
5.739450450285602
 20
-7.194899538680001
 30
0.0
 70
     8
  0
VERTEX
  5
931F
330
91E2
100
AcDbEntity
  8
0
100
AcDbVertex
100
AcDb2dVertex
 10
5.718699167225143
 20
-7.189337381681962
 30
0.0
 70
     8
  0
VERTEX
  5
9320
330
91E2
100
AcDbEntity
  8
0
100
AcDbVertex
100
AcDb2dVertex
 10
5.697741024147498
 20
-7.180578225653485
 30
0.0
 70
     8
  0
VERTEX
  5
9321
330
91E2
100
AcDbEntity
  8
0
100
AcDbVertex
100
AcDb2dVertex
 10
5.676323190258308
 20
-7.168231069131849
 30
0.0
 70
     8
  0
VERTEX
  5
9322
330
91E2
100
AcDbEntity
  8
0
100
AcDbVertex
100
AcDb2dVertex
 10
5.654192834763223
 20
-7.151904910654335
 30
0.0
 70
     8
  0
VERTEX
  5
9323
330
91E2
100
AcDbEntity
  8
0
100
AcDbVertex
100
AcDb2dVertex
 10
5.631097126867881
 20
-7.13120874875824
 30
0.0
 70
     8
  0
VERTEX
  5
9324
330
91E2
100
AcDbEntity
  8
0
100
AcDbVertex
100
AcDb2dVertex
 10
5.606783235777911
 20
-7.105751581980818
 30
0.0
 70
     8
  0
VERTEX
  5
9325
330
91E2
100
AcDbEntity
  8
0
100
AcDbVertex
100
AcDb2dVertex
 10
5.58104046911421
 20
-7.075399242672508
 30
0.0
 70
     8
  0
VERTEX
  5
9326
330
91E2
100
AcDbEntity
  8
0
100
AcDbVertex
100
AcDb2dVertex
 10
5.553826688158672
 20
-7.041044898436251
 30
0.0
 70
     8
  0
VERTEX
  5
9327
330
91E2
100
AcDbEntity
  8
0
100
AcDbVertex
100
AcDb2dVertex
 10
5.525141892608427
 20
-7.003838550688113
 30
0.0
 70
     8
  0
VERTEX
  5
9328
330
91E2
100
AcDbEntity
  8
0
100
AcDbVertex
100
AcDb2dVertex
 10
5.494986082160622
 20
-6.964930200844184
 30
0.0
 70
     8
  0
VERTEX
  5
9329
330
91E2
100
AcDbEntity
  8
0
100
AcDbVertex
100
AcDb2dVertex
 10
5.463359256512376
 20
-6.925469850320544
 30
0.0
 70
     8
  0
VERTEX
  5
932A
330
91E2
100
AcDbEntity
  8
0
100
AcDbVertex
100
AcDb2dVertex
 10
5.430261415360845
 20
-6.886607500533264
 30
0.0
 70
     8
  0
VERTEX
  5
932B
330
91E2
100
AcDbEntity
  8
0
100
AcDbVertex
100
AcDb2dVertex
 10
5.395692558403164
 20
-6.849493152898416
 30
0.0
 70
     8
  0
VERTEX
  5
932C
330
91E2
100
AcDbEntity
  8
0
100
AcDbVertex
100
AcDb2dVertex
 10
5.359652685336472
 20
-6.815276808832082
 30
0.0
 70
     8
  0
VERTEX
  5
932D
330
91E2
100
AcDbEntity
  8
0
100
AcDbVertex
100
AcDb2dVertex
 10
5.322145626705513
 20
-6.784924469360236
 30
0.0
 70
     8
  0
VERTEX
  5
932E
330
91E2
100
AcDbEntity
  8
0
100
AcDbVertex
100
AcDb2dVertex
 10
5.283190536445552
 20
-6.758666133948359
 30
0.0
 70
     8
  0
VERTEX
  5
932F
330
91E2
100
AcDbEntity
  8
0
100
AcDbVertex
100
AcDb2dVertex
 10
5.242810399339447
 20
-6.736547801671868
 30
0.0
 70
     8
  0
VERTEX
  5
9330
330
91E2
100
AcDbEntity
  8
0
100
AcDbVertex
100
AcDb2dVertex
 10
5.201028200170071
 20
-6.718615471606158
 30
0.0
 70
     8
  0
VERTEX
  5
9331
330
91E2
100
AcDbEntity
  8
0
100
AcDbVertex
100
AcDb2dVertex
 10
5.157866923720282
 20
-6.704915142826592
 30
0.0
 70
     8
  0
VERTEX
  5
9332
330
91E2
100
AcDbEntity
  8
0
100
AcDbVertex
100
AcDb2dVertex
 10
5.113349554772952
 20
-6.695492814408595
 30
0.0
 70
     8
  0
VERTEX
  5
9333
330
91E2
100
AcDbEntity
  8
0
100
AcDbVertex
100
AcDb2dVertex
 10
5.067499078110936
 20
-6.690394485427525
 30
0.0
 70
     8
  0
VERTEX
  5
9334
330
91E2
100
AcDbEntity
  8
0
100
AcDbVertex
100
AcDb2dVertex
 10
5.020338478517121
 20
-6.689666154958809
 30
0.0
 70
     8
  0
VERTEX
  5
9335
330
91E2
100
AcDbEntity
  8
0
100
AcDbVertex
100
AcDb2dVertex
 10
4.972032479158201
 20
-6.693300155672154
 30
0.0
 70
     8
  0
VERTEX
  5
9336
330
91E2
100
AcDbEntity
  8
0
100
AcDbVertex
100
AcDb2dVertex
 10
4.923312756736304
 20
-6.701074154614616
 30
0.0
 70
     8
  0
VERTEX
  5
9337
330
91E2
100
AcDbEntity
  8
0
100
AcDbVertex
100
AcDb2dVertex
 10
4.875052726337404
 20
-6.712712152427597
 30
0.0
 70
     8
  0
VERTEX
  5
9338
330
91E2
100
AcDbEntity
  8
0
100
AcDbVertex
100
AcDb2dVertex
 10
4.82812580304745
 20
-6.727938149752484
 30
0.0
 70
     8
  0
VERTEX
  5
9339
330
91E2
100
AcDbEntity
  8
0
100
AcDbVertex
100
AcDb2dVertex
 10
4.783405401952425
 20
-6.746476147230682
 30
0.0
 70
     8
  0
VERTEX
  5
933A
330
91E2
100
AcDbEntity
  8
0
100
AcDbVertex
100
AcDb2dVertex
 10
4.741764938138281
 20
-6.768050145503551
 30
0.0
 70
     8
  0
VERTEX
  5
933B
330
91E2
100
AcDbEntity
  8
0
100
AcDbVertex
100
AcDb2dVertex
 10
4.704077826690987
 20
-6.792384145212523
 30
0.0
 70
     8
  0
VERTEX
  5
933C
330
91E2
100
AcDbEntity
  8
0
100
AcDbVertex
100
AcDb2dVertex
 10
4.671217482696508
 20
-6.819202146998961
 30
0.0
 70
     8
  0
VERTEX
  5
933D
330
91E2
100
AcDbEntity
  8
0
100
AcDbVertex
100
AcDb2dVertex
 10
4.643873444492182
 20
-6.848254984625334
 30
0.0
 70
     8
  0
VERTEX
  5
933E
330
91E2
100
AcDbEntity
  8
0
100
AcDbVertex
100
AcDb2dVertex
 10
4.621999743420872
 20
-6.879400824338343
 30
0.0
 70
     8
  0
VERTEX
  5
933F
330
91E2
100
AcDbEntity
  8
0
100
AcDbVertex
100
AcDb2dVertex
 10
4.605366534076811
 20
-6.912524665505744
 30
0.0
 70
     8
  0
VERTEX
  5
9340
330
91E2
100
AcDbEntity
  8
0
100
AcDbVertex
100
AcDb2dVertex
 10
4.593743971054223
 20
-6.947511507495333
 30
0.0
 70
     8
  0
VERTEX
  5
9341
330
91E2
100
AcDbEntity
  8
0
100
AcDbVertex
100
AcDb2dVertex
 10
4.586902208947327
 20
-6.984246349674849
 30
0.0
 70
     8
  0
VERTEX
  5
9342
330
91E2
100
AcDbEntity
  8
0
100
AcDbVertex
100
AcDb2dVertex
 10
4.584611402350368
 20
-7.022614191412063
 30
0.0
 70
     8
  0
VERTEX
  5
9343
330
91E2
100
AcDbEntity
  8
0
100
AcDbVertex
100
AcDb2dVertex
 10
4.586641705857569
 20
-7.062500032074744
 30
0.0
 70
     8
  0
VERTEX
  5
9344
330
91E2
100
AcDbEntity
  8
0
100
AcDbVertex
100
AcDb2dVertex
 10
4.592763274063162
 20
-7.103788871030674
 30
0.0
 70
     8
  0
VERTEX
  5
9345
330
91E2
100
AcDbEntity
  8
0
100
AcDbVertex
100
AcDb2dVertex
 10
4.602784568977568
 20
-7.146323541174322
 30
0.0
 70
     8
  0
VERTEX
  5
9346
330
91E2
100
AcDbEntity
  8
0
100
AcDbVertex
100
AcDb2dVertex
 10
4.616667282276001
 20
-7.189778209507087
 30
0.0
 70
     8
  0
VERTEX
  5
9347
330
91E2
100
AcDbEntity
  8
0
100
AcDbVertex
100
AcDb2dVertex
 10
4.634411413049889
 20
-7.233784876557063
 30
0.0
 70
     8
  0
VERTEX
  5
9348
330
91E2
100
AcDbEntity
  8
0
100
AcDbVertex
100
AcDb2dVertex
 10
4.656016960390644
 20
-7.27797554285236
 30
0.0
 70
     8
  0
VERTEX
  5
9349
330
91E2
100
AcDbEntity
  8
0
100
AcDbVertex
100
AcDb2dVertex
 10
4.681483923389688
 20
-7.321982208921085
 30
0.0
 70
     8
  0
VERTEX
  5
934A
330
91E2
100
AcDbEntity
  8
0
100
AcDbVertex
100
AcDb2dVertex
 10
4.710812301138403
 20
-7.365436875291335
 30
0.0
 70
     8
  0
VERTEX
  5
934B
330
91E2
100
AcDbEntity
  8
0
100
AcDbVertex
100
AcDb2dVertex
 10
4.744002092728244
 20
-7.407971542491242
 30
0.0
 70
     8
  0
VERTEX
  5
934C
330
91E2
100
AcDbEntity
  8
0
100
AcDbVertex
100
AcDb2dVertex
 10
4.781053297250604
 20
-7.449218211048881
 30
0.0
 70
     8
  0
VERTEX
  5
934D
330
91E2
100
AcDbEntity
  8
0
100
AcDbVertex
100
AcDb2dVertex
 10
4.82191228329308
 20
-7.488816548004946
 30
0.0
 70
     8
  0
VERTEX
  5
934E
330
91E2
100
AcDbEntity
  8
0
100
AcDbVertex
100
AcDb2dVertex
 10
4.866310897427975
 20
-7.526436886450357
 30
0.0
 70
     8
  0
VERTEX
  5
934F
330
91E2
100
AcDbEntity
  8
0
100
AcDbVertex
100
AcDb2dVertex
 10
4.913927355723794
 20
-7.561757225988618
 30
0.0
 70
     8
  0
VERTEX
  5
9350
330
91E2
100
AcDbEntity
  8
0
100
AcDbVertex
100
AcDb2dVertex
 10
4.964439874249013
 20
-7.594455566223217
 30
0.0
 70
     8
  0
VERTEX
  5
9351
330
91E2
100
AcDbEntity
  8
0
100
AcDbVertex
100
AcDb2dVertex
 10
5.017526669072113
 20
-7.624209906757668
 30
0.0
 70
     8
  0
VERTEX
  5
9352
330
91E2
100
AcDbEntity
  8
0
100
AcDbVertex
100
AcDb2dVertex
 10
5.072865956261594
 20
-7.650698247195473
 30
0.0
 70
     8
  0
VERTEX
  5
9353
330
91E2
100
AcDbEntity
  8
0
100
AcDbVertex
100
AcDb2dVertex
 10
5.130135951885929
 20
-7.673598587140107
 30
0.0
 70
     8
  0
VERTEX
  5
9354
330
91E2
100
AcDbEntity
  8
0
100
AcDbVertex
100
AcDb2dVertex
 10
5.189014872013627
 20
-7.692588926195082
 30
0.0
 70
     8
  0
VERTEX
  5
9355
330
91E2
100
AcDbEntity
  8
0
100
AcDbVertex
100
AcDb2dVertex
 10
5.249203917193156
 20
-7.707408597372756
 30
0.0
 70
     8
  0
VERTEX
  5
9356
330
91E2
100
AcDbEntity
  8
0
100
AcDbVertex
100
AcDb2dVertex
 10
5.31049622589305
 20
-7.71804226732091
 30
0.0
 70
     8
  0
VERTEX
  5
9357
330
91E2
100
AcDbEntity
  8
0
100
AcDbVertex
100
AcDb2dVertex
 10
5.372707921061813
 20
-7.724535936096184
 30
0.0
 70
     8
  0
VERTEX
  5
9358
330
91E2
100
AcDbEntity
  8
0
100
AcDbVertex
100
AcDb2dVertex
 10
5.435655125647958
 20
-7.726935603755238
 30
0.0
 70
     8
  0
VERTEX
  5
9359
330
91E2
100
AcDbEntity
  8
0
100
AcDbVertex
100
AcDb2dVertex
 10
5.499153962600001
 20
-7.725287270354698
 30
0.0
 70
     8
  0
VERTEX
  5
935A
330
91E2
100
AcDbEntity
  8
0
100
AcDbVertex
100
AcDb2dVertex
 10
5.563020554866447
 20
-7.719636935951202
 30
0.0
 70
     8
  0
VERTEX
  5
935B
330
91E2
100
AcDbEntity
  8
0
100
AcDbVertex
100
AcDb2dVertex
 10
5.627071025395839
 20
-7.71003060060141
 30
0.0
 70
     8
  0
VERTEX
  5
935C
330
91E2
100
AcDbEntity
  8
0
100
AcDbVertex
100
AcDb2dVertex
 10
5.691121497136673
 20
-7.69651426436196
 30
0.0
 70
     8
  0
VERTEX
  5
935D
330
91E2
100
AcDbEntity
  8
0
100
AcDbVertex
100
AcDb2dVertex
 10
5.754957446811753
 20
-7.679114760599224
 30
0.0
 70
     8
  0
VERTEX
  5
935E
330
91E2
100
AcDbEntity
  8
0
100
AcDbVertex
100
AcDb2dVertex
 10
5.818241766240962
 20
-7.657782255918512
 30
0.0
 70
     8
  0
VERTEX
  5
935F
330
91E2
100
AcDbEntity
  8
0
100
AcDbVertex
100
AcDb2dVertex
 10
5.880606701018477
 20
-7.632447750234842
 30
0.0
 70
     8
  0
VERTEX
  5
9360
330
91E2
100
AcDbEntity
  8
0
100
AcDbVertex
100
AcDb2dVertex
 10
5.941684496738451
 20
-7.603042243463271
 30
0.0
 70
     8
  0
VERTEX
  5
9361
330
91E2
100
AcDbEntity
  8
0
100
AcDbVertex
100
AcDb2dVertex
 10
6.001107398995069
 20
-7.56949673551882
 30
0.0
 70
     8
  0
VERTEX
  5
9362
330
91E2
100
AcDbEntity
  8
0
100
AcDbVertex
100
AcDb2dVertex
 10
6.058507653382498
 20
-7.531742226316531
 30
0.0
 70
     8
  0
VERTEX
  5
9363
330
91E2
100
AcDbEntity
  8
0
100
AcDbVertex
100
AcDb2dVertex
 10
6.1135175054949
 20
-7.489709715771434
 30
0.0
 70
     8
  0
VERTEX
  5
9364
330
91E2
100
AcDbEntity
  8
0
100
AcDbVertex
100
AcDb2dVertex
 10
6.165769200926456
 20
-7.443330203798565
 30
0.0
 70
     8
  0
VERTEX
  5
9365
330
91E2
100
AcDbEntity
  8
0
100
AcDbVertex
100
AcDb2dVertex
 10
6.214998416238984
 20
-7.392542357070855
 30
0.0
 70
     8
  0
VERTEX
  5
9366
330
91E2
100
AcDbEntity
  8
0
100
AcDbVertex
100
AcDb2dVertex
 10
6.261354551864922
 20
-7.337315509292707
 30
0.0
 70
     8
  0
VERTEX
  5
9367
330
91E2
100
AcDbEntity
  8
0
100
AcDbVertex
100
AcDb2dVertex
 10
6.305090439204324
 20
-7.277626660926431
 30
0.0
 70
     8
  0
VERTEX
  5
9368
330
91E2
100
AcDbEntity
  8
0
100
AcDbVertex
100
AcDb2dVertex
 10
6.346458909657307
 20
-7.213452812434333
 30
0.0
 70
     8
  0
VERTEX
  5
9369
330
91E2
100
AcDbEntity
  8
0
100
AcDbVertex
100
AcDb2dVertex
 10
6.385712794623941
 20
-7.144770964278718
 30
0.0
 70
     8
  0
VERTEX
  5
936A
330
91E2
100
AcDbEntity
  8
0
100
AcDbVertex
100
AcDb2dVertex
 10
6.423104925504308
 20
-7.071558116921881
 30
0.0
 70
     8
  0
VERTEX
  5
936B
330
91E2
100
AcDbEntity
  8
0
100
AcDbVertex
100
AcDb2dVertex
 10
6.458888133698495
 20
-6.993791270826143
 30
0.0
 70
     8
  0
VERTEX
  5
936C
330
91E2
100
AcDbEntity
  8
0
100
AcDbVertex
100
AcDb2dVertex
 10
6.493315250606601
 20
-6.911447426453799
 30
0.0
 70
     8
  0
VERTEX
  5
936D
330
91E2
100
AcDbEntity
  8
0
100
AcDbVertex
100
AcDb2dVertex
 10
6.526589307518184
 20
-6.824679917408747
 30
0.0
 70
     8
  0
VERTEX
  5
936E
330
91E2
100
AcDbEntity
  8
0
100
AcDbVertex
100
AcDb2dVertex
 10
6.558714135280888
 20
-6.734347409861372
 30
0.0
 70
     8
  0
VERTEX
  5
936F
330
91E2
100
AcDbEntity
  8
0
100
AcDbVertex
100
AcDb2dVertex
 10
6.589643764631833
 20
-6.641484903123636
 30
0.0
 70
     8
  0
VERTEX
  5
9370
330
91E2
100
AcDbEntity
  8
0
100
AcDbVertex
100
AcDb2dVertex
 10
6.619332226308166
 20
-6.547127396507486
 30
0.0
 70
     8
  0
VERTEX
  5
9371
330
91E2
100
AcDbEntity
  8
0
100
AcDbVertex
100
AcDb2dVertex
 10
6.647733551046991
 20
-6.452309889324913
 30
0.0
 70
     8
  0
VERTEX
  5
9372
330
91E2
100
AcDbEntity
  8
0
100
AcDbVertex
100
AcDb2dVertex
 10
6.674801769585441
 20
-6.358067380887881
 30
0.0
 70
     8
  0
VERTEX
  5
9373
330
91E2
100
AcDbEntity
  8
0
100
AcDbVertex
100
AcDb2dVertex
 10
6.70049091266066
 20
-6.265434870508352
 30
0.0
 70
     8
  0
VERTEX
  5
9374
330
91E2
100
AcDbEntity
  8
0
100
AcDbVertex
100
AcDb2dVertex
 10
6.724755011009769
 20
-6.175447357498301
 30
0.0
 70
     8
  0
VERTEX
  5
9375
330
91E2
100
AcDbEntity
  8
0
100
AcDbVertex
100
AcDb2dVertex
 10
6.747559587609902
 20
-6.088863841402218
 30
0.0
 70
     8
  0
VERTEX
  5
9376
330
91E2
100
AcDbEntity
  8
0
100
AcDbVertex
100
AcDb2dVertex
 10
6.768916134398192
 20
-6.005339322694775
 30
0.0
 70
     8
  0
VERTEX
  5
9377
330
91E2
100
AcDbEntity
  8
0
100
AcDbVertex
100
AcDb2dVertex
 10
6.788847635551787
 20
-5.924252802083167
 30
0.0
 70
     8
  0
VERTEX
  5
9378
330
91E2
100
AcDbEntity
  8
0
100
AcDbVertex
100
AcDb2dVertex
 10
6.807377075247833
 20
-5.844983280274581
 30
0.0
 70
     8
  0
VERTEX
  5
9379
330
91E2
100
AcDbEntity
  8
0
100
AcDbVertex
100
AcDb2dVertex
 10
6.824527437663466
 20
-5.766909757976215
 30
0.0
 70
     8
  0
VERTEX
  5
937A
330
91E2
100
AcDbEntity
  8
0
100
AcDbVertex
100
AcDb2dVertex
 10
6.840321706975831
 20
-5.689411235895263
 30
0.0
 70
     8
  0
VERTEX
  5
937B
330
91E2
100
AcDbEntity
  8
0
100
AcDbVertex
100
AcDb2dVertex
 10
6.854782867362082
 20
-5.611866714738914
 30
0.0
 70
     8
  0
VERTEX
  5
937C
330
91E2
100
AcDbEntity
  8
0
100
AcDbVertex
100
AcDb2dVertex
 10
6.867933902999334
 20
-5.533655195214363
 30
0.0
 70
     8
  0
VERTEX
  5
937D
330
91E2
100
AcDbEntity
  8
0
100
AcDbVertex
100
AcDb2dVertex
 10
6.879832275138117
 20
-5.454351177860697
 30
0.0
 70
     8
  0
VERTEX
  5
937E
330
91E2
100
AcDbEntity
  8
0
100
AcDbVertex
100
AcDb2dVertex
 10
6.890673353322267
 20
-5.374311162544486
 30
0.0
 70
     8
  0
VERTEX
  5
937F
330
91E2
100
AcDbEntity
  8
0
100
AcDbVertex
100
AcDb2dVertex
 10
6.900686984169006
 20
-5.294087148964205
 30
0.0
 70
     8
  0
VERTEX
  5
9380
330
91E2
100
AcDbEntity
  8
0
100
AcDbVertex
100
AcDb2dVertex
 10
6.910103014295565
 20
-5.21423113681832
 30
0.0
 70
     8
  0
VERTEX
  5
9381
330
91E2
100
AcDbEntity
  8
0
100
AcDbVertex
100
AcDb2dVertex
 10
6.919151290319156
 20
-5.135295125805296
 30
0.0
 70
     8
  0
VERTEX
  5
9382
330
91E2
100
AcDbEntity
  8
0
100
AcDbVertex
100
AcDb2dVertex
 10
6.928061658856991
 20
-5.057831115623606
 30
0.0
 70
     8
  0
VERTEX
  5
9383
330
91E2
100
AcDbEntity
  8
0
100
AcDbVertex
100
AcDb2dVertex
 10
6.937063966526299
 20
-4.982391105971704
 30
0.0
 70
     8
  0
VERTEX
  5
9384
330
91E2
100
AcDbEntity
  8
0
100
AcDbVertex
100
AcDb2dVertex
 10
6.946388059944306
 20
-4.909527096548064
 30
0.0
 70
     8
  0
VERTEX
  5
9385
330
91E2
100
AcDbEntity
  8
0
100
AcDbVertex
100
AcDb2dVertex
 10
6.956271447120572
 20
-4.839591753717684
 30
0.0
 70
     8
  0
VERTEX
  5
9386
330
91E2
100
AcDbEntity
  8
0
100
AcDbVertex
100
AcDb2dVertex
 10
6.966982281634248
 20
-4.772140410511639
 30
0.0
 70
     8
  0
VERTEX
  5
9387
330
91E2
100
AcDbEntity
  8
0
100
AcDbVertex
100
AcDb2dVertex
 10
6.978796378456827
 20
-4.706529066627574
 30
0.0
 70
     8
  0
VERTEX
  5
9388
330
91E2
100
AcDbEntity
  8
0
100
AcDbVertex
100
AcDb2dVertex
 10
6.991989552559818
 20
-4.642113721763102
 30
0.0
 70
     8
  0
VERTEX
  5
9389
330
91E2
100
AcDbEntity
  8
0
100
AcDbVertex
100
AcDb2dVertex
 10
7.006837618914721
 20
-4.578250375615851
 30
0.0
 70
     8
  0
VERTEX
  5
938A
330
91E2
100
AcDbEntity
  8
0
100
AcDbVertex
100
AcDb2dVertex
 10
7.023616392493043
 20
-4.514295027883438
 30
0.0
 70
     8
  0
VERTEX
  5
938B
330
91E2
100
AcDbEntity
  8
0
100
AcDbVertex
100
AcDb2dVertex
 10
7.042601688266278
 20
-4.449603678263475
 30
0.0
 70
     8
  0
VERTEX
  5
938C
330
91E2
100
AcDbEntity
  8
0
100
AcDbVertex
100
AcDb2dVertex
 10
7.064069321205952
 20
-4.383532326453604
 30
0.0
 70
     8
  0
VERTEX
  5
938D
330
91E2
100
AcDbEntity
  8
0
100
AcDbVertex
100
AcDb2dVertex
 10
7.088191675618732
 20
-4.315640138986506
 30
0.0
 70
     8
  0
VERTEX
  5
938E
330
91E2
100
AcDbEntity
  8
0
100
AcDbVertex
100
AcDb2dVertex
 10
7.114727413152223
 20
-4.246298949735145
 30
0.0
 70
     8
  0
VERTEX
  5
938F
330
91E2
100
AcDbEntity
  8
0
100
AcDbVertex
100
AcDb2dVertex
 10
7.143331764789138
 20
-4.176083759407575
 30
0.0
 70
     8
  0
VERTEX
  5
9390
330
91E2
100
AcDbEntity
  8
0
100
AcDbVertex
100
AcDb2dVertex
 10
7.173659961512269
 20
-4.105569568711811
 30
0.0
 70
     8
  0
VERTEX
  5
9391
330
91E2
100
AcDbEntity
  8
0
100
AcDbVertex
100
AcDb2dVertex
 10
7.205367234304354
 20
-4.035331378355923
 30
0.0
 70
     8
  0
VERTEX
  5
9392
330
91E2
100
AcDbEntity
  8
0
100
AcDbVertex
100
AcDb2dVertex
 10
7.238108814148169
 20
-3.965944189047924
 30
0.0
 70
     8
  0
VERTEX
  5
9393
330
91E2
100
AcDbEntity
  8
0
100
AcDbVertex
100
AcDb2dVertex
 10
7.271539932026454
 20
-3.897983001495859
 30
0.0
 70
     8
  0
VERTEX
  5
9394
330
91E2
100
AcDbEntity
  8
0
100
AcDbVertex
100
AcDb2dVertex
 10
7.305315818922
 20
-3.832022816407768
 30
0.0
 70
     8
  0
VERTEX
  5
9395
330
91E2
100
AcDbEntity
  8
0
100
AcDbVertex
100
AcDb2dVertex
 10
7.339160659661352
 20
-3.768515967592197
 30
0.0
 70
     8
  0
VERTEX
  5
9396
330
91E2
100
AcDbEntity
  8
0
100
AcDbVertex
100
AcDb2dVertex
 10
7.373074454446456
 20
-3.707424121259773
 30
0.0
 70
     8
  0
VERTEX
  5
9397
330
91E2
100
AcDbEntity
  8
0
100
AcDbVertex
100
AcDb2dVertex
 10
7.407126157323025
 20
-3.648586276721601
 30
0.0
 70
     8
  0
VERTEX
  5
9398
330
91E2
100
AcDbEntity
  8
0
100
AcDbVertex
100
AcDb2dVertex
 10
7.441384722336824
 20
-3.591841433288816
 30
0.0
 70
     8
  0
VERTEX
  5
9399
330
91E2
100
AcDbEntity
  8
0
100
AcDbVertex
100
AcDb2dVertex
 10
7.475919103533554
 20
-3.537028590272537
 30
0.0
 70
     8
  0
VERTEX
  5
939A
330
91E2
100
AcDbEntity
  8
0
100
AcDbVertex
100
AcDb2dVertex
 10
7.510798254958992
 20
-3.483986746983887
 30
0.0
 70
     8
  0
VERTEX
  5
939B
330
91E2
100
AcDbEntity
  8
0
100
AcDbVertex
100
AcDb2dVertex
 10
7.546091130658837
 20
-3.432554902734008
 30
0.0
 70
     8
  0
VERTEX
  5
939C
330
91E2
100
AcDbEntity
  8
0
100
AcDbVertex
100
AcDb2dVertex
 10
7.581866684678841
 20
-3.382572056834003
 30
0.0
 70
     8
  0
VERTEX
  5
939D
330
91E2
100
AcDbEntity
  8
0
100
AcDbVertex
100
AcDb2dVertex
 10
7.618082778654247
 20
-3.333930875491287
 30
0.0
 70
     8
  0
VERTEX
  5
939E
330
91E2
100
AcDbEntity
  8
0
100
AcDbVertex
100
AcDb2dVertex
 10
7.654252904578232
 20
-3.286738692498445
 30
0.0
 70
     8
  0
VERTEX
  5
939F
330
91E2
100
AcDbEntity
  8
0
100
AcDbVertex
100
AcDb2dVertex
 10
7.689779462033463
 20
-3.241156508544371
 30
0.0
 70
     8
  0
VERTEX
  5
93A0
330
91E2
100
AcDbEntity
  8
0
100
AcDbVertex
100
AcDb2dVertex
 10
7.724064850602619
 20
-3.197345324317932
 30
0.0
 70
     8
  0
VERTEX
  5
93A1
330
91E2
100
AcDbEntity
  8
0
100
AcDbVertex
100
AcDb2dVertex
 10
7.756511469868383
 20
-3.155466140507996
 30
0.0
 70
     8
  0
VERTEX
  5
93A2
330
91E2
100
AcDbEntity
  8
0
100
AcDbVertex
100
AcDb2dVertex
 10
7.786521719413419
 20
-3.115679957803447
 30
0.0
 70
     8
  0
VERTEX
  5
93A3
330
91E2
100
AcDbEntity
  8
0
100
AcDbVertex
100
AcDb2dVertex
 10
7.813497998820423
 20
-3.07814777689316
 30
0.0
 70
     8
  0
VERTEX
  5
93A4
330
91E2
100
AcDbEntity
  8
0
100
AcDbVertex
100
AcDb2dVertex
 10
7.836842707672047
 20
-3.04303059846601
 30
0.0
 70
     8
  0
VERTEX
  5
93A5
330
91E2
100
AcDbEntity
  8
0
100
AcDbVertex
100
AcDb2dVertex
 10
7.856122968768168
 20
-3.010420423044134
 30
0.0
 70
     8
  0
VERTEX
  5
93A6
330
91E2
100
AcDbEntity
  8
0
100
AcDbVertex
100
AcDb2dVertex
 10
7.871564797777431
 20
-2.98013325048274
 30
0.0
 70
     8
  0
VERTEX
  5
93A7
330
91E2
100
AcDbEntity
  8
0
100
AcDbVertex
100
AcDb2dVertex
 10
7.883558933585671
 20
-2.951916080470279
 30
0.0
 70
     8
  0
VERTEX
  5
93A8
330
91E2
100
AcDbEntity
  8
0
100
AcDbVertex
100
AcDb2dVertex
 10
7.892496115078717
 20
-2.925515912695228
 30
0.0
 70
     8
  0
VERTEX
  5
93A9
330
91E2
100
AcDbEntity
  8
0
100
AcDbVertex
100
AcDb2dVertex
 10
7.898767081142409
 20
-2.900679746846037
 30
0.0
 70
     8
  0
VERTEX
  5
93AA
330
91E2
100
AcDbEntity
  8
0
100
AcDbVertex
100
AcDb2dVertex
 10
7.902762570662584
 20
-2.877154582611183
 30
0.0
 70
     8
  0
VERTEX
  5
93AB
330
91E2
100
AcDbEntity
  8
0
100
AcDbVertex
100
AcDb2dVertex
 10
7.904873322525084
 20
-2.854687419679112
 30
0.0
 70
     8
  0
VERTEX
  5
93AC
330
91E2
100
AcDbEntity
  8
0
100
AcDbVertex
100
AcDb2dVertex
 10
7.905490075615732
 20
-2.833025257738299
 30
0.0
 70
     8
  0
VERTEX
  5
93AD
330
91E2
100
AcDbEntity
  8
0
100
AcDbVertex
100
AcDb2dVertex
 10
7.904907799446991
 20
-2.811976429804282
 30
0.0
 70
     8
  0
VERTEX
  5
93AE
330
91E2
100
AcDbEntity
  8
0
100
AcDbVertex
100
AcDb2dVertex
 10
7.903038386037909
 20
-2.791594602200973
 30
0.0
 70
     8
  0
VERTEX
  5
93AF
330
91E2
100
AcDbEntity
  8
0
100
AcDbVertex
100
AcDb2dVertex
 10
7.89969795803411
 20
-2.771994774579333
 30
0.0
 70
     8
  0
VERTEX
  5
93B0
330
91E2
100
AcDbEntity
  8
0
100
AcDbVertex
100
AcDb2dVertex
 10
7.894702638081263
 20
-2.753291946590369
 30
0.0
 70
     8
  0
VERTEX
  5
93B1
330
91E2
100
AcDbEntity
  8
0
100
AcDbVertex
100
AcDb2dVertex
 10
7.887868548825021
 20
-2.735601117885039
 30
0.0
 70
     8
  0
VERTEX
  5
93B2
330
91E2
100
AcDbEntity
  8
0
100
AcDbVertex
100
AcDb2dVertex
 10
7.879011812911031
 20
-2.719037288114346
 30
0.0
 70
     8
  0
VERTEX
  5
93B3
330
91E2
100
AcDbEntity
  8
0
100
AcDbVertex
100
AcDb2dVertex
 10
7.867948552984964
 20
-2.70371545692927
 30
0.0
 70
     8
  0
VERTEX
  5
93B4
330
91E2
100
AcDbEntity
  8
0
100
AcDbVertex
100
AcDb2dVertex
 10
7.854494891692443
 20
-2.689750623980778
 30
0.0
 70
     8
  0
VERTEX
  5
93B5
330
91E2
100
AcDbEntity
  8
0
100
AcDbVertex
100
AcDb2dVertex
 10
7.838466951830573
 20
-2.677238622393137
 30
0.0
 70
     8
  0
VERTEX
  5
93B6
330
91E2
100
AcDbEntity
  8
0
100
AcDbVertex
100
AcDb2dVertex
 10
7.819680856802181
 20
-2.666198619183699
 30
0.0
 70
     8
  0
VERTEX
  5
93B7
330
91E2
100
AcDbEntity
  8
0
100
AcDbVertex
100
AcDb2dVertex
 10
7.797952730161464
 20
-2.656630614843077
 30
0.0
 70
     8
  0
VERTEX
  5
93B8
330
91E2
100
AcDbEntity
  8
0
100
AcDbVertex
100
AcDb2dVertex
 10
7.773098695462689
 20
-2.648534609861908
 30
0.0
 70
     8
  0
VERTEX
  5
93B9
330
91E2
100
AcDbEntity
  8
0
100
AcDbVertex
100
AcDb2dVertex
 10
7.744934876260094
 20
-2.641910604730835
 30
0.0
 70
     8
  0
VERTEX
  5
93BA
330
91E2
100
AcDbEntity
  8
0
100
AcDbVertex
100
AcDb2dVertex
 10
7.713277396107905
 20
-2.636758599940442
 30
0.0
 70
     8
  0
VERTEX
  5
93BB
330
91E2
100
AcDbEntity
  8
0
100
AcDbVertex
100
AcDb2dVertex
 10
7.677942378560377
 20
-2.633078595981395
 30
0.0
 70
     8
  0
VERTEX
  5
93BC
330
91E2
100
AcDbEntity
  8
0
100
AcDbVertex
100
AcDb2dVertex
 10
7.638745947171722
 20
-2.630870593344301
 30
0.0
 70
     8
  0
VERTEX
  5
93BD
330
91E2
100
AcDbEntity
  8
0
100
AcDbVertex
100
AcDb2dVertex
 10
7.595707256129603
 20
-2.630107759071634
 30
0.0
 70
     8
  0
VERTEX
  5
93BE
330
91E2
100
AcDbEntity
  8
0
100
AcDbVertex
100
AcDb2dVertex
 10
7.549657582155205
 20
-2.630655926413293
 30
0.0
 70
     8
  0
VERTEX
  5
93BF
330
91E2
100
AcDbEntity
  8
0
100
AcDbVertex
100
AcDb2dVertex
 10
7.501631232603092
 20
-2.632354095171038
 30
0.0
 70
     8
  0
VERTEX
  5
93C0
330
91E2
100
AcDbEntity
  8
0
100
AcDbVertex
100
AcDb2dVertex
 10
7.452662514827869
 20
-2.635041265146607
 30
0.0
 70
     8
  0
VERTEX
  5
93C1
330
91E2
100
AcDbEntity
  8
0
100
AcDbVertex
100
AcDb2dVertex
 10
7.403785736184106
 20
-2.638556436141751
 30
0.0
 70
     8
  0
VERTEX
  5
93C2
330
91E2
100
AcDbEntity
  8
0
100
AcDbVertex
100
AcDb2dVertex
 10
7.356035204026394
 20
-2.642738607958222
 30
0.0
 70
     8
  0
VERTEX
  5
93C3
330
91E2
100
AcDbEntity
  8
0
100
AcDbVertex
100
AcDb2dVertex
 10
7.310445225709315
 20
-2.647426780397768
 30
0.0
 70
     8
  0
VERTEX
  5
93C4
330
91E2
100
AcDbEntity
  8
0
100
AcDbVertex
100
AcDb2dVertex
 10
7.268050108587463
 20
-2.652459953262145
 30
0.0
 70
     8
  0
VERTEX
  5
93C5
330
91E2
100
AcDbEntity
  8
0
100
AcDbVertex
100
AcDb2dVertex
 10
7.229677298534387
 20
-2.657738459680171
 30
0.0
 70
     8
  0
VERTEX
  5
93C6
330
91E2
100
AcDbEntity
  8
0
100
AcDbVertex
100
AcDb2dVertex
 10
7.195326795499621
 20
-2.663407966089028
 30
0.0
 70
     8
  0
VERTEX
  5
93C7
330
91E2
100
AcDbEntity
  8
0
100
AcDbVertex
100
AcDb2dVertex
 10
7.164791737951688
 20
-2.669675472253008
 30
0.0
 70
     8
  0
VERTEX
  5
93C8
330
91E2
100
AcDbEntity
  8
0
100
AcDbVertex
100
AcDb2dVertex
 10
7.13786526435908
 20
-2.676747977936365
 30
0.0
 70
     8
  0
VERTEX
  5
93C9
330
91E2
100
AcDbEntity
  8
0
100
AcDbVertex
100
AcDb2dVertex
 10
7.114340513190327
 20
-2.684832482903367
 30
0.0
 70
     8
  0
VERTEX
  5
93CA
330
91E2
100
AcDbEntity
  8
0
100
AcDbVertex
100
AcDb2dVertex
 10
7.094010622913915
 20
-2.694135986918279
 30
0.0
 70
     8
  0
VERTEX
  5
93CB
330
91E2
100
AcDbEntity
  8
0
100
AcDbVertex
100
AcDb2dVertex
 10
7.07666873199837
 20
-2.704865489745372
 30
0.0
 70
     8
  0
VERTEX
  5
93CC
330
91E2
100
AcDbEntity
  8
0
100
AcDbVertex
100
AcDb2dVertex
 10
7.062107978912218
 20
-2.717227991148924
 30
0.0
 70
     8
  0
VERTEX
  5
93CD
330
91E2
100
AcDbEntity
  8
0
100
AcDbVertex
100
AcDb2dVertex
 10
7.050102348289648
 20
-2.731399824352308
 30
0.0
 70
     8
  0
VERTEX
  5
93CE
330
91E2
100
AcDbEntity
  8
0
100
AcDbVertex
100
AcDb2dVertex
 10
7.040349209427734
 20
-2.74743465641535
 30
0.0
 70
     8
  0
VERTEX
  5
93CF
330
91E2
100
AcDbEntity
  8
0
100
AcDbVertex
100
AcDb2dVertex
 10
7.032526777789239
 20
-2.765355487857007
 30
0.0
 70
     8
  0
VERTEX
  5
93D0
330
91E2
100
AcDbEntity
  8
0
100
AcDbVertex
100
AcDb2dVertex
 10
7.026313268836926
 20
-2.785185319196237
 30
0.0
 70
     8
  0
VERTEX
  5
93D1
330
91E2
100
AcDbEntity
  8
0
100
AcDbVertex
100
AcDb2dVertex
 10
7.021386898033554
 20
-2.80694715095197
 30
0.0
 70
     8
  0
VERTEX
  5
93D2
330
91E2
100
AcDbEntity
  8
0
100
AcDbVertex
100
AcDb2dVertex
 10
7.017425880841884
 20
-2.830663983643152
 30
0.0
 70
     8
  0
VERTEX
  5
93D3
330
91E2
100
AcDbEntity
  8
0
100
AcDbVertex
100
AcDb2dVertex
 10
7.014108432724693
 20
-2.856358817788748
 30
0.0
 70
     8
  0
VERTEX
  5
93D4
330
91E2
100
AcDbEntity
  8
0
100
AcDbVertex
100
AcDb2dVertex
 10
7.011112769144739
 20
-2.884054653907686
 30
0.0
 70
     8
  0
VERTEX
  5
93D5
330
91E2
100
AcDbEntity
  8
0
100
AcDbVertex
100
AcDb2dVertex
 10
7.008117105564771
 20
-2.913762992341222
 30
0.0
 70
     8
  0
VERTEX
  5
93D6
330
91E2
100
AcDbEntity
  8
0
100
AcDbVertex
100
AcDb2dVertex
 10
7.004799657447581
 20
-2.945449332719789
 30
0.0
 70
     8
  0
VERTEX
  5
93D7
330
91E2
100
AcDbEntity
  8
0
100
AcDbVertex
100
AcDb2dVertex
 10
7.000838640255924
 20
-2.979067674496111
 30
0.0
 70
     8
  0
VERTEX
  5
93D8
330
91E2
100
AcDbEntity
  8
0
100
AcDbVertex
100
AcDb2dVertex
 10
6.995912269452539
 20
-3.014572017122922
 30
0.0
 70
     8
  0
VERTEX
  5
93D9
330
91E2
100
AcDbEntity
  8
0
100
AcDbVertex
100
AcDb2dVertex
 10
6.989698760500225
 20
-3.051916360052953
 30
0.0
 70
     8
  0
VERTEX
  5
93DA
330
91E2
100
AcDbEntity
  8
0
100
AcDbVertex
100
AcDb2dVertex
 10
6.98187632886173
 20
-3.091054702738951
 30
0.0
 70
     8
  0
VERTEX
  5
93DB
330
91E2
100
AcDbEntity
  8
0
100
AcDbVertex
100
AcDb2dVertex
 10
6.972123189999816
 20
-3.131941044633624
 30
0.0
 70
     8
  0
VERTEX
  5
93DC
330
91E2
100
AcDbEntity
  8
0
100
AcDbVertex
100
AcDb2dVertex
 10
6.960117559377247
 20
-3.174529385189714
 30
0.0
 70
     8
  0
VERTEX
  5
93DD
330
91E2
100
AcDbEntity
  8
0
100
AcDbVertex
100
AcDb2dVertex
 10
6.945602775453007
 20
-3.218708557358354
 30
0.0
 70
     8
  0
VERTEX
  5
93DE
330
91E2
100
AcDbEntity
  8
0
100
AcDbVertex
100
AcDb2dVertex
 10
6.928582668670888
 20
-3.264106728084289
 30
0.0
 70
     8
  0
VERTEX
  5
93DF
330
91E2
100
AcDbEntity
  8
0
100
AcDbVertex
100
AcDb2dVertex
 10
6.909126192470914
 20
-3.310286897810648
 30
0.0
 70
     8
  0
VERTEX
  5
93E0
330
91E2
100
AcDbEntity
  8
0
100
AcDbVertex
100
AcDb2dVertex
 10
6.887302300293079
 20
-3.356812066980584
 30
0.0
 70
     8
  0
VERTEX
  5
93E1
330
91E2
100
AcDbEntity
  8
0
100
AcDbVertex
100
AcDb2dVertex
 10
6.863179945577424
 20
-3.403245236037236
 30
0.0
 70
     8
  0
VERTEX
  5
93E2
330
91E2
100
AcDbEntity
  8
0
100
AcDbVertex
100
AcDb2dVertex
 10
6.83682808176395
 20
-3.449149405423732
 30
0.0
 70
     8
  0
VERTEX
  5
93E3
330
91E2
100
AcDbEntity
  8
0
100
AcDbVertex
100
AcDb2dVertex
 10
6.808315662292674
 20
-3.494087575583233
 30
0.0
 70
     8
  0
VERTEX
  5
93E4
330
91E2
100
AcDbEntity
  8
0
100
AcDbVertex
100
AcDb2dVertex
 10
6.777711640603611
 20
-3.537622746958874
 30
0.0
 70
     8
  0
VERTEX
  5
93E5
330
91E2
100
AcDbEntity
  8
0
100
AcDbVertex
100
AcDb2dVertex
 10
6.745153924182501
 20
-3.579352419872719
 30
0.0
 70
     8
  0
VERTEX
  5
93E6
330
91E2
100
AcDbEntity
  8
0
100
AcDbVertex
100
AcDb2dVertex
 10
6.711056236698057
 20
-3.619012094162641
 30
0.0
 70
     8
  0
VERTEX
  5
93E7
330
91E2
100
AcDbEntity
  8
0
100
AcDbVertex
100
AcDb2dVertex
 10
6.675901255864728
 20
-3.656371769545412
 30
0.0
 70
     8
  0
VERTEX
  5
93E8
330
91E2
100
AcDbEntity
  8
0
100
AcDbVertex
100
AcDb2dVertex
 10
6.640171659396923
 20
-3.691201445737807
 30
0.0
 70
     8
  0
VERTEX
  5
93E9
330
91E2
100
AcDbEntity
  8
0
100
AcDbVertex
100
AcDb2dVertex
 10
6.604350125009107
 20
-3.72327112245663
 30
0.0
 70
     8
  0
VERTEX
  5
93EA
330
91E2
100
AcDbEntity
  8
0
100
AcDbVertex
100
AcDb2dVertex
 10
6.568919330415715
 20
-3.752350799418653
 30
0.0
 70
     8
  0
VERTEX
  5
93EB
330
91E2
100
AcDbEntity
  8
0
100
AcDbVertex
100
AcDb2dVertex
 10
6.534361953331185
 20
-3.778210476340657
 30
0.0
 70
     8
  0
VERTEX
  5
93EC
330
91E2
100
AcDbEntity
  8
0
100
AcDbVertex
100
AcDb2dVertex
 10
6.501160671469939
 20
-3.800620152939437
 30
0.0
 70
     8
  0
VERTEX
  5
93ED
330
91E2
100
AcDbEntity
  8
0
100
AcDbVertex
100
AcDb2dVertex
 10
6.469690900731174
 20
-3.819418828934963
 30
0.0
 70
     8
  0
VERTEX
  5
93EE
330
91E2
100
AcDbEntity
  8
0
100
AcDbVertex
100
AcDb2dVertex
 10
6.439899009752934
 20
-3.834721504059995
 30
0.0
 70
     8
  0
VERTEX
  5
93EF
330
91E2
100
AcDbEntity
  8
0
100
AcDbVertex
100
AcDb2dVertex
 10
6.411624105358031
 20
-3.846712178050481
 30
0.0
 70
     8
  0
VERTEX
  5
93F0
330
91E2
100
AcDbEntity
  8
0
100
AcDbVertex
100
AcDb2dVertex
 10
6.384705294369243
 20
-3.855574850642366
 30
0.0
 70
     8
  0
VERTEX
  5
93F1
330
91E2
100
AcDbEntity
  8
0
100
AcDbVertex
100
AcDb2dVertex
 10
6.358981683609398
 20
-3.861493521571588
 30
0.0
 70
     8
  0
VERTEX
  5
93F2
330
91E2
100
AcDbEntity
  8
0
100
AcDbVertex
100
AcDb2dVertex
 10
6.334292379901258
 20
-3.864652190574094
 30
0.0
 70
     8
  0
VERTEX
  5
93F3
330
91E2
100
AcDbEntity
  8
0
100
AcDbVertex
100
AcDb2dVertex
 10
6.310476490067653
 20
-3.865234857385839
 30
0.0
 70
     8
  0
VERTEX
  5
93F4
330
91E2
100
AcDbEntity
  8
0
100
AcDbVertex
100
AcDb2dVertex
 10
6.287373120931356
 20
-3.863425521742779
 30
0.0
 70
     8
  0
VERTEX
  5
93F5
330
91E2
100
AcDbEntity
  8
0
100
AcDbVertex
100
AcDb2dVertex
 10
6.264790733442787
 20
-3.859231850157467
 30
0.0
 70
     8
  0
VERTEX
  5
93F6
330
91E2
100
AcDbEntity
  8
0
100
AcDbVertex
100
AcDb2dVertex
 10
6.242415205062815
 20
-3.851956176248929
 30
0.0
 70
     8
  0
VERTEX
  5
93F7
330
91E2
100
AcDbEntity
  8
0
100
AcDbVertex
100
AcDb2dVertex
 10
6.219901767379923
 20
-3.840724500412846
 30
0.0
 70
     8
  0
VERTEX
  5
93F8
330
91E2
100
AcDbEntity
  8
0
100
AcDbVertex
100
AcDb2dVertex
 10
6.196905651982579
 20
-3.824662823044871
 30
0.0
 70
     8
  0
VERTEX
  5
93F9
330
91E2
100
AcDbEntity
  8
0
100
AcDbVertex
100
AcDb2dVertex
 10
6.173082090459285
 20
-3.802897144540661
 30
0.0
 70
     8
  0
VERTEX
  5
93FA
330
91E2
100
AcDbEntity
  8
0
100
AcDbVertex
100
AcDb2dVertex
 10
6.14808631439852
 20
-3.774553465295856
 30
0.0
 70
     8
  0
VERTEX
  5
93FB
330
91E2
100
AcDbEntity
  8
0
100
AcDbVertex
100
AcDb2dVertex
 10
6.121573555388756
 20
-3.738757785706138
 30
0.0
 70
     8
  0
VERTEX
  5
93FC
330
91E2
100
AcDbEntity
  8
0
100
AcDbVertex
100
AcDb2dVertex
 10
6.093199045018497
 20
-3.694636106167145
 30
0.0
 70
     8
  0
VERTEX
  5
93FD
330
91E2
100
AcDbEntity
  8
0
100
AcDbVertex
100
AcDb2dVertex
 10
6.062606522282861
 20
-3.641720760335829
 30
0.0
 70
     8
  0
VERTEX
  5
93FE
330
91E2
100
AcDbEntity
  8
0
100
AcDbVertex
100
AcDb2dVertex
 10
6.029393755803656
 20
-3.581169414914274
 30
0.0
 70
     8
  0
VERTEX
  5
93FF
330
91E2
100
AcDbEntity
  8
0
100
AcDbVertex
100
AcDb2dVertex
 10
5.993147021609287
 20
-3.514546069865836
 30
0.0
 70
     8
  0
VERTEX
  5
9400
330
91E2
100
AcDbEntity
  8
0
100
AcDbVertex
100
AcDb2dVertex
 10
5.953452595728192
 20
-3.443414725153871
 30
0.0
 70
     8
  0
VERTEX
  5
9401
330
91E2
100
AcDbEntity
  8
0
100
AcDbVertex
100
AcDb2dVertex
 10
5.909896754188824
 20
-3.369339380741759
 30
0.0
 70
     8
  0
VERTEX
  5
9402
330
91E2
100
AcDbEntity
  8
0
100
AcDbVertex
100
AcDb2dVertex
 10
5.862065773019615
 20
-3.293884036592853
 30
0.0
 70
     8
  0
VERTEX
  5
9403
330
91E2
100
AcDbEntity
  8
0
100
AcDbVertex
100
AcDb2dVertex
 10
5.809545928249001
 20
-3.218612692670522
 30
0.0
 70
     8
  0
VERTEX
  5
9404
330
91E2
100
AcDbEntity
  8
0
100
AcDbVertex
100
AcDb2dVertex
 10
5.751923495905426
 20
-3.145089348938132
 30
0.0
 70
     8
  0
VERTEX
  5
9405
330
91E2
100
AcDbEntity
  8
0
100
AcDbVertex
100
AcDb2dVertex
 10
5.688922660007825
 20
-3.074671005349443
 30
0.0
 70
     8
  0
VERTEX
  5
9406
330
91E2
100
AcDbEntity
  8
0
100
AcDbVertex
100
AcDb2dVertex
 10
5.620819236537263
 20
-3.007886661819942
 30
0.0
 70
     8
  0
VERTEX
  5
9407
330
91E2
100
AcDbEntity
  8
0
100
AcDbVertex
100
AcDb2dVertex
 10
5.548026949465299
 20
-2.945058318255494
 30
0.0
 70
     8
  0
VERTEX
  5
9408
330
91E2
100
AcDbEntity
  8
0
100
AcDbVertex
100
AcDb2dVertex
 10
5.470959522763489
 20
-2.886507974561965
 30
0.0
 70
     8
  0
VERTEX
  5
9409
330
91E2
100
AcDbEntity
  8
0
100
AcDbVertex
100
AcDb2dVertex
 10
5.390030680403395
 20
-2.832557630645251
 30
0.0
 70
     8
  0
VERTEX
  5
940A
330
91E2
100
AcDbEntity
  8
0
100
AcDbVertex
100
AcDb2dVertex
 10
5.305654146356587
 20
-2.783529286411212
 30
0.0
 70
     8
  0
VERTEX
  5
940B
330
91E2
100
AcDbEntity
  8
0
100
AcDbVertex
100
AcDb2dVertex
 10
5.218243644594629
 20
-2.739744941765735
 30
0.0
 70
     8
  0
VERTEX
  5
940C
330
91E2
100
AcDbEntity
  8
0
100
AcDbVertex
100
AcDb2dVertex
 10
5.12821289908909
 20
-2.701526596614694
 30
0.0
 70
     8
  0
VERTEX
  5
940D
330
91E2
100
AcDbEntity
  8
0
100
AcDbVertex
100
AcDb2dVertex
 10
5.035879864286719
 20
-2.669180917675284
 30
0.0
 70
     8
  0
VERTEX
  5
940E
330
91E2
100
AcDbEntity
  8
0
100
AcDbVertex
100
AcDb2dVertex
 10
4.941179416535131
 20
-2.642953238910031
 30
0.0
 70
     8
  0
VERTEX
  5
940F
330
91E2
100
AcDbEntity
  8
0
100
AcDbVertex
100
AcDb2dVertex
 10
4.843950662657098
 20
-2.623073561092763
 30
0.0
 70
     8
  0
VERTEX
  5
9410
330
91E2
100
AcDbEntity
  8
0
100
AcDbVertex
100
AcDb2dVertex
 10
4.744032709475437
 20
-2.609771884997329
 30
0.0
 70
     8
  0
VERTEX
  5
9411
330
91E2
100
AcDbEntity
  8
0
100
AcDbVertex
100
AcDb2dVertex
 10
4.641264663812938
 20
-2.603278211397576
 30
0.0
 70
     8
  0
VERTEX
  5
9412
330
91E2
100
AcDbEntity
  8
0
100
AcDbVertex
100
AcDb2dVertex
 10
4.535485632492402
 20
-2.60382254106733
 30
0.0
 70
     8
  0
VERTEX
  5
9413
330
91E2
100
AcDbEntity
  8
0
100
AcDbVertex
100
AcDb2dVertex
 10
4.426534722336604
 20
-2.611634874780438
 30
0.0
 70
     8
  0
VERTEX
  5
9414
330
91E2
100
AcDbEntity
  8
0
100
AcDbVertex
100
AcDb2dVertex
 10
4.314251040168372
 20
-2.626945213310744
 30
0.0
 70
     8
  0
VERTEX
  5
9415
330
91E2
100
AcDbEntity
  8
0
100
AcDbVertex
100
AcDb2dVertex
 10
4.198715031566749
 20
-2.649903057087648
 30
0.0
 70
     8
  0
VERTEX
  5
9416
330
91E2
100
AcDbEntity
  8
0
100
AcDbVertex
100
AcDb2dVertex
 10
4.080972497135871
 20
-2.680335905162799
 30
0.0
 70
     8
  0
VERTEX
  5
9417
330
91E2
100
AcDbEntity
  8
0
100
AcDbVertex
100
AcDb2dVertex
 10
3.962310576236124
 20
-2.717990756243409
 30
0.0
 70
     8
  0
VERTEX
  5
9418
330
91E2
100
AcDbEntity
  8
0
100
AcDbVertex
100
AcDb2dVertex
 10
3.844016408227885
 20
-2.762614609036692
 30
0.0
 70
     8
  0
VERTEX
  5
9419
330
91E2
100
AcDbEntity
  8
0
100
AcDbVertex
100
AcDb2dVertex
 10
3.727377132471568
 20
-2.813954462249871
 30
0.0
 70
     8
  0
VERTEX
  5
941A
330
91E2
100
AcDbEntity
  8
0
100
AcDbVertex
100
AcDb2dVertex
 10
3.613679888327551
 20
-2.871757314590134
 30
0.0
 70
     8
  0
VERTEX
  5
941B
330
91E2
100
AcDbEntity
  8
0
100
AcDbVertex
100
AcDb2dVertex
 10
3.504211815156232
 20
-2.935770164764715
 30
0.0
 70
     8
  0
VERTEX
  5
941C
330
91E2
100
AcDbEntity
  8
0
100
AcDbVertex
100
AcDb2dVertex
 10
3.400260052318015
 20
-3.00574001148081
 30
0.0
 70
     8
  0
VERTEX
  5
941D
330
91E2
100
AcDbEntity
  8
0
100
AcDbVertex
100
AcDb2dVertex
 10
3.302870400467474
 20
-3.081283520524213
 30
0.0
 70
     8
  0
VERTEX
  5
941E
330
91E2
100
AcDbEntity
  8
0
100
AcDbVertex
100
AcDb2dVertex
 10
3.21212330543606
 20
-3.16149602599501
 30
0.0
 70
     8
  0
VERTEX
  5
941F
330
91E2
100
AcDbEntity
  8
0
100
AcDbVertex
100
AcDb2dVertex
 10
3.12785787434945
 20
-3.245342529071862
 30
0.0
 70
     8
  0
VERTEX
  5
9420
330
91E2
100
AcDbEntity
  8
0
100
AcDbVertex
100
AcDb2dVertex
 10
3.049913214333294
 20
-3.33178803093342
 30
0.0
 70
     8
  0
VERTEX
  5
9421
330
91E2
100
AcDbEntity
  8
0
100
AcDbVertex
100
AcDb2dVertex
 10
2.978128432513244
 20
-3.41979753275833
 30
0.0
 70
     8
  0
VERTEX
  5
9422
330
91E2
100
AcDbEntity
  8
0
100
AcDbVertex
100
AcDb2dVertex
 10
2.912342636014949
 20
-3.50833603572526
 30
0.0
 70
     8
  0
VERTEX
  5
9423
330
91E2
100
AcDbEntity
  8
0
100
AcDbVertex
100
AcDb2dVertex
 10
2.8523949319641
 20
-3.596368541012882
 30
0.0
 70
     8
  0
VERTEX
  5
9424
330
91E2
100
AcDbEntity
  8
0
100
AcDbVertex
100
AcDb2dVertex
 10
2.798124427486335
 20
-3.682860049799831
 30
0.0
 70
     8
  0
VERTEX
  5
9425
330
91E2
100
AcDbEntity
  8
0
100
AcDbVertex
100
AcDb2dVertex
 10
2.749366399061607
 20
-3.766867562887437
 30
0.0
 70
     8
  0
VERTEX
  5
9426
330
91E2
100
AcDbEntity
  8
0
100
AcDbVertex
100
AcDb2dVertex
 10
2.70594080058699
 20
-3.847816079567653
 30
0.0
 70
     8
  0
VERTEX
  5
9427
330
91E2
100
AcDbEntity
  8
0
100
AcDbVertex
100
AcDb2dVertex
 10
2.667663755313878
 20
-3.925222598755112
 30
0.0
 70
     8
  0
VERTEX
  5
9428
330
91E2
100
AcDbEntity
  8
0
100
AcDbVertex
100
AcDb2dVertex
 10
2.634351386493644
 20
-3.99860411936444
 30
0.0
 70
     8
  0
VERTEX
  5
9429
330
91E2
100
AcDbEntity
  8
0
100
AcDbVertex
100
AcDb2dVertex
 10
2.605819817377655
 20
-4.067477640310237
 30
0.0
 70
     8
  0
VERTEX
  5
942A
330
91E2
100
AcDbEntity
  8
0
100
AcDbVertex
100
AcDb2dVertex
 10
2.581885171217315
 20
-4.131360160507135
 30
0.0
 70
     8
  0
VERTEX
  5
942B
330
91E2
100
AcDbEntity
  8
0
100
AcDbVertex
100
AcDb2dVertex
 10
2.562363571263961
 20
-4.189768678869761
 30
0.0
 70
     8
  0
VERTEX
  5
942C
330
91E2
100
AcDbEntity
  8
0
100
AcDbVertex
100
AcDb2dVertex
 10
2.547071140769013
 20
-4.242220194312743
 30
0.0
 70
     8
  0
VERTEX
  5
942D
330
91E2
100
AcDbEntity
  8
0
100
AcDbVertex
100
AcDb2dVertex
 10
2.535812510642861
 20
-4.288400372706821
 30
0.0
 70
     8
  0
VERTEX
  5
942E
330
91E2
100
AcDbEntity
  8
0
100
AcDbVertex
100
AcDb2dVertex
 10
2.528346342432115
 20
-4.328669547747256
 30
0.0
 70
     8
  0
VERTEX
  5
942F
330
91E2
100
AcDbEntity
  8
0
100
AcDbVertex
100
AcDb2dVertex
 10
2.524419805342416
 20
-4.363556720085465
 30
0.0
 70
     8
  0
VERTEX
  5
9430
330
91E2
100
AcDbEntity
  8
0
100
AcDbVertex
100
AcDb2dVertex
 10
2.523780068579402
 20
-4.393590890372809
 30
0.0
 70
     8
  0
VERTEX
  5
9431
330
91E2
100
AcDbEntity
  8
0
100
AcDbVertex
100
AcDb2dVertex
 10
2.526174301348698
 20
-4.419301059260728
 30
0.0
 70
     8
  0
VERTEX
  5
9432
330
91E2
100
AcDbEntity
  8
0
100
AcDbVertex
100
AcDb2dVertex
 10
2.531349672855967
 20
-4.44121622740058
 30
0.0
 70
     8
  0
VERTEX
  5
9433
330
91E2
100
AcDbEntity
  8
0
100
AcDbVertex
100
AcDb2dVertex
 10
2.539053352306838
 20
-4.459865395443785
 30
0.0
 70
     8
  0
VERTEX
  5
9434
330
91E2
100
AcDbEntity
  8
0
100
AcDbVertex
100
AcDb2dVertex
 10
2.549032508906948
 20
-4.475777564041724
 30
0.0
 70
     8
  0
VERTEX
  5
9435
330
91E2
100
AcDbEntity
  8
0
100
AcDbVertex
100
AcDb2dVertex
 10
2.561064957986717
 20
-4.489420400355182
 30
0.0
 70
     8
  0
VERTEX
  5
9436
330
91E2
100
AcDbEntity
  8
0
100
AcDbVertex
100
AcDb2dVertex
 10
2.575051099375624
 20
-4.50101623758238
 30
0.0
 70
     8
  0
VERTEX
  5
9437
330
91E2
100
AcDbEntity
  8
0
100
AcDbVertex
100
AcDb2dVertex
 10
2.590921979027932
 20
-4.510726075430977
 30
0.0
 70
     8
  0
VERTEX
  5
9438
330
91E2
100
AcDbEntity
  8
0
100
AcDbVertex
100
AcDb2dVertex
 10
2.608608642897927
 20
-4.51871091360859
 30
0.0
 70
     8
  0
VERTEX
  5
9439
330
91E2
100
AcDbEntity
  8
0
100
AcDbVertex
100
AcDb2dVertex
 10
2.628042136939829
 20
-4.525131751822822
 30
0.0
 70
     8
  0
VERTEX
  5
943A
330
91E2
100
AcDbEntity
  8
0
100
AcDbVertex
100
AcDb2dVertex
 10
2.649153507107939
 20
-4.530149589781327
 30
0.0
 70
     8
  0
VERTEX
  5
943B
330
91E2
100
AcDbEntity
  8
0
100
AcDbVertex
100
AcDb2dVertex
 10
2.671873799356507
 20
-4.533925427191729
 30
0.0
 70
     8
  0
VERTEX
  5
943C
330
91E2
100
AcDbEntity
  8
0
100
AcDbVertex
100
AcDb2dVertex
 10
2.696134059639794
 20
-4.536620263761626
 30
0.0
 70
     8
  0
VERTEX
  5
943D
330
91E2
100
AcDbEntity
  8
0
100
AcDbVertex
100
AcDb2dVertex
 10
2.721834687837766
 20
-4.538418099308771
 30
0.0
 70
     8
  0
VERTEX
  5
943E
330
91E2
100
AcDbEntity
  8
0
100
AcDbVertex
100
AcDb2dVertex
 10
2.748753499533219
 20
-4.539594934091223
 30
0.0
 70
     8
  0
VERTEX
  5
943F
330
91E2
100
AcDbEntity
  8
0
100
AcDbVertex
100
AcDb2dVertex
 10
2.77663766423465
 20
-4.540449768477177
 30
0.0
 70
     8
  0
VERTEX
  5
9440
330
91E2
100
AcDbEntity
  8
0
100
AcDbVertex
100
AcDb2dVertex
 10
2.805234351450575
 20
-4.5412816028348
 30
0.0
 70
     8
  0
VERTEX
  5
9441
330
91E2
100
AcDbEntity
  8
0
100
AcDbVertex
100
AcDb2dVertex
 10
2.834290730689492
 20
-4.5423894375323
 30
0.0
 70
     8
  0
VERTEX
  5
9442
330
91E2
100
AcDbEntity
  8
0
100
AcDbVertex
100
AcDb2dVertex
 10
2.863553971459889
 20
-4.544072272937825
 30
0.0
 70
     8
  0
VERTEX
  5
9443
330
91E2
100
AcDbEntity
  8
0
100
AcDbVertex
100
AcDb2dVertex
 10
2.892771243270281
 20
-4.546629109419573
 30
0.0
 70
     8
  0
VERTEX
  5
9444
330
91E2
100
AcDbEntity
  8
0
100
AcDbVertex
100
AcDb2dVertex
 10
2.921689715629169
 20
-4.55035894734571
 30
0.0
 70
     8
  0
VERTEX
  5
9445
330
91E2
100
AcDbEntity
  8
0
100
AcDbVertex
100
AcDb2dVertex
 10
2.950129342635545
 20
-4.555514786946019
 30
0.0
 70
     8
  0
VERTEX
  5
9446
330
91E2
100
AcDbEntity
  8
0
100
AcDbVertex
100
AcDb2dVertex
 10
2.978201216750386
 20
-4.562165627896614
 30
0.0
 70
     8
  0
VERTEX
  5
9447
330
91E2
100
AcDbEntity
  8
0
100
AcDbVertex
100
AcDb2dVertex
 10
3.006089215025205
 20
-4.570334469735168
 30
0.0
 70
     8
  0
VERTEX
  5
9448
330
91E2
100
AcDbEntity
  8
0
100
AcDbVertex
100
AcDb2dVertex
 10
3.03397721451147
 20
-4.58004431199938
 30
0.0
 70
     8
  0
VERTEX
  5
9449
330
91E2
100
AcDbEntity
  8
0
100
AcDbVertex
100
AcDb2dVertex
 10
3.062049092260664
 20
-4.591318154226975
 30
0.0
 70
     8
  0
VERTEX
  5
944A
330
91E2
100
AcDbEntity
  8
0
100
AcDbVertex
100
AcDb2dVertex
 10
3.090488725324277
 20
-4.604178995955617
 30
0.0
 70
     8
  0
VERTEX
  5
944B
330
91E2
100
AcDbEntity
  8
0
100
AcDbVertex
100
AcDb2dVertex
 10
3.119479990753786
 20
-4.618649836723012
 30
0.0
 70
     8
  0
VERTEX
  5
944C
330
91E2
100
AcDbEntity
  8
0
100
AcDbVertex
100
AcDb2dVertex
 10
3.149206765600681
 20
-4.634753676066868
 30
0.0
 70
     8
  0
VERTEX
  5
944D
330
91E2
100
AcDbEntity
  8
0
100
AcDbVertex
100
AcDb2dVertex
 10
3.179734172962136
 20
-4.652456013617612
 30
0.0
 70
     8
  0
VERTEX
  5
944E
330
91E2
100
AcDbEntity
  8
0
100
AcDbVertex
100
AcDb2dVertex
 10
3.210652320117992
 20
-4.67149234937662
 30
0.0
 70
     8
  0
VERTEX
  5
944F
330
91E2
100
AcDbEntity
  8
0
100
AcDbVertex
100
AcDb2dVertex
 10
3.241432560393828
 20
-4.691540683438024
 30
0.0
 70
     8
  0
VERTEX
  5
9450
330
91E2
100
AcDbEntity
  8
0
100
AcDbVertex
100
AcDb2dVertex
 10
3.271546247115193
 20
-4.712279015895948
 30
0.0
 70
     8
  0
VERTEX
  5
9451
330
91E2
100
AcDbEntity
  8
0
100
AcDbVertex
100
AcDb2dVertex
 10
3.300464733607627
 20
-4.733385346844517
 30
0.0
 70
     8
  0
VERTEX
  5
9452
330
91E2
100
AcDbEntity
  8
0
100
AcDbVertex
100
AcDb2dVertex
 10
3.327659373196675
 20
-4.754537676377847
 30
0.0
 70
     8
  0
VERTEX
  5
9453
330
91E2
100
AcDbEntity
  8
0
100
AcDbVertex
100
AcDb2dVertex
 10
3.352601519207922
 20
-4.775414004590079
 30
0.0
 70
     8
  0
VERTEX
  5
9454
330
91E2
100
AcDbEntity
  8
0
100
AcDbVertex
100
AcDb2dVertex
 10
3.374762524966886
 20
-4.795692331575313
 30
0.0
 70
     8
  0
VERTEX
  5
9455
330
91E2
100
AcDbEntity
  8
0
100
AcDbVertex
100
AcDb2dVertex
 10
3.393721005462971
 20
-4.815161824149477
 30
0.0
 70
     8
  0
VERTEX
  5
9456
330
91E2
100
AcDbEntity
  8
0
100
AcDbVertex
100
AcDb2dVertex
 10
3.409484622340951
 20
-4.834056316015601
 30
0.0
 70
     8
  0
VERTEX
  5
9457
330
91E2
100
AcDbEntity
  8
0
100
AcDbVertex
100
AcDb2dVertex
 10
3.422168298909419
 20
-4.852720807598515
 30
0.0
 70
     8
  0
VERTEX
  5
9458
330
91E2
100
AcDbEntity
  8
0
100
AcDbVertex
100
AcDb2dVertex
 10
3.431886958477004
 20
-4.871500299323031
 30
0.0
 70
     8
  0
VERTEX
  5
9459
330
91E2
100
AcDbEntity
  8
0
100
AcDbVertex
100
AcDb2dVertex
 10
3.438755524352306
 20
-4.890739791613974
 30
0.0
 70
     8
  0
VERTEX
  5
945A
330
91E2
100
AcDbEntity
  8
0
100
AcDbVertex
100
AcDb2dVertex
 10
3.442888919843914
 20
-4.91078428489618
 30
0.0
 70
     8
  0
VERTEX
  5
945B
330
91E2
100
AcDbEntity
  8
0
100
AcDbVertex
100
AcDb2dVertex
 10
3.444402068260462
 20
-4.931978779594459
 30
0.0
 70
     8
  0
VERTEX
  5
945C
330
91E2
100
AcDbEntity
  8
0
100
AcDbVertex
100
AcDb2dVertex
 10
3.443409892910546
 20
-4.954668276133638
 30
0.0
 70
     8
  0
VERTEX
  5
945D
330
91E2
100
AcDbEntity
  8
0
100
AcDbVertex
100
AcDb2dVertex
 10
3.439893240161797
 20
-4.97927444153607
 30
0.0
 70
     8
  0
VERTEX
  5
945E
330
91E2
100
AcDbEntity
  8
0
100
AcDbVertex
100
AcDb2dVertex
 10
3.433296648617846
 20
-5.006525609214232
 30
0.0
 70
     8
  0
VERTEX
  5
945F
330
91E2
100
AcDbEntity
  8
0
100
AcDbVertex
100
AcDb2dVertex
 10
3.422930579941372
 20
-5.037226779178133
 30
0.0
 70
     8
  0
VERTEX
  5
9460
330
91E2
100
AcDbEntity
  8
0
100
AcDbVertex
100
AcDb2dVertex
 10
3.408105495795016
 20
-5.07218295143776
 30
0.0
 70
     8
  0
VERTEX
  5
9461
330
91E2
100
AcDbEntity
  8
0
100
AcDbVertex
100
AcDb2dVertex
 10
3.388131857841434
 20
-5.112199126003112
 30
0.0
 70
     8
  0
VERTEX
  5
9462
330
91E2
100
AcDbEntity
  8
0
100
AcDbVertex
100
AcDb2dVertex
 10
3.362320127743281
 20
-5.158080302884222
 30
0.0
 70
     8
  0
VERTEX
  5
9463
330
91E2
100
AcDbEntity
  8
0
100
AcDbVertex
100
AcDb2dVertex
 10
3.329980767163226
 20
-5.210631482091066
 30
0.0
 70
     8
  0
VERTEX
  5
9464
330
91E2
100
AcDbEntity
  8
0
100
AcDbVertex
100
AcDb2dVertex
 10
3.290424237763907
 20
-5.27065766363367
 30
0.0
 70
     8
  0
VERTEX
  5
9465
330
91E2
100
AcDbEntity
  8
0
100
AcDbVertex
100
AcDb2dVertex
 10
3.243359401183363
 20
-5.338572847449395
 30
0.0
 70
     8
  0
VERTEX
  5
9466
330
91E2
100
AcDbEntity
  8
0
100
AcDbVertex
100
AcDb2dVertex
 10
3.190088718961002
 20
-5.413227033185222
 30
0.0
 70
     8
  0
VERTEX
  5
9467
330
91E2
100
AcDbEntity
  8
0
100
AcDbVertex
100
AcDb2dVertex
 10
3.132313052611603
 20
-5.493079220415451
 30
0.0
 70
     8
  0
VERTEX
  5
9468
330
91E2
100
AcDbEntity
  8
0
100
AcDbVertex
100
AcDb2dVertex
 10
3.071733263649969
 20
-5.57658840871443
 30
0.0
 70
     8
  0
VERTEX
  5
9469
330
91E2
100
AcDbEntity
  8
0
100
AcDbVertex
100
AcDb2dVertex
 10
3.010050213590877
 20
-5.662213597656501
 30
0.0
 70
     8
  0
VERTEX
  5
946A
330
91E2
100
AcDbEntity
  8
0
100
AcDbVertex
100
AcDb2dVertex
 10
2.948964763949106
 20
-5.748413786815975
 30
0.0
 70
     8
  0
VERTEX
  5
946B
330
91E2
100
AcDbEntity
  8
0
100
AcDbVertex
100
AcDb2dVertex
 10
2.890177776239445
 20
-5.833647975767192
 30
0.0
 70
     8
  0
VERTEX
  5
946C
330
91E2
100
AcDbEntity
  8
0
100
AcDbVertex
100
AcDb2dVertex
 10
2.835390111976671
 20
-5.916375164084488
 30
0.0
 70
     8
  0
VERTEX
  5
946D
330
91E2
100
AcDbEntity
  8
0
100
AcDbVertex
100
AcDb2dVertex
 10
2.785957863456433
 20
-5.995407018116047
 30
0.0
 70
     8
  0
VERTEX
  5
946E
330
91E2
100
AcDbEntity
  8
0
100
AcDbVertex
100
AcDb2dVertex
 10
2.741858046097753
 20
-6.070965871305427
 30
0.0
 70
     8
  0
VERTEX
  5
946F
330
91E2
100
AcDbEntity
  8
0
100
AcDbVertex
100
AcDb2dVertex
 10
2.702722906100552
 20
-6.143626723870045
 30
0.0
 70
     8
  0
VERTEX
  5
9470
330
91E2
100
AcDbEntity
  8
0
100
AcDbVertex
100
AcDb2dVertex
 10
2.668184689664684
 20
-6.21396457602732
 30
0.0
 70
     8
  0
VERTEX
  5
9471
330
91E2
100
AcDbEntity
  8
0
100
AcDbVertex
100
AcDb2dVertex
 10
2.637875642990081
 20
-6.282554427994664
 30
0.0
 70
     8
  0
VERTEX
  5
9472
330
91E2
100
AcDbEntity
  8
0
100
AcDbVertex
100
AcDb2dVertex
 10
2.611428012276613
 20
-6.349971279989469
 30
0.0
 70
     8
  0
VERTEX
  5
9473
330
91E2
100
AcDbEntity
  8
0
100
AcDbVertex
100
AcDb2dVertex
 10
2.588474043724183
 20
-6.416790132229165
 30
0.0
 70
     8
  0
VERTEX
  5
9474
330
91E2
100
AcDbEntity
  8
0
100
AcDbVertex
100
AcDb2dVertex
 10
2.568645983532674
 20
-6.483585984931181
 30
0.0
 70
     8
  0
VERTEX
  5
9475
330
91E2
100
AcDbEntity
  8
0
100
AcDbVertex
100
AcDb2dVertex
 10
2.551614385570578
 20
-6.550864838227939
 30
0.0
 70
     8
  0
VERTEX
  5
9476
330
91E2
100
AcDbEntity
  8
0
100
AcDbVertex
100
AcDb2dVertex
 10
2.537203034380667
 20
-6.618856691912037
 30
0.0
 70
     8
  0
VERTEX
  5
9477
330
91E2
100
AcDbEntity
  8
0
100
AcDbVertex
100
AcDb2dVertex
 10
2.525274022174375
 20
-6.687722545691107
 30
0.0
 70
     8
  0
VERTEX
  5
9478
330
91E2
100
AcDbEntity
  8
0
100
AcDbVertex
100
AcDb2dVertex
 10
2.515689441163036
 20
-6.757623399272764
 30
0.0
 70
     8
  0
VERTEX
  5
9479
330
91E2
100
AcDbEntity
  8
0
100
AcDbVertex
100
AcDb2dVertex
 10
2.508311383558087
 20
-6.828720252364641
 30
0.0
 70
     8
  0
VERTEX
  5
947A
330
91E2
100
AcDbEntity
  8
0
100
AcDbVertex
100
AcDb2dVertex
 10
2.503001941570881
 20
-6.901174104674367
 30
0.0
 70
     8
  0
VERTEX
  5
947B
330
91E2
100
AcDbEntity
  8
0
100
AcDbVertex
100
AcDb2dVertex
 10
2.499623207412804
 20
-6.97514595590956
 30
0.0
 70
     8
  0
VERTEX
  5
947C
330
91E2
100
AcDbEntity
  8
0
100
AcDbVertex
100
AcDb2dVertex
 10
2.498037273295267
 20
-7.050796805777849
 30
0.0
 70
     8
  0
VERTEX
  5
947D
330
91E2
100
AcDbEntity
  8
0
100
AcDbVertex
100
AcDb2dVertex
 10
2.498144539098227
 20
-7.128314487434998
 30
0.0
 70
     8
  0
VERTEX
  5
947E
330
91E2
100
AcDbEntity
  8
0
100
AcDbVertex
100
AcDb2dVertex
 10
2.499998635375968
 20
-7.207994167829372
 30
0.0
 70
     8
  0
VERTEX
  5
947F
330
91E2
100
AcDbEntity
  8
0
100
AcDbVertex
100
AcDb2dVertex
 10
2.503691500351379
 20
-7.290157847357471
 30
0.0
 70
     8
  0
VERTEX
  5
9480
330
91E2
100
AcDbEntity
  8
0
100
AcDbVertex
100
AcDb2dVertex
 10
2.50931507224735
 20
-7.375127526415795
 30
0.0
 70
     8
  0
VERTEX
  5
9481
330
91E2
100
AcDbEntity
  8
0
100
AcDbVertex
100
AcDb2dVertex
 10
2.516961289286761
 20
-7.46322520540084
 30
0.0
 70
     8
  0
VERTEX
  5
9482
330
91E2
100
AcDbEntity
  8
0
100
AcDbVertex
100
AcDb2dVertex
 10
2.526722089692492
 20
-7.55477288470912
 30
0.0
 70
     8
  0
VERTEX
  5
9483
330
91E2
100
AcDbEntity
  8
0
100
AcDbVertex
100
AcDb2dVertex
 10
2.538689411687414
 20
-7.650092564737132
 30
0.0
 70
     8
  0
VERTEX
  5
9484
330
91E2
100
AcDbEntity
  8
0
100
AcDbVertex
100
AcDb2dVertex
 10
2.552955193494401
 20
-7.749506245881375
 30
0.0
 70
     8
  0
VERTEX
  5
9485
330
91E2
100
AcDbEntity
  8
0
100
AcDbVertex
100
AcDb2dVertex
 10
2.569519435012526
 20
-7.853109761838515
 30
0.0
 70
     8
  0
VERTEX
  5
9486
330
91E2
100
AcDbEntity
  8
0
100
AcDbVertex
100
AcDb2dVertex
 10
2.588014382845472
 20
-7.960094279505785
 30
0.0
 70
     8
  0
VERTEX
  5
9487
330
91E2
100
AcDbEntity
  8
0
100
AcDbVertex
100
AcDb2dVertex
 10
2.607980345273119
 20
-8.069424799080593
 30
0.0
 70
     8
  0
VERTEX
  5
9488
330
91E2
100
AcDbEntity
  8
0
100
AcDbVertex
100
AcDb2dVertex
 10
2.628957630575364
 20
-8.180066320760367
 30
0.0
 70
     8
  0
VERTEX
  5
9489
330
91E2
100
AcDbEntity
  8
0
100
AcDbVertex
100
AcDb2dVertex
 10
2.650486547032045
 20
-8.290983844742505
 30
0.0
 70
     8
  0
VERTEX
  5
948A
330
91E2
100
AcDbEntity
  8
0
100
AcDbVertex
100
AcDb2dVertex
 10
2.672107402923062
 20
-8.401142371224393
 30
0.0
 70
     8
  0
VERTEX
  5
948B
330
91E2
100
AcDbEntity
  8
0
100
AcDbVertex
100
AcDb2dVertex
 10
2.693360506528282
 20
-8.509506900403467
 30
0.0
 70
     8
  0
VERTEX
  5
948C
330
91E2
100
AcDbEntity
  8
0
100
AcDbVertex
100
AcDb2dVertex
 10
2.713786166127572
 20
-8.615042432477126
 30
0.0
 70
     8
  0
VERTEX
  5
948D
330
91E2
100
AcDbEntity
  8
0
100
AcDbVertex
100
AcDb2dVertex
 10
2.732993643642737
 20
-8.71690946739287
 30
0.0
 70
     8
  0
VERTEX
  5
948E
330
91E2
100
AcDbEntity
  8
0
100
AcDbVertex
100
AcDb2dVertex
 10
2.75086801556325
 20
-8.815050504098646
 30
0.0
 70
     8
  0
VERTEX
  5
948F
330
91E2
100
AcDbEntity
  8
0
100
AcDbVertex
100
AcDb2dVertex
 10
2.767363312020535
 20
-8.909603541292529
 30
0.0
 70
     8
  0
VERTEX
  5
9490
330
91E2
100
AcDbEntity
  8
0
100
AcDbVertex
100
AcDb2dVertex
 10
2.782433563145971
 20
-9.00070657767255
 30
0.0
 70
     8
  0
VERTEX
  5
9491
330
91E2
100
AcDbEntity
  8
0
100
AcDbVertex
100
AcDb2dVertex
 10
2.796032799070994
 20
-9.088497611936775
 30
0.0
 70
     8
  0
VERTEX
  5
9492
330
91E2
100
AcDbEntity
  8
0
100
AcDbVertex
100
AcDb2dVertex
 10
2.808115049926989
 20
-9.173114642783247
 30
0.0
 70
     8
  0
VERTEX
  5
9493
330
91E2
100
AcDbEntity
  8
0
100
AcDbVertex
100
AcDb2dVertex
 10
2.818634345845374
 20
-9.254695668910029
 30
0.0
 70
     8
  0
VERTEX
  5
9494
330
91E2
100
AcDbEntity
  8
0
100
AcDbVertex
100
AcDb2dVertex
 10
2.827544716957536
 20
-9.333378689015169
 30
0.0
 70
     8
  0
VERTEX
  5
9495
330
91E2
100
AcDbEntity
  8
0
100
AcDbVertex
100
AcDb2dVertex
 10
2.834784870509178
 20
-9.409317035639556
 30
0.0
 70
     8
  0
VERTEX
  5
9496
330
91E2
100
AcDbEntity
  8
0
100
AcDbVertex
100
AcDb2dVertex
 10
2.840232222203123
 20
-9.482725376695452
 30
0.0
 70
     8
  0
VERTEX
  5
9497
330
91E2
100
AcDbEntity
  8
0
100
AcDbVertex
100
AcDb2dVertex
 10
2.843748864856481
 20
-9.553833713937928
 30
0.0
 70
     8
  0
VERTEX
  5
9498
330
91E2
100
AcDbEntity
  8
0
100
AcDbVertex
100
AcDb2dVertex
 10
2.845196891286368
 20
-9.622872049122099
 30
0.0
 70
     8
  0
VERTEX
  5
9499
330
91E2
100
AcDbEntity
  8
0
100
AcDbVertex
100
AcDb2dVertex
 10
2.84443839430988
 20
-9.690070384003055
 30
0.0
 70
     8
  0
VERTEX
  5
949A
330
91E2
100
AcDbEntity
  8
0
100
AcDbVertex
100
AcDb2dVertex
 10
2.841335466744139
 20
-9.755658720335881
 30
0.0
 70
     8
  0
VERTEX
  5
949B
330
91E2
100
AcDbEntity
  8
0
100
AcDbVertex
100
AcDb2dVertex
 10
2.83575020140625
 20
-9.819867059875642
 30
0.0
 70
     8
  0
VERTEX
  5
949C
330
91E2
100
AcDbEntity
  8
0
100
AcDbVertex
100
AcDb2dVertex
 10
2.827544691113335
 20
-9.882925404377477
 30
0.0
 70
     8
  0
VERTEX
  5
949D
330
91E2
100
AcDbEntity
  8
0
100
AcDbVertex
100
AcDb2dVertex
 10
2.816711274725388
 20
-9.944941088369903
 30
0.0
 70
     8
  0
VERTEX
  5
949E
330
91E2
100
AcDbEntity
  8
0
100
AcDbVertex
100
AcDb2dVertex
 10
2.803763275273972
 20
-10.00553077747512
 30
0.0
 70
     8
  0
VERTEX
  5
949F
330
91E2
100
AcDbEntity
  8
0
100
AcDbVertex
100
AcDb2dVertex
 10
2.789344261833592
 20
-10.06418847008884
 30
0.0
 70
     8
  0
VERTEX
  5
94A0
330
91E2
100
AcDbEntity
  8
0
100
AcDbVertex
100
AcDb2dVertex
 10
2.774097803478698
 20
-10.12040816460675
 30
0.0
 70
     8
  0
VERTEX
  5
94A1
330
91E2
100
AcDbEntity
  8
0
100
AcDbVertex
100
AcDb2dVertex
 10
2.758667469283766
 20
-10.17368385942448
 30
0.0
 70
     8
  0
VERTEX
  5
94A2
330
91E2
100
AcDbEntity
  8
0
100
AcDbVertex
100
AcDb2dVertex
 10
2.743696828323262
 20
-10.22350955293773
 30
0.0
 70
     8
  0
VERTEX
  5
94A3
330
91E2
100
AcDbEntity
  8
0
100
AcDbVertex
100
AcDb2dVertex
 10
2.72982944967166
 20
-10.2693792435422
 30
0.0
 70
     8
  0
VERTEX
  5
94A4
330
91E2
100
AcDbEntity
  8
0
100
AcDbVertex
100
AcDb2dVertex
 10
2.717708902403455
 20
-10.31078692963353
 30
0.0
 70
     8
  0
VERTEX
  5
94A5
330
91E2
100
AcDbEntity
  8
0
100
AcDbVertex
100
AcDb2dVertex
 10
2.707848509398761
 20
-10.34737994337485
 30
0.0
 70
     8
  0
VERTEX
  5
94A6
330
91E2
100
AcDbEntity
  8
0
100
AcDbVertex
100
AcDb2dVertex
 10
2.700240608760447
 20
-10.37941895199912
 30
0.0
 70
     8
  0
VERTEX
  5
94A7
330
91E2
100
AcDbEntity
  8
0
100
AcDbVertex
100
AcDb2dVertex
 10
2.694747292397035
 20
-10.40731795650679
 30
0.0
 70
     8
  0
VERTEX
  5
94A8
330
91E2
100
AcDbEntity
  8
0
100
AcDbVertex
100
AcDb2dVertex
 10
2.691230652217051
 20
-10.43149095789823
 30
0.0
 70
     8
  0
VERTEX
  5
94A9
330
91E2
100
AcDbEntity
  8
0
100
AcDbVertex
100
AcDb2dVertex
 10
2.689552780129011
 20
-10.45235195717387
 30
0.0
 70
     8
  0
VERTEX
  5
94AA
330
91E2
100
AcDbEntity
  8
0
100
AcDbVertex
100
AcDb2dVertex
 10
2.689575768041439
 20
-10.47031495533413
 30
0.0
 70
     8
  0
VERTEX
  5
94AB
330
91E2
100
AcDbEntity
  8
0
100
AcDbVertex
100
AcDb2dVertex
 10
2.691161707862887
 20
-10.48579395337941
 30
0.0
 70
     8
  0
VERTEX
  5
94AC
330
91E2
100
AcDbEntity
  8
0
100
AcDbVertex
100
AcDb2dVertex
 10
2.68044324375732
 20
-10.51686693219437
 30
0.0
 70
    16
  0
VERTEX
  5
94AD
330
91E2
100
AcDbEntity
  8
0
100
AcDbVertex
100
AcDb2dVertex
 10
2.751051876462122
 20
-10.56397099019691
 30
0.0
 70
    16
  0
VERTEX
  5
94AE
330
91E2
100
AcDbEntity
  8
0
100
AcDbVertex
100
AcDb2dVertex
 10
2.88050124317456
 20
-10.57574700469752
 30
0.0
 70
    16
  0
VERTEX
  5
94AF
330
91E2
100
AcDbEntity
  8
0
100
AcDbVertex
100
AcDb2dVertex
 10
3.174704448017029
 20
-10.16358674837562
 30
0.0
 70
    16
  0
VERTEX
  5
94B0
330
91E2
100
AcDbEntity
  8
0
100
AcDbVertex
100
AcDb2dVertex
 10
3.59835686450673
 20
-9.668994641749463
 30
0.0
 70
    16
  0
VERTEX
  5
94B1
330
91E2
100
AcDbEntity
  8
0
100
AcDbVertex
100
AcDb2dVertex
 10
4.08084985993883
 20
-9.386370796134713
 30
0.0
 70
    16
  0
VERTEX
  5
94B2
330
91E2
100
AcDbEntity
  8
0
100
AcDbVertex
100
AcDb2dVertex
 10
4.504502431493737
 20
-9.256834636627768
 30
0.0
 70
    16
  0
VERTEX
  5
94B3
330
91E2
100
AcDbEntity
  8
0
100
AcDbVertex
100
AcDb2dVertex
 10
4.622183589378563
 20
-9.115522713820366
 30
0.0
 70
    16
  0
VERTEX
  5
94B4
330
91E2
100
AcDbEntity
  8
0
100
AcDbVertex
100
AcDb2dVertex
 10
4.551574801608552
 20
-8.962434525312154
 30
0.0
 70
    16
  0
VERTEX
  5
94B5
330
91E2
100
AcDbEntity
  8
0
100
AcDbVertex
100
AcDb2dVertex
 10
3.963168702054002
 20
-8.679810428497201
 30
0.0
 70
    16
  0
VERTEX
  5
94B6
330
91E2
100
AcDbEntity
  8
0
100
AcDbVertex
100
AcDb2dVertex
 10
3.492443760384304
 20
-8.208770350872311
 30
0.0
 70
    16
  0
VERTEX
  5
94B7
330
91E2
100
AcDbEntity
  8
0
100
AcDbVertex
100
AcDb2dVertex
 10
3.22177681813182
 20
-7.408002369630187
 30
0.0
 70
    16
  0
VERTEX
  5
94B8
330
91E2
100
AcDbEntity
  8
0
100
AcDbVertex
100
AcDb2dVertex
 10
3.374762447434269
 20
-6.301058011371587
 30
0.0
 70
    16
  0
VERTEX
  5
94B9
330
91E2
100
AcDbEntity
  8
0
100
AcDbVertex
100
AcDb2dVertex
 10
3.88079186052159
 20
-5.606273909434886
 30
0.0
 70
    16
  0
VERTEX
  5
94BA
330
91E2
100
AcDbEntity
  8
0
100
AcDbVertex
100
AcDb2dVertex
 10
4.233835489241279
 20
-5.15878586081126
 30
0.0
 70
    16
  0
VERTEX
  5
94BB
330
91E2
100
AcDbEntity
  8
0
100
AcDbVertex
100
AcDb2dVertex
 10
4.3632848559537
 20
-4.687745531986223
 30
0.0
 70
    16
  0
VERTEX
  5
94BC
330
91E2
100
AcDbEntity
  8
0
100
AcDbVertex
100
AcDb2dVertex
 10
4.174994910298863
 20
-4.358017628368937
 30
0.0
 70
    16
  0
VERTEX
  5
94BD
330
91E2
100
AcDbEntity
  8
0
100
AcDbVertex
100
AcDb2dVertex
 10
3.810183072751591
 20
-4.252033497863205
 30
0.0
 70
    16
  0
VERTEX
  5
94BE
330
91E2
100
AcDbEntity
  8
0
100
AcDbVertex
100
AcDb2dVertex
 10
3.716038022391568
 20
-4.15782563305839
 30
0.0
 70
    16
  0
VERTEX
  5
94BF
330
91E2
100
AcDbEntity
  8
0
100
AcDbVertex
100
AcDb2dVertex
 10
3.751342493809165
 20
-3.981185415548914
 30
0.0
 70
    16
  0
VERTEX
  5
94C0
330
91E2
100
AcDbEntity
  8
0
100
AcDbVertex
100
AcDb2dVertex
 10
4.08084985993884
 20
-3.698561318733908
 30
0.0
 70
    16
  0
VERTEX
  5
94C1
330
91E2
100
AcDbEntity
  8
0
100
AcDbVertex
100
AcDb2dVertex
 10
4.504502431493749
 20
-3.545473381425896
 30
0.0
 70
    16
  0
VERTEX
  5
94C2
330
91E2
100
AcDbEntity
  8
0
100
AcDbVertex
100
AcDb2dVertex
 10
4.881082322803424
 20
-3.639681497430967
 30
0.0
 70
    16
  0
VERTEX
  5
94C3
330
91E2
100
AcDbEntity
  8
0
100
AcDbVertex
100
AcDb2dVertex
 10
5.198821635170698
 20
-3.945857372046987
 30
0.0
 70
    16
  0
VERTEX
  5
94C4
330
91E2
100
AcDbEntity
  8
0
100
AcDbVertex
100
AcDb2dVertex
 10
5.445952314833171
 20
-4.369793642869542
 30
0.0
 70
    16
  0
VERTEX
  5
94C5
330
91E2
100
AcDbEntity
  8
0
100
AcDbVertex
100
AcDb2dVertex
 10
5.516560947537971
 20
-4.581761652680693
 30
0.0
 70
    16
  0
VERTEX
  5
94C6
330
91E2
100
AcDbEntity
  8
0
100
AcDbVertex
100
AcDb2dVertex
 10
5.669546576840422
 20
-4.569985638180089
 30
0.0
 70
    16
  0
VERTEX
  5
94C7
330
91E2
100
AcDbEntity
  8
0
100
AcDbVertex
100
AcDb2dVertex
 10
5.987285889207697
 20
-4.499329551176284
 30
0.0
 70
    16
  0
VERTEX
  5
94C8
330
91E2
100
AcDbEntity
  8
0
100
AcDbVertex
100
AcDb2dVertex
 10
6.375633989344981
 20
-4.511105565676945
 30
0.0
 70
    16
  0
VERTEX
  5
94C9
330
91E2
100
AcDbEntity
  8
0
100
AcDbVertex
100
AcDb2dVertex
 10
6.540387827475015
 20
-4.61708969618262
 30
0.0
 70
    16
  0
VERTEX
  5
94CA
330
91E2
100
AcDbEntity
  8
0
100
AcDbVertex
100
AcDb2dVertex
 10
6.58746019758983
 20
-4.758401618989971
 30
0.0
 70
    16
  0
VERTEX
  5
94CB
330
91E2
100
AcDbEntity
  8
0
100
AcDbVertex
100
AcDb2dVertex
 10
6.422706514524968
 20
-5.123457817309386
 30
0.0
 70
    16
  0
VERTEX
  5
94CC
330
91E2
100
AcDbEntity
  8
0
100
AcDbVertex
100
AcDb2dVertex
 10
6.128503464747705
 20
-5.523841807930477
 30
0.0
 70
    16
  0
VERTEX
  5
94CD
330
91E2
100
AcDbEntity
  8
0
100
AcDbVertex
100
AcDb2dVertex
 10
5.916677256502854
 20
-5.653377967437421
 30
0.0
 70
    16
  0
VERTEX
  5
94CE
330
91E2
100
AcDbEntity
  8
0
100
AcDbVertex
100
AcDb2dVertex
 10
5.869604731322857
 20
-5.759361846742896
 30
0.0
 70
    16
  0
VERTEX
  5
94CF
330
91E2
100
AcDbEntity
  8
0
100
AcDbVertex
100
AcDb2dVertex
 10
5.95198157285527
 20
-5.877121991749232
 30
0.0
 70
    16
  0
VERTEX
  5
94D0
330
91E2
100
AcDbEntity
  8
0
100
AcDbVertex
100
AcDb2dVertex
 10
6.187344043690131
 20
-6.218625909867126
 30
0.0
 70
    16
  0
VERTEX
  5
94D1
330
91E2
100
AcDbEntity
  8
0
100
AcDbVertex
100
AcDb2dVertex
 10
6.140271518510107
 20
-6.878082219502154
 30
0.0
 70
    16
  0
VERTEX
  5
94D2
330
91E2
100
AcDbEntity
  8
0
100
AcDbVertex
100
AcDb2dVertex
 10
5.96374978168288
 20
-7.148930301816449
 30
0.0
 70
    16
  0
VERTEX
  5
94D3
330
91E2
100
AcDbEntity
  8
0
100
AcDbVertex
100
AcDb2dVertex
 10
5.775459680962834
 20
-7.219586137620048
 30
0.0
 70
    16
  0
VERTEX
  5
94D4
330
91E2
100
AcDbEntity
  8
0
100
AcDbVertex
100
AcDb2dVertex
 10
5.622474051660384
 20
-7.160706316317108
 30
0.0
 70
    16
  0
VERTEX
  5
94D5
330
91E2
100
AcDbEntity
  8
0
100
AcDbVertex
100
AcDb2dVertex
 10
5.375343527063147
 20
-6.772098088996425
 30
0.0
 70
    16
  0
VERTEX
  5
94D6
330
91E2
100
AcDbEntity
  8
0
100
AcDbVertex
100
AcDb2dVertex
 10
5.034067952105861
 20
-6.642562180689683
 30
0.0
 70
    16
  0
VERTEX
  5
94D7
330
91E2
100
AcDbEntity
  8
0
100
AcDbVertex
100
AcDb2dVertex
 10
4.610415535616162
 20
-6.795650117997693
 30
0.0
 70
    16
  0
VERTEX
  5
94D8
330
91E2
100
AcDbEntity
  8
0
100
AcDbVertex
100
AcDb2dVertex
 10
4.551574801608552
 20
-7.090050229313305
 30
0.0
 70
    16
  0
VERTEX
  5
94D9
330
91E2
100
AcDbEntity
  8
0
100
AcDbVertex
100
AcDb2dVertex
 10
4.739864902328598
 20
-7.466882190933127
 30
0.0
 70
    16
  0
VERTEX
  5
94DA
330
91E2
100
AcDbEntity
  8
0
100
AcDbVertex
100
AcDb2dVertex
 10
5.175285372580699
 20
-7.737730273247473
 30
0.0
 70
    16
  0
VERTEX
  5
94DB
330
91E2
100
AcDbEntity
  8
0
100
AcDbVertex
100
AcDb2dVertex
 10
5.69308283943042
 20
-7.737730273247473
 30
0.0
 70
    16
  0
VERTEX
  5
94DC
330
91E2
100
AcDbEntity
  8
0
100
AcDbVertex
100
AcDb2dVertex
 10
6.199112252517743
 20
-7.490434219934394
 30
0.0
 70
    16
  0
VERTEX
  5
94DD
330
91E2
100
AcDbEntity
  8
0
100
AcDbVertex
100
AcDb2dVertex
 10
6.505083356057404
 20
-6.960514069806363
 30
0.0
 70
    16
  0
VERTEX
  5
94DE
330
91E2
100
AcDbEntity
  8
0
100
AcDbVertex
100
AcDb2dVertex
 10
6.740445826892241
 20
-6.136194059562917
 30
0.0
 70
    16
  0
VERTEX
  5
94DF
330
91E2
100
AcDbEntity
  8
0
100
AcDbVertex
100
AcDb2dVertex
 10
6.881663402432288
 20
-5.547393836931744
 30
0.0
 70
    16
  0
VERTEX
  5
94E0
330
91E2
100
AcDbEntity
  8
0
100
AcDbVertex
100
AcDb2dVertex
 10
6.940503981374702
 20
-4.876161763996307
 30
0.0
 70
    16
  0
VERTEX
  5
94E1
330
91E2
100
AcDbEntity
  8
0
100
AcDbVertex
100
AcDb2dVertex
 10
7.034649031734751
 20
-4.405121686371419
 30
0.0
 70
    16
  0
VERTEX
  5
94E2
330
91E2
100
AcDbEntity
  8
0
100
AcDbVertex
100
AcDb2dVertex
 10
7.305315818922
 20
-3.804545449239636
 30
0.0
 70
    16
  0
VERTEX
  5
94E3
330
91E2
100
AcDbEntity
  8
0
100
AcDbVertex
100
AcDb2dVertex
 10
7.575982606109251
 20
-3.368833415116622
 30
0.0
 70
    16
  0
VERTEX
  5
94E4
330
91E2
100
AcDbEntity
  8
0
100
AcDbVertex
100
AcDb2dVertex
 10
7.881953864714123
 20
-3.015553231297865
 30
0.0
 70
    16
  0
VERTEX
  5
94E5
330
91E2
100
AcDbEntity
  8
0
100
AcDbVertex
100
AcDb2dVertex
 10
7.917258181066538
 20
-2.827137250487982
 30
0.0
 70
    16
  0
VERTEX
  5
94E6
330
91E2
100
AcDbEntity
  8
0
100
AcDbVertex
100
AcDb2dVertex
 10
7.881953864714123
 20
-2.67404931317997
 30
0.0
 70
    16
  0
VERTEX
  5
94E7
330
91E2
100
AcDbEntity
  8
0
100
AcDbVertex
100
AcDb2dVertex
 10
7.681895710231675
 20
-2.615169240676777
 30
0.0
 70
    16
  0
VERTEX
  5
94E8
330
91E2
100
AcDbEntity
  8
0
100
AcDbVertex
100
AcDb2dVertex
 10
7.222938977389588
 20
-2.650497284178705
 30
0.0
 70
    16
  0
VERTEX
  5
94E9
330
91E2
100
AcDbEntity
  8
0
100
AcDbVertex
100
AcDb2dVertex
 10
7.034649031734751
 20
-2.69760134218124
 30
0.0
 70
    16
  0
VERTEX
  5
94EA
330
91E2
100
AcDbEntity
  8
0
100
AcDbVertex
100
AcDb2dVertex
 10
7.011112769144739
 20
-2.862465293989856
 30
0.0
 70
    16
  0
VERTEX
  5
94EB
330
91E2
100
AcDbEntity
  8
0
100
AcDbVertex
100
AcDb2dVertex
 10
6.987576506554727
 20
-3.15686540530547
 30
0.0
 70
    16
  0
VERTEX
  5
94EC
330
91E2
100
AcDbEntity
  8
0
100
AcDbVertex
100
AcDb2dVertex
 10
6.79928656089989
 20
-3.557249395926557
 30
0.0
 70
    16
  0
VERTEX
  5
94ED
330
91E2
100
AcDbEntity
  8
0
100
AcDbVertex
100
AcDb2dVertex
 10
6.481547093467407
 20
-3.83987349274151
 30
0.0
 70
    16
  0
VERTEX
  5
94EE
330
91E2
100
AcDbEntity
  8
0
100
AcDbVertex
100
AcDb2dVertex
 10
6.281489094050167
 20
-3.886977550744045
 30
0.0
 70
    16
  0
VERTEX
  5
94EF
330
91E2
100
AcDbEntity
  8
0
100
AcDbVertex
100
AcDb2dVertex
 10
6.116735255920108
 20
-3.792769434738975
 30
0.0
 70
    16
  0
VERTEX
  5
94F0
330
91E2
100
AcDbEntity
  8
0
100
AcDbVertex
100
AcDb2dVertex
 10
5.810764152380443
 20
-3.109761347302935
 30
0.0
 70
    16
  0
VERTEX
  5
94F1
330
91E2
100
AcDbEntity
  8
0
100
AcDbVertex
100
AcDb2dVertex
 10
5.151749109990699
 20
-2.638721269678043
 30
0.0
 70
    16
  0
VERTEX
  5
94F2
330
91E2
100
AcDbEntity
  8
0
100
AcDbVertex
100
AcDb2dVertex
 10
4.351516802191326
 20
-2.544513153673026
 30
0.0
 70
    16
  0
VERTEX
  5
94F3
330
91E2
100
AcDbEntity
  8
0
100
AcDbVertex
100
AcDb2dVertex
 10
3.327689922254258
 20
-2.944897395494319
 30
0.0
 70
    16
  0
VERTEX
  5
94F4
330
91E2
100
AcDbEntity
  8
0
100
AcDbVertex
100
AcDb2dVertex
 10
2.739283822699734
 20
-3.710337333234566
 30
0.0
 70
    16
  0
VERTEX
  5
94F5
330
91E2
100
AcDbEntity
  8
0
100
AcDbVertex
100
AcDb2dVertex
 10
2.503921351864871
 20
-4.310913570366402
 30
0.0
 70
    16
  0
VERTEX
  5
94F6
330
91E2
100
AcDbEntity
  8
0
100
AcDbVertex
100
AcDb2dVertex
 10
2.527457614454885
 20
-4.499329551176284
 30
0.0
 70
    16
  0
VERTEX
  5
94F7
330
91E2
100
AcDbEntity
  8
0
100
AcDbVertex
100
AcDb2dVertex
 10
2.680443243757334
 20
-4.546433609178819
 30
0.0
 70
    16
  0
VERTEX
  5
94F8
330
91E2
100
AcDbEntity
  8
0
100
AcDbVertex
100
AcDb2dVertex
 10
2.927573768354571
 20
-4.534657594678211
 30
0.0
 70
    16
  0
VERTEX
  5
94F9
330
91E2
100
AcDbEntity
  8
0
100
AcDbVertex
100
AcDb2dVertex
 10
3.13939997659942
 20
-4.61708969618262
 30
0.0
 70
    16
  0
VERTEX
  5
94FA
330
91E2
100
AcDbEntity
  8
0
100
AcDbVertex
100
AcDb2dVertex
 10
3.410066918851905
 20
-4.805505676992506
 30
0.0
 70
    16
  0
VERTEX
  5
94FB
330
91E2
100
AcDbEntity
  8
0
100
AcDbVertex
100
AcDb2dVertex
 10
3.468907497794292
 20
-4.935041585299249
 30
0.0
 70
    16
  0
VERTEX
  5
94FC
330
91E2
100
AcDbEntity
  8
0
100
AcDbVertex
100
AcDb2dVertex
 10
3.374762447434269
 20
-5.182337638612327
 30
0.0
 70
    16
  0
VERTEX
  5
94FD
330
91E2
100
AcDbEntity
  8
0
100
AcDbVertex
100
AcDb2dVertex
 10
2.774588139052134
 20
-5.959553842053439
 30
0.0
 70
    16
  0
VERTEX
  5
94FE
330
91E2
100
AcDbEntity
  8
0
100
AcDbVertex
100
AcDb2dVertex
 10
2.539225668217273
 20
-6.477697977680865
 30
0.0
 70
    16
  0
VERTEX
  5
94FF
330
91E2
100
AcDbEntity
  8
0
100
AcDbVertex
100
AcDb2dVertex
 10
2.480385089274872
 20
-7.031170156810164
 30
0.0
 70
    16
  0
VERTEX
  5
9500
330
91E2
100
AcDbEntity
  8
0
100
AcDbVertex
100
AcDb2dVertex
 10
2.527457614454871
 20
-7.702402229745546
 30
0.0
 70
    16
  0
VERTEX
  5
9501
330
91E2
100
AcDbEntity
  8
0
100
AcDbVertex
100
AcDb2dVertex
 10
2.72751561387211
 20
-8.656258399495934
 30
0.0
 70
    16
  0
VERTEX
  5
9502
330
91E2
100
AcDbEntity
  8
0
100
AcDbVertex
100
AcDb2dVertex
 10
2.845196926822145
 20
-9.362818767133445
 30
0.0
 70
    16
  0
VERTEX
  5
9503
330
91E2
100
AcDbEntity
  8
0
100
AcDbVertex
100
AcDb2dVertex
 10
2.856964980584546
 20
-9.892738666061276
 30
0.0
 70
    16
  0
SEQEND
  5
9504
330
91E2
100
AcDbEntity
  8
0
  0
ENDBLK
  5
9505
330
8F1F
100
AcDbEntity
  8
0
100
AcDbBlockEnd
  0
BLOCK
  5
95F2
330
95E7
100
AcDbEntity
  8
0
100
AcDbBlockBegin
  2
*D1
 70
     1
 10
0.0
 20
0.0
 30
0.0
  3
*D1
  1

  0
LINE
  5
964E
330
95E7
100
AcDbEntity
  8
DIM
 62
     0
370
    -2
100
AcDbLine
 10
7.767584965146299
 20
2.738739673053589
 30
0.0
 11
2.624015492790281
 21
2.73873967305359
 31
0.0
  0
LINE
  5
964F
330
95E7
100
AcDbEntity
  8
DIM
 62
     0
370
    -2
100
AcDbLine
 10
7.659036400712423
 20
21.3742904231718
 30
0.0
 11
2.624015492790285
 21
21.3742904231718
 31
0.0
  0
LINE
  5
9650
330
95E7
100
AcDbEntity
  8
DIM
 62
     0
370
    -2
100
AcDbLine
 10
2.80401549279028
 20
2.918739673053591
 30
0.0
 11
2.804015492790282
 21
10.79984838144602
 31
0.0
  0
LINE
  5
9651
330
95E7
100
AcDbEntity
  8
DIM
 62
     0
370
    -2
100
AcDbLine
 10
2.804015492790285
 20
21.19429042317179
 30
0.0
 11
2.804015492790283
 21
13.31318171477936
 31
0.0
  0
SOLID
  5
9652
330
95E7
100
AcDbEntity
  8
DIM
 62
     0
100
AcDbTrace
 10
2.77401549279028
 20
2.918739673053591
 30
0.0
 11
2.83401549279028
 21
2.918739673053591
 31
0.0
 12
2.80401549279028
 22
2.73873967305359
 32
0.0
 13
2.80401549279028
 23
2.73873967305359
 33
0.0
  0
SOLID
  5
9653
330
95E7
100
AcDbEntity
  8
DIM
 62
     0
100
AcDbTrace
 10
2.774015492790285
 20
21.19429042317179
 30
0.0
 11
2.834015492790284
 21
21.19429042317179
 31
0.0
 12
2.804015492790285
 22
21.3742904231718
 32
0.0
 13
2.804015492790285
 23
21.3742904231718
 33
0.0
  0
MTEXT
  5
9654
330
95E7
100
AcDbEntity
  8
DIM
 62
     0
100
AcDbMText
 10
2.804015492790281
 20
12.05651504811269
 30
0.0
 40
1.0
 41
0.0
 71
     5
 72
     1
  1
\A1;18{\H1.000000x;\S5/8;}
 73
     1
 44
1.0
  0
POINT
  5
9655
330
95E7
100
AcDbEntity
  8
Defpoints
 62
     0
100
AcDbPoint
 10
7.830084965146299
 20
2.738739673053589
 30
0.0
  0
POINT
  5
9656
330
95E7
100
AcDbEntity
  8
Defpoints
 62
     0
100
AcDbPoint
 10
7.721536400712423
 20
21.3742904231718
 30
0.0
  0
POINT
  5
9657
330
95E7
100
AcDbEntity
  8
Defpoints
 62
     0
100
AcDbPoint
 10
2.804015492790285
 20
21.3742904231718
 30
0.0
  0
ENDBLK
  5
95F3
330
95E7
100
AcDbEntity
  8
0
100
AcDbBlockEnd
  0
BLOCK
  5
9605
330
95FA
100
AcDbEntity
  8
0
100
AcDbBlockBegin
  2
*D2
 70
     1
 10
0.0
 20
0.0
 30
0.0
  3
*D2
  1

  0
LINE
  5
963A
330
95FA
100
AcDbEntity
  8
DIM
 62
     0
370
    -2
100
AcDbLine
 10
24.70650874449844
 20
12.12429042317179
 30
0.0
 11
24.70650874449844
 21
24.26873048391045
 31
0.0
  0
LINE
  5
963B
330
95FA
100
AcDbEntity
  8
DIM
 62
     0
370
    -2
100
AcDbLine
 10
26.20650874449844
 20
12.12429042317179
 30
0.0
 11
26.20650874449844
 21
24.26873048391045
 31
0.0
  0
LINE
  5
963C
330
95FA
100
AcDbEntity
  8
DIM
 62
     0
370
    -2
100
AcDbLine
 10
24.88650874449844
 20
24.08873048391046
 30
0.0
 11
26.02650874449844
 21
24.08873048391046
 31
0.0
  0
LINE
  5
963D
330
95FA
100
AcDbEntity
  8
DIM
 62
     0
370
    -2
100
AcDbLine
 10
26.20650874449844
 20
24.08873048391046
 30
0.0
 11
26.38650874449844
 21
24.08873048391046
 31
0.0
  0
SOLID
  5
963E
330
95FA
100
AcDbEntity
  8
DIM
 62
     0
100
AcDbTrace
 10
24.88650874449844
 20
24.11873048391046
 30
0.0
 11
24.88650874449844
 21
24.05873048391045
 31
0.0
 12
24.70650874449844
 22
24.08873048391046
 32
0.0
 13
24.70650874449844
 23
24.08873048391046
 33
0.0
  0
SOLID
  5
963F
330
95FA
100
AcDbEntity
  8
DIM
 62
     0
100
AcDbTrace
 10
26.02650874449844
 20
24.11873048391046
 30
0.0
 11
26.02650874449844
 21
24.05873048391045
 31
0.0
 12
26.20650874449844
 22
24.08873048391046
 32
0.0
 13
26.20650874449844
 23
24.08873048391046
 33
0.0
  0
MTEXT
  5
9640
330
95FA
100
AcDbEntity
  8
DIM
 62
     0
100
AcDbMText
 10
27.14317541116511
 20
24.08873048391046
 30
0.0
 40
1.0
 41
0.0
 71
     5
 72
     1
  1
\A1;1{\H1.000000x;\S1/2;}
 73
     1
 44
1.0
  0
POINT
  5
9641
330
95FA
100
AcDbEntity
  8
Defpoints
 62
     0
100
AcDbPoint
 10
24.70650874449844
 20
12.06179042317179
 30
0.0
  0
POINT
  5
9642
330
95FA
100
AcDbEntity
  8
Defpoints
 62
     0
100
AcDbPoint
 10
26.20650874449844
 20
12.06179042317179
 30
0.0
  0
POINT
  5
9643
330
95FA
100
AcDbEntity
  8
Defpoints
 62
     0
100
AcDbPoint
 10
26.20650874449844
 20
24.08873048391046
 30
0.0
  0
ENDBLK
  5
9606
330
95FA
100
AcDbEntity
  8
0
100
AcDbBlockEnd
  0
BLOCK
  5
9613
330
9608
100
AcDbEntity
  8
0
100
AcDbBlockBegin
  2
*D3
 70
     1
 10
0.0
 20
0.0
 30
0.0
  3
*D3
  1

  0
LINE
  5
9644
330
9608
100
AcDbEntity
  8
DIM
 62
     0
370
    -2
100
AcDbLine
 10
21.47260677608905
 20
21.43946163148831
 30
0.0
 11
21.47260677608905
 21
23.95513412193437
 31
0.0
  0
LINE
  5
9645
330
9608
100
AcDbEntity
  8
DIM
 62
     0
370
    -2
100
AcDbLine
 10
7.721536400712423
 20
21.43679042317179
 30
0.0
 11
7.721536400712423
 21
23.95513412193437
 31
0.0
  0
LINE
  5
9646
330
9608
100
AcDbEntity
  8
DIM
 62
     0
370
    -2
100
AcDbLine
 10
21.29260677608905
 20
23.77513412193437
 30
0.0
 11
15.8537382550674
 21
23.77513412193437
 31
0.0
  0
LINE
  5
9647
330
9608
100
AcDbEntity
  8
DIM
 62
     0
370
    -2
100
AcDbLine
 10
7.901536400712423
 20
23.77513412193437
 30
0.0
 11
13.34040492173407
 21
23.77513412193437
 31
0.0
  0
SOLID
  5
9648
330
9608
100
AcDbEntity
  8
DIM
 62
     0
100
AcDbTrace
 10
21.29260677608905
 20
23.80513412193437
 30
0.0
 11
21.29260677608905
 21
23.74513412193437
 31
0.0
 12
21.47260677608905
 22
23.77513412193437
 32
0.0
 13
21.47260677608905
 23
23.77513412193437
 33
0.0
  0
SOLID
  5
9649
330
9608
100
AcDbEntity
  8
DIM
 62
     0
100
AcDbTrace
 10
7.901536400712423
 20
23.80513412193437
 30
0.0
 11
7.901536400712423
 21
23.74513412193437
 31
0.0
 12
7.721536400712423
 22
23.77513412193437
 32
0.0
 13
7.721536400712423
 23
23.77513412193437
 33
0.0
  0
MTEXT
  5
964A
330
9608
100
AcDbEntity
  8
DIM
 62
     0
100
AcDbMText
 10
14.59707158840073
 20
23.77513412193437
 30
0.0
 40
1.0
 41
0.0
 71
     5
 72
     1
  1
\A1;13{\H1.000000x;\S3/4;}
 73
     1
 44
1.0
  0
POINT
  5
964B
330
9608
100
AcDbEntity
  8
Defpoints
 62
     0
100
AcDbPoint
 10
21.47260677608905
 20
21.3769616314883
 30
0.0
  0
POINT
  5
964C
330
9608
100
AcDbEntity
  8
Defpoints
 62
     0
100
AcDbPoint
 10
7.721536400712423
 20
21.3742904231718
 30
0.0
  0
POINT
  5
964D
330
9608
100
AcDbEntity
  8
Defpoints
 62
     0
100
AcDbPoint
 10
7.721536400712423
 20
23.77513412193437
 30
0.0
  0
ENDBLK
  5
9614
330
9608
100
AcDbEntity
  8
0
100
AcDbBlockEnd
  0
ENDSEC
  0
SECTION
  2
ENTITIES
  0
POLYLINE
  5
8342
330
18
100
AcDbEntity
  8
0
100
AcDb2dPolyline
 66
     1
 10
0.0
 20
0.0
 30
0.0
 70
     5
 75
     6
  0
VERTEX
  5
8343
330
8342
100
AcDbEntity
  8
0
100
AcDbVertex
100
AcDb2dVertex
 10
10.45413086769494
 20
10.85505474336213
 30
0.0
 70
    16
  0
VERTEX
  5
8344
330
8342
100
AcDbEntity
  8
0
100
AcDbVertex
100
AcDb2dVertex
 10
10.4561216825868
 20
10.71759942657701
 30
0.0
 70
     8
  0
VERTEX
  5
8345
330
8342
100
AcDbEntity
  8
0
100
AcDbVertex
100
AcDb2dVertex
 10
10.46049982682993
 20
10.70571682097168
 30
0.0
 70
     8
  0
VERTEX
  5
8346
330
8342
100
AcDbEntity
  8
0
100
AcDbVertex
100
AcDb2dVertex
 10
10.46613775564799
 20
10.69537498377772
 30
0.0
 70
     8
  0
VERTEX
  5
8347
330
8342
100
AcDbEntity
  8
0
100
AcDbVertex
100
AcDb2dVertex
 10
10.47298881085399
 20
10.68643384532062
 30
0.0
 70
     8
  0
VERTEX
  5
8348
330
8342
100
AcDbEntity
  8
0
100
AcDbVertex
100
AcDb2dVertex
 10
10.48100633426091
 20
10.67875333592591
 30
0.0
 70
     8
  0
VERTEX
  5
8349
330
8342
100
AcDbEntity
  8
0
100
AcDbVertex
100
AcDb2dVertex
 10
10.49014366768175
 20
10.67219338591909
 30
0.0
 70
     8
  0
VERTEX
  5
834A
330
8342
100
AcDbEntity
  8
0
100
AcDbVertex
100
AcDb2dVertex
 10
10.50035415292952
 20
10.66661392562565
 30
0.0
 70
     8
  0
VERTEX
  5
834B
330
8342
100
AcDbEntity
  8
0
100
AcDbVertex
100
AcDb2dVertex
 10
10.51159113181719
 20
10.66187488537113
 30
0.0
 70
     8
  0
VERTEX
  5
834C
330
8342
100
AcDbEntity
  8
0
100
AcDbVertex
100
AcDb2dVertex
 10
10.52380794615775
 20
10.65783619548101
 30
0.0
 70
     8
  0
VERTEX
  5
834D
330
8342
100
AcDbEntity
  8
0
100
AcDbVertex
100
AcDb2dVertex
 10
10.5370007082045
 20
10.65450952880166
 30
0.0
 70
     8
  0
VERTEX
  5
834E
330
8342
100
AcDbEntity
  8
0
100
AcDbVertex
100
AcDb2dVertex
 10
10.55133661197158
 20
10.65251352826286
 30
0.0
 70
     8
  0
VERTEX
  5
834F
330
8342
100
AcDbEntity
  8
0
100
AcDbVertex
100
AcDb2dVertex
 10
10.56702562191349
 20
10.65261857931525
 30
0.0
 70
     8
  0
VERTEX
  5
8350
330
8342
100
AcDbEntity
  8
0
100
AcDbVertex
100
AcDb2dVertex
 10
10.5842777024847
 20
10.65559506740953
 30
0.0
 70
     8
  0
VERTEX
  5
8351
330
8342
100
AcDbEntity
  8
0
100
AcDbVertex
100
AcDb2dVertex
 10
10.60330281813965
 20
10.66221337799628
 30
0.0
 70
     8
  0
VERTEX
  5
8352
330
8342
100
AcDbEntity
  8
0
100
AcDbVertex
100
AcDb2dVertex
 10
10.6243109333328
 20
10.67324389652616
 30
0.0
 70
     8
  0
VERTEX
  5
8353
330
8342
100
AcDbEntity
  8
0
100
AcDbVertex
100
AcDb2dVertex
 10
10.64751201251863
 20
10.68945700844984
 30
0.0
 70
     8
  0
VERTEX
  5
8354
330
8342
100
AcDbEntity
  8
0
100
AcDbVertex
100
AcDb2dVertex
 10
10.67311602015159
 20
10.71162309921795
 30
0.0
 70
     8
  0
VERTEX
  5
8355
330
8342
100
AcDbEntity
  8
0
100
AcDbVertex
100
AcDb2dVertex
 10
10.70128626183309
 20
10.74027132240042
 30
0.0
 70
     8
  0
VERTEX
  5
8356
330
8342
100
AcDbEntity
  8
0
100
AcDbVertex
100
AcDb2dVertex
 10
10.73199940775237
 20
10.77496590404431
 30
0.0
 70
     8
  0
VERTEX
  5
8357
330
8342
100
AcDbEntity
  8
0
100
AcDbVertex
100
AcDb2dVertex
 10
10.76518546924558
 20
10.815029838316
 30
0.0
 70
     8
  0
VERTEX
  5
8358
330
8342
100
AcDbEntity
  8
0
100
AcDbVertex
100
AcDb2dVertex
 10
10.8007744576489
 20
10.85978611938183
 30
0.0
 70
     8
  0
VERTEX
  5
8359
330
8342
100
AcDbEntity
  8
0
100
AcDbVertex
100
AcDb2dVertex
 10
10.8386963842985
 20
10.90855774140816
 30
0.0
 70
     8
  0
VERTEX
  5
835A
330
8342
100
AcDbEntity
  8
0
100
AcDbVertex
100
AcDb2dVertex
 10
10.87888126053055
 20
10.96066769856133
 30
0.0
 70
     8
  0
VERTEX
  5
835B
330
8342
100
AcDbEntity
  8
0
100
AcDbVertex
100
AcDb2dVertex
 10
10.92125909768122
 20
11.01543898500772
 30
0.0
 70
     8
  0
VERTEX
  5
835C
330
8342
100
AcDbEntity
  8
0
100
AcDbVertex
100
AcDb2dVertex
 10
10.96575990708669
 20
11.07219459491366
 30
0.0
 70
     8
  0
VERTEX
  5
835D
330
8342
100
AcDbEntity
  8
0
100
AcDbVertex
100
AcDb2dVertex
 10
11.01230203551076
 20
11.13027308588103
 30
0.0
 70
     8
  0
VERTEX
  5
835E
330
8342
100
AcDbEntity
  8
0
100
AcDbVertex
100
AcDb2dVertex
 10
11.06075717142776
 20
11.18907526925364
 30
0.0
 70
     8
  0
VERTEX
  5
835F
330
8342
100
AcDbEntity
  8
0
100
AcDbVertex
100
AcDb2dVertex
 10
11.11098533873966
 20
11.24801751981082
 30
0.0
 70
     8
  0
VERTEX
  5
8360
330
8342
100
AcDbEntity
  8
0
100
AcDbVertex
100
AcDb2dVertex
 10
11.16284656134841
 20
11.3065162123319
 30
0.0
 70
     8
  0
VERTEX
  5
8361
330
8342
100
AcDbEntity
  8
0
100
AcDbVertex
100
AcDb2dVertex
 10
11.21620086315596
 20
11.3639877215962
 30
0.0
 70
     8
  0
VERTEX
  5
8362
330
8342
100
AcDbEntity
  8
0
100
AcDbVertex
100
AcDb2dVertex
 10
11.2709082680643
 20
11.41984842238302
 30
0.0
 70
     8
  0
VERTEX
  5
8363
330
8342
100
AcDbEntity
  8
0
100
AcDbVertex
100
AcDb2dVertex
 10
11.32682879997539
 20
11.47351468947174
 30
0.0
 70
     8
  0
VERTEX
  5
8364
330
8342
100
AcDbEntity
  8
0
100
AcDbVertex
100
AcDb2dVertex
 10
11.38382248279117
 20
11.52440289764165
 30
0.0
 70
     8
  0
VERTEX
  5
8365
330
8342
100
AcDbEntity
  8
0
100
AcDbVertex
100
AcDb2dVertex
 10
11.4417337875309
 20
11.57204614689882
 30
0.0
 70
     8
  0
VERTEX
  5
8366
330
8342
100
AcDbEntity
  8
0
100
AcDbVertex
100
AcDb2dVertex
 10
11.50034497368306
 20
11.6164444381562
 30
0.0
 70
     8
  0
VERTEX
  5
8367
330
8342
100
AcDbEntity
  8
0
100
AcDbVertex
100
AcDb2dVertex
 10
11.55942274785336
 20
11.65771449755351
 30
0.0
 70
     8
  0
VERTEX
  5
8368
330
8342
100
AcDbEntity
  8
0
100
AcDbVertex
100
AcDb2dVertex
 10
11.61873381664753
 20
11.69597305123044
 30
0.0
 70
     8
  0
VERTEX
  5
8369
330
8342
100
AcDbEntity
  8
0
100
AcDbVertex
100
AcDb2dVertex
 10
11.67804488667131
 20
11.73133682532671
 30
0.0
 70
     8
  0
VERTEX
  5
836A
330
8342
100
AcDbEntity
  8
0
100
AcDbVertex
100
AcDb2dVertex
 10
11.73712266453045
 20
11.76392254598201
 30
0.0
 70
     8
  0
VERTEX
  5
836B
330
8342
100
AcDbEntity
  8
0
100
AcDbVertex
100
AcDb2dVertex
 10
11.79573385683069
 20
11.79384693933603
 30
0.0
 70
     8
  0
VERTEX
  5
836C
330
8342
100
AcDbEntity
  8
0
100
AcDbVertex
100
AcDb2dVertex
 10
11.85364517017777
 20
11.82122673152849
 30
0.0
 70
     8
  0
VERTEX
  5
836D
330
8342
100
AcDbEntity
  8
0
100
AcDbVertex
100
AcDb2dVertex
 10
11.91058054042976
 20
11.84621366582722
 30
0.0
 70
     8
  0
VERTEX
  5
836E
330
8342
100
AcDbEntity
  8
0
100
AcDbVertex
100
AcDb2dVertex
 10
11.96609282045418
 20
11.86909955401256
 30
0.0
 70
     8
  0
VERTEX
  5
836F
330
8342
100
AcDbEntity
  8
0
100
AcDbVertex
100
AcDb2dVertex
 10
12.01969209237087
 20
11.89021122499304
 30
0.0
 70
     8
  0
VERTEX
  5
8370
330
8342
100
AcDbEntity
  8
0
100
AcDbVertex
100
AcDb2dVertex
 10
12.07088843829964
 20
11.90987550767713
 30
0.0
 70
     8
  0
VERTEX
  5
8371
330
8342
100
AcDbEntity
  8
0
100
AcDbVertex
100
AcDb2dVertex
 10
12.11919194036037
 20
11.92841923097335
 30
0.0
 70
     8
  0
VERTEX
  5
8372
330
8342
100
AcDbEntity
  8
0
100
AcDbVertex
100
AcDb2dVertex
 10
12.16411268067289
 20
11.94616922379016
 30
0.0
 70
     8
  0
VERTEX
  5
8373
330
8342
100
AcDbEntity
  8
0
100
AcDbVertex
100
AcDb2dVertex
 10
12.20516074135706
 20
11.96345231503608
 30
0.0
 70
     8
  0
VERTEX
  5
8374
330
8342
100
AcDbEntity
  8
0
100
AcDbVertex
100
AcDb2dVertex
 10
12.2418462045327
 20
11.9805953336196
 30
0.0
 70
     8
  0
VERTEX
  5
8375
330
8342
100
AcDbEntity
  8
0
100
AcDbVertex
100
AcDb2dVertex
 10
12.27379968768578
 20
11.99787063713046
 30
0.0
 70
     8
  0
VERTEX
  5
8376
330
8342
100
AcDbEntity
  8
0
100
AcDbVertex
100
AcDb2dVertex
 10
12.30113394976665
 20
12.01533269788338
 30
0.0
 70
     8
  0
VERTEX
  5
8377
330
8342
100
AcDbEntity
  8
0
100
AcDbVertex
100
AcDb2dVertex
 10
12.32408228509181
 20
12.03298151687434
 30
0.0
 70
     8
  0
VERTEX
  5
8378
330
8342
100
AcDbEntity
  8
0
100
AcDbVertex
100
AcDb2dVertex
 10
12.34287798797772
 20
12.05081709509928
 30
0.0
 70
     8
  0
VERTEX
  5
8379
330
8342
100
AcDbEntity
  8
0
100
AcDbVertex
100
AcDb2dVertex
 10
12.35775435274086
 20
12.06883943355421
 30
0.0
 70
     8
  0
VERTEX
  5
837A
330
8342
100
AcDbEntity
  8
0
100
AcDbVertex
100
AcDb2dVertex
 10
12.36894467369768
 20
12.08704853323508
 30
0.0
 70
     8
  0
VERTEX
  5
837B
330
8342
100
AcDbEntity
  8
0
100
AcDbVertex
100
AcDb2dVertex
 10
12.37668224516471
 20
12.10544439513785
 30
0.0
 70
     8
  0
VERTEX
  5
837C
330
8342
100
AcDbEntity
  8
0
100
AcDbVertex
100
AcDb2dVertex
 10
12.38120036145838
 20
12.1240270202585
 30
0.0
 70
     8
  0
VERTEX
  5
837D
330
8342
100
AcDbEntity
  8
0
100
AcDbVertex
100
AcDb2dVertex
 10
12.38258456407401
 20
12.14283531764226
 30
0.0
 70
     8
  0
VERTEX
  5
837E
330
8342
100
AcDbEntity
  8
0
100
AcDbVertex
100
AcDb2dVertex
 10
12.38032938322218
 20
12.16206382853137
 30
0.0
 70
     8
  0
VERTEX
  5
837F
330
8342
100
AcDbEntity
  8
0
100
AcDbVertex
100
AcDb2dVertex
 10
12.37378159629228
 20
12.1819460022173
 30
0.0
 70
     8
  0
VERTEX
  5
8380
330
8342
100
AcDbEntity
  8
0
100
AcDbVertex
100
AcDb2dVertex
 10
12.36228798067377
 20
12.20271528799157
 30
0.0
 70
     8
  0
VERTEX
  5
8381
330
8342
100
AcDbEntity
  8
0
100
AcDbVertex
100
AcDb2dVertex
 10
12.34519531375602
 20
12.22460513514567
 30
0.0
 70
     8
  0
VERTEX
  5
8382
330
8342
100
AcDbEntity
  8
0
100
AcDbVertex
100
AcDb2dVertex
 10
12.32185037292847
 20
12.24784899297107
 30
0.0
 70
     8
  0
VERTEX
  5
8383
330
8342
100
AcDbEntity
  8
0
100
AcDbVertex
100
AcDb2dVertex
 10
12.2915999355805
 20
12.27268031075931
 30
0.0
 70
     8
  0
VERTEX
  5
8384
330
8342
100
AcDbEntity
  8
0
100
AcDbVertex
100
AcDb2dVertex
 10
12.25379077910155
 20
12.29933253780185
 30
0.0
 70
     8
  0
VERTEX
  5
8385
330
8342
100
AcDbEntity
  8
0
100
AcDbVertex
100
AcDb2dVertex
 10
12.20808851571932
 20
12.32801966936556
 30
0.0
 70
     8
  0
VERTEX
  5
8386
330
8342
100
AcDbEntity
  8
0
100
AcDbVertex
100
AcDb2dVertex
 10
12.15543409701489
 20
12.3588778846188
 30
0.0
 70
     8
  0
VERTEX
  5
8387
330
8342
100
AcDbEntity
  8
0
100
AcDbVertex
100
AcDb2dVertex
 10
12.0970873094076
 20
12.39202390870531
 30
0.0
 70
     8
  0
VERTEX
  5
8388
330
8342
100
AcDbEntity
  8
0
100
AcDbVertex
100
AcDb2dVertex
 10
12.03430793931683
 20
12.42757446676882
 30
0.0
 70
     8
  0
VERTEX
  5
8389
330
8342
100
AcDbEntity
  8
0
100
AcDbVertex
100
AcDb2dVertex
 10
11.96835577316192
 20
12.46564628395306
 30
0.0
 70
     8
  0
VERTEX
  5
838A
330
8342
100
AcDbEntity
  8
0
100
AcDbVertex
100
AcDb2dVertex
 10
11.90049059736225
 20
12.50635608540177
 30
0.0
 70
     8
  0
VERTEX
  5
838B
330
8342
100
AcDbEntity
  8
0
100
AcDbVertex
100
AcDb2dVertex
 10
11.83197219833718
 20
12.54982059625866
 30
0.0
 70
     8
  0
VERTEX
  5
838C
330
8342
100
AcDbEntity
  8
0
100
AcDbVertex
100
AcDb2dVertex
 10
11.76406036250609
 20
12.59615654166748
 30
0.0
 70
     8
  0
VERTEX
  5
838D
330
8342
100
AcDbEntity
  8
0
100
AcDbVertex
100
AcDb2dVertex
 10
11.69783212949385
 20
12.64550788255583
 30
0.0
 70
     8
  0
VERTEX
  5
838E
330
8342
100
AcDbEntity
  8
0
100
AcDbVertex
100
AcDb2dVertex
 10
11.63363355174761
 20
12.69812752298681
 30
0.0
 70
     8
  0
VERTEX
  5
838F
330
8342
100
AcDbEntity
  8
0
100
AcDbVertex
100
AcDb2dVertex
 10
11.57162793491999
 20
12.7542956028074
 30
0.0
 70
     8
  0
VERTEX
  5
8390
330
8342
100
AcDbEntity
  8
0
100
AcDbVertex
100
AcDb2dVertex
 10
11.51197858466365
 20
12.81429226186455
 30
0.0
 70
     8
  0
VERTEX
  5
8391
330
8342
100
AcDbEntity
  8
0
100
AcDbVertex
100
AcDb2dVertex
 10
11.45484880663121
 20
12.87839764000524
 30
0.0
 70
     8
  0
VERTEX
  5
8392
330
8342
100
AcDbEntity
  8
0
100
AcDbVertex
100
AcDb2dVertex
 10
11.40040190647534
 20
12.94689187707645
 30
0.0
 70
     8
  0
VERTEX
  5
8393
330
8342
100
AcDbEntity
  8
0
100
AcDbVertex
100
AcDb2dVertex
 10
11.34880118984868
 20
13.02005511292515
 30
0.0
 70
     8
  0
VERTEX
  5
8394
330
8342
100
AcDbEntity
  8
0
100
AcDbVertex
100
AcDb2dVertex
 10
11.3002099624039
 20
13.09816748739831
 30
0.0
 70
     8
  0
VERTEX
  5
8395
330
8342
100
AcDbEntity
  8
0
100
AcDbVertex
100
AcDb2dVertex
 10
11.25483818864665
 20
13.18145466885815
 30
0.0
 70
     8
  0
VERTEX
  5
8396
330
8342
100
AcDbEntity
  8
0
100
AcDbVertex
100
AcDb2dVertex
 10
11.21308246849487
 20
13.26992443972789
 30
0.0
 70
     8
  0
VERTEX
  5
8397
330
8342
100
AcDbEntity
  8
0
100
AcDbVertex
100
AcDb2dVertex
 10
11.17538606071945
 20
13.36353011094602
 30
0.0
 70
     8
  0
VERTEX
  5
8398
330
8342
100
AcDbEntity
  8
0
100
AcDbVertex
100
AcDb2dVertex
 10
11.14219222409136
 20
13.462224993451
 30
0.0
 70
     8
  0
VERTEX
  5
8399
330
8342
100
AcDbEntity
  8
0
100
AcDbVertex
100
AcDb2dVertex
 10
11.11394421738152
 20
13.56596239818133
 30
0.0
 70
     8
  0
VERTEX
  5
839A
330
8342
100
AcDbEntity
  8
0
100
AcDbVertex
100
AcDb2dVertex
 10
11.09108529936089
 20
13.67469563607547
 30
0.0
 70
     8
  0
VERTEX
  5
839B
330
8342
100
AcDbEntity
  8
0
100
AcDbVertex
100
AcDb2dVertex
 10
11.07405872880037
 20
13.78837801807191
 30
0.0
 70
     8
  0
VERTEX
  5
839C
330
8342
100
AcDbEntity
  8
0
100
AcDbVertex
100
AcDb2dVertex
 10
11.06330776447091
 20
13.90696285510911
 30
0.0
 70
     8
  0
VERTEX
  5
839D
330
8342
100
AcDbEntity
  8
0
100
AcDbVertex
100
AcDb2dVertex
 10
11.05917845928074
 20
14.03017389859321
 30
0.0
 70
     8
  0
VERTEX
  5
839E
330
8342
100
AcDbEntity
  8
0
100
AcDbVertex
100
AcDb2dVertex
 10
11.06162804268713
 20
14.15681666180103
 30
0.0
 70
     8
  0
VERTEX
  5
839F
330
8342
100
AcDbEntity
  8
0
100
AcDbVertex
100
AcDb2dVertex
 10
11.07051653828465
 20
14.285467098477
 30
0.0
 70
     8
  0
VERTEX
  5
83A0
330
8342
100
AcDbEntity
  8
0
100
AcDbVertex
100
AcDb2dVertex
 10
11.08570396966783
 20
14.41470116236558
 30
0.0
 70
     8
  0
VERTEX
  5
83A1
330
8342
100
AcDbEntity
  8
0
100
AcDbVertex
100
AcDb2dVertex
 10
11.10705036043124
 20
14.54309480721123
 30
0.0
 70
     8
  0
VERTEX
  5
83A2
330
8342
100
AcDbEntity
  8
0
100
AcDbVertex
100
AcDb2dVertex
 10
11.13441573416945
 20
14.66922398675841
 30
0.0
 70
     8
  0
VERTEX
  5
83A3
330
8342
100
AcDbEntity
  8
0
100
AcDbVertex
100
AcDb2dVertex
 10
11.16766011447701
 20
14.79166465475157
 30
0.0
 70
     8
  0
VERTEX
  5
83A4
330
8342
100
AcDbEntity
  8
0
100
AcDbVertex
100
AcDb2dVertex
 10
11.20664352494847
 20
14.90899276493518
 30
0.0
 70
     8
  0
VERTEX
  5
83A5
330
8342
100
AcDbEntity
  8
0
100
AcDbVertex
100
AcDb2dVertex
 10
11.25108212456509
 20
15.02007608383
 30
0.0
 70
     8
  0
VERTEX
  5
83A6
330
8342
100
AcDbEntity
  8
0
100
AcDbVertex
100
AcDb2dVertex
 10
11.30011661385486
 20
15.12494962906218
 30
0.0
 70
     8
  0
VERTEX
  5
83A7
330
8342
100
AcDbEntity
  8
0
100
AcDbVertex
100
AcDb2dVertex
 10
11.35274382873249
 20
15.22394023103414
 30
0.0
 70
     8
  0
VERTEX
  5
83A8
330
8342
100
AcDbEntity
  8
0
100
AcDbVertex
100
AcDb2dVertex
 10
11.40796060511269
 20
15.31737472014835
 30
0.0
 70
     8
  0
VERTEX
  5
83A9
330
8342
100
AcDbEntity
  8
0
100
AcDbVertex
100
AcDb2dVertex
 10
11.46476377891014
 20
15.40557992680725
 30
0.0
 70
     8
  0
VERTEX
  5
83AA
330
8342
100
AcDbEntity
  8
0
100
AcDbVertex
100
AcDb2dVertex
 10
11.52215018603954
 20
15.4888826814133
 30
0.0
 70
     8
  0
VERTEX
  5
83AB
330
8342
100
AcDbEntity
  8
0
100
AcDbVertex
100
AcDb2dVertex
 10
11.57911666241558
 20
15.56760981436892
 30
0.0
 70
     8
  0
VERTEX
  5
83AC
330
8342
100
AcDbEntity
  8
0
100
AcDbVertex
100
AcDb2dVertex
 10
11.63466004395297
 20
15.64208815607659
 30
0.0
 70
     8
  0
VERTEX
  5
83AD
330
8342
100
AcDbEntity
  8
0
100
AcDbVertex
100
AcDb2dVertex
 10
11.68792103128219
 20
15.71267955448186
 30
0.0
 70
     8
  0
VERTEX
  5
83AE
330
8342
100
AcDbEntity
  8
0
100
AcDbVertex
100
AcDb2dVertex
 10
11.73861578389682
 20
15.77988592770279
 30
0.0
 70
     8
  0
VERTEX
  5
83AF
330
8342
100
AcDbEntity
  8
0
100
AcDbVertex
100
AcDb2dVertex
 10
11.78660432600622
 20
15.84424421140054
 30
0.0
 70
     8
  0
VERTEX
  5
83B0
330
8342
100
AcDbEntity
  8
0
100
AcDbVertex
100
AcDb2dVertex
 10
11.83174668181976
 20
15.90629134123628
 30
0.0
 70
     8
  0
VERTEX
  5
83B1
330
8342
100
AcDbEntity
  8
0
100
AcDbVertex
100
AcDb2dVertex
 10
11.87390287554682
 20
15.96656425287117
 30
0.0
 70
     8
  0
VERTEX
  5
83B2
330
8342
100
AcDbEntity
  8
0
100
AcDbVertex
100
AcDb2dVertex
 10
11.91293293139677
 20
16.02559988196638
 30
0.0
 70
     8
  0
VERTEX
  5
83B3
330
8342
100
AcDbEntity
  8
0
100
AcDbVertex
100
AcDb2dVertex
 10
11.94869687357895
 20
16.08393516418308
 30
0.0
 70
     8
  0
VERTEX
  5
83B4
330
8342
100
AcDbEntity
  8
0
100
AcDbVertex
100
AcDb2dVertex
 10
11.98105472630275
 20
16.14210703518243
 30
0.0
 70
     8
  0
VERTEX
  5
83B5
330
8342
100
AcDbEntity
  8
0
100
AcDbVertex
100
AcDb2dVertex
 10
12.00985873720809
 20
16.20050846944901
 30
0.0
 70
     8
  0
VERTEX
  5
83B6
330
8342
100
AcDbEntity
  8
0
100
AcDbVertex
100
AcDb2dVertex
 10
12.03493004765715
 20
16.25895659676098
 30
0.0
 70
     8
  0
VERTEX
  5
83B7
330
8342
100
AcDbEntity
  8
0
100
AcDbVertex
100
AcDb2dVertex
 10
12.05608202244267
 20
16.31712458571993
 30
0.0
 70
     8
  0
VERTEX
  5
83B8
330
8342
100
AcDbEntity
  8
0
100
AcDbVertex
100
AcDb2dVertex
 10
12.07312802635741
 20
16.37468560492746
 30
0.0
 70
     8
  0
VERTEX
  5
83B9
330
8342
100
AcDbEntity
  8
0
100
AcDbVertex
100
AcDb2dVertex
 10
12.0858814241941
 20
16.43131282298512
 30
0.0
 70
     8
  0
VERTEX
  5
83BA
330
8342
100
AcDbEntity
  8
0
100
AcDbVertex
100
AcDb2dVertex
 10
12.09415558074548
 20
16.48667940849452
 30
0.0
 70
     8
  0
VERTEX
  5
83BB
330
8342
100
AcDbEntity
  8
0
100
AcDbVertex
100
AcDb2dVertex
 10
12.0977638608043
 20
16.54045853005721
 30
0.0
 70
     8
  0
VERTEX
  5
83BC
330
8342
100
AcDbEntity
  8
0
100
AcDbVertex
100
AcDb2dVertex
 10
12.0965196291633
 20
16.5923233562748
 30
0.0
 70
     8
  0
VERTEX
  5
83BD
330
8342
100
AcDbEntity
  8
0
100
AcDbVertex
100
AcDb2dVertex
 10
12.09031401523367
 20
16.64197429203072
 30
0.0
 70
     8
  0
VERTEX
  5
83BE
330
8342
100
AcDbEntity
  8
0
100
AcDbVertex
100
AcDb2dVertex
 10
12.07934920690046
 20
16.68922068733582
 30
0.0
 70
     8
  0
VERTEX
  5
83BF
330
8342
100
AcDbEntity
  8
0
100
AcDbVertex
100
AcDb2dVertex
 10
12.06390515666714
 20
16.73389912848289
 30
0.0
 70
     8
  0
VERTEX
  5
83C0
330
8342
100
AcDbEntity
  8
0
100
AcDbVertex
100
AcDb2dVertex
 10
12.04426181703718
 20
16.77584620176459
 30
0.0
 70
     8
  0
VERTEX
  5
83C1
330
8342
100
AcDbEntity
  8
0
100
AcDbVertex
100
AcDb2dVertex
 10
12.02069914051407
 20
16.81489849347369
 30
0.0
 70
     8
  0
VERTEX
  5
83C2
330
8342
100
AcDbEntity
  8
0
100
AcDbVertex
100
AcDb2dVertex
 10
11.99349707960128
 20
16.8508925899029
 30
0.0
 70
     8
  0
VERTEX
  5
83C3
330
8342
100
AcDbEntity
  8
0
100
AcDbVertex
100
AcDb2dVertex
 10
11.96293558680231
 20
16.88366507734497
 30
0.0
 70
     8
  0
VERTEX
  5
83C4
330
8342
100
AcDbEntity
  8
0
100
AcDbVertex
100
AcDb2dVertex
 10
11.92929461462062
 20
16.91305254209261
 30
0.0
 70
     8
  0
VERTEX
  5
83C5
330
8342
100
AcDbEntity
  8
0
100
AcDbVertex
100
AcDb2dVertex
 10
11.89295520957906
 20
16.9389888408937
 30
0.0
 70
     8
  0
VERTEX
  5
83C6
330
8342
100
AcDbEntity
  8
0
100
AcDbVertex
100
AcDb2dVertex
 10
11.85470279427793
 20
16.96179691231656
 30
0.0
 70
     8
  0
VERTEX
  5
83C7
330
8342
100
AcDbEntity
  8
0
100
AcDbVertex
100
AcDb2dVertex
 10
11.8154238853369
 20
16.9818969653847
 30
0.0
 70
     8
  0
VERTEX
  5
83C8
330
8342
100
AcDbEntity
  8
0
100
AcDbVertex
100
AcDb2dVertex
 10
11.77600499937562
 20
16.99970920912159
 30
0.0
 70
     8
  0
VERTEX
  5
83C9
330
8342
100
AcDbEntity
  8
0
100
AcDbVertex
100
AcDb2dVertex
 10
11.73733265301373
 20
17.01565385255071
 30
0.0
 70
     8
  0
VERTEX
  5
83CA
330
8342
100
AcDbEntity
  8
0
100
AcDbVertex
100
AcDb2dVertex
 10
11.70029336287091
 20
17.03015110469553
 30
0.0
 70
     8
  0
VERTEX
  5
83CB
330
8342
100
AcDbEntity
  8
0
100
AcDbVertex
100
AcDb2dVertex
 10
11.66577364556682
 20
17.04362117457954
 30
0.0
 70
     8
  0
VERTEX
  5
83CC
330
8342
100
AcDbEntity
  8
0
100
AcDbVertex
100
AcDb2dVertex
 10
11.63466001772113
 20
17.05648427122623
 30
0.0
 70
     8
  0
VERTEX
  5
83CD
330
8342
100
AcDbEntity
  8
0
100
AcDbVertex
100
AcDb2dVertex
 10
11.60764458448419
 20
17.06912169569281
 30
0.0
 70
     8
  0
VERTEX
  5
83CE
330
8342
100
AcDbEntity
  8
0
100
AcDbVertex
100
AcDb2dVertex
 10
11.58464180512921
 20
17.08175911717147
 30
0.0
 70
     8
  0
VERTEX
  5
83CF
330
8342
100
AcDbEntity
  8
0
100
AcDbVertex
100
AcDb2dVertex
 10
11.56537172746014
 20
17.09458329688818
 30
0.0
 70
     8
  0
VERTEX
  5
83D0
330
8342
100
AcDbEntity
  8
0
100
AcDbVertex
100
AcDb2dVertex
 10
11.54955439928089
 20
17.10778099606885
 30
0.0
 70
     8
  0
VERTEX
  5
83D1
330
8342
100
AcDbEntity
  8
0
100
AcDbVertex
100
AcDb2dVertex
 10
11.53690986839538
 20
17.12153897593943
 30
0.0
 70
     8
  0
VERTEX
  5
83D2
330
8342
100
AcDbEntity
  8
0
100
AcDbVertex
100
AcDb2dVertex
 10
11.52715818260755
 20
17.13604399772587
 30
0.0
 70
     8
  0
VERTEX
  5
83D3
330
8342
100
AcDbEntity
  8
0
100
AcDbVertex
100
AcDb2dVertex
 10
11.52001938972131
 20
17.1514828226541
 30
0.0
 70
     8
  0
VERTEX
  5
83D4
330
8342
100
AcDbEntity
  8
0
100
AcDbVertex
100
AcDb2dVertex
 10
11.51521353754057
 20
17.16804221195006
 30
0.0
 70
     8
  0
VERTEX
  5
83D5
330
8342
100
AcDbEntity
  8
0
100
AcDbVertex
100
AcDb2dVertex
 10
11.5125617676837
 20
17.18588558147897
 30
0.0
 70
     8
  0
VERTEX
  5
83D6
330
8342
100
AcDbEntity
  8
0
100
AcDbVertex
100
AcDb2dVertex
 10
11.51228959702679
 20
17.20508296566307
 30
0.0
 70
     8
  0
VERTEX
  5
83D7
330
8342
100
AcDbEntity
  8
0
100
AcDbVertex
100
AcDb2dVertex
 10
11.51472363626027
 20
17.2256810535639
 30
0.0
 70
     8
  0
VERTEX
  5
83D8
330
8342
100
AcDbEntity
  8
0
100
AcDbVertex
100
AcDb2dVertex
 10
11.52019049607464
 20
17.24772653424297
 30
0.0
 70
     8
  0
VERTEX
  5
83D9
330
8342
100
AcDbEntity
  8
0
100
AcDbVertex
100
AcDb2dVertex
 10
11.52901678716041
 20
17.2712660967618
 30
0.0
 70
     8
  0
VERTEX
  5
83DA
330
8342
100
AcDbEntity
  8
0
100
AcDbVertex
100
AcDb2dVertex
 10
11.54152912020803
 20
17.29634643018194
 30
0.0
 70
     8
  0
VERTEX
  5
83DB
330
8342
100
AcDbEntity
  8
0
100
AcDbVertex
100
AcDb2dVertex
 10
11.55805410590803
 20
17.32301422356488
 30
0.0
 70
     8
  0
VERTEX
  5
83DC
330
8342
100
AcDbEntity
  8
0
100
AcDbVertex
100
AcDb2dVertex
 10
11.57891835495085
 20
17.35131616597216
 30
0.0
 70
     8
  0
VERTEX
  5
83DD
330
8342
100
AcDbEntity
  8
0
100
AcDbVertex
100
AcDb2dVertex
 10
11.604327943122
 20
17.38121334827556
 30
0.0
 70
     8
  0
VERTEX
  5
83DE
330
8342
100
AcDbEntity
  8
0
100
AcDbVertex
100
AcDb2dVertex
 10
11.63400680658696
 20
17.41232446858788
 30
0.0
 70
     8
  0
VERTEX
  5
83DF
330
8342
100
AcDbEntity
  8
0
100
AcDbVertex
100
AcDb2dVertex
 10
11.66755834660625
 20
17.44418262683217
 30
0.0
 70
     8
  0
VERTEX
  5
83E0
330
8342
100
AcDbEntity
  8
0
100
AcDbVertex
100
AcDb2dVertex
 10
11.70458596444035
 20
17.4763209229315
 30
0.0
 70
     8
  0
VERTEX
  5
83E1
330
8342
100
AcDbEntity
  8
0
100
AcDbVertex
100
AcDb2dVertex
 10
11.74469306134976
 20
17.50827245680891
 30
0.0
 70
     8
  0
VERTEX
  5
83E2
330
8342
100
AcDbEntity
  8
0
100
AcDbVertex
100
AcDb2dVertex
 10
11.78748303859496
 20
17.53957032838748
 30
0.0
 70
     8
  0
VERTEX
  5
83E3
330
8342
100
AcDbEntity
  8
0
100
AcDbVertex
100
AcDb2dVertex
 10
11.83255929743647
 20
17.56974763759025
 30
0.0
 70
     8
  0
VERTEX
  5
83E4
330
8342
100
AcDbEntity
  8
0
100
AcDbVertex
100
AcDb2dVertex
 10
11.87952523913477
 20
17.59833748434028
 30
0.0
 70
     8
  0
VERTEX
  5
83E5
330
8342
100
AcDbEntity
  8
0
100
AcDbVertex
100
AcDb2dVertex
 10
11.928003705836
 20
17.62491187694186
 30
0.0
 70
     8
  0
VERTEX
  5
83E6
330
8342
100
AcDbEntity
  8
0
100
AcDbVertex
100
AcDb2dVertex
 10
11.97769530322883
 20
17.64919845722429
 30
0.0
 70
     8
  0
VERTEX
  5
83E7
330
8342
100
AcDbEntity
  8
0
100
AcDbVertex
100
AcDb2dVertex
 10
12.02832007788756
 20
17.67096377539809
 30
0.0
 70
     8
  0
VERTEX
  5
83E8
330
8342
100
AcDbEntity
  8
0
100
AcDbVertex
100
AcDb2dVertex
 10
12.07959807638649
 20
17.68997438167377
 30
0.0
 70
     8
  0
VERTEX
  5
83E9
330
8342
100
AcDbEntity
  8
0
100
AcDbVertex
100
AcDb2dVertex
 10
12.13124934529993
 20
17.70599682626184
 30
0.0
 70
     8
  0
VERTEX
  5
83EA
330
8342
100
AcDbEntity
  8
0
100
AcDbVertex
100
AcDb2dVertex
 10
12.1829939312022
 20
17.71879765937285
 30
0.0
 70
     8
  0
VERTEX
  5
83EB
330
8342
100
AcDbEntity
  8
0
100
AcDbVertex
100
AcDb2dVertex
 10
12.23455188066759
 20
17.7281434312173
 30
0.0
 70
     8
  0
VERTEX
  5
83EC
330
8342
100
AcDbEntity
  8
0
100
AcDbVertex
100
AcDb2dVertex
 10
12.28564324027042
 20
17.73380069200571
 30
0.0
 70
     8
  0
VERTEX
  5
83ED
330
8342
100
AcDbEntity
  8
0
100
AcDbVertex
100
AcDb2dVertex
 10
12.33603082733263
 20
17.73558657284423
 30
0.0
 70
     8
  0
VERTEX
  5
83EE
330
8342
100
AcDbEntity
  8
0
100
AcDbVertex
100
AcDb2dVertex
 10
12.38564854216676
 20
17.73352052842146
 30
0.0
 70
     8
  0
VERTEX
  5
83EF
330
8342
100
AcDbEntity
  8
0
100
AcDbVertex
100
AcDb2dVertex
 10
12.43447305583304
 20
17.72767259432163
 30
0.0
 70
     8
  0
VERTEX
  5
83F0
330
8342
100
AcDbEntity
  8
0
100
AcDbVertex
100
AcDb2dVertex
 10
12.48248103939166
 20
17.71811280612896
 30
0.0
 70
     8
  0
VERTEX
  5
83F1
330
8342
100
AcDbEntity
  8
0
100
AcDbVertex
100
AcDb2dVertex
 10
12.52964916390281
 20
17.70491119942767
 30
0.0
 70
     8
  0
VERTEX
  5
83F2
330
8342
100
AcDbEntity
  8
0
100
AcDbVertex
100
AcDb2dVertex
 10
12.57595410042669
 20
17.68813780980198
 30
0.0
 70
     8
  0
VERTEX
  5
83F3
330
8342
100
AcDbEntity
  8
0
100
AcDbVertex
100
AcDb2dVertex
 10
12.62137252002351
 20
17.66786267283613
 30
0.0
 70
     8
  0
VERTEX
  5
83F4
330
8342
100
AcDbEntity
  8
0
100
AcDbVertex
100
AcDb2dVertex
 10
12.66588109375347
 20
17.64415582411434
 30
0.0
 70
     8
  0
VERTEX
  5
83F5
330
8342
100
AcDbEntity
  8
0
100
AcDbVertex
100
AcDb2dVertex
 10
12.70945649262552
 20
17.61710675307946
 30
0.0
 70
     8
  0
VERTEX
  5
83F6
330
8342
100
AcDbEntity
  8
0
100
AcDbVertex
100
AcDb2dVertex
 10
12.75207538744372
 20
17.58688276460888
 30
0.0
 70
     8
  0
VERTEX
  5
83F7
330
8342
100
AcDbEntity
  8
0
100
AcDbVertex
100
AcDb2dVertex
 10
12.79371444896083
 20
17.5536706174386
 30
0.0
 70
     8
  0
VERTEX
  5
83F8
330
8342
100
AcDbEntity
  8
0
100
AcDbVertex
100
AcDb2dVertex
 10
12.83435034792965
 20
17.51765707030465
 30
0.0
 70
     8
  0
VERTEX
  5
83F9
330
8342
100
AcDbEntity
  8
0
100
AcDbVertex
100
AcDb2dVertex
 10
12.87395975510302
 20
17.47902888194305
 30
0.0
 70
     8
  0
VERTEX
  5
83FA
330
8342
100
AcDbEntity
  8
0
100
AcDbVertex
100
AcDb2dVertex
 10
12.91251934123367
 20
17.43797281108981
 30
0.0
 70
     8
  0
VERTEX
  5
83FB
330
8342
100
AcDbEntity
  8
0
100
AcDbVertex
100
AcDb2dVertex
 10
12.95000577707444
 20
17.39467561648096
 30
0.0
 70
     8
  0
VERTEX
  5
83FC
330
8342
100
AcDbEntity
  8
0
100
AcDbVertex
100
AcDb2dVertex
 10
12.98639573337811
 20
17.34932405685249
 30
0.0
 70
     8
  0
VERTEX
  5
83FD
330
8342
100
AcDbEntity
  8
0
100
AcDbVertex
100
AcDb2dVertex
 10
13.02163477492714
 20
17.30218270803492
 30
0.0
 70
     8
  0
VERTEX
  5
83FE
330
8342
100
AcDbEntity
  8
0
100
AcDbVertex
100
AcDb2dVertex
 10
13.05554404262259
 20
17.25382741423664
 30
0.0
 70
     8
  0
VERTEX
  5
83FF
330
8342
100
AcDbEntity
  8
0
100
AcDbVertex
100
AcDb2dVertex
 10
13.08791357139519
 20
17.20491183676054
 30
0.0
 70
     8
  0
VERTEX
  5
8400
330
8342
100
AcDbEntity
  8
0
100
AcDbVertex
100
AcDb2dVertex
 10
13.11853339617569
 20
17.1560896369095
 30
0.0
 70
     8
  0
VERTEX
  5
8401
330
8342
100
AcDbEntity
  8
0
100
AcDbVertex
100
AcDb2dVertex
 10
13.14719355189478
 20
17.10801447598641
 30
0.0
 70
     8
  0
VERTEX
  5
8402
330
8342
100
AcDbEntity
  8
0
100
AcDbVertex
100
AcDb2dVertex
 10
13.17368407348324
 20
17.06134001529415
 30
0.0
 70
     8
  0
VERTEX
  5
8403
330
8342
100
AcDbEntity
  8
0
100
AcDbVertex
100
AcDb2dVertex
 10
13.19779499587175
 20
17.01671991613559
 30
0.0
 70
     8
  0
VERTEX
  5
8404
330
8342
100
AcDbEntity
  8
0
100
AcDbVertex
100
AcDb2dVertex
 10
13.21931635399108
 20
16.97480783981363
 30
0.0
 70
     8
  0
VERTEX
  5
8405
330
8342
100
AcDbEntity
  8
0
100
AcDbVertex
100
AcDb2dVertex
 10
13.23815871813803
 20
16.9361523948358
 30
0.0
 70
     8
  0
VERTEX
  5
8406
330
8342
100
AcDbEntity
  8
0
100
AcDbVertex
100
AcDb2dVertex
 10
13.25471480007389
 20
16.9008819785282
 30
0.0
 70
     8
  0
VERTEX
  5
8407
330
8342
100
AcDbEntity
  8
0
100
AcDbVertex
100
AcDb2dVertex
 10
13.26949784692599
 20
16.86901993542161
 30
0.0
 70
     8
  0
VERTEX
  5
8408
330
8342
100
AcDbEntity
  8
0
100
AcDbVertex
100
AcDb2dVertex
 10
13.28302110582171
 20
16.84058961004678
 30
0.0
 70
     8
  0
VERTEX
  5
8409
330
8342
100
AcDbEntity
  8
0
100
AcDbVertex
100
AcDb2dVertex
 10
13.2957978238884
 20
16.81561434693447
 30
0.0
 70
     8
  0
VERTEX
  5
840A
330
8342
100
AcDbEntity
  8
0
100
AcDbVertex
100
AcDb2dVertex
 10
13.30834124825341
 20
16.79411749061544
 30
0.0
 70
     8
  0
VERTEX
  5
840B
330
8342
100
AcDbEntity
  8
0
100
AcDbVertex
100
AcDb2dVertex
 10
13.32116462604412
 20
16.77612238562047
 30
0.0
 70
     8
  0
VERTEX
  5
840C
330
8342
100
AcDbEntity
  8
0
100
AcDbVertex
100
AcDb2dVertex
 10
13.33478120438789
 20
16.76165237648029
 30
0.0
 70
     8
  0
VERTEX
  5
840D
330
8342
100
AcDbEntity
  8
0
100
AcDbVertex
100
AcDb2dVertex
 10
13.34964590678172
 20
16.75067244531982
 30
0.0
 70
     8
  0
VERTEX
  5
840E
330
8342
100
AcDbEntity
  8
0
100
AcDbVertex
100
AcDb2dVertex
 10
13.36598036220121
 20
16.74291412464046
 30
0.0
 70
     8
  0
VERTEX
  5
840F
330
8342
100
AcDbEntity
  8
0
100
AcDbVertex
100
AcDb2dVertex
 10
13.3839478759916
 20
16.73805058453773
 30
0.0
 70
     8
  0
VERTEX
  5
8410
330
8342
100
AcDbEntity
  8
0
100
AcDbVertex
100
AcDb2dVertex
 10
13.40371175349814
 20
16.73575499510717
 30
0.0
 70
     8
  0
VERTEX
  5
8411
330
8342
100
AcDbEntity
  8
0
100
AcDbVertex
100
AcDb2dVertex
 10
13.42543530006607
 20
16.73570052644434
 30
0.0
 70
     8
  0
VERTEX
  5
8412
330
8342
100
AcDbEntity
  8
0
100
AcDbVertex
100
AcDb2dVertex
 10
13.44928182104063
 20
16.73756034864475
 30
0.0
 70
     8
  0
VERTEX
  5
8413
330
8342
100
AcDbEntity
  8
0
100
AcDbVertex
100
AcDb2dVertex
 10
13.47541462176705
 20
16.74100763180395
 30
0.0
 70
     8
  0
VERTEX
  5
8414
330
8342
100
AcDbEntity
  8
0
100
AcDbVertex
100
AcDb2dVertex
 10
13.50399700759058
 20
16.74571554601746
 30
0.0
 70
     8
  0
VERTEX
  5
8415
330
8342
100
AcDbEntity
  8
0
100
AcDbVertex
100
AcDb2dVertex
 10
13.53513396048228
 20
16.75136504297408
 30
0.0
 70
     8
  0
VERTEX
  5
8416
330
8342
100
AcDbEntity
  8
0
100
AcDbVertex
100
AcDb2dVertex
 10
13.56869716891649
 20
16.7576682007356
 30
0.0
 70
     8
  0
VERTEX
  5
8417
330
8342
100
AcDbEntity
  8
0
100
AcDbVertex
100
AcDb2dVertex
 10
13.60449999799336
 20
16.76434487895706
 30
0.0
 70
     8
  0
VERTEX
  5
8418
330
8342
100
AcDbEntity
  8
0
100
AcDbVertex
100
AcDb2dVertex
 10
13.64235581281303
 20
16.77111493729351
 30
0.0
 70
     8
  0
VERTEX
  5
8419
330
8342
100
AcDbEntity
  8
0
100
AcDbVertex
100
AcDb2dVertex
 10
13.68207797847565
 20
16.77769823539999
 30
0.0
 70
     8
  0
VERTEX
  5
841A
330
8342
100
AcDbEntity
  8
0
100
AcDbVertex
100
AcDb2dVertex
 10
13.72347986008136
 20
16.78381463293154
 30
0.0
 70
     8
  0
VERTEX
  5
841B
330
8342
100
AcDbEntity
  8
0
100
AcDbVertex
100
AcDb2dVertex
 10
13.76637482273031
 20
16.7891839895432
 30
0.0
 70
     8
  0
VERTEX
  5
841C
330
8342
100
AcDbEntity
  8
0
100
AcDbVertex
100
AcDb2dVertex
 10
13.81057623152265
 20
16.79352616489003
 30
0.0
 70
     8
  0
VERTEX
  5
841D
330
8342
100
AcDbEntity
  8
0
100
AcDbVertex
100
AcDb2dVertex
 10
13.85583135161492
 20
16.79660381784642
 30
0.0
 70
     8
  0
VERTEX
  5
841E
330
8342
100
AcDbEntity
  8
0
100
AcDbVertex
100
AcDb2dVertex
 10
13.90162304838915
 20
16.79835080416427
 30
0.0
 70
     8
  0
VERTEX
  5
841F
330
8342
100
AcDbEntity
  8
0
100
AcDbVertex
100
AcDb2dVertex
 10
13.9473680872838
 20
16.79874377881483
 30
0.0
 70
     8
  0
VERTEX
  5
8420
330
8342
100
AcDbEntity
  8
0
100
AcDbVertex
100
AcDb2dVertex
 10
13.99248323373726
 20
16.79775939676936
 30
0.0
 70
     8
  0
VERTEX
  5
8421
330
8342
100
AcDbEntity
  8
0
100
AcDbVertex
100
AcDb2dVertex
 10
14.03638525318798
 20
16.7953743129991
 30
0.0
 70
     8
  0
VERTEX
  5
8422
330
8342
100
AcDbEntity
  8
0
100
AcDbVertex
100
AcDb2dVertex
 10
14.07849091107439
 20
16.79156518247531
 30
0.0
 70
     8
  0
VERTEX
  5
8423
330
8342
100
AcDbEntity
  8
0
100
AcDbVertex
100
AcDb2dVertex
 10
14.11821697283493
 20
16.78630866016925
 30
0.0
 70
     8
  0
VERTEX
  5
8424
330
8342
100
AcDbEntity
  8
0
100
AcDbVertex
100
AcDb2dVertex
 10
14.15498020390801
 20
16.77958140105218
 30
0.0
 70
     8
  0
VERTEX
  5
8425
330
8342
100
AcDbEntity
  8
0
100
AcDbVertex
100
AcDb2dVertex
 10
14.18832956946561
 20
16.77138340520707
 30
0.0
 70
     8
  0
VERTEX
  5
8426
330
8342
100
AcDbEntity
  8
0
100
AcDbVertex
100
AcDb2dVertex
 10
14.21834283361384
 20
16.76180805316391
 30
0.0
 70
     8
  0
VERTEX
  5
8427
330
8342
100
AcDbEntity
  8
0
100
AcDbVertex
100
AcDb2dVertex
 10
14.24522996019234
 20
16.75097207056443
 30
0.0
 70
     8
  0
VERTEX
  5
8428
330
8342
100
AcDbEntity
  8
0
100
AcDbVertex
100
AcDb2dVertex
 10
14.2692009130408
 20
16.73899218305032
 30
0.0
 70
     8
  0
VERTEX
  5
8429
330
8342
100
AcDbEntity
  8
0
100
AcDbVertex
100
AcDb2dVertex
 10
14.29046565599883
 20
16.72598511626332
 30
0.0
 70
     8
  0
VERTEX
  5
842A
330
8342
100
AcDbEntity
  8
0
100
AcDbVertex
100
AcDb2dVertex
 10
14.3092341529061
 20
16.71206759584513
 30
0.0
 70
     8
  0
VERTEX
  5
842B
330
8342
100
AcDbEntity
  8
0
100
AcDbVertex
100
AcDb2dVertex
 10
14.32571636760226
 20
16.69735634743747
 30
0.0
 70
     8
  0
VERTEX
  5
842C
330
8342
100
AcDbEntity
  8
0
100
AcDbVertex
100
AcDb2dVertex
 10
14.34012226392698
 20
16.68196809668206
 30
0.0
 70
     8
  0
VERTEX
  5
842D
330
8342
100
AcDbEntity
  8
0
100
AcDbVertex
100
AcDb2dVertex
 10
14.35259570603244
 20
16.66593786145402
 30
0.0
 70
     8
  0
VERTEX
  5
842E
330
8342
100
AcDbEntity
  8
0
100
AcDbVertex
100
AcDb2dVertex
 10
14.36301615932104
 20
16.648973828562
 30
0.0
 70
     8
  0
VERTEX
  5
842F
330
8342
100
AcDbEntity
  8
0
100
AcDbVertex
100
AcDb2dVertex
 10
14.37119698950778
 20
16.6307024770481
 30
0.0
 70
     8
  0
VERTEX
  5
8430
330
8342
100
AcDbEntity
  8
0
100
AcDbVertex
100
AcDb2dVertex
 10
14.37695156230756
 20
16.61075028595439
 30
0.0
 70
     8
  0
VERTEX
  5
8431
330
8342
100
AcDbEntity
  8
0
100
AcDbVertex
100
AcDb2dVertex
 10
14.38009324343537
 20
16.58874373432293
 30
0.0
 70
     8
  0
VERTEX
  5
8432
330
8342
100
AcDbEntity
  8
0
100
AcDbVertex
100
AcDb2dVertex
 10
14.38043539860616
 20
16.56430930119581
 30
0.0
 70
     8
  0
VERTEX
  5
8433
330
8342
100
AcDbEntity
  8
0
100
AcDbVertex
100
AcDb2dVertex
 10
14.3777913935349
 20
16.53707346561509
 30
0.0
 70
     8
  0
VERTEX
  5
8434
330
8342
100
AcDbEntity
  8
0
100
AcDbVertex
100
AcDb2dVertex
 10
14.37197459393654
 20
16.50666270662285
 30
0.0
 70
     8
  0
VERTEX
  5
8435
330
8342
100
AcDbEntity
  8
0
100
AcDbVertex
100
AcDb2dVertex
 10
14.36285668879774
 20
16.47282801024713
 30
0.0
 70
     8
  0
VERTEX
  5
8436
330
8342
100
AcDbEntity
  8
0
100
AcDbVertex
100
AcDb2dVertex
 10
14.35054266019203
 20
16.4358183904599
 30
0.0
 70
     8
  0
VERTEX
  5
8437
330
8342
100
AcDbEntity
  8
0
100
AcDbVertex
100
AcDb2dVertex
 10
14.33519581346466
 20
16.39600736821906
 30
0.0
 70
     8
  0
VERTEX
  5
8438
330
8342
100
AcDbEntity
  8
0
100
AcDbVertex
100
AcDb2dVertex
 10
14.31697945396087
 20
16.35376846448256
 30
0.0
 70
     8
  0
VERTEX
  5
8439
330
8342
100
AcDbEntity
  8
0
100
AcDbVertex
100
AcDb2dVertex
 10
14.2960568870259
 20
16.30947520020832
 30
0.0
 70
     8
  0
VERTEX
  5
843A
330
8342
100
AcDbEntity
  8
0
100
AcDbVertex
100
AcDb2dVertex
 10
14.27259141800502
 20
16.26350109635425
 30
0.0
 70
     8
  0
VERTEX
  5
843B
330
8342
100
AcDbEntity
  8
0
100
AcDbVertex
100
AcDb2dVertex
 10
14.24674635224343
 20
16.2162196738783
 30
0.0
 70
     8
  0
VERTEX
  5
843C
330
8342
100
AcDbEntity
  8
0
100
AcDbVertex
100
AcDb2dVertex
 10
14.2186849950864
 20
16.1680044537384
 30
0.0
 70
     8
  0
VERTEX
  5
843D
330
8342
100
AcDbEntity
  8
0
100
AcDbVertex
100
AcDb2dVertex
 10
14.18861342247312
 20
16.11926786494171
 30
0.0
 70
     8
  0
VERTEX
  5
843E
330
8342
100
AcDbEntity
  8
0
100
AcDbVertex
100
AcDb2dVertex
 10
14.15690879271855
 20
16.07057796869243
 30
0.0
 70
     8
  0
VERTEX
  5
843F
330
8342
100
AcDbEntity
  8
0
100
AcDbVertex
100
AcDb2dVertex
 10
14.12399103473162
 20
16.02254173424404
 30
0.0
 70
     8
  0
VERTEX
  5
8440
330
8342
100
AcDbEntity
  8
0
100
AcDbVertex
100
AcDb2dVertex
 10
14.09028007742126
 20
15.97576613084995
 30
0.0
 70
     8
  0
VERTEX
  5
8441
330
8342
100
AcDbEntity
  8
0
100
AcDbVertex
100
AcDb2dVertex
 10
14.05619584969638
 20
15.93085812776364
 30
0.0
 70
     8
  0
VERTEX
  5
8442
330
8342
100
AcDbEntity
  8
0
100
AcDbVertex
100
AcDb2dVertex
 10
14.02215828046592
 20
15.88842469423855
 30
0.0
 70
     8
  0
VERTEX
  5
8443
330
8342
100
AcDbEntity
  8
0
100
AcDbVertex
100
AcDb2dVertex
 10
13.98858729863879
 20
15.84907279952812
 30
0.0
 70
     8
  0
VERTEX
  5
8444
330
8342
100
AcDbEntity
  8
0
100
AcDbVertex
100
AcDb2dVertex
 10
13.9559028331239
 20
15.81340941288583
 30
0.0
 70
     8
  0
VERTEX
  5
8445
330
8342
100
AcDbEntity
  8
0
100
AcDbVertex
100
AcDb2dVertex
 10
13.92448204228749
 20
15.78185863467125
 30
0.0
 70
     8
  0
VERTEX
  5
8446
330
8342
100
AcDbEntity
  8
0
100
AcDbVertex
100
AcDb2dVertex
 10
13.89453100232489
 20
15.75411308966853
 30
0.0
 70
     8
  0
VERTEX
  5
8447
330
8342
100
AcDbEntity
  8
0
100
AcDbVertex
100
AcDb2dVertex
 10
13.86621301888879
 20
15.72968253376794
 30
0.0
 70
     8
  0
VERTEX
  5
8448
330
8342
100
AcDbEntity
  8
0
100
AcDbVertex
100
AcDb2dVertex
 10
13.83969139763178
 20
15.70807672285977
 30
0.0
 70
     8
  0
VERTEX
  5
8449
330
8342
100
AcDbEntity
  8
0
100
AcDbVertex
100
AcDb2dVertex
 10
13.81512944420656
 20
15.68880541283431
 30
0.0
 70
     8
  0
VERTEX
  5
844A
330
8342
100
AcDbEntity
  8
0
100
AcDbVertex
100
AcDb2dVertex
 10
13.79269046426575
 20
15.67137835958181
 30
0.0
 70
     8
  0
VERTEX
  5
844B
330
8342
100
AcDbEntity
  8
0
100
AcDbVertex
100
AcDb2dVertex
 10
13.772537763462
 20
15.65530531899258
 30
0.0
 70
     8
  0
VERTEX
  5
844C
330
8342
100
AcDbEntity
  8
0
100
AcDbVertex
100
AcDb2dVertex
 10
13.75483464744795
 20
15.6400960469569
 30
0.0
 70
     8
  0
VERTEX
  5
844D
330
8342
100
AcDbEntity
  8
0
100
AcDbVertex
100
AcDb2dVertex
 10
13.73970553959265
 20
15.62533033403627
 30
0.0
 70
     8
  0
VERTEX
  5
844E
330
8342
100
AcDbEntity
  8
0
100
AcDbVertex
100
AcDb2dVertex
 10
13.7271193341307
 20
15.61086810947726
 30
0.0
 70
     8
  0
VERTEX
  5
844F
330
8342
100
AcDbEntity
  8
0
100
AcDbVertex
100
AcDb2dVertex
 10
13.71700604301306
 20
15.59663933719766
 30
0.0
 70
     8
  0
VERTEX
  5
8450
330
8342
100
AcDbEntity
  8
0
100
AcDbVertex
100
AcDb2dVertex
 10
13.70929567819072
 20
15.58257398111524
 30
0.0
 70
     8
  0
VERTEX
  5
8451
330
8342
100
AcDbEntity
  8
0
100
AcDbVertex
100
AcDb2dVertex
 10
13.70391825161466
 20
15.56860200514781
 30
0.0
 70
     8
  0
VERTEX
  5
8452
330
8342
100
AcDbEntity
  8
0
100
AcDbVertex
100
AcDb2dVertex
 10
13.70080377523585
 20
15.55465337321316
 30
0.0
 70
     8
  0
VERTEX
  5
8453
330
8342
100
AcDbEntity
  8
0
100
AcDbVertex
100
AcDb2dVertex
 10
13.6998822610053
 20
15.54065804922908
 30
0.0
 70
     8
  0
VERTEX
  5
8454
330
8342
100
AcDbEntity
  8
0
100
AcDbVertex
100
AcDb2dVertex
 10
13.70108372087396
 20
15.52654599711336
 30
0.0
 70
     8
  0
VERTEX
  5
8455
330
8342
100
AcDbEntity
  8
0
100
AcDbVertex
100
AcDb2dVertex
 10
13.70435760793464
 20
15.5121888186269
 30
0.0
 70
     8
  0
VERTEX
  5
8456
330
8342
100
AcDbEntity
  8
0
100
AcDbVertex
100
AcDb2dVertex
 10
13.70973113984734
 20
15.49722466690312
 30
0.0
 70
     8
  0
VERTEX
  5
8457
330
8342
100
AcDbEntity
  8
0
100
AcDbVertex
100
AcDb2dVertex
 10
13.71725097541386
 20
15.48123333291853
 30
0.0
 70
     8
  0
VERTEX
  5
8458
330
8342
100
AcDbEntity
  8
0
100
AcDbVertex
100
AcDb2dVertex
 10
13.72696377343604
 20
15.46379460764964
 30
0.0
 70
     8
  0
VERTEX
  5
8459
330
8342
100
AcDbEntity
  8
0
100
AcDbVertex
100
AcDb2dVertex
 10
13.73891619271569
 20
15.444488282073
 30
0.0
 70
     8
  0
VERTEX
  5
845A
330
8342
100
AcDbEntity
  8
0
100
AcDbVertex
100
AcDb2dVertex
 10
13.75315489205459
 20
15.42289414716509
 30
0.0
 70
     8
  0
VERTEX
  5
845B
330
8342
100
AcDbEntity
  8
0
100
AcDbVertex
100
AcDb2dVertex
 10
13.7697265302546
 20
15.39859199390245
 30
0.0
 70
     8
  0
VERTEX
  5
845C
330
8342
100
AcDbEntity
  8
0
100
AcDbVertex
100
AcDb2dVertex
 10
13.78867776611751
 20
15.37116161326161
 30
0.0
 70
     8
  0
VERTEX
  5
845D
330
8342
100
AcDbEntity
  8
0
100
AcDbVertex
100
AcDb2dVertex
 10
13.80990361741609
 20
15.34022170418533
 30
0.0
 70
     8
  0
VERTEX
  5
845E
330
8342
100
AcDbEntity
  8
0
100
AcDbVertex
100
AcDb2dVertex
 10
13.83269253780693
 20
15.30554659748142
 30
0.0
 70
     8
  0
VERTEX
  5
845F
330
8342
100
AcDbEntity
  8
0
100
AcDbVertex
100
AcDb2dVertex
 10
13.85618133991759
 20
15.26694953192394
 30
0.0
 70
     8
  0
VERTEX
  5
8460
330
8342
100
AcDbEntity
  8
0
100
AcDbVertex
100
AcDb2dVertex
 10
13.87950683637559
 20
15.22424374628694
 30
0.0
 70
     8
  0
VERTEX
  5
8461
330
8342
100
AcDbEntity
  8
0
100
AcDbVertex
100
AcDb2dVertex
 10
13.9018058398085
 20
15.1772424793445
 30
0.0
 70
     8
  0
VERTEX
  5
8462
330
8342
100
AcDbEntity
  8
0
100
AcDbVertex
100
AcDb2dVertex
 10
13.92221516284385
 20
15.12575896987065
 30
0.0
 70
     8
  0
VERTEX
  5
8463
330
8342
100
AcDbEntity
  8
0
100
AcDbVertex
100
AcDb2dVertex
 10
13.93987161810918
 20
15.06960645663947
 30
0.0
 70
     8
  0
VERTEX
  5
8464
330
8342
100
AcDbEntity
  8
0
100
AcDbVertex
100
AcDb2dVertex
 10
13.95391201823204
 20
15.00859817842501
 30
0.0
 70
     8
  0
VERTEX
  5
8465
330
8342
100
AcDbEntity
  8
0
100
AcDbVertex
100
AcDb2dVertex
 10
13.96366758746298
 20
14.94281195107679
 30
0.0
 70
     8
  0
VERTEX
  5
8466
330
8342
100
AcDbEntity
  8
0
100
AcDbVertex
100
AcDb2dVertex
 10
13.96924719654448
 20
14.87338389874616
 30
0.0
 70
     8
  0
VERTEX
  5
8467
330
8342
100
AcDbEntity
  8
0
100
AcDbVertex
100
AcDb2dVertex
 10
13.97095412784206
 20
14.80171472265989
 30
0.0
 70
     8
  0
VERTEX
  5
8468
330
8342
100
AcDbEntity
  8
0
100
AcDbVertex
100
AcDb2dVertex
 10
13.96909166372119
 20
14.72920512404481
 30
0.0
 70
     8
  0
VERTEX
  5
8469
330
8342
100
AcDbEntity
  8
0
100
AcDbVertex
100
AcDb2dVertex
 10
13.96396308654737
 20
14.65725580412771
 30
0.0
 70
     8
  0
VERTEX
  5
846A
330
8342
100
AcDbEntity
  8
0
100
AcDbVertex
100
AcDb2dVertex
 10
13.95587167868609
 20
14.58726746413537
 30
0.0
 70
     8
  0
VERTEX
  5
846B
330
8342
100
AcDbEntity
  8
0
100
AcDbVertex
100
AcDb2dVertex
 10
13.94512072250287
 20
14.52064080529459
 30
0.0
 70
     8
  0
VERTEX
  5
846C
330
8342
100
AcDbEntity
  8
0
100
AcDbVertex
100
AcDb2dVertex
 10
13.93201350036318
 20
14.4587765288322
 30
0.0
 70
     8
  0
VERTEX
  5
846D
330
8342
100
AcDbEntity
  8
0
100
AcDbVertex
100
AcDb2dVertex
 10
13.91684162975276
 20
14.4027796324435
 30
0.0
 70
     8
  0
VERTEX
  5
846E
330
8342
100
AcDbEntity
  8
0
100
AcDbVertex
100
AcDb2dVertex
 10
13.89985006863822
 20
14.35257229969801
 30
0.0
 70
     8
  0
VERTEX
  5
846F
330
8342
100
AcDbEntity
  8
0
100
AcDbVertex
100
AcDb2dVertex
 10
13.88127211010643
 20
14.30778101063377
 30
0.0
 70
     8
  0
VERTEX
  5
8470
330
8342
100
AcDbEntity
  8
0
100
AcDbVertex
100
AcDb2dVertex
 10
13.86134104724425
 20
14.26803224528883
 30
0.0
 70
     8
  0
VERTEX
  5
8471
330
8342
100
AcDbEntity
  8
0
100
AcDbVertex
100
AcDb2dVertex
 10
13.84029017313852
 20
14.23295248370121
 30
0.0
 70
     8
  0
VERTEX
  5
8472
330
8342
100
AcDbEntity
  8
0
100
AcDbVertex
100
AcDb2dVertex
 10
13.81835278087612
 20
14.20216820590898
 30
0.0
 70
     8
  0
VERTEX
  5
8473
330
8342
100
AcDbEntity
  8
0
100
AcDbVertex
100
AcDb2dVertex
 10
13.79576216354387
 20
14.17530589195017
 30
0.0
 70
     8
  0
VERTEX
  5
8474
330
8342
100
AcDbEntity
  8
0
100
AcDbVertex
100
AcDb2dVertex
 10
13.77275161422866
 20
14.15199202186282
 30
0.0
 70
     8
  0
VERTEX
  5
8475
330
8342
100
AcDbEntity
  8
0
100
AcDbVertex
100
AcDb2dVertex
 10
13.74953109687262
 20
14.13189198381723
 30
0.0
 70
     8
  0
VERTEX
  5
8476
330
8342
100
AcDbEntity
  8
0
100
AcDbVertex
100
AcDb2dVertex
 10
13.72621725883888
 20
14.1148267985127
 30
0.0
 70
     8
  0
VERTEX
  5
8477
330
8342
100
AcDbEntity
  8
0
100
AcDbVertex
100
AcDb2dVertex
 10
13.70290341834592
 20
14.10065639478078
 30
0.0
 70
     8
  0
VERTEX
  5
8478
330
8342
100
AcDbEntity
  8
0
100
AcDbVertex
100
AcDb2dVertex
 10
13.67968289361214
 20
14.08924070145301
 30
0.0
 70
     8
  0
VERTEX
  5
8479
330
8342
100
AcDbEntity
  8
0
100
AcDbVertex
100
AcDb2dVertex
 10
13.65664900285602
 20
14.08043964736097
 30
0.0
 70
     8
  0
VERTEX
  5
847A
330
8342
100
AcDbEntity
  8
0
100
AcDbVertex
100
AcDb2dVertex
 10
13.63389506429596
 20
14.07411316133619
 30
0.0
 70
     8
  0
VERTEX
  5
847B
330
8342
100
AcDbEntity
  8
0
100
AcDbVertex
100
AcDb2dVertex
 10
13.61151439615043
 20
14.07012117221023
 30
0.0
 70
     8
  0
VERTEX
  5
847C
330
8342
100
AcDbEntity
  8
0
100
AcDbVertex
100
AcDb2dVertex
 10
13.58960031663783
 20
14.06832360881463
 30
0.0
 70
     8
  0
VERTEX
  5
847D
330
8342
100
AcDbEntity
  8
0
100
AcDbVertex
100
AcDb2dVertex
 10
13.56818782039752
 20
14.06866988958982
 30
0.0
 70
     8
  0
VERTEX
  5
847E
330
8342
100
AcDbEntity
  8
0
100
AcDbVertex
100
AcDb2dVertex
 10
13.54707860775231
 20
14.07146739141159
 30
0.0
 70
     8
  0
VERTEX
  5
847F
330
8342
100
AcDbEntity
  8
0
100
AcDbVertex
100
AcDb2dVertex
 10
13.52601605544594
 20
14.0771129807646
 30
0.0
 70
     8
  0
VERTEX
  5
8480
330
8342
100
AcDbEntity
  8
0
100
AcDbVertex
100
AcDb2dVertex
 10
13.50474354022213
 20
14.0860035241335
 30
0.0
 70
     8
  0
VERTEX
  5
8481
330
8342
100
AcDbEntity
  8
0
100
AcDbVertex
100
AcDb2dVertex
 10
13.4830044388246
 20
14.09853588800296
 30
0.0
 70
     8
  0
VERTEX
  5
8482
330
8342
100
AcDbEntity
  8
0
100
AcDbVertex
100
AcDb2dVertex
 10
13.46054212799709
 20
14.11510693885764
 30
0.0
 70
     8
  0
VERTEX
  5
8483
330
8342
100
AcDbEntity
  8
0
100
AcDbVertex
100
AcDb2dVertex
 10
13.43709998448332
 20
14.13611354318218
 30
0.0
 70
     8
  0
VERTEX
  5
8484
330
8342
100
AcDbEntity
  8
0
100
AcDbVertex
100
AcDb2dVertex
 10
13.412421385027
 20
14.16195256746126
 30
0.0
 70
     8
  0
VERTEX
  5
8485
330
8342
100
AcDbEntity
  8
0
100
AcDbVertex
100
AcDb2dVertex
 10
13.38629247686334
 20
14.19276019185919
 30
0.0
 70
     8
  0
VERTEX
  5
8486
330
8342
100
AcDbEntity
  8
0
100
AcDbVertex
100
AcDb2dVertex
 10
13.35867048919347
 20
14.227629851259
 30
0.0
 70
     8
  0
VERTEX
  5
8487
330
8342
100
AcDbEntity
  8
0
100
AcDbVertex
100
AcDb2dVertex
 10
13.32955542170997
 20
14.26539429422336
 30
0.0
 70
     8
  0
VERTEX
  5
8488
330
8342
100
AcDbEntity
  8
0
100
AcDbVertex
100
AcDb2dVertex
 10
13.29894727410545
 20
14.30488626931494
 30
0.0
 70
     8
  0
VERTEX
  5
8489
330
8342
100
AcDbEntity
  8
0
100
AcDbVertex
100
AcDb2dVertex
 10
13.26684604607248
 20
14.34493852509644
 30
0.0
 70
     8
  0
VERTEX
  5
848A
330
8342
100
AcDbEntity
  8
0
100
AcDbVertex
100
AcDb2dVertex
 10
13.23325173730368
 20
14.38438381013053
 30
0.0
 70
     8
  0
VERTEX
  5
848B
330
8342
100
AcDbEntity
  8
0
100
AcDbVertex
100
AcDb2dVertex
 10
13.19816434749163
 20
14.4220548729799
 30
0.0
 70
     8
  0
VERTEX
  5
848C
330
8342
100
AcDbEntity
  8
0
100
AcDbVertex
100
AcDb2dVertex
 10
13.16158387632894
 20
14.45678446220723
 30
0.0
 70
     8
  0
VERTEX
  5
848D
330
8342
100
AcDbEntity
  8
0
100
AcDbVertex
100
AcDb2dVertex
 10
13.12351421181852
 20
14.48759208677115
 30
0.0
 70
     8
  0
VERTEX
  5
848E
330
8342
100
AcDbEntity
  8
0
100
AcDbVertex
100
AcDb2dVertex
 10
13.08397479520466
 20
14.51424429721421
 30
0.0
 70
     8
  0
VERTEX
  5
848F
330
8342
100
AcDbEntity
  8
0
100
AcDbVertex
100
AcDb2dVertex
 10
13.04298895604196
 20
14.53669440447485
 30
0.0
 70
     8
  0
VERTEX
  5
8490
330
8342
100
AcDbEntity
  8
0
100
AcDbVertex
100
AcDb2dVertex
 10
13.00058002388504
 20
14.55489571949154
 30
0.0
 70
     8
  0
VERTEX
  5
8491
330
8342
100
AcDbEntity
  8
0
100
AcDbVertex
100
AcDb2dVertex
 10
12.95677132828851
 20
14.5688015532028
 30
0.0
 70
     8
  0
VERTEX
  5
8492
330
8342
100
AcDbEntity
  8
0
100
AcDbVertex
100
AcDb2dVertex
 10
12.91158619880697
 20
14.57836521654707
 30
0.0
 70
     8
  0
VERTEX
  5
8493
330
8342
100
AcDbEntity
  8
0
100
AcDbVertex
100
AcDb2dVertex
 10
12.86504796499502
 20
14.58354002046285
 30
0.0
 70
     8
  0
VERTEX
  5
8494
330
8342
100
AcDbEntity
  8
0
100
AcDbVertex
100
AcDb2dVertex
 10
12.8171799564073
 20
14.5842792758886
 30
0.0
 70
     8
  0
VERTEX
  5
8495
330
8342
100
AcDbEntity
  8
0
100
AcDbVertex
100
AcDb2dVertex
 10
12.768149367058
 20
14.58059076516456
 30
0.0
 70
     8
  0
VERTEX
  5
8496
330
8342
100
AcDbEntity
  8
0
100
AcDbVertex
100
AcDb2dVertex
 10
12.71869884879977
 20
14.57270015623796
 30
0.0
 70
     8
  0
VERTEX
  5
8497
330
8342
100
AcDbEntity
  8
0
100
AcDbVertex
100
AcDb2dVertex
 10
12.66971491794489
 20
14.56088758845778
 30
0.0
 70
     8
  0
VERTEX
  5
8498
330
8342
100
AcDbEntity
  8
0
100
AcDbVertex
100
AcDb2dVertex
 10
12.62208409080558
 20
14.54543320117302
 30
0.0
 70
     8
  0
VERTEX
  5
8499
330
8342
100
AcDbEntity
  8
0
100
AcDbVertex
100
AcDb2dVertex
 10
12.57669288369413
 20
14.52661713373265
 30
0.0
 70
     8
  0
VERTEX
  5
849A
330
8342
100
AcDbEntity
  8
0
100
AcDbVertex
100
AcDb2dVertex
 10
12.53442781292278
 20
14.50471952548569
 30
0.0
 70
     8
  0
VERTEX
  5
849B
330
8342
100
AcDbEntity
  8
0
100
AcDbVertex
100
AcDb2dVertex
 10
12.49617539480377
 20
14.48002051578108
 30
0.0
 70
     8
  0
VERTEX
  5
849C
330
8342
100
AcDbEntity
  8
0
100
AcDbVertex
100
AcDb2dVertex
 10
12.46282214564938
 20
14.45280024396784
 30
0.0
 70
     8
  0
VERTEX
  5
849D
330
8342
100
AcDbEntity
  8
0
100
AcDbVertex
100
AcDb2dVertex
 10
12.43506794687199
 20
14.42331161377708
 30
0.0
 70
     8
  0
VERTEX
  5
849E
330
8342
100
AcDbEntity
  8
0
100
AcDbVertex
100
AcDb2dVertex
 10
12.41286614028461
 20
14.39169858646837
 30
0.0
 70
     8
  0
VERTEX
  5
849F
330
8342
100
AcDbEntity
  8
0
100
AcDbVertex
100
AcDb2dVertex
 10
12.39598343280039
 20
14.35807788768346
 30
0.0
 70
     8
  0
VERTEX
  5
84A0
330
8342
100
AcDbEntity
  8
0
100
AcDbVertex
100
AcDb2dVertex
 10
12.38418653133246
 20
14.32256624306403
 30
0.0
 70
     8
  0
VERTEX
  5
84A1
330
8342
100
AcDbEntity
  8
0
100
AcDbVertex
100
AcDb2dVertex
 10
12.37724214279396
 20
14.28528037825182
 30
0.0
 70
     8
  0
VERTEX
  5
84A2
330
8342
100
AcDbEntity
  8
0
100
AcDbVertex
100
AcDb2dVertex
 10
12.37491697409805
 20
14.24633701888855
 30
0.0
 70
     8
  0
VERTEX
  5
84A3
330
8342
100
AcDbEntity
  8
0
100
AcDbVertex
100
AcDb2dVertex
 10
12.37697773215785
 20
14.20585289061593
 30
0.0
 70
     8
  0
VERTEX
  5
84A4
330
8342
100
AcDbEntity
  8
0
100
AcDbVertex
100
AcDb2dVertex
 10
12.38319112388653
 20
14.16394471907566
 30
0.0
 70
     8
  0
VERTEX
  5
84A5
330
8342
100
AcDbEntity
  8
0
100
AcDbVertex
100
AcDb2dVertex
 10
12.39336273822466
 20
14.12077202887985
 30
0.0
 70
     8
  0
VERTEX
  5
84A6
330
8342
100
AcDbEntity
  8
0
100
AcDbVertex
100
AcDb2dVertex
 10
12.40745369222256
 20
14.0766655405221
 30
0.0
 70
     8
  0
VERTEX
  5
84A7
330
8342
100
AcDbEntity
  8
0
100
AcDbVertex
100
AcDb2dVertex
 10
12.42546398495806
 20
14.03199877346637
 30
0.0
 70
     8
  0
VERTEX
  5
84A8
330
8342
100
AcDbEntity
  8
0
100
AcDbVertex
100
AcDb2dVertex
 10
12.44739361550893
 20
13.98714524717665
 30
0.0
 70
     8
  0
VERTEX
  5
84A9
330
8342
100
AcDbEntity
  8
0
100
AcDbVertex
100
AcDb2dVertex
 10
12.47324258295295
 20
13.94247848111689
 30
0.0
 70
     8
  0
VERTEX
  5
84AA
330
8342
100
AcDbEntity
  8
0
100
AcDbVertex
100
AcDb2dVertex
 10
12.5030108863679
 20
13.89837199475109
 30
0.0
 70
     8
  0
VERTEX
  5
84AB
330
8342
100
AcDbEntity
  8
0
100
AcDbVertex
100
AcDb2dVertex
 10
12.53669852483159
 20
13.85519930754318
 30
0.0
 70
     8
  0
VERTEX
  5
84AC
330
8342
100
AcDbEntity
  8
0
100
AcDbVertex
100
AcDb2dVertex
 10
12.57430549742178
 20
13.81333393895718
 30
0.0
 70
     8
  0
VERTEX
  5
84AD
330
8342
100
AcDbEntity
  8
0
100
AcDbVertex
100
AcDb2dVertex
 10
12.6157773682549
 20
13.77314162694677
 30
0.0
 70
     8
  0
VERTEX
  5
84AE
330
8342
100
AcDbEntity
  8
0
100
AcDbVertex
100
AcDb2dVertex
 10
12.66084196160182
 20
13.73495698342468
 30
0.0
 70
     8
  0
VERTEX
  5
84AF
330
8342
100
AcDbEntity
  8
0
100
AcDbVertex
100
AcDb2dVertex
 10
12.70917266677207
 20
13.69910683879334
 30
0.0
 70
     8
  0
VERTEX
  5
84B0
330
8342
100
AcDbEntity
  8
0
100
AcDbVertex
100
AcDb2dVertex
 10
12.76044287307517
 20
13.66591802345523
 30
0.0
 70
     8
  0
VERTEX
  5
84B1
330
8342
100
AcDbEntity
  8
0
100
AcDbVertex
100
AcDb2dVertex
 10
12.81432596982062
 20
13.63571736781276
 30
0.0
 70
     8
  0
VERTEX
  5
84B2
330
8342
100
AcDbEntity
  8
0
100
AcDbVertex
100
AcDb2dVertex
 10
12.87049534631794
 20
13.60883170226839
 30
0.0
 70
     8
  0
VERTEX
  5
84B3
330
8342
100
AcDbEntity
  8
0
100
AcDbVertex
100
AcDb2dVertex
 10
12.92862439187664
 20
13.58558785722458
 30
0.0
 70
     8
  0
VERTEX
  5
84B4
330
8342
100
AcDbEntity
  8
0
100
AcDbVertex
100
AcDb2dVertex
 10
12.98838649580625
 20
13.56631266308378
 30
0.0
 70
     8
  0
VERTEX
  5
84B5
330
8342
100
AcDbEntity
  8
0
100
AcDbVertex
100
AcDb2dVertex
 10
13.04947837666347
 20
13.55127069683844
 30
0.0
 70
     8
  0
VERTEX
  5
84B6
330
8342
100
AcDbEntity
  8
0
100
AcDbVertex
100
AcDb2dVertex
 10
13.11169006999387
 20
13.54047752184107
 30
0.0
 70
     8
  0
VERTEX
  5
84B7
330
8342
100
AcDbEntity
  8
0
100
AcDbVertex
100
AcDb2dVertex
 10
13.17483494059016
 20
13.53388644803416
 30
0.0
 70
     8
  0
VERTEX
  5
84B8
330
8342
100
AcDbEntity
  8
0
100
AcDbVertex
100
AcDb2dVertex
 10
13.2387263532451
 20
13.53145078536022
 30
0.0
 70
     8
  0
VERTEX
  5
84B9
330
8342
100
AcDbEntity
  8
0
100
AcDbVertex
100
AcDb2dVertex
 10
13.30317767275142
 20
13.53312384376177
 30
0.0
 70
     8
  0
VERTEX
  5
84BA
330
8342
100
AcDbEntity
  8
0
100
AcDbVertex
100
AcDb2dVertex
 10
13.36800226390187
 20
13.53885893318132
 30
0.0
 70
     8
  0
VERTEX
  5
84BB
330
8342
100
AcDbEntity
  8
0
100
AcDbVertex
100
AcDb2dVertex
 10
13.4330134914892
 20
13.54860936356136
 30
0.0
 70
     8
  0
VERTEX
  5
84BC
330
8342
100
AcDbEntity
  8
0
100
AcDbVertex
100
AcDb2dVertex
 10
13.49802472030615
 20
13.5623284448444
 30
0.0
 70
     8
  0
VERTEX
  5
84BD
330
8342
100
AcDbEntity
  8
0
100
AcDbVertex
100
AcDb2dVertex
 10
13.56281820922635
 20
13.57998894116358
 30
0.0
 70
     8
  0
VERTEX
  5
84BE
330
8342
100
AcDbEntity
  8
0
100
AcDbVertex
100
AcDb2dVertex
 10
13.627051793447
 20
13.6016414334145
 30
0.0
 70
     8
  0
VERTEX
  5
84BF
330
8342
100
AcDbEntity
  8
0
100
AcDbVertex
100
AcDb2dVertex
 10
13.69035220224618
 20
13.62735595668343
 30
0.0
 70
     8
  0
VERTEX
  5
84C0
330
8342
100
AcDbEntity
  8
0
100
AcDbVertex
100
AcDb2dVertex
 10
13.75234616490195
 20
13.65720254605657
 30
0.0
 70
     8
  0
VERTEX
  5
84C1
330
8342
100
AcDbEntity
  8
0
100
AcDbVertex
100
AcDb2dVertex
 10
13.81266041069242
 20
13.69125123662019
 30
0.0
 70
     8
  0
VERTEX
  5
84C2
330
8342
100
AcDbEntity
  8
0
100
AcDbVertex
100
AcDb2dVertex
 10
13.87092166889566
 20
13.72957206346051
 30
0.0
 70
     8
  0
VERTEX
  5
84C3
330
8342
100
AcDbEntity
  8
0
100
AcDbVertex
100
AcDb2dVertex
 10
13.92675666878975
 20
13.77223506166379
 30
0.0
 70
     8
  0
VERTEX
  5
84C4
330
8342
100
AcDbEntity
  8
0
100
AcDbVertex
100
AcDb2dVertex
 10
13.97979213965278
 20
13.81931026631625
 30
0.0
 70
     8
  0
VERTEX
  5
84C5
330
8342
100
AcDbEntity
  8
0
100
AcDbVertex
100
AcDb2dVertex
 10
14.02975979319499
 20
13.87085993074487
 30
0.0
 70
     8
  0
VERTEX
  5
84C6
330
8342
100
AcDbEntity
  8
0
100
AcDbVertex
100
AcDb2dVertex
 10
14.07681127085532
 20
13.92691518123969
 30
0.0
 70
     8
  0
VERTEX
  5
84C7
330
8342
100
AcDbEntity
  8
0
100
AcDbVertex
100
AcDb2dVertex
 10
14.12120319650481
 20
13.98749936233146
 30
0.0
 70
     8
  0
VERTEX
  5
84C8
330
8342
100
AcDbEntity
  8
0
100
AcDbVertex
100
AcDb2dVertex
 10
14.16319219401459
 20
14.05263581855094
 30
0.0
 70
     8
  0
VERTEX
  5
84C9
330
8342
100
AcDbEntity
  8
0
100
AcDbVertex
100
AcDb2dVertex
 10
14.20303488725572
 20
14.12234789442889
 30
0.0
 70
     8
  0
VERTEX
  5
84CA
330
8342
100
AcDbEntity
  8
0
100
AcDbVertex
100
AcDb2dVertex
 10
14.24098790009929
 20
14.19665893449608
 30
0.0
 70
     8
  0
VERTEX
  5
84CB
330
8342
100
AcDbEntity
  8
0
100
AcDbVertex
100
AcDb2dVertex
 10
14.27730785641639
 20
14.27559228328326
 30
0.0
 70
     8
  0
VERTEX
  5
84CC
330
8342
100
AcDbEntity
  8
0
100
AcDbVertex
100
AcDb2dVertex
 10
14.31225138007812
 20
14.35917128532119
 30
0.0
 70
     8
  0
VERTEX
  5
84CD
330
8342
100
AcDbEntity
  8
0
100
AcDbVertex
100
AcDb2dVertex
 10
14.34602454784338
 20
14.44724030700191
 30
0.0
 70
     8
  0
VERTEX
  5
84CE
330
8342
100
AcDbEntity
  8
0
100
AcDbVertex
100
AcDb2dVertex
 10
14.37863124802252
 20
14.5389278021625
 30
0.0
 70
     8
  0
VERTEX
  5
84CF
330
8342
100
AcDbEntity
  8
0
100
AcDbVertex
100
AcDb2dVertex
 10
14.41002482181373
 20
14.6331832465013
 30
0.0
 70
     8
  0
VERTEX
  5
84D0
330
8342
100
AcDbEntity
  8
0
100
AcDbVertex
100
AcDb2dVertex
 10
14.44015861041521
 20
14.72895611571669
 30
0.0
 70
     8
  0
VERTEX
  5
84D1
330
8342
100
AcDbEntity
  8
0
100
AcDbVertex
100
AcDb2dVertex
 10
14.46898595502512
 20
14.825195885507
 30
0.0
 70
     8
  0
VERTEX
  5
84D2
330
8342
100
AcDbEntity
  8
0
100
AcDbVertex
100
AcDb2dVertex
 10
14.49646019684164
 20
14.92085203157059
 30
0.0
 70
     8
  0
VERTEX
  5
84D3
330
8342
100
AcDbEntity
  8
0
100
AcDbVertex
100
AcDb2dVertex
 10
14.52253467706299
 20
15.01487402960581
 30
0.0
 70
     8
  0
VERTEX
  5
84D4
330
8342
100
AcDbEntity
  8
0
100
AcDbVertex
100
AcDb2dVertex
 10
14.54716273688734
 20
15.10621135531102
 30
0.0
 70
     8
  0
VERTEX
  5
84D5
330
8342
100
AcDbEntity
  8
0
100
AcDbVertex
100
AcDb2dVertex
 10
14.57030938213647
 20
15.19409362414854
 30
0.0
 70
     8
  0
VERTEX
  5
84D6
330
8342
100
AcDbEntity
  8
0
100
AcDbVertex
100
AcDb2dVertex
 10
14.59198627712659
 20
15.27887101063659
 30
0.0
 70
     8
  0
VERTEX
  5
84D7
330
8342
100
AcDbEntity
  8
0
100
AcDbVertex
100
AcDb2dVertex
 10
14.61221675079748
 20
15.36117382905738
 30
0.0
 70
     8
  0
VERTEX
  5
84D8
330
8342
100
AcDbEntity
  8
0
100
AcDbVertex
100
AcDb2dVertex
 10
14.63102413208897
 20
15.44163239369309
 30
0.0
 70
     8
  0
VERTEX
  5
84D9
330
8342
100
AcDbEntity
  8
0
100
AcDbVertex
100
AcDb2dVertex
 10
14.64843174994084
 20
15.52087701882593
 30
0.0
 70
     8
  0
VERTEX
  5
84DA
330
8342
100
AcDbEntity
  8
0
100
AcDbVertex
100
AcDb2dVertex
 10
14.66446293329289
 20
15.5995380187381
 30
0.0
 70
     8
  0
VERTEX
  5
84DB
330
8342
100
AcDbEntity
  8
0
100
AcDbVertex
100
AcDb2dVertex
 10
14.67914101108493
 20
15.67824570771179
 30
0.0
 70
     8
  0
VERTEX
  5
84DC
330
8342
100
AcDbEntity
  8
0
100
AcDbVertex
100
AcDb2dVertex
 10
14.69248931225674
 20
15.75763040002921
 30
0.0
 70
     8
  0
VERTEX
  5
84DD
330
8342
100
AcDbEntity
  8
0
100
AcDbVertex
100
AcDb2dVertex
 10
14.70456615997761
 20
15.83812397764318
 30
0.0
 70
     8
  0
VERTEX
  5
84DE
330
8342
100
AcDbEntity
  8
0
100
AcDbVertex
100
AcDb2dVertex
 10
14.71556985433452
 20
15.91936459318914
 30
0.0
 70
     8
  0
VERTEX
  5
84DF
330
8342
100
AcDbEntity
  8
0
100
AcDbVertex
100
AcDb2dVertex
 10
14.72573368964396
 20
16.00079196697312
 30
0.0
 70
     8
  0
VERTEX
  5
84E0
330
8342
100
AcDbEntity
  8
0
100
AcDbVertex
100
AcDb2dVertex
 10
14.73529096022242
 20
16.0818458193012
 30
0.0
 70
     8
  0
VERTEX
  5
84E1
330
8342
100
AcDbEntity
  8
0
100
AcDbVertex
100
AcDb2dVertex
 10
14.74447496038636
 20
16.16196587047942
 30
0.0
 70
     8
  0
VERTEX
  5
84E2
330
8342
100
AcDbEntity
  8
0
100
AcDbVertex
100
AcDb2dVertex
 10
14.75351898445227
 20
16.24059184081383
 30
0.0
 70
     8
  0
VERTEX
  5
84E3
330
8342
100
AcDbEntity
  8
0
100
AcDbVertex
100
AcDb2dVertex
 10
14.76265632673661
 20
16.31716345061051
 30
0.0
 70
     8
  0
VERTEX
  5
84E4
330
8342
100
AcDbEntity
  8
0
100
AcDbVertex
100
AcDb2dVertex
 10
14.77212028155589
 20
16.39112042017551
 30
0.0
 70
     8
  0
VERTEX
  5
84E5
330
8342
100
AcDbEntity
  8
0
100
AcDbVertex
100
AcDb2dVertex
 10
14.7821519195398
 20
16.46210479314834
 30
0.0
 70
     8
  0
VERTEX
  5
84E6
330
8342
100
AcDbEntity
  8
0
100
AcDbVertex
100
AcDb2dVertex
 10
14.79302341657118
 20
16.53056790650248
 30
0.0
 70
     8
  0
VERTEX
  5
84E7
330
8342
100
AcDbEntity
  8
0
100
AcDbVertex
100
AcDb2dVertex
 10
14.8050147248461
 20
16.5971634205448
 30
0.0
 70
     8
  0
VERTEX
  5
84E8
330
8342
100
AcDbEntity
  8
0
100
AcDbVertex
100
AcDb2dVertex
 10
14.81840579656064
 20
16.66254499558224
 30
0.0
 70
     8
  0
VERTEX
  5
84E9
330
8342
100
AcDbEntity
  8
0
100
AcDbVertex
100
AcDb2dVertex
 10
14.83347658391086
 20
16.7273662919217
 30
0.0
 70
     8
  0
VERTEX
  5
84EA
330
8342
100
AcDbEntity
  8
0
100
AcDbVertex
100
AcDb2dVertex
 10
14.85050703909286
 20
16.7922809698701
 30
0.0
 70
     8
  0
VERTEX
  5
84EB
330
8342
100
AcDbEntity
  8
0
100
AcDbVertex
100
AcDb2dVertex
 10
14.86977711430269
 20
16.85794268973436
 30
0.0
 70
     8
  0
VERTEX
  5
84EC
330
8342
100
AcDbEntity
  8
0
100
AcDbVertex
100
AcDb2dVertex
 10
14.89156676173646
 20
16.92500511182138
 30
0.0
 70
     8
  0
VERTEX
  5
84ED
330
8342
100
AcDbEntity
  8
0
100
AcDbVertex
100
AcDb2dVertex
 10
14.91605095146544
 20
16.99391568210049
 30
0.0
 70
     8
  0
VERTEX
  5
84EE
330
8342
100
AcDbEntity
  8
0
100
AcDbVertex
100
AcDb2dVertex
 10
14.94298472506193
 20
17.06429698919062
 30
0.0
 70
     8
  0
VERTEX
  5
84EF
330
8342
100
AcDbEntity
  8
0
100
AcDbVertex
100
AcDb2dVertex
 10
14.9720181419734
 20
17.1355654073731
 30
0.0
 70
     8
  0
VERTEX
  5
84F0
330
8342
100
AcDbEntity
  8
0
100
AcDbVertex
100
AcDb2dVertex
 10
15.00280126164738
 20
17.2071373109293
 30
0.0
 70
     8
  0
VERTEX
  5
84F1
330
8342
100
AcDbEntity
  8
0
100
AcDbVertex
100
AcDb2dVertex
 10
15.03498414353134
 20
17.27842907414053
 30
0.0
 70
     8
  0
VERTEX
  5
84F2
330
8342
100
AcDbEntity
  8
0
100
AcDbVertex
100
AcDb2dVertex
 10
15.06821684707281
 20
17.34885707128815
 30
0.0
 70
     8
  0
VERTEX
  5
84F3
330
8342
100
AcDbEntity
  8
0
100
AcDbVertex
100
AcDb2dVertex
 10
15.10214943171927
 20
17.41783767665349
 30
0.0
 70
     8
  0
VERTEX
  5
84F4
330
8342
100
AcDbEntity
  8
0
100
AcDbVertex
100
AcDb2dVertex
 10
15.13643195691825
 20
17.48478726451791
 30
0.0
 70
     8
  0
VERTEX
  5
84F5
330
8342
100
AcDbEntity
  8
0
100
AcDbVertex
100
AcDb2dVertex
 10
15.17078447026869
 20
17.54924671606571
 30
0.0
 70
     8
  0
VERTEX
  5
84F6
330
8342
100
AcDbEntity
  8
0
100
AcDbVertex
100
AcDb2dVertex
 10
15.20520697197557
 20
17.61125494009312
 30
0.0
 70
     8
  0
VERTEX
  5
84F7
330
8342
100
AcDbEntity
  8
0
100
AcDbVertex
100
AcDb2dVertex
 10
15.23976945039529
 20
17.67097535229937
 30
0.0
 70
     8
  0
VERTEX
  5
84F8
330
8342
100
AcDbEntity
  8
0
100
AcDbVertex
100
AcDb2dVertex
 10
15.2745418938843
 20
17.72857136838364
 30
0.0
 70
     8
  0
VERTEX
  5
84F9
330
8342
100
AcDbEntity
  8
0
100
AcDbVertex
100
AcDb2dVertex
 10
15.30959429079898
 20
17.78420640404517
 30
0.0
 70
     8
  0
VERTEX
  5
84FA
330
8342
100
AcDbEntity
  8
0
100
AcDbVertex
100
AcDb2dVertex
 10
15.3449966294958
 20
17.83804387498314
 30
0.0
 70
     8
  0
VERTEX
  5
84FB
330
8342
100
AcDbEntity
  8
0
100
AcDbVertex
100
AcDb2dVertex
 10
15.38081889833114
 20
17.89024719689677
 30
0.0
 70
     8
  0
VERTEX
  5
84FC
330
8342
100
AcDbEntity
  8
0
100
AcDbVertex
100
AcDb2dVertex
 10
15.41713108566145
 20
17.94097978548528
 30
0.0
 70
     8
  0
VERTEX
  5
84FD
330
8342
100
AcDbEntity
  8
0
100
AcDbVertex
100
AcDb2dVertex
 10
15.45389042104648
 20
17.99035058454813
 30
0.0
 70
     8
  0
VERTEX
  5
84FE
330
8342
100
AcDbEntity
  8
0
100
AcDbVertex
100
AcDb2dVertex
 10
15.49060309885932
 20
18.03825065028587
 30
0.0
 70
     8
  0
VERTEX
  5
84FF
330
8342
100
AcDbEntity
  8
0
100
AcDbVertex
100
AcDb2dVertex
 10
15.52666255467639
 20
18.08451656699925
 30
0.0
 70
     8
  0
VERTEX
  5
8500
330
8342
100
AcDbEntity
  8
0
100
AcDbVertex
100
AcDb2dVertex
 10
15.56146222407408
 20
18.12898491898909
 30
0.0
 70
     8
  0
VERTEX
  5
8501
330
8342
100
AcDbEntity
  8
0
100
AcDbVertex
100
AcDb2dVertex
 10
15.59439554262883
 20
18.17149229055617
 30
0.0
 70
     8
  0
VERTEX
  5
8502
330
8342
100
AcDbEntity
  8
0
100
AcDbVertex
100
AcDb2dVertex
 10
15.62485594591704
 20
18.21187526600129
 30
0.0
 70
     8
  0
VERTEX
  5
8503
330
8342
100
AcDbEntity
  8
0
100
AcDbVertex
100
AcDb2dVertex
 10
15.65223686951515
 20
18.24997042962523
 30
0.0
 70
     8
  0
VERTEX
  5
8504
330
8342
100
AcDbEntity
  8
0
100
AcDbVertex
100
AcDb2dVertex
 10
15.67593174899955
 20
18.28561436572879
 30
0.0
 70
     8
  0
VERTEX
  5
8505
330
8342
100
AcDbEntity
  8
0
100
AcDbVertex
100
AcDb2dVertex
 10
15.69550121401211
 20
18.318713693782
 30
0.0
 70
     8
  0
VERTEX
  5
8506
330
8342
100
AcDbEntity
  8
0
100
AcDbVertex
100
AcDb2dVertex
 10
15.71117467045651
 20
18.34945517393181
 30
0.0
 70
     8
  0
VERTEX
  5
8507
330
8342
100
AcDbEntity
  8
0
100
AcDbVertex
100
AcDb2dVertex
 10
15.72334871830188
 20
18.37809560149446
 30
0.0
 70
     8
  0
VERTEX
  5
8508
330
8342
100
AcDbEntity
  8
0
100
AcDbVertex
100
AcDb2dVertex
 10
15.73241995751732
 20
18.40489177178613
 30
0.0
 70
     8
  0
VERTEX
  5
8509
330
8342
100
AcDbEntity
  8
0
100
AcDbVertex
100
AcDb2dVertex
 10
15.73878498807197
 20
18.43010048012306
 30
0.0
 70
     8
  0
VERTEX
  5
850A
330
8342
100
AcDbEntity
  8
0
100
AcDbVertex
100
AcDb2dVertex
 10
15.74284040993494
 20
18.45397852182144
 30
0.0
 70
     8
  0
VERTEX
  5
850B
330
8342
100
AcDbEntity
  8
0
100
AcDbVertex
100
AcDb2dVertex
 10
15.74498282307538
 20
18.47678269219749
 30
0.0
 70
     8
  0
VERTEX
  5
850C
330
8342
100
AcDbEntity
  8
0
100
AcDbVertex
100
AcDb2dVertex
 10
15.74560882746239
 20
18.49876978656742
 30
0.0
 70
     8
  0
VERTEX
  5
850D
330
8342
100
AcDbEntity
  8
0
100
AcDbVertex
100
AcDb2dVertex
 10
15.74501781715112
 20
18.52013434692045
 30
0.0
 70
     8
  0
VERTEX
  5
850E
330
8342
100
AcDbEntity
  8
0
100
AcDbVertex
100
AcDb2dVertex
 10
15.7431203625409
 20
18.5408219019378
 30
0.0
 70
     8
  0
VERTEX
  5
850F
330
8342
100
AcDbEntity
  8
0
100
AcDbVertex
100
AcDb2dVertex
 10
15.73972982811704
 20
18.56071572697377
 30
0.0
 70
     8
  0
VERTEX
  5
8510
330
8342
100
AcDbEntity
  8
0
100
AcDbVertex
100
AcDb2dVertex
 10
15.7346595783649
 20
18.57969909738257
 30
0.0
 70
     8
  0
VERTEX
  5
8511
330
8342
100
AcDbEntity
  8
0
100
AcDbVertex
100
AcDb2dVertex
 10
15.72772297776982
 20
18.59765528851848
 30
0.0
 70
     8
  0
VERTEX
  5
8512
330
8342
100
AcDbEntity
  8
0
100
AcDbVertex
100
AcDb2dVertex
 10
15.71873339081712
 20
18.61446757573573
 30
0.0
 70
     8
  0
VERTEX
  5
8513
330
8342
100
AcDbEntity
  8
0
100
AcDbVertex
100
AcDb2dVertex
 10
15.70750418199216
 20
18.63001923438858
 30
0.0
 70
     8
  0
VERTEX
  5
8514
330
8342
100
AcDbEntity
  8
0
100
AcDbVertex
100
AcDb2dVertex
 10
15.69384871578025
 20
18.6441935398313
 30
0.0
 70
     8
  0
VERTEX
  5
8515
330
8342
100
AcDbEntity
  8
0
100
AcDbVertex
100
AcDb2dVertex
 10
15.67758035682046
 20
18.65689322144276
 30
0.0
 70
     8
  0
VERTEX
  5
8516
330
8342
100
AcDbEntity
  8
0
100
AcDbVertex
100
AcDb2dVertex
 10
15.65851247036664
 20
18.66809882470034
 30
0.0
 70
     8
  0
VERTEX
  5
8517
330
8342
100
AcDbEntity
  8
0
100
AcDbVertex
100
AcDb2dVertex
 10
15.63645842182631
 20
18.67781034910606
 30
0.0
 70
     8
  0
VERTEX
  5
8518
330
8342
100
AcDbEntity
  8
0
100
AcDbVertex
100
AcDb2dVertex
 10
15.61123157660705
 20
18.68602779416195
 30
0.0
 70
     8
  0
VERTEX
  5
8519
330
8342
100
AcDbEntity
  8
0
100
AcDbVertex
100
AcDb2dVertex
 10
15.58264530011642
 20
18.69275115936999
 30
0.0
 70
     8
  0
VERTEX
  5
851A
330
8342
100
AcDbEntity
  8
0
100
AcDbVertex
100
AcDb2dVertex
 10
15.55051295776194
 20
18.69798044423224
 30
0.0
 70
     8
  0
VERTEX
  5
851B
330
8342
100
AcDbEntity
  8
0
100
AcDbVertex
100
AcDb2dVertex
 10
15.5146479149512
 20
18.70171564825067
 30
0.0
 70
     8
  0
VERTEX
  5
851C
330
8342
100
AcDbEntity
  8
0
100
AcDbVertex
100
AcDb2dVertex
 10
15.47486353709172
 20
18.70395677092733
 30
0.0
 70
     8
  0
VERTEX
  5
851D
330
8342
100
AcDbEntity
  8
0
100
AcDbVertex
100
AcDb2dVertex
 10
15.43117926568397
 20
18.70473104771408
 30
0.0
 70
     8
  0
VERTEX
  5
851E
330
8342
100
AcDbEntity
  8
0
100
AcDbVertex
100
AcDb2dVertex
 10
15.38443884659995
 20
18.7041746578623
 30
0.0
 70
     8
  0
VERTEX
  5
851F
330
8342
100
AcDbEntity
  8
0
100
AcDbVertex
100
AcDb2dVertex
 10
15.33569210180456
 20
18.70245101657319
 30
0.0
 70
     8
  0
VERTEX
  5
8520
330
8342
100
AcDbEntity
  8
0
100
AcDbVertex
100
AcDb2dVertex
 10
15.28598885326271
 20
18.69972353904799
 30
0.0
 70
     8
  0
VERTEX
  5
8521
330
8342
100
AcDbEntity
  8
0
100
AcDbVertex
100
AcDb2dVertex
 10
15.23637892293929
 20
18.69615564048791
 30
0.0
 70
     8
  0
VERTEX
  5
8522
330
8342
100
AcDbEntity
  8
0
100
AcDbVertex
100
AcDb2dVertex
 10
15.18791213279921
 20
18.69191073609419
 30
0.0
 70
     8
  0
VERTEX
  5
8523
330
8342
100
AcDbEntity
  8
0
100
AcDbVertex
100
AcDb2dVertex
 10
15.14163830480738
 20
18.68715224106806
 30
0.0
 70
     8
  0
VERTEX
  5
8524
330
8342
100
AcDbEntity
  8
0
100
AcDbVertex
100
AcDb2dVertex
 10
15.0986072609287
 20
18.68204357061071
 30
0.0
 70
     8
  0
VERTEX
  5
8525
330
8342
100
AcDbEntity
  8
0
100
AcDbVertex
100
AcDb2dVertex
 10
15.05965885872482
 20
18.67668588659642
 30
0.0
 70
     8
  0
VERTEX
  5
8526
330
8342
100
AcDbEntity
  8
0
100
AcDbVertex
100
AcDb2dVertex
 10
15.02479309814454
 20
18.67093133759143
 30
0.0
 70
     8
  0
VERTEX
  5
8527
330
8342
100
AcDbEntity
  8
0
100
AcDbVertex
100
AcDb2dVertex
 10
14.99380001473338
 20
18.66456981883499
 30
0.0
 70
     8
  0
VERTEX
  5
8528
330
8342
100
AcDbEntity
  8
0
100
AcDbVertex
100
AcDb2dVertex
 10
14.96646964403689
 20
18.65739122556638
 30
0.0
 70
     8
  0
VERTEX
  5
8529
330
8342
100
AcDbEntity
  8
0
100
AcDbVertex
100
AcDb2dVertex
 10
14.9425920216006
 20
18.64918545302488
 30
0.0
 70
     8
  0
VERTEX
  5
852A
330
8342
100
AcDbEntity
  8
0
100
AcDbVertex
100
AcDb2dVertex
 10
14.92195718297004
 20
18.63974239644974
 30
0.0
 70
     8
  0
VERTEX
  5
852B
330
8342
100
AcDbEntity
  8
0
100
AcDbVertex
100
AcDb2dVertex
 10
14.90435516369077
 20
18.62885195108024
 30
0.0
 70
     8
  0
VERTEX
  5
852C
330
8342
100
AcDbEntity
  8
0
100
AcDbVertex
100
AcDb2dVertex
 10
14.88957599930832
 20
18.61630401215563
 30
0.0
 70
     8
  0
VERTEX
  5
852D
330
8342
100
AcDbEntity
  8
0
100
AcDbVertex
100
AcDb2dVertex
 10
14.87739028422641
 20
18.6019196014542
 30
0.0
 70
     8
  0
VERTEX
  5
852E
330
8342
100
AcDbEntity
  8
0
100
AcDbVertex
100
AcDb2dVertex
 10
14.86749084828157
 20
18.58564424691021
 30
0.0
 70
     8
  0
VERTEX
  5
852F
330
8342
100
AcDbEntity
  8
0
100
AcDbVertex
100
AcDb2dVertex
 10
14.8595510801685
 20
18.56745460299693
 30
0.0
 70
     8
  0
VERTEX
  5
8530
330
8342
100
AcDbEntity
  8
0
100
AcDbVertex
100
AcDb2dVertex
 10
14.8532443685819
 20
18.54732732418761
 30
0.0
 70
     8
  0
VERTEX
  5
8531
330
8342
100
AcDbEntity
  8
0
100
AcDbVertex
100
AcDb2dVertex
 10
14.84824410221648
 20
18.52523906495554
 30
0.0
 70
     8
  0
VERTEX
  5
8532
330
8342
100
AcDbEntity
  8
0
100
AcDbVertex
100
AcDb2dVertex
 10
14.84422366976694
 20
18.50116647977399
 30
0.0
 70
     8
  0
VERTEX
  5
8533
330
8342
100
AcDbEntity
  8
0
100
AcDbVertex
100
AcDb2dVertex
 10
14.84085645992799
 20
18.47508622311621
 30
0.0
 70
     8
  0
VERTEX
  5
8534
330
8342
100
AcDbEntity
  8
0
100
AcDbVertex
100
AcDb2dVertex
 10
14.83781586139433
 20
18.44697494945549
 30
0.0
 70
     8
  0
VERTEX
  5
8535
330
8342
100
AcDbEntity
  8
0
100
AcDbVertex
100
AcDb2dVertex
 10
14.83477526286067
 20
18.41682098594545
 30
0.0
 70
     8
  0
VERTEX
  5
8536
330
8342
100
AcDbEntity
  8
0
100
AcDbVertex
100
AcDb2dVertex
 10
14.83140805302172
 20
18.3846593504612
 30
0.0
 70
     8
  0
VERTEX
  5
8537
330
8342
100
AcDbEntity
  8
0
100
AcDbVertex
100
AcDb2dVertex
 10
14.82738762057218
 20
18.35053673355824
 30
0.0
 70
     8
  0
VERTEX
  5
8538
330
8342
100
AcDbEntity
  8
0
100
AcDbVertex
100
AcDb2dVertex
 10
14.82238735420675
 20
18.31449982579202
 30
0.0
 70
     8
  0
VERTEX
  5
8539
330
8342
100
AcDbEntity
  8
0
100
AcDbVertex
100
AcDb2dVertex
 10
14.81608064262015
 20
18.27659531771805
 30
0.0
 70
     8
  0
VERTEX
  5
853A
330
8342
100
AcDbEntity
  8
0
100
AcDbVertex
100
AcDb2dVertex
 10
14.80814087450708
 20
18.23686989989176
 30
0.0
 70
     8
  0
VERTEX
  5
853B
330
8342
100
AcDbEntity
  8
0
100
AcDbVertex
100
AcDb2dVertex
 10
14.79824143856223
 20
18.19537026286866
 30
0.0
 70
     8
  0
VERTEX
  5
853C
330
8342
100
AcDbEntity
  8
0
100
AcDbVertex
100
AcDb2dVertex
 10
14.78605572348033
 20
18.15214309720423
 30
0.0
 70
     8
  0
VERTEX
  5
853D
330
8342
100
AcDbEntity
  8
0
100
AcDbVertex
100
AcDb2dVertex
 10
14.77132321779722
 20
18.10730123745306
 30
0.0
 70
     8
  0
VERTEX
  5
853E
330
8342
100
AcDbEntity
  8
0
100
AcDbVertex
100
AcDb2dVertex
 10
14.75404780941337
 20
18.06122209416624
 30
0.0
 70
     8
  0
VERTEX
  5
853F
330
8342
100
AcDbEntity
  8
0
100
AcDbVertex
100
AcDb2dVertex
 10
14.7342994860704
 20
18.01434922189399
 30
0.0
 70
     8
  0
VERTEX
  5
8540
330
8342
100
AcDbEntity
  8
0
100
AcDbVertex
100
AcDb2dVertex
 10
14.7121482355099
 20
17.9671261751865
 30
0.0
 70
     8
  0
VERTEX
  5
8541
330
8342
100
AcDbEntity
  8
0
100
AcDbVertex
100
AcDb2dVertex
 10
14.68766404547351
 20
17.919996508594
 30
0.0
 70
     8
  0
VERTEX
  5
8542
330
8342
100
AcDbEntity
  8
0
100
AcDbVertex
100
AcDb2dVertex
 10
14.66091690370283
 20
17.8734037766667
 30
0.0
 70
     8
  0
VERTEX
  5
8543
330
8342
100
AcDbEntity
  8
0
100
AcDbVertex
100
AcDb2dVertex
 10
14.63197679793949
 20
17.82779153395481
 30
0.0
 70
     8
  0
VERTEX
  5
8544
330
8342
100
AcDbEntity
  8
0
100
AcDbVertex
100
AcDb2dVertex
 10
14.60091371592509
 20
17.78360333500853
 30
0.0
 70
     8
  0
VERTEX
  5
8545
330
8342
100
AcDbEntity
  8
0
100
AcDbVertex
100
AcDb2dVertex
 10
14.56786763375766
 20
17.74124771700098
 30
0.0
 70
     8
  0
VERTEX
  5
8546
330
8342
100
AcDbEntity
  8
0
100
AcDbVertex
100
AcDb2dVertex
 10
14.53325848096095
 20
17.70099314759671
 30
0.0
 70
     8
  0
VERTEX
  5
8547
330
8342
100
AcDbEntity
  8
0
100
AcDbVertex
100
AcDb2dVertex
 10
14.49757617541512
 20
17.6630730770832
 30
0.0
 70
     8
  0
VERTEX
  5
8548
330
8342
100
AcDbEntity
  8
0
100
AcDbVertex
100
AcDb2dVertex
 10
14.4613106350003
 20
17.62772095574792
 30
0.0
 70
     8
  0
VERTEX
  5
8549
330
8342
100
AcDbEntity
  8
0
100
AcDbVertex
100
AcDb2dVertex
 10
14.42495177759667
 20
17.59517023387831
 30
0.0
 70
     8
  0
VERTEX
  5
854A
330
8342
100
AcDbEntity
  8
0
100
AcDbVertex
100
AcDb2dVertex
 10
14.38898952108437
 20
17.56565436176186
 30
0.0
 70
     8
  0
VERTEX
  5
854B
330
8342
100
AcDbEntity
  8
0
100
AcDbVertex
100
AcDb2dVertex
 10
14.35391378334357
 20
17.53940678968602
 30
0.0
 70
     8
  0
VERTEX
  5
854C
330
8342
100
AcDbEntity
  8
0
100
AcDbVertex
100
AcDb2dVertex
 10
14.32021448225441
 20
17.51666096793826
 30
0.0
 70
     8
  0
VERTEX
  5
854D
330
8342
100
AcDbEntity
  8
0
100
AcDbVertex
100
AcDb2dVertex
 10
14.28827266495456
 20
17.4975803118028
 30
0.0
 70
     8
  0
VERTEX
  5
854E
330
8342
100
AcDbEntity
  8
0
100
AcDbVertex
100
AcDb2dVertex
 10
14.25803389561165
 20
17.4820480965509
 30
0.0
 70
     8
  0
VERTEX
  5
854F
330
8342
100
AcDbEntity
  8
0
100
AcDbVertex
100
AcDb2dVertex
 10
14.22933486765082
 20
17.46987756245055
 30
0.0
 70
     8
  0
VERTEX
  5
8550
330
8342
100
AcDbEntity
  8
0
100
AcDbVertex
100
AcDb2dVertex
 10
14.2020122744972
 20
17.46088194976979
 30
0.0
 70
     8
  0
VERTEX
  5
8551
330
8342
100
AcDbEntity
  8
0
100
AcDbVertex
100
AcDb2dVertex
 10
14.17590280957596
 20
17.45487449877663
 30
0.0
 70
     8
  0
VERTEX
  5
8552
330
8342
100
AcDbEntity
  8
0
100
AcDbVertex
100
AcDb2dVertex
 10
14.1508431663122
 20
17.45166844973909
 30
0.0
 70
     8
  0
VERTEX
  5
8553
330
8342
100
AcDbEntity
  8
0
100
AcDbVertex
100
AcDb2dVertex
 10
14.12667003813109
 20
17.45107704292516
 30
0.0
 70
     8
  0
VERTEX
  5
8554
330
8342
100
AcDbEntity
  8
0
100
AcDbVertex
100
AcDb2dVertex
 10
14.10322011845775
 20
17.45291351860287
 30
0.0
 70
     8
  0
VERTEX
  5
8555
330
8342
100
AcDbEntity
  8
0
100
AcDbVertex
100
AcDb2dVertex
 10
14.08029899515685
 20
17.45717009526196
 30
0.0
 70
     8
  0
VERTEX
  5
8556
330
8342
100
AcDbEntity
  8
0
100
AcDbVertex
100
AcDb2dVertex
 10
14.05758783385118
 20
17.46455490427913
 30
0.0
 70
     8
  0
VERTEX
  5
8557
330
8342
100
AcDbEntity
  8
0
100
AcDbVertex
100
AcDb2dVertex
 10
14.03473669460304
 20
17.47595505525275
 30
0.0
 70
     8
  0
VERTEX
  5
8558
330
8342
100
AcDbEntity
  8
0
100
AcDbVertex
100
AcDb2dVertex
 10
14.01139563747474
 20
17.49225765778125
 30
0.0
 70
     8
  0
VERTEX
  5
8559
330
8342
100
AcDbEntity
  8
0
100
AcDbVertex
100
AcDb2dVertex
 10
13.9872147225286
 20
17.51434982146302
 30
0.0
 70
     8
  0
VERTEX
  5
855A
330
8342
100
AcDbEntity
  8
0
100
AcDbVertex
100
AcDb2dVertex
 10
13.96184400982692
 20
17.5431186558965
 30
0.0
 70
     8
  0
VERTEX
  5
855B
330
8342
100
AcDbEntity
  8
0
100
AcDbVertex
100
AcDb2dVertex
 10
13.93493355943201
 20
17.57945127068006
 30
0.0
 70
     8
  0
VERTEX
  5
855C
330
8342
100
AcDbEntity
  8
0
100
AcDbVertex
100
AcDb2dVertex
 10
13.9061334314062
 20
17.62423477541214
 30
0.0
 70
     8
  0
VERTEX
  5
855D
330
8342
100
AcDbEntity
  8
0
100
AcDbVertex
100
AcDb2dVertex
 10
13.87508202082953
 20
17.67794385143092
 30
0.0
 70
     8
  0
VERTEX
  5
855E
330
8342
100
AcDbEntity
  8
0
100
AcDbVertex
100
AcDb2dVertex
 10
13.84137106285313
 20
17.7394034670338
 30
0.0
 70
     8
  0
VERTEX
  5
855F
330
8342
100
AcDbEntity
  8
0
100
AcDbVertex
100
AcDb2dVertex
 10
13.80458062764585
 20
17.80702616225797
 30
0.0
 70
     8
  0
VERTEX
  5
8560
330
8342
100
AcDbEntity
  8
0
100
AcDbVertex
100
AcDb2dVertex
 10
13.76429078537654
 20
17.87922447714061
 30
0.0
 70
     8
  0
VERTEX
  5
8561
330
8342
100
AcDbEntity
  8
0
100
AcDbVertex
100
AcDb2dVertex
 10
13.72008160621408
 20
17.9544109517189
 30
0.0
 70
     8
  0
VERTEX
  5
8562
330
8342
100
AcDbEntity
  8
0
100
AcDbVertex
100
AcDb2dVertex
 10
13.67153316032733
 20
18.03099812603005
 30
0.0
 70
     8
  0
VERTEX
  5
8563
330
8342
100
AcDbEntity
  8
0
100
AcDbVertex
100
AcDb2dVertex
 10
13.61822551788516
 20
18.10739854011121
 30
0.0
 70
     8
  0
VERTEX
  5
8564
330
8342
100
AcDbEntity
  8
0
100
AcDbVertex
100
AcDb2dVertex
 10
13.55973874905643
 20
18.18202473399959
 30
0.0
 70
     8
  0
VERTEX
  5
8565
330
8342
100
AcDbEntity
  8
0
100
AcDbVertex
100
AcDb2dVertex
 10
13.49579290062036
 20
18.25349935274211
 30
0.0
 70
     8
  0
VERTEX
  5
8566
330
8342
100
AcDbEntity
  8
0
100
AcDbVertex
100
AcDb2dVertex
 10
13.42666792579774
 20
18.32128546142455
 30
0.0
 70
     8
  0
VERTEX
  5
8567
330
8342
100
AcDbEntity
  8
0
100
AcDbVertex
100
AcDb2dVertex
 10
13.3527837544197
 20
18.38505623014247
 30
0.0
 70
     8
  0
VERTEX
  5
8568
330
8342
100
AcDbEntity
  8
0
100
AcDbVertex
100
AcDb2dVertex
 10
13.27456031631736
 20
18.4444848289914
 30
0.0
 70
     8
  0
VERTEX
  5
8569
330
8342
100
AcDbEntity
  8
0
100
AcDbVertex
100
AcDb2dVertex
 10
13.19241754132187
 20
18.49924442806686
 30
0.0
 70
     8
  0
VERTEX
  5
856A
330
8342
100
AcDbEntity
  8
0
100
AcDbVertex
100
AcDb2dVertex
 10
13.10677535926436
 20
18.54900819746441
 30
0.0
 70
     8
  0
VERTEX
  5
856B
330
8342
100
AcDbEntity
  8
0
100
AcDbVertex
100
AcDb2dVertex
 10
13.01805369997597
 20
18.59344930727957
 30
0.0
 70
     8
  0
VERTEX
  5
856C
330
8342
100
AcDbEntity
  8
0
100
AcDbVertex
100
AcDb2dVertex
 10
12.92667249328785
 20
18.63224092760788
 30
0.0
 70
     8
  0
VERTEX
  5
856D
330
8342
100
AcDbEntity
  8
0
100
AcDbVertex
100
AcDb2dVertex
 10
12.83295446296344
 20
18.66507179173138
 30
0.0
 70
     8
  0
VERTEX
  5
856E
330
8342
100
AcDbEntity
  8
0
100
AcDbVertex
100
AcDb2dVertex
 10
12.73683350849558
 20
18.69169288567811
 30
0.0
 70
     8
  0
VERTEX
  5
856F
330
8342
100
AcDbEntity
  8
0
100
AcDbVertex
100
AcDb2dVertex
 10
12.63814632330938
 20
18.71187075866264
 30
0.0
 70
     8
  0
VERTEX
  5
8570
330
8342
100
AcDbEntity
  8
0
100
AcDbVertex
100
AcDb2dVertex
 10
12.53672960082999
 20
18.7253719598995
 30
0.0
 70
     8
  0
VERTEX
  5
8571
330
8342
100
AcDbEntity
  8
0
100
AcDbVertex
100
AcDb2dVertex
 10
12.43242003448255
 20
18.73196303860325
 30
0.0
 70
     8
  0
VERTEX
  5
8572
330
8342
100
AcDbEntity
  8
0
100
AcDbVertex
100
AcDb2dVertex
 10
12.32505431769221
 20
18.73141054398845
 30
0.0
 70
     8
  0
VERTEX
  5
8573
330
8342
100
AcDbEntity
  8
0
100
AcDbVertex
100
AcDb2dVertex
 10
12.21446914388408
 20
18.72348102526965
 30
0.0
 70
     8
  0
VERTEX
  5
8574
330
8342
100
AcDbEntity
  8
0
100
AcDbVertex
100
AcDb2dVertex
 10
12.10050120648332
 20
18.70794103166138
 30
0.0
 70
     8
  0
VERTEX
  5
8575
330
8342
100
AcDbEntity
  8
0
100
AcDbVertex
100
AcDb2dVertex
 10
11.98323215775267
 20
18.68463882022783
 30
0.0
 70
     8
  0
VERTEX
  5
8576
330
8342
100
AcDbEntity
  8
0
100
AcDbVertex
100
AcDb2dVertex
 10
11.86372348530533
 20
18.65374947943155
 30
0.0
 70
     8
  0
VERTEX
  5
8577
330
8342
100
AcDbEntity
  8
0
100
AcDbVertex
100
AcDb2dVertex
 10
11.74328163559209
 20
18.61552980558473
 30
0.0
 70
     8
  0
VERTEX
  5
8578
330
8342
100
AcDbEntity
  8
0
100
AcDbVertex
100
AcDb2dVertex
 10
11.62321305506372
 20
18.57023659499955
 30
0.0
 70
     8
  0
VERTEX
  5
8579
330
8342
100
AcDbEntity
  8
0
100
AcDbVertex
100
AcDb2dVertex
 10
11.50482419017106
 20
18.51812664398817
 30
0.0
 70
     8
  0
VERTEX
  5
857A
330
8342
100
AcDbEntity
  8
0
100
AcDbVertex
100
AcDb2dVertex
 10
11.38942148736489
 20
18.4594567488628
 30
0.0
 70
     8
  0
VERTEX
  5
857B
330
8342
100
AcDbEntity
  8
0
100
AcDbVertex
100
AcDb2dVertex
 10
11.278311393096
 20
18.3944837059356
 30
0.0
 70
     8
  0
VERTEX
  5
857C
330
8342
100
AcDbEntity
  8
0
100
AcDbVertex
100
AcDb2dVertex
 10
11.17280035381521
 20
18.32346431151877
 30
0.0
 70
     8
  0
VERTEX
  5
857D
330
8342
100
AcDbEntity
  8
0
100
AcDbVertex
100
AcDb2dVertex
 10
11.07394985718691
 20
18.24678764983971
 30
0.0
 70
     8
  0
VERTEX
  5
857E
330
8342
100
AcDbEntity
  8
0
100
AcDbVertex
100
AcDb2dVertex
 10
10.98184155573002
 20
18.16537195678685
 30
0.0
 70
     8
  0
VERTEX
  5
857F
330
8342
100
AcDbEntity
  8
0
100
AcDbVertex
100
AcDb2dVertex
 10
10.89631214317711
 20
18.08026775616385
 30
0.0
 70
     8
  0
VERTEX
  5
8580
330
8342
100
AcDbEntity
  8
0
100
AcDbVertex
100
AcDb2dVertex
 10
10.81719831326072
 20
17.99252557177437
 30
0.0
 70
     8
  0
VERTEX
  5
8581
330
8342
100
AcDbEntity
  8
0
100
AcDbVertex
100
AcDb2dVertex
 10
10.74433675971336
 20
17.90319592742209
 30
0.0
 70
     8
  0
VERTEX
  5
8582
330
8342
100
AcDbEntity
  8
0
100
AcDbVertex
100
AcDb2dVertex
 10
10.67756417626759
 20
17.81332934691065
 30
0.0
 70
     8
  0
VERTEX
  5
8583
330
8342
100
AcDbEntity
  8
0
100
AcDbVertex
100
AcDb2dVertex
 10
10.61671725665598
 20
17.72397635404372
 30
0.0
 70
     8
  0
VERTEX
  5
8584
330
8342
100
AcDbEntity
  8
0
100
AcDbVertex
100
AcDb2dVertex
 10
10.56163269461105
 20
17.63618747262496
 30
0.0
 70
     8
  0
VERTEX
  5
8585
330
8342
100
AcDbEntity
  8
0
100
AcDbVertex
100
AcDb2dVertex
 10
10.51214329575995
 20
17.55091984684104
 30
0.0
 70
     8
  0
VERTEX
  5
8586
330
8342
100
AcDbEntity
  8
0
100
AcDbVertex
100
AcDb2dVertex
 10
10.46806631330822
 20
17.46875710241062
 30
0.0
 70
     8
  0
VERTEX
  5
8587
330
8342
100
AcDbEntity
  8
0
100
AcDbVertex
100
AcDb2dVertex
 10
10.42921511235601
 20
17.39018948543535
 30
0.0
 70
     8
  0
VERTEX
  5
8588
330
8342
100
AcDbEntity
  8
0
100
AcDbVertex
100
AcDb2dVertex
 10
10.39540305800347
 20
17.31570724201688
 30
0.0
 70
     8
  0
VERTEX
  5
8589
330
8342
100
AcDbEntity
  8
0
100
AcDbVertex
100
AcDb2dVertex
 10
10.36644351535074
 20
17.2458006182569
 30
0.0
 70
     8
  0
VERTEX
  5
858A
330
8342
100
AcDbEntity
  8
0
100
AcDbVertex
100
AcDb2dVertex
 10
10.342149849498
 20
17.18095986025705
 30
0.0
 70
     8
  0
VERTEX
  5
858B
330
8342
100
AcDbEntity
  8
0
100
AcDbVertex
100
AcDb2dVertex
 10
10.32233542554534
 20
17.12167521411898
 30
0.0
 70
     8
  0
VERTEX
  5
858C
330
8342
100
AcDbEntity
  8
0
100
AcDbVertex
100
AcDb2dVertex
 10
10.30681360859297
 20
17.06843692594436
 30
0.0
 70
     8
  0
VERTEX
  5
858D
330
8342
100
AcDbEntity
  8
0
100
AcDbVertex
100
AcDb2dVertex
 10
10.29538609901492
 20
17.02156404487437
 30
0.0
 70
     8
  0
VERTEX
  5
858E
330
8342
100
AcDbEntity
  8
0
100
AcDbVertex
100
AcDb2dVertex
 10
10.28780793828102
 20
16.98069083220833
 30
0.0
 70
     8
  0
VERTEX
  5
858F
330
8342
100
AcDbEntity
  8
0
100
AcDbVertex
100
AcDb2dVertex
 10
10.28382250313497
 20
16.94528035228504
 30
0.0
 70
     8
  0
VERTEX
  5
8590
330
8342
100
AcDbEntity
  8
0
100
AcDbVertex
100
AcDb2dVertex
 10
10.28317317032051
 20
16.91479566944339
 30
0.0
 70
     8
  0
VERTEX
  5
8591
330
8342
100
AcDbEntity
  8
0
100
AcDbVertex
100
AcDb2dVertex
 10
10.28560331658135
 20
16.88869984802215
 30
0.0
 70
     8
  0
VERTEX
  5
8592
330
8342
100
AcDbEntity
  8
0
100
AcDbVertex
100
AcDb2dVertex
 10
10.29085631866123
 20
16.8664559523602
 30
0.0
 70
     8
  0
VERTEX
  5
8593
330
8342
100
AcDbEntity
  8
0
100
AcDbVertex
100
AcDb2dVertex
 10
10.29867555330386
 20
16.84752704679635
 30
0.0
 70
     8
  0
VERTEX
  5
8594
330
8342
100
AcDbEntity
  8
0
100
AcDbVertex
100
AcDb2dVertex
 10
10.30880439725297
 20
16.83137619566944
 30
0.0
 70
     8
  0
VERTEX
  5
8595
330
8342
100
AcDbEntity
  8
0
100
AcDbVertex
100
AcDb2dVertex
 10
10.32101733306894
 20
16.81752871681128
 30
0.0
 70
     8
  0
VERTEX
  5
8596
330
8342
100
AcDbEntity
  8
0
100
AcDbVertex
100
AcDb2dVertex
 10
10.33521326657868
 20
16.80575894202567
 30
0.0
 70
     8
  0
VERTEX
  5
8597
330
8342
100
AcDbEntity
  8
0
100
AcDbVertex
100
AcDb2dVertex
 10
10.35132220942577
 20
16.79590345660935
 30
0.0
 70
     8
  0
VERTEX
  5
8598
330
8342
100
AcDbEntity
  8
0
100
AcDbVertex
100
AcDb2dVertex
 10
10.36927417325382
 20
16.78779884585907
 30
0.0
 70
     8
  0
VERTEX
  5
8599
330
8342
100
AcDbEntity
  8
0
100
AcDbVertex
100
AcDb2dVertex
 10
10.38899916970635
 20
16.78128169507163
 30
0.0
 70
     8
  0
VERTEX
  5
859A
330
8342
100
AcDbEntity
  8
0
100
AcDbVertex
100
AcDb2dVertex
 10
10.41042721042698
 20
16.77618858954375
 30
0.0
 70
     8
  0
VERTEX
  5
859B
330
8342
100
AcDbEntity
  8
0
100
AcDbVertex
100
AcDb2dVertex
 10
10.43348830705927
 20
16.77235611457219
 30
0.0
 70
     8
  0
VERTEX
  5
859C
330
8342
100
AcDbEntity
  8
0
100
AcDbVertex
100
AcDb2dVertex
 10
10.45811247124681
 20
16.76962085545374
 30
0.0
 70
     8
  0
VERTEX
  5
859D
330
8342
100
AcDbEntity
  8
0
100
AcDbVertex
100
AcDb2dVertex
 10
10.48419860886776
 20
16.76779605237339
 30
0.0
 70
     8
  0
VERTEX
  5
859E
330
8342
100
AcDbEntity
  8
0
100
AcDbVertex
100
AcDb2dVertex
 10
10.51152120273864
 20
16.7666015650692
 30
0.0
 70
     8
  0
VERTEX
  5
859F
330
8342
100
AcDbEntity
  8
0
100
AcDbVertex
100
AcDb2dVertex
 10
10.53982362991059
 20
16.76573390816746
 30
0.0
 70
     8
  0
VERTEX
  5
85A0
330
8342
100
AcDbEntity
  8
0
100
AcDbVertex
100
AcDb2dVertex
 10
10.56884926743475
 20
16.76488959629447
 30
0.0
 70
     8
  0
VERTEX
  5
85A1
330
8342
100
AcDbEntity
  8
0
100
AcDbVertex
100
AcDb2dVertex
 10
10.59834149236226
 20
16.76376514407651
 30
0.0
 70
     8
  0
VERTEX
  5
85A2
330
8342
100
AcDbEntity
  8
0
100
AcDbVertex
100
AcDb2dVertex
 10
10.62804368174421
 20
16.7620570661399
 30
0.0
 70
     8
  0
VERTEX
  5
85A3
330
8342
100
AcDbEntity
  8
0
100
AcDbVertex
100
AcDb2dVertex
 10
10.65769921263176
 20
16.75946187711092
 30
0.0
 70
     8
  0
VERTEX
  5
85A4
330
8342
100
AcDbEntity
  8
0
100
AcDbVertex
100
AcDb2dVertex
 10
10.68705146207603
 20
16.75567609161589
 30
0.0
 70
     8
  0
VERTEX
  5
85A5
330
8342
100
AcDbEntity
  8
0
100
AcDbVertex
100
AcDb2dVertex
 10
10.7159176834875
 20
16.75044291442158
 30
0.0
 70
     8
  0
VERTEX
  5
85A6
330
8342
100
AcDbEntity
  8
0
100
AcDbVertex
100
AcDb2dVertex
 10
10.74441063571407
 20
16.74369231085673
 30
0.0
 70
     8
  0
VERTEX
  5
85A7
330
8342
100
AcDbEntity
  8
0
100
AcDbVertex
100
AcDb2dVertex
 10
10.77271695396301
 20
16.7354009363906
 30
0.0
 70
     8
  0
VERTEX
  5
85A8
330
8342
100
AcDbEntity
  8
0
100
AcDbVertex
100
AcDb2dVertex
 10
10.80102327344156
 20
16.72554544649242
 30
0.0
 70
     8
  0
VERTEX
  5
85A9
330
8342
100
AcDbEntity
  8
0
100
AcDbVertex
100
AcDb2dVertex
 10
10.82951622935699
 20
16.71410249663141
 30
0.0
 70
     8
  0
VERTEX
  5
85AA
330
8342
100
AcDbEntity
  8
0
100
AcDbVertex
100
AcDb2dVertex
 10
10.85838245691656
 20
16.70104874227684
 30
0.0
 70
     8
  0
VERTEX
  5
85AB
330
8342
100
AcDbEntity
  8
0
100
AcDbVertex
100
AcDb2dVertex
 10
10.88780859132751
 20
16.68636083889794
 30
0.0
 70
     8
  0
VERTEX
  5
85AC
330
8342
100
AcDbEntity
  8
0
100
AcDbVertex
100
AcDb2dVertex
 10
10.91798126779711
 20
16.67001544196392
 30
0.0
 70
     8
  0
VERTEX
  5
85AD
330
8342
100
AcDbEntity
  8
0
100
AcDbVertex
100
AcDb2dVertex
 10
10.94896658626899
 20
16.65204756934992
 30
0.0
 70
     8
  0
VERTEX
  5
85AE
330
8342
100
AcDbEntity
  8
0
100
AcDbVertex
100
AcDb2dVertex
 10
10.98034850563218
 20
16.63272568855452
 30
0.0
 70
     8
  0
VERTEX
  5
85AF
330
8342
100
AcDbEntity
  8
0
100
AcDbVertex
100
AcDb2dVertex
 10
11.01159044951216
 20
16.6123766294822
 30
0.0
 70
     8
  0
VERTEX
  5
85B0
330
8342
100
AcDbEntity
  8
0
100
AcDbVertex
100
AcDb2dVertex
 10
11.04215584153434
 20
16.59132722203741
 30
0.0
 70
     8
  0
VERTEX
  5
85B1
330
8342
100
AcDbEntity
  8
0
100
AcDbVertex
100
AcDb2dVertex
 10
11.07150810532416
 20
16.56990429612461
 30
0.0
 70
     8
  0
VERTEX
  5
85B2
330
8342
100
AcDbEntity
  8
0
100
AcDbVertex
100
AcDb2dVertex
 10
11.09911066450705
 20
16.54843468164828
 30
0.0
 70
     8
  0
VERTEX
  5
85B3
330
8342
100
AcDbEntity
  8
0
100
AcDbVertex
100
AcDb2dVertex
 10
11.12442694270846
 20
16.52724520851286
 30
0.0
 70
     8
  0
VERTEX
  5
85B4
330
8342
100
AcDbEntity
  8
0
100
AcDbVertex
100
AcDb2dVertex
 10
11.14692036355381
 20
16.50666270662285
 30
0.0
 70
     8
  0
VERTEX
  5
85B5
330
8342
100
AcDbEntity
  8
0
100
AcDbVertex
100
AcDb2dVertex
 10
11.16616322125734
 20
16.48690117166007
 30
0.0
 70
     8
  0
VERTEX
  5
85B6
330
8342
100
AcDbEntity
  8
0
100
AcDbVertex
100
AcDb2dVertex
 10
11.18216329238848
 20
16.46772326241596
 30
0.0
 70
     8
  0
VERTEX
  5
85B7
330
8342
100
AcDbEntity
  8
0
100
AcDbVertex
100
AcDb2dVertex
 10
11.19503722410548
 20
16.4487788034593
 30
0.0
 70
     8
  0
VERTEX
  5
85B8
330
8342
100
AcDbEntity
  8
0
100
AcDbVertex
100
AcDb2dVertex
 10
11.20490166356658
 20
16.42971761935892
 30
0.0
 70
     8
  0
VERTEX
  5
85B9
330
8342
100
AcDbEntity
  8
0
100
AcDbVertex
100
AcDb2dVertex
 10
11.21187325793001
 20
16.41018953468361
 30
0.0
 70
     8
  0
VERTEX
  5
85BA
330
8342
100
AcDbEntity
  8
0
100
AcDbVertex
100
AcDb2dVertex
 10
11.21606865435399
 20
16.38984437400217
 30
0.0
 70
     8
  0
VERTEX
  5
85BB
330
8342
100
AcDbEntity
  8
0
100
AcDbVertex
100
AcDb2dVertex
 10
11.21760449999679
 20
16.36833196188342
 30
0.0
 70
     8
  0
VERTEX
  5
85BC
330
8342
100
AcDbEntity
  8
0
100
AcDbVertex
100
AcDb2dVertex
 10
11.21659744201663
 20
16.34530212289615
 30
0.0
 70
     8
  0
VERTEX
  5
85BD
330
8342
100
AcDbEntity
  8
0
100
AcDbVertex
100
AcDb2dVertex
 10
11.21302803947664
 20
16.32032686501268
 30
0.0
 70
     8
  0
VERTEX
  5
85BE
330
8342
100
AcDbEntity
  8
0
100
AcDbVertex
100
AcDb2dVertex
 10
11.20633249905953
 20
16.29266692981935
 30
0.0
 70
     8
  0
VERTEX
  5
85BF
330
8342
100
AcDbEntity
  8
0
100
AcDbVertex
100
AcDb2dVertex
 10
11.19581093935291
 20
16.26150524230598
 30
0.0
 70
     8
  0
VERTEX
  5
85C0
330
8342
100
AcDbEntity
  8
0
100
AcDbVertex
100
AcDb2dVertex
 10
11.18076347894436
 20
16.22602472746246
 30
0.0
 70
     8
  0
VERTEX
  5
85C1
330
8342
100
AcDbEntity
  8
0
100
AcDbVertex
100
AcDb2dVertex
 10
11.16049023642148
 20
16.18540831027863
 30
0.0
 70
     8
  0
VERTEX
  5
85C2
330
8342
100
AcDbEntity
  8
0
100
AcDbVertex
100
AcDb2dVertex
 10
11.13429133037185
 20
16.13883891574431
 30
0.0
 70
     8
  0
VERTEX
  5
85C3
330
8342
100
AcDbEntity
  8
0
100
AcDbVertex
100
AcDb2dVertex
 10
11.1014668793831
 20
16.08549946884936
 30
0.0
 70
     8
  0
VERTEX
  5
85C4
330
8342
100
AcDbEntity
  8
0
100
AcDbVertex
100
AcDb2dVertex
 10
11.06131700204279
 20
16.02457289458361
 30
0.0
 70
     8
  0
VERTEX
  5
85C5
330
8342
100
AcDbEntity
  8
0
100
AcDbVertex
100
AcDb2dVertex
 10
11.01354619291353
 20
15.95563898301065
 30
0.0
 70
     8
  0
VERTEX
  5
85C6
330
8342
100
AcDbEntity
  8
0
100
AcDbVertex
100
AcDb2dVertex
 10
10.95947645045784
 20
15.87986498448879
 30
0.0
 70
     8
  0
VERTEX
  5
85C7
330
8342
100
AcDbEntity
  8
0
100
AcDbVertex
100
AcDb2dVertex
 10
10.9008341491132
 20
15.79881501445011
 30
0.0
 70
     8
  0
VERTEX
  5
85C8
330
8342
100
AcDbEntity
  8
0
100
AcDbVertex
100
AcDb2dVertex
 10
10.83934566331714
 20
15.71405318832664
 30
0.0
 70
     8
  0
VERTEX
  5
85C9
330
8342
100
AcDbEntity
  8
0
100
AcDbVertex
100
AcDb2dVertex
 10
10.77673736750716
 20
15.62714362155044
 30
0.0
 70
     8
  0
VERTEX
  5
85CA
330
8342
100
AcDbEntity
  8
0
100
AcDbVertex
100
AcDb2dVertex
 10
10.71473563612077
 20
15.53965042955358
 30
0.0
 70
     8
  0
VERTEX
  5
85CB
330
8342
100
AcDbEntity
  8
0
100
AcDbVertex
100
AcDb2dVertex
 10
10.65506684359546
 20
15.45313772776809
 30
0.0
 70
     8
  0
VERTEX
  5
85CC
330
8342
100
AcDbEntity
  8
0
100
AcDbVertex
100
AcDb2dVertex
 10
10.59945736436874
 20
15.36916963162604
 30
0.0
 70
     8
  0
VERTEX
  5
85CD
330
8342
100
AcDbEntity
  8
0
100
AcDbVertex
100
AcDb2dVertex
 10
10.5492836321207
 20
15.288952299784
 30
0.0
 70
     8
  0
VERTEX
  5
85CE
330
8342
100
AcDbEntity
  8
0
100
AcDbVertex
100
AcDb2dVertex
 10
10.50452231750164
 20
15.21226006379678
 30
0.0
 70
     8
  0
VERTEX
  5
85CF
330
8342
100
AcDbEntity
  8
0
100
AcDbVertex
100
AcDb2dVertex
 10
10.46480015040448
 20
15.1385092984437
 30
0.0
 70
     8
  0
VERTEX
  5
85D0
330
8342
100
AcDbEntity
  8
0
100
AcDbVertex
100
AcDb2dVertex
 10
10.42974386072208
 20
15.06711637850406
 30
0.0
 70
     8
  0
VERTEX
  5
85D1
330
8342
100
AcDbEntity
  8
0
100
AcDbVertex
100
AcDb2dVertex
 10
10.39898017834735
 20
14.99749767875721
 30
0.0
 70
     8
  0
VERTEX
  5
85D2
330
8342
100
AcDbEntity
  8
0
100
AcDbVertex
100
AcDb2dVertex
 10
10.37213583317318
 20
14.92906957398248
 30
0.0
 70
     8
  0
VERTEX
  5
85D3
330
8342
100
AcDbEntity
  8
0
100
AcDbVertex
100
AcDb2dVertex
 10
10.34883755509247
 20
14.86124843895919
 30
0.0
 70
     8
  0
VERTEX
  5
85D4
330
8342
100
AcDbEntity
  8
0
100
AcDbVertex
100
AcDb2dVertex
 10
10.32871207399808
 20
14.79345064846664
 30
0.0
 70
     8
  0
VERTEX
  5
85D5
330
8342
100
AcDbEntity
  8
0
100
AcDbVertex
100
AcDb2dVertex
 10
10.31142500206656
 20
14.72516261237043
 30
0.0
 70
     8
  0
VERTEX
  5
85D6
330
8342
100
AcDbEntity
  8
0
100
AcDbVertex
100
AcDb2dVertex
 10
10.2967974806088
 20
14.65615088088107
 30
0.0
 70
     8
  0
VERTEX
  5
85D7
330
8342
100
AcDbEntity
  8
0
100
AcDbVertex
100
AcDb2dVertex
 10
10.28468953321941
 20
14.58625203929532
 30
0.0
 70
     8
  0
VERTEX
  5
85D8
330
8342
100
AcDbEntity
  8
0
100
AcDbVertex
100
AcDb2dVertex
 10
10.2749611834929
 20
14.51530267290993
 30
0.0
 70
     8
  0
VERTEX
  5
85D9
330
8342
100
AcDbEntity
  8
0
100
AcDbVertex
100
AcDb2dVertex
 10
10.26747245502388
 20
14.44313936702168
 30
0.0
 70
     8
  0
VERTEX
  5
85DA
330
8342
100
AcDbEntity
  8
0
100
AcDbVertex
100
AcDb2dVertex
 10
10.26208337140686
 20
14.36959870692731
 30
0.0
 70
     8
  0
VERTEX
  5
85DB
330
8342
100
AcDbEntity
  8
0
100
AcDbVertex
100
AcDb2dVertex
 10
10.25865395623642
 20
14.29451727792359
 30
0.0
 70
     8
  0
VERTEX
  5
85DC
330
8342
100
AcDbEntity
  8
0
100
AcDbVertex
100
AcDb2dVertex
 10
10.25704423310712
 20
14.21773166530728
 30
0.0
 70
     8
  0
VERTEX
  5
85DD
330
8342
100
AcDbEntity
  8
0
100
AcDbVertex
100
AcDb2dVertex
 10
10.25715310789712
 20
14.13905121842527
 30
0.0
 70
     8
  0
VERTEX
  5
85DE
330
8342
100
AcDbEntity
  8
0
100
AcDbVertex
100
AcDb2dVertex
 10
10.25903501561903
 20
14.05817634282498
 30
0.0
 70
     8
  0
VERTEX
  5
85DF
330
8342
100
AcDbEntity
  8
0
100
AcDbVertex
100
AcDb2dVertex
 10
10.26278327356907
 20
13.97478020810396
 30
0.0
 70
     8
  0
VERTEX
  5
85E0
330
8342
100
AcDbEntity
  8
0
100
AcDbVertex
100
AcDb2dVertex
 10
10.26849119904348
 20
13.88853598385976
 30
0.0
 70
     8
  0
VERTEX
  5
85E1
330
8342
100
AcDbEntity
  8
0
100
AcDbVertex
100
AcDb2dVertex
 10
10.27625210933848
 20
13.79911683968994
 30
0.0
 70
     8
  0
VERTEX
  5
85E2
330
8342
100
AcDbEntity
  8
0
100
AcDbVertex
100
AcDb2dVertex
 10
10.2861593217503
 20
13.70619594519203
 30
0.0
 70
     8
  0
VERTEX
  5
85E3
330
8342
100
AcDbEntity
  8
0
100
AcDbVertex
100
AcDb2dVertex
 10
10.29830615357515
 20
13.6094464699636
 30
0.0
 70
     8
  0
VERTEX
  5
85E4
330
8342
100
AcDbEntity
  8
0
100
AcDbVertex
100
AcDb2dVertex
 10
10.31278592210924
 20
13.5085415836022
 30
0.0
 70
     8
  0
VERTEX
  5
85E5
330
8342
100
AcDbEntity
  8
0
100
AcDbVertex
100
AcDb2dVertex
 10
10.32959862725014
 20
13.4033840149057
 30
0.0
 70
     8
  0
VERTEX
  5
85E6
330
8342
100
AcDbEntity
  8
0
100
AcDbVertex
100
AcDb2dVertex
 10
10.34837099930058
 20
13.29479472947342
 30
0.0
 70
     8
  0
VERTEX
  5
85E7
330
8342
100
AcDbEntity
  8
0
100
AcDbVertex
100
AcDb2dVertex
 10
10.36863645116464
 20
13.18382425210499
 30
0.0
 70
     8
  0
VERTEX
  5
85E8
330
8342
100
AcDbEntity
  8
0
100
AcDbVertex
100
AcDb2dVertex
 10
10.38992839574642
 20
13.07152310760002
 30
0.0
 70
     8
  0
VERTEX
  5
85E9
330
8342
100
AcDbEntity
  8
0
100
AcDbVertex
100
AcDb2dVertex
 10
10.41178024594995
 20
12.95894182075815
 30
0.0
 70
     8
  0
VERTEX
  5
85EA
330
8342
100
AcDbEntity
  8
0
100
AcDbVertex
100
AcDb2dVertex
 10
10.43372541467933
 20
12.84713091637903
 30
0.0
 70
     8
  0
VERTEX
  5
85EB
330
8342
100
AcDbEntity
  8
0
100
AcDbVertex
100
AcDb2dVertex
 10
10.45529731483863
 20
12.73714091926227
 30
0.0
 70
     8
  0
VERTEX
  5
85EC
330
8342
100
AcDbEntity
  8
0
100
AcDbVertex
100
AcDb2dVertex
 10
10.47602935933191
 20
12.63002235420751
 30
0.0
 70
     8
  0
VERTEX
  5
85ED
330
8342
100
AcDbEntity
  8
0
100
AcDbVertex
100
AcDb2dVertex
 10
10.4955249490098
 20
12.52662731376803
 30
0.0
 70
     8
  0
VERTEX
  5
85EE
330
8342
100
AcDbEntity
  8
0
100
AcDbVertex
100
AcDb2dVertex
 10
10.51366743650912
 20
12.42701416151167
 30
0.0
 70
     8
  0
VERTEX
  5
85EF
330
8342
100
AcDbEntity
  8
0
100
AcDbVertex
100
AcDb2dVertex
 10
10.53041016241326
 20
12.33104282875987
 30
0.0
 70
     8
  0
VERTEX
  5
85F0
330
8342
100
AcDbEntity
  8
0
100
AcDbVertex
100
AcDb2dVertex
 10
10.54570646730558
 20
12.23857324683415
 30
0.0
 70
     8
  0
VERTEX
  5
85F1
330
8342
100
AcDbEntity
  8
0
100
AcDbVertex
100
AcDb2dVertex
 10
10.55950969176948
 20
12.14946534705596
 30
0.0
 70
     8
  0
VERTEX
  5
85F2
330
8342
100
AcDbEntity
  8
0
100
AcDbVertex
100
AcDb2dVertex
 10
10.57177317638831
 20
12.0635790607468
 30
0.0
 70
     8
  0
VERTEX
  5
85F3
330
8342
100
AcDbEntity
  8
0
100
AcDbVertex
100
AcDb2dVertex
 10
10.58245026174548
 20
11.98077431922811
 30
0.0
 70
     8
  0
VERTEX
  5
85F4
330
8342
100
AcDbEntity
  8
0
100
AcDbVertex
100
AcDb2dVertex
 10
10.59149428842432
 20
11.90091105382139
 30
0.0
 70
     8
  0
VERTEX
  5
85F5
330
8342
100
AcDbEntity
  8
0
100
AcDbVertex
100
AcDb2dVertex
 10
10.59884304427924
 20
11.82383363199764
 30
0.0
 70
     8
  0
VERTEX
  5
85F6
330
8342
100
AcDbEntity
  8
0
100
AcDbVertex
100
AcDb2dVertex
 10
10.60437210624859
 20
11.74932416582591
 30
0.0
 70
     8
  0
VERTEX
  5
85F7
330
8342
100
AcDbEntity
  8
0
100
AcDbVertex
100
AcDb2dVertex
 10
10.60794149854175
 20
11.67714920352479
 30
0.0
 70
     8
  0
VERTEX
  5
85F8
330
8342
100
AcDbEntity
  8
0
100
AcDbVertex
100
AcDb2dVertex
 10
10.60941124536808
 20
11.60707529331286
 30
0.0
 70
     8
  0
VERTEX
  5
85F9
330
8342
100
AcDbEntity
  8
0
100
AcDbVertex
100
AcDb2dVertex
 10
10.60864137093695
 20
11.53886898340869
 30
0.0
 70
     8
  0
VERTEX
  5
85FA
330
8342
100
AcDbEntity
  8
0
100
AcDbVertex
100
AcDb2dVertex
 10
10.60549189945772
 20
11.47229682203087
 30
0.0
 70
     8
  0
VERTEX
  5
85FB
330
8342
100
AcDbEntity
  8
0
100
AcDbVertex
100
AcDb2dVertex
 10
10.59982285513977
 20
11.40712535739802
 30
0.0
 70
     8
  0
VERTEX
  5
85FC
330
8342
100
AcDbEntity
  8
0
100
AcDbVertex
100
AcDb2dVertex
 10
10.59149426219246
 20
11.34312113772865
 30
0.0
 70
     8
  0
VERTEX
  5
85FD
330
8342
100
AcDbEntity
  8
0
100
AcDbVertex
100
AcDb2dVertex
 10
10.58049834455869
 20
11.28017521847634
 30
0.0
 70
     8
  0
VERTEX
  5
85FE
330
8342
100
AcDbEntity
  8
0
100
AcDbVertex
100
AcDb2dVertex
 10
10.5673561251155
 20
11.21867668403454
 30
0.0
 70
     8
  0
VERTEX
  5
85FF
330
8342
100
AcDbEntity
  8
0
100
AcDbVertex
100
AcDb2dVertex
 10
10.55272082647352
 20
11.15913912603162
 30
0.0
 70
     8
  0
VERTEX
  5
8600
330
8342
100
AcDbEntity
  8
0
100
AcDbVertex
100
AcDb2dVertex
 10
10.5372456712433
 20
11.10207613609594
 30
0.0
 70
     8
  0
VERTEX
  5
8601
330
8342
100
AcDbEntity
  8
0
100
AcDbVertex
100
AcDb2dVertex
 10
10.52158388203545
 20
11.04800130585595
 30
0.0
 70
     8
  0
VERTEX
  5
8602
330
8342
100
AcDbEntity
  8
0
100
AcDbVertex
100
AcDb2dVertex
 10
10.50638868146053
 20
10.99742822693999
 30
0.0
 70
     8
  0
VERTEX
  5
8603
330
8342
100
AcDbEntity
  8
0
100
AcDbVertex
100
AcDb2dVertex
 10
10.49231329212916
 20
10.95087049097645
 30
0.0
 70
     8
  0
VERTEX
  5
8604
330
8342
100
AcDbEntity
  8
0
100
AcDbVertex
100
AcDb2dVertex
 10
10.48001093665193
 20
10.90884168959376
 30
0.0
 70
     8
  0
VERTEX
  5
8605
330
8342
100
AcDbEntity
  8
0
100
AcDbVertex
100
AcDb2dVertex
 10
10.47000263775216
 20
10.87169978064632
 30
0.0
 70
     8
  0
VERTEX
  5
8606
330
8342
100
AcDbEntity
  8
0
100
AcDbVertex
100
AcDb2dVertex
 10
10.46228061860428
 20
10.83918018689268
 30
0.0
 70
     8
  0
VERTEX
  5
8607
330
8342
100
AcDbEntity
  8
0
100
AcDbVertex
100
AcDb2dVertex
 10
10.45670490249541
 20
10.8108626973174
 30
0.0
 70
     8
  0
VERTEX
  5
8608
330
8342
100
AcDbEntity
  8
0
100
AcDbVertex
100
AcDb2dVertex
 10
10.45313551271273
 20
10.78632710090508
 30
0.0
 70
     8
  0
VERTEX
  5
8609
330
8342
100
AcDbEntity
  8
0
100
AcDbVertex
100
AcDb2dVertex
 10
10.45143247254337
 20
10.76515318664031
 30
0.0
 70
     8
  0
VERTEX
  5
860A
330
8342
100
AcDbEntity
  8
0
100
AcDbVertex
100
AcDb2dVertex
 10
10.45145580527448
 20
10.74692074350765
 30
0.0
 70
     8
  0
VERTEX
  5
860B
330
8342
100
AcDbEntity
  8
0
100
AcDbVertex
100
AcDb2dVertex
 10
10.45306553419325
 20
10.73120956049169
 30
0.0
 70
     8
  0
VERTEX
  5
860C
330
8342
100
AcDbEntity
  8
0
100
AcDbVertex
100
AcDb2dVertex
 10
10.4421862931261
 20
10.6996704869945
 30
0.0
 70
    16
  0
VERTEX
  5
860D
330
8342
100
AcDbEntity
  8
0
100
AcDbVertex
100
AcDb2dVertex
 10
10.51385405532148
 20
10.65185986812193
 30
0.0
 70
    16
  0
VERTEX
  5
860E
330
8342
100
AcDbEntity
  8
0
100
AcDbVertex
100
AcDb2dVertex
 10
10.6452451625346
 20
10.63990721340381
 30
0.0
 70
    16
  0
VERTEX
  5
860F
330
8342
100
AcDbEntity
  8
0
100
AcDbVertex
100
AcDb2dVertex
 10
10.94386141544971
 20
11.05824987357054
 30
0.0
 70
    16
  0
VERTEX
  5
8610
330
8342
100
AcDbEntity
  8
0
100
AcDbVertex
100
AcDb2dVertex
 10
11.37386861818675
 20
11.56026086179609
 30
0.0
 70
    16
  0
VERTEX
  5
8611
330
8342
100
AcDbEntity
  8
0
100
AcDbVertex
100
AcDb2dVertex
 10
11.86359900855033
 20
11.84712406509506
 30
0.0
 70
    16
  0
VERTEX
  5
8612
330
8342
100
AcDbEntity
  8
0
100
AcDbVertex
100
AcDb2dVertex
 10
12.29360636867857
 20
11.97860326699461
 30
0.0
 70
    16
  0
VERTEX
  5
8613
330
8342
100
AcDbEntity
  8
0
100
AcDbVertex
100
AcDb2dVertex
 10
12.41305274393166
 20
12.12203486864412
 30
0.0
 70
    16
  0
VERTEX
  5
8614
330
8342
100
AcDbEntity
  8
0
100
AcDbVertex
100
AcDb2dVertex
 10
12.3413848243451
 20
12.27741937997995
 30
0.0
 70
    16
  0
VERTEX
  5
8615
330
8342
100
AcDbEntity
  8
0
100
AcDbVertex
100
AcDb2dVertex
 10
11.74415263329724
 20
12.56428283824713
 30
0.0
 70
    16
  0
VERTEX
  5
8616
330
8342
100
AcDbEntity
  8
0
100
AcDbVertex
100
AcDb2dVertex
 10
11.26636681750249
 20
13.0423885170364
 30
0.0
 70
    16
  0
VERTEX
  5
8617
330
8342
100
AcDbEntity
  8
0
100
AcDbVertex
100
AcDb2dVertex
 10
10.99163987111622
 20
13.85516801799715
 30
0.0
 70
    16
  0
VERTEX
  5
8618
330
8342
100
AcDbEntity
  8
0
100
AcDbVertex
100
AcDb2dVertex
 10
11.14692028485821
 20
14.97871654162963
 30
0.0
 70
    16
  0
VERTEX
  5
8619
330
8342
100
AcDbEntity
  8
0
100
AcDbVertex
100
AcDb2dVertex
 10
11.66054013914183
 20
15.68392240509538
 30
0.0
 70
    16
  0
VERTEX
  5
861A
330
8342
100
AcDbEntity
  8
0
100
AcDbVertex
100
AcDb2dVertex
 10
12.01887942229232
 20
16.13812277444836
 30
0.0
 70
    16
  0
VERTEX
  5
861B
330
8342
100
AcDbEntity
  8
0
100
AcDbVertex
100
AcDb2dVertex
 10
12.15027052950543
 20
16.61622870820577
 30
0.0
 70
    16
  0
VERTEX
  5
861C
330
8342
100
AcDbEntity
  8
0
100
AcDbVertex
100
AcDb2dVertex
 10
11.95915623466577
 20
16.95090253037732
 30
0.0
 70
    16
  0
VERTEX
  5
861D
330
8342
100
AcDbEntity
  8
0
100
AcDbVertex
100
AcDb2dVertex
 10
11.58887221955529
 20
17.05847642284064
 30
0.0
 70
    16
  0
VERTEX
  5
861E
330
8342
100
AcDbEntity
  8
0
100
AcDbVertex
100
AcDb2dVertex
 10
11.49331499343986
 20
17.15409740561752
 30
0.0
 70
    16
  0
VERTEX
  5
861F
330
8342
100
AcDbEntity
  8
0
100
AcDbVertex
100
AcDb2dVertex
 10
11.52914903192872
 20
17.33338722638964
 30
0.0
 70
    16
  0
VERTEX
  5
8620
330
8342
100
AcDbEntity
  8
0
100
AcDbVertex
100
AcDb2dVertex
 10
11.86359900855034
 20
17.62025068465687
 30
0.0
 70
    16
  0
VERTEX
  5
8621
330
8342
100
AcDbEntity
  8
0
100
AcDbVertex
100
AcDb2dVertex
 10
12.29360636867858
 20
17.77563494102451
 30
0.0
 70
    16
  0
VERTEX
  5
8622
330
8342
100
AcDbEntity
  8
0
100
AcDbVertex
100
AcDb2dVertex
 10
12.6758349583579
 20
17.68001370327936
 30
0.0
 70
    16
  0
VERTEX
  5
8623
330
8342
100
AcDbEntity
  8
0
100
AcDbVertex
100
AcDb2dVertex
 10
12.99834036041068
 20
17.3692451905441
 30
0.0
 70
    16
  0
VERTEX
  5
8624
330
8342
100
AcDbEntity
  8
0
100
AcDbVertex
100
AcDb2dVertex
 10
13.24917800026809
 20
16.93894987565921
 30
0.0
 70
    16
  0
VERTEX
  5
8625
330
8342
100
AcDbEntity
  8
0
100
AcDbVertex
100
AcDb2dVertex
 10
13.32084576246346
 20
16.72380234570089
 30
0.0
 70
    16
  0
VERTEX
  5
8626
330
8342
100
AcDbEntity
  8
0
100
AcDbVertex
100
AcDb2dVertex
 10
13.47612617620545
 20
16.735755000419
 30
0.0
 70
    16
  0
VERTEX
  5
8627
330
8342
100
AcDbEntity
  8
0
100
AcDbVertex
100
AcDb2dVertex
 10
13.79863157825824
 20
16.80747092872787
 30
0.0
 70
    16
  0
VERTEX
  5
8628
330
8342
100
AcDbEntity
  8
0
100
AcDbVertex
100
AcDb2dVertex
 10
14.19280489989758
 20
16.79551827400969
 30
0.0
 70
    16
  0
VERTEX
  5
8629
330
8342
100
AcDbEntity
  8
0
100
AcDbVertex
100
AcDb2dVertex
 10
14.36003004559956
 20
16.68794438154643
 30
0.0
 70
    16
  0
VERTEX
  5
862A
330
8342
100
AcDbEntity
  8
0
100
AcDbVertex
100
AcDb2dVertex
 10
14.4078085012661
 20
16.54451277989697
 30
0.0
 70
    16
  0
VERTEX
  5
862B
330
8342
100
AcDbEntity
  8
0
100
AcDbVertex
100
AcDb2dVertex
 10
14.24058351295526
 20
16.17398073860276
 30
0.0
 70
    16
  0
VERTEX
  5
862C
330
8342
100
AcDbEntity
  8
0
100
AcDbVertex
100
AcDb2dVertex
 10
13.94196741743134
 20
15.76759098812236
 30
0.0
 70
    16
  0
VERTEX
  5
862D
330
8342
100
AcDbEntity
  8
0
100
AcDbVertex
100
AcDb2dVertex
 10
13.72696381606282
 20
15.63611178622281
 30
0.0
 70
    16
  0
VERTEX
  5
862E
330
8342
100
AcDbEntity
  8
0
100
AcDbVertex
100
AcDb2dVertex
 10
13.67918520300512
 20
15.52853814872775
 30
0.0
 70
    16
  0
VERTEX
  5
862F
330
8342
100
AcDbEntity
  8
0
100
AcDbVertex
100
AcDb2dVertex
 10
13.76279769716052
 20
15.40901160154632
 30
0.0
 70
    16
  0
VERTEX
  5
8630
330
8342
100
AcDbEntity
  8
0
100
AcDbVertex
100
AcDb2dVertex
 10
14.0016906050579
 20
15.06238512465666
 30
0.0
 70
    16
  0
VERTEX
  5
8631
330
8342
100
AcDbEntity
  8
0
100
AcDbVertex
100
AcDb2dVertex
 10
13.95391199200018
 20
14.39303697037711
 30
0.0
 70
    16
  0
VERTEX
  5
8632
330
8342
100
AcDbEntity
  8
0
100
AcDbVertex
100
AcDb2dVertex
 10
13.77474242912055
 20
14.1181261668281
 30
0.0
 70
    16
  0
VERTEX
  5
8633
330
8342
100
AcDbEntity
  8
0
100
AcDbVertex
100
AcDb2dVertex
 10
13.5836279768897
 20
14.04641049348744
 30
0.0
 70
    16
  0
VERTEX
  5
8634
330
8342
100
AcDbEntity
  8
0
100
AcDbVertex
100
AcDb2dVertex
 10
13.42834756314771
 20
14.10617351210993
 30
0.0
 70
    16
  0
VERTEX
  5
8635
330
8342
100
AcDbEntity
  8
0
100
AcDbVertex
100
AcDb2dVertex
 10
13.17751008068152
 20
14.50061086284042
 30
0.0
 70
    16
  0
VERTEX
  5
8636
330
8342
100
AcDbEntity
  8
0
100
AcDbVertex
100
AcDb2dVertex
 10
12.83111537209987
 20
14.63208980977176
 30
0.0
 70
    16
  0
VERTEX
  5
8637
330
8342
100
AcDbEntity
  8
0
100
AcDbVertex
100
AcDb2dVertex
 10
12.40110816936283
 20
14.47670555340413
 30
0.0
 70
    16
  0
VERTEX
  5
8638
330
8342
100
AcDbEntity
  8
0
100
AcDbVertex
100
AcDb2dVertex
 10
12.3413848243451
 20
14.17788944041879
 30
0.0
 70
    16
  0
VERTEX
  5
8639
330
8342
100
AcDbEntity
  8
0
100
AcDbVertex
100
AcDb2dVertex
 10
12.53249927657595
 20
13.79540499937467
 30
0.0
 70
    16
  0
VERTEX
  5
863A
330
8342
100
AcDbEntity
  8
0
100
AcDbVertex
100
AcDb2dVertex
 10
12.97445105388183
 20
13.52049419582561
 30
0.0
 70
    16
  0
VERTEX
  5
863B
330
8342
100
AcDbEntity
  8
0
100
AcDbVertex
100
AcDb2dVertex
 10
13.5000154827343
 20
13.52049419582561
 30
0.0
 70
    16
  0
VERTEX
  5
863C
330
8342
100
AcDbEntity
  8
0
100
AcDbVertex
100
AcDb2dVertex
 10
14.01363533701793
 20
13.77149968993838
 30
0.0
 70
    16
  0
VERTEX
  5
863D
330
8342
100
AcDbEntity
  8
0
100
AcDbVertex
100
AcDb2dVertex
 10
14.32419600711069
 20
14.30936864231833
 30
0.0
 70
    16
  0
VERTEX
  5
863E
330
8342
100
AcDbEntity
  8
0
100
AcDbVertex
100
AcDb2dVertex
 10
14.56308891500805
 20
15.14605345271543
 30
0.0
 70
    16
  0
VERTEX
  5
863F
330
8342
100
AcDbEntity
  8
0
100
AcDbVertex
100
AcDb2dVertex
 10
14.70642475418119
 20
15.74368567868607
 30
0.0
 70
    16
  0
VERTEX
  5
8640
330
8342
100
AcDbEntity
  8
0
100
AcDbVertex
100
AcDb2dVertex
 10
14.76614794180774
 20
16.42498623271554
 30
0.0
 70
    16
  0
VERTEX
  5
8641
330
8342
100
AcDbEntity
  8
0
100
AcDbVertex
100
AcDb2dVertex
 10
14.86170516792319
 20
16.9030919115048
 30
0.0
 70
    16
  0
VERTEX
  5
8642
330
8342
100
AcDbEntity
  8
0
100
AcDbVertex
100
AcDb2dVertex
 10
15.13643195691825
 20
17.51267679219356
 30
0.0
 70
    16
  0
VERTEX
  5
8643
330
8342
100
AcDbEntity
  8
0
100
AcDbVertex
100
AcDb2dVertex
 10
15.41115874591331
 20
17.95492450682842
 30
0.0
 70
    16
  0
VERTEX
  5
8644
330
8342
100
AcDbEntity
  8
0
100
AcDbVertex
100
AcDb2dVertex
 10
15.72171957339726
 20
18.31350389340446
 30
0.0
 70
    16
  0
VERTEX
  5
8645
330
8342
100
AcDbEntity
  8
0
100
AcDbVertex
100
AcDb2dVertex
 10
15.75755345449496
 20
18.50474611392649
 30
0.0
 70
    16
  0
VERTEX
  5
8646
330
8342
100
AcDbEntity
  8
0
100
AcDbVertex
100
AcDb2dVertex
 10
15.72171957339726
 20
18.66013037029412
 30
0.0
 70
    16
  0
VERTEX
  5
8647
330
8342
100
AcDbEntity
  8
0
100
AcDbVertex
100
AcDb2dVertex
 10
15.51866054659757
 20
18.71989364388486
 30
0.0
 70
    16
  0
VERTEX
  5
8648
330
8342
100
AcDbEntity
  8
0
100
AcDbVertex
100
AcDb2dVertex
 10
15.05281946276285
 20
18.68403567973041
 30
0.0
 70
    16
  0
VERTEX
  5
8649
330
8342
100
AcDbEntity
  8
0
100
AcDbVertex
100
AcDb2dVertex
 10
14.86170516792319
 20
18.63622506085783
 30
0.0
 70
    16
  0
VERTEX
  5
864A
330
8342
100
AcDbEntity
  8
0
100
AcDbVertex
100
AcDb2dVertex
 10
14.83781586139433
 20
18.46888814977209
 30
0.0
 70
    16
  0
VERTEX
  5
864B
330
8342
100
AcDbEntity
  8
0
100
AcDbVertex
100
AcDb2dVertex
 10
14.81392655486547
 20
18.17007203678674
 30
0.0
 70
    16
  0
VERTEX
  5
864C
330
8342
100
AcDbEntity
  8
0
100
AcDbVertex
100
AcDb2dVertex
 10
14.62281226002581
 20
17.76368228630634
 30
0.0
 70
    16
  0
VERTEX
  5
864D
330
8342
100
AcDbEntity
  8
0
100
AcDbVertex
100
AcDb2dVertex
 10
14.30030670058184
 20
17.47681882803916
 30
0.0
 70
    16
  0
VERTEX
  5
864E
330
8342
100
AcDbEntity
  8
0
100
AcDbVertex
100
AcDb2dVertex
 10
14.09724783117334
 20
17.42900820916658
 30
0.0
 70
    16
  0
VERTEX
  5
864F
330
8342
100
AcDbEntity
  8
0
100
AcDbVertex
100
AcDb2dVertex
 10
13.93002268547133
 20
17.52462944691173
 30
0.0
 70
    16
  0
VERTEX
  5
8650
330
8342
100
AcDbEntity
  8
0
100
AcDbVertex
100
AcDb2dVertex
 10
13.61946201537857
 20
18.21788265565931
 30
0.0
 70
    16
  0
VERTEX
  5
8651
330
8342
100
AcDbEntity
  8
0
100
AcDbVertex
100
AcDb2dVertex
 10
12.95056174735298
 20
18.69598833444858
 30
0.0
 70
    16
  0
VERTEX
  5
8652
330
8342
100
AcDbEntity
  8
0
100
AcDbVertex
100
AcDb2dVertex
 10
12.13832595493662
 20
18.79160957219367
 30
0.0
 70
    16
  0
VERTEX
  5
8653
330
8342
100
AcDbEntity
  8
0
100
AcDbVertex
100
AcDb2dVertex
 10
11.09914167180049
 20
18.38521956674506
 30
0.0
 70
    16
  0
VERTEX
  5
8654
330
8342
100
AcDbEntity
  8
0
100
AcDbVertex
100
AcDb2dVertex
 10
10.50190948075265
 20
17.60829802993871
 30
0.0
 70
    16
  0
VERTEX
  5
8655
330
8342
100
AcDbEntity
  8
0
100
AcDbVertex
100
AcDb2dVertex
 10
10.26301657285527
 20
16.99871314924989
 30
0.0
 70
    16
  0
VERTEX
  5
8656
330
8342
100
AcDbEntity
  8
0
100
AcDbVertex
100
AcDb2dVertex
 10
10.28690587938413
 20
16.80747092872787
 30
0.0
 70
    16
  0
VERTEX
  5
8657
330
8342
100
AcDbEntity
  8
0
100
AcDbVertex
100
AcDb2dVertex
 10
10.44218629312612
 20
16.75966030985529
 30
0.0
 70
    16
  0
VERTEX
  5
8658
330
8342
100
AcDbEntity
  8
0
100
AcDbVertex
100
AcDb2dVertex
 10
10.69302377559231
 20
16.77161296457341
 30
0.0
 70
    16
  0
VERTEX
  5
8659
330
8342
100
AcDbEntity
  8
0
100
AcDbVertex
100
AcDb2dVertex
 10
10.90802737696083
 20
16.68794438154643
 30
0.0
 70
    16
  0
VERTEX
  5
865A
330
8342
100
AcDbEntity
  8
0
100
AcDbVertex
100
AcDb2dVertex
 10
11.1827543233471
 20
16.4967021610244
 30
0.0
 70
    16
  0
VERTEX
  5
865B
330
8342
100
AcDbEntity
  8
0
100
AcDbVertex
100
AcDb2dVertex
 10
11.24247751097363
 20
16.36522321409305
 30
0.0
 70
    16
  0
VERTEX
  5
865C
330
8342
100
AcDbEntity
  8
0
100
AcDbVertex
100
AcDb2dVertex
 10
11.14692028485821
 20
16.11421771998028
 30
0.0
 70
    16
  0
VERTEX
  5
865D
330
8342
100
AcDbEntity
  8
0
100
AcDbVertex
100
AcDb2dVertex
 10
10.53774336185034
 20
15.32534327348755
 30
0.0
 70
    16
  0
VERTEX
  5
865E
330
8342
100
AcDbEntity
  8
0
100
AcDbVertex
100
AcDb2dVertex
 10
10.29885045395295
 20
14.79942697582571
 30
0.0
 70
    16
  0
VERTEX
  5
865F
330
8342
100
AcDbEntity
  8
0
100
AcDbVertex
100
AcDb2dVertex
 10
10.23912726632642
 20
14.23765271400948
 30
0.0
 70
    16
  0
VERTEX
  5
8660
330
8342
100
AcDbEntity
  8
0
100
AcDbVertex
100
AcDb2dVertex
 10
10.28690587938412
 20
13.55635215998006
 30
0.0
 70
    16
  0
VERTEX
  5
8661
330
8342
100
AcDbEntity
  8
0
100
AcDbVertex
100
AcDb2dVertex
 10
10.48996474879261
 20
12.58818814768342
 30
0.0
 70
    16
  0
VERTEX
  5
8662
330
8342
100
AcDbEntity
  8
0
100
AcDbVertex
100
AcDb2dVertex
 10
10.6094112814369
 20
11.87102937453134
 30
0.0
 70
    16
  0
VERTEX
  5
8663
330
8342
100
AcDbEntity
  8
0
100
AcDbVertex
100
AcDb2dVertex
 10
10.62135585600574
 20
11.3331606771196
 30
0.0
 70
    16
  0
SEQEND
  5
8664
330
8342
100
AcDbEntity
  8
0
  0
LINE
  5
8987
330
18
100
AcDbEntity
  8
0
100
AcDbLine
 10
21.47250733689939
 20
21.3742904231718
 30
0.0
 11
7.721536400712423
 21
21.3742904231718
 31
0.0
  0
LINE
  5
8988
330
18
100
AcDbEntity
  8
0
100
AcDbLine
 10
7.721536400712423
 20
2.744359053187036
 30
0.0
 11
7.721536400712423
 21
21.3742904231718
 31
0.0
  0
LWPOLYLINE
  5
8C56
330
18
100
AcDbEntity
  8
0
100
AcDbPolyline
 90
      701
 70
     0
 43
0.0
 10
7.721536400712423
 20
2.744359053187033
 10
7.772277953278831
 20
2.740388353979445
 10
7.830084965146299
 20
2.738739673053589
 10
7.884384231907702
 20
2.739962890054515
 10
7.935707230094257
 20
2.743738905544553
 10
7.984585436237189
 20
2.749748620086056
 10
8.031550326867714
 20
2.757672934241365
 10
8.077133378517066
 20
2.767192748572838
 10
8.121777488243353
 20
2.778070954513788
 10
8.165571235212281
 20
2.790398406981356
 10
8.208514619116451
 20
2.804347951763613
 10
8.250607639648443
 20
2.820092434648674
 10
8.291850296500863
 20
2.837804701424624
 10
8.332242589366309
 20
2.857657597879551
 10
8.371784517937362
 20
2.879823969801568
 10
8.410476081906633
 20
2.90447666297876
 10
8.448259704278443
 20
2.931657780821257
 10
8.484847501304109
 20
2.96088645722732
 10
8.519894012546673
 20
2.991551083717228
 10
8.553053777569175
 20
3.023040051811283
 10
8.583981335934669
 20
3.05474175302975
 10
8.612331227206185
 20
3.086044578892946
 10
8.637757990946777
 20
3.116336920921148
 10
8.659916166719499
 20
3.14500717063466
 10
8.678588734569302
 20
3.171563382060733
 10
8.694072436468875
 20
3.195992259254592
 10
8.706792454872806
 20
3.218400168778491
 10
8.71717397223569
 20
3.238893477194601
 10
8.725642171012125
 20
3.257578551065175
 10
8.732622233656716
 20
3.274561756952413
 10
8.738539342624047
 20
3.289949461418513
 10
8.74381868036872
 20
3.303848031025701
 10
8.748838924911895
 20
3.316366048368485
 10
8.753792736540969
 20
3.32762096017055
 10
8.758826271109896
 20
3.337732429187887
 10
8.764085684472643
 20
3.346820118176464
 10
8.769717132483153
 20
3.355003689892246
 10
8.775866770995397
 20
3.362402807091254
 10
8.782680755863328
 20
3.369137132529451
 10
8.790305242940911
 20
3.37532632896278
 10
8.798844312888725
 20
3.381112218889229
 10
8.808233745593904
 20
3.386725263774569
 10
8.818367245750199
 20
3.392418084826515
 10
8.829138518051365
 20
3.398443303252832
 10
8.84044126719116
 20
3.405053540261264
 10
8.852169197863331
 20
3.412501417059522
 10
8.864216014761645
 20
3.421039554855377
 10
8.876475422579849
 20
3.43092057485654
 10
8.888827839059993
 20
3.442308459219946
 10
8.901100534137311
 20
3.455012633899126
 10
8.913107490795313
 20
3.468753885796791
 10
8.924662692017525
 20
3.483253001815675
 10
8.935580120787458
 20
3.498230768858465
 10
8.945673760088626
 20
3.513407973827896
 10
8.954757592904559
 20
3.528505403626678
 10
8.962645602218781
 20
3.543243845157495
 10
8.969207133211101
 20
3.557519147143492
 10
8.974532979846578
 20
3.571927405589324
 10
8.978769298286582
 20
3.587239778320015
 10
8.982062244692476
 20
3.604227423160614
 10
8.984557975225621
 20
3.623661497936186
 10
8.986402646047373
 20
3.646313160471767
 10
8.987742413319113
 20
3.672953568592393
 10
8.988723433202174
 20
3.704353880123155
 10
8.989474145973572
 20
3.740930697681656
 10
8.990052128372793
 20
3.781682403056088
 10
8.990497241254949
 20
3.825252822827172
 10
8.99084934547516
 20
3.870285783575691
 10
8.991148301888548
 20
3.915425111882394
 10
8.991433971350232
 20
3.959314634328037
 10
8.991746214715323
 20
4.000598177493383
 10
8.992124892838948
 20
4.037919567959173
 10
8.992627582460595
 20
4.070252811656321
 10
8.993382723857255
 20
4.097892631916224
 10
8.99453647319029
 20
4.121463931420408
 10
8.996234986621063
 20
4.141591612850421
 10
8.998624420310939
 20
4.158900578887813
 10
9.001850930421275
 20
4.174015732214081
 10
9.006060673113442
 20
4.18756197551079
 10
9.011399804548794
 20
4.200164211459474
 10
9.018025553399692
 20
4.212334328580563
 10
9.026139438382442
 20
4.224132158750006
 10
9.035954050724338
 20
4.235504519682692
 10
9.047681981652681
 20
4.246398229093474
 10
9.061535822394779
 20
4.256760104697211
 10
9.077728164177917
 20
4.266536964208786
 10
9.096471598229392
 20
4.275675625343027
 10
9.117978715776514
 20
4.284122905814794
 10
9.142377957403674
 20
4.291894318182182
 10
9.16946116112363
 20
4.299280154375948
 10
9.19893601430628
 20
4.306639401170102
 10
9.230510204321468
 20
4.314331045338614
 10
9.263891418539074
 20
4.322714073655471
 10
9.298787344328971
 20
4.332147472894681
 10
9.334905669061017
 20
4.342990229830175
 10
9.371954080105091
 20
4.355601331236002
 10
9.409640264779833
 20
4.370248909217973
 10
9.447671910198925
 20
4.386837677209335
 10
9.485756703424847
 20
4.40518149397522
 10
9.523602331520052
 20
4.425094218280768
 10
9.560916481547014
 20
4.446389708891063
 10
9.597406840568195
 20
4.468881824571227
 10
9.632781095646059
 20
4.492384424086385
 10
9.666746933843075
 20
4.516711366201661
 10
9.699076262539522
 20
4.541711965036889
 10
9.729797870386917
 20
4.567377356130939
 10
9.759004766354633
 20
4.593734130377335
 10
9.786789959411995
 20
4.62080887866971
 10
9.813246458528364
 20
4.648628191901615
 10
9.838467272673094
 20
4.677218660966632
 10
9.862545410815508
 20
4.706606876758338
 10
9.885573881924985
 20
4.736819430170287
 10
9.907639051392525
 20
4.767871832598586
 10
9.928800710295883
 20
4.799735277449357
 10
9.94911200613448
 20
4.832369878631223
 10
9.968626086407724
 20
4.86573575005281
 10
9.987396098615043
 20
4.899793005622738
 10
10.00547519025586
 20
4.934501759249633
 10
10.0229165088296
 20
4.969822124842146
 10
10.03977320183567
 20
5.005714216308899
 10
10.05612941966079
 20
5.042111555419947
 10
10.07219332424098
 20
5.078841295391277
 10
10.08820408039954
 20
5.115703997300248
 10
10.10440085295977
 20
5.152500222224277
 10
10.12102280674499
 20
5.189030531240752
 10
10.13830910657849
 20
5.225095485427078
 10
10.15649891728356
 20
5.260495645860655
 10
10.17583140368353
 20
5.295031573618858
 10
10.19653244370126
 20
5.32853706976551
 10
10.21877476765764
 20
5.360978895310188
 10
10.24271781897317
 20
5.392357051248848
 10
10.26852104106832
 20
5.422671538577447
 10
10.29634387736358
 20
5.451922358291967
 10
10.32634577127941
 20
5.480109511388365
 10
10.35868616623627
 20
5.507232998862625
 10
10.39352450565466
 20
5.533292821710703
 10
10.43089179252435
 20
5.558306708439959
 10
10.47030526811237
 20
5.582363297603245
 10
10.51115373325502
 20
5.605568955264785
 10
10.55282598878864
 20
5.62803004748881
 10
10.59471083554957
 20
5.649852940339545
 10
10.63619707437412
 20
5.671143999881221
 10
10.67667350609861
 20
5.692009592178049
 10
10.7155289315594
 20
5.712556083294298
 10
10.75230268535022
 20
5.732911329163612
 10
10.78713623709471
 20
5.753289145197344
 10
10.82032159017387
 20
5.773924836676268
 10
10.85215074796876
 20
5.795053708881206
 10
10.88291571386043
 20
5.816911067092916
 10
10.9129084912299
 20
5.839732216592207
 10
10.94242108345821
 20
5.863752462659854
 10
10.97174549392641
 20
5.889207110576678
 10
11.00107206565433
 20
5.91624195078334
 10
11.0301845002169
 20
5.944644714360268
 10
11.05876483882784
 20
5.974113617547732
 10
11.08649512270091
 20
6.004346876586075
 10
11.11305739304981
 20
6.035042707715603
 10
11.13813369108827
 20
6.065899327176607
 10
11.16140605803003
 20
6.096614951209408
 10
11.18255653508881
 20
6.126887796054299
 10
11.20133952038767
 20
6.156520640729925
 10
11.21779883968708
 20
6.185734515368211
 10
11.23205067565683
 20
6.214855012879433
 10
11.2442112109667
 20
6.244207726173841
 10
11.25439662828648
 20
6.274118248161674
 10
11.26272311028598
 20
6.304912171753209
 10
11.269306839635
 20
6.336915089858695
 10
11.27426399900331
 20
6.37045259538841
 10
11.27769382788918
 20
6.40571850817059
 10
11.27962779310482
 20
6.442379555705656
 10
11.28008041829087
 20
6.479970692411986
 10
11.279066227088
 20
6.518026872707984
 10
11.27659974313687
 20
6.556083051012029
 10
11.27269549007815
 20
6.59367418174254
 10
11.26736799155248
 20
6.630335219317895
 10
11.26063177120053
 20
6.665601118156526
 10
11.25256428510895
 20
6.699098873129701
 10
11.24349471914832
 20
6.730823640920428
 10
11.23381519163517
 20
6.760862618664596
 10
11.22391782088608
 20
6.789303003498089
 10
11.2141947252176
 20
6.816231992556794
 10
11.20503802294628
 20
6.841736782976624
 10
11.19683983238868
 20
6.865904571893437
 10
11.18999227186135
 20
6.888822556443171
 10
11.18481484526886
 20
6.910568244969699
 10
11.18133659886786
 20
6.93118039064901
 10
11.179513964503
 20
6.950688057865122
 10
11.17930337401896
 20
6.96912031100205
 10
11.18066125926035
 20
6.986506214443783
 10
11.18354405207188
 20
7.00287483257431
 10
11.18790818429816
 20
7.01825522977767
 10
11.1937100877839
 20
7.032676470437857
 10
11.20091103522862
 20
7.046167619187849
 10
11.20949166275159
 20
7.058757741656627
 10
11.21943744732695
 20
7.070475903722158
 10
11.23073386592883
 20
7.081351171262388
 10
11.2433663955314
 20
7.091412610155259
 10
11.25732051310879
 20
7.10068928627877
 10
11.27258169563517
 20
7.109210265510862
 10
11.28913542008467
 20
7.117004613729506
 10
11.30692843556743
 20
7.124120773483618
 10
11.3257525797376
 20
7.130684694006129
 10
11.34536096238532
 20
7.136841701200944
 10
11.3655066933007
 20
7.142737120971955
 10
11.38594288227388
 20
7.148516279223077
 10
11.40642263909501
 20
7.154324501858201
 10
11.4266990735542
 20
7.160307114781217
 10
11.4465252954416
 20
7.166609443896058
 10
11.46572944982227
 20
7.173381659502588
 10
11.48443982286099
 20
7.180793309484677
 10
11.50285973599747
 20
7.189018786122172
 10
11.52119251067143
 20
7.198232481694917
 10
11.5396414683226
 20
7.208608788482735
 10
11.55840993039068
 20
7.220322098765492
 10
11.5777012183154
 20
7.233546804823026
 10
11.59771865353645
 20
7.248457298935195
 10
11.6186219885697
 20
7.265218284838846
 10
11.64039670023561
 20
7.283955712098866
 10
11.66298469643077
 20
7.304785841737188
 10
11.68632788505175
 20
7.327824934775725
 10
11.71036817399516
 20
7.35318925223637
 10
11.7350474711576
 20
7.380995055141065
 10
11.76030768443563
 20
7.411358604511673
 10
11.78609072172588
 20
7.444396161370152
 10
11.81226829691476
 20
7.480066549761542
 10
11.8384313478482
 20
7.517698845823326
 10
11.86410061836187
 20
7.556464688716205
 10
11.88879685229156
 20
7.595535717600839
 10
11.912040793473
 20
7.634083571637861
 10
11.93335318574191
 20
7.67127988998796
 10
11.95225477293402
 20
7.706296311811769
 10
11.96826629888508
 20
7.738304476269961
 10
11.98103921363882
 20
7.766686745864031
 10
11.99074779207091
 20
7.791668376458797
 10
11.99769701526499
 20
7.813685347259927
 10
12.00219186430472
 20
7.833173637473073
 10
12.00453732027378
 20
7.850569226303889
 10
12.00503836425581
 20
7.866308092958041
 10
12.00399997733445
 20
7.880826216641183
 10
12.0017271405934
 20
7.894559576558981
 10
11.99845222060182
 20
7.907849689764161
 10
11.99411712587113
 20
7.920660224697741
 10
11.98859115039828
 20
7.932860387647851
 10
11.98174358818022
 20
7.944319384902568
 10
11.97344373321391
 20
7.954906422749994
 10
11.96356087949628
 20
7.964490707478237
 10
11.9519643210243
 20
7.972941445375383
 10
11.93852335179489
 20
7.980127842729553
 10
11.92315567543009
 20
7.985984502767792
 10
11.90597263405219
 20
7.990707616472922
 10
11.88713397940852
 20
7.994558771766721
 10
11.86679946324645
 20
7.997799556571013
 10
11.84512883731331
 20
8.000691558807531
 10
11.82228185335646
 20
8.003496366398099
 10
11.79841826312324
 20
8.006475567264468
 10
11.773697818361
 20
8.009890749328445
 10
11.74827300950913
 20
8.013979279278812
 10
11.72226728177499
 20
8.018881638872496
 10
11.69579681905801
 20
8.024714088633428
 10
11.66897780525761
 20
8.03159288908551
 10
11.6419264242732
 20
8.039634300752675
 10
11.61475886000418
 20
8.04895458415887
 10
11.58759129634997
 20
8.059669999828001
 10
11.56053991720998
 20
8.071896808283995
 10
11.53370638345778
 20
8.085722205002822
 10
11.5071342638635
 20
8.10111712526846
 10
11.48085260417146
 20
8.118023439316946
 10
11.45489045012595
 20
8.136383017384295
 10
11.42927684747127
 20
8.156137729706504
 10
11.40404084195174
 20
8.177229446519652
 10
11.37921147931162
 20
8.199600038059697
 10
11.35481780529524
 20
8.223191374562706
 10
11.33090822952765
 20
8.247991346034638
 10
11.307608617157
 20
8.274171921561404
 10
11.28506419721217
 20
8.301951089998842
 10
11.26342019872209
 20
8.331546840202797
 10
11.24282185071564
 20
8.363177161029128
 10
11.22341438222173
 20
8.397060041333684
 10
11.20534302226928
 20
8.433413469972339
 10
11.18875299988717
 20
8.472455435800908
 10
11.17379922612153
 20
8.514336108953317
 10
11.16067534008746
 20
8.558934384675657
 10
11.14958466291726
 20
8.606061339492008
 10
11.14073051574324
 20
8.655528049926491
 10
11.13431621969771
 20
8.707145592503275
 10
11.13054509591298
 20
8.76072504374645
 10
11.12962046552137
 20
8.816077480180133
 10
11.13174564965518
 20
8.873013978328465
 10
11.13708282118087
 20
8.931348036581562
 10
11.14562955990156
 20
8.990902840793566
 10
11.15734229735449
 20
9.051503998684658
 10
11.1721774650769
 20
9.112977117974963
 10
11.19009149460607
 20
9.175147806384655
 10
11.21104081747924
 20
9.237841671633882
 10
11.23498186523366
 20
9.300884321442802
 10
11.26187106940658
 20
9.364101363531565
 10
11.29165033845816
 20
9.427323249933303
 10
11.32420348854026
 20
9.490399809933178
 10
11.35939981272758
 20
9.553185717129276
 10
11.39710860409486
 20
9.615535645119706
 10
11.43719915571684
 20
9.677304267502583
 10
11.47954076066826
 20
9.738346257876042
 10
11.52400271202386
 20
9.798516289838181
 10
11.57045430285836
 20
9.857669036987125
 10
11.61877692887052
 20
9.91568581601995
 10
11.66890039625513
 20
9.972554516029683
 10
11.72076661383099
 20
10.02828966920835
 10
11.77431749041692
 20
10.08290580774791
 10
11.82949493483172
 20
10.1364174638404
 10
11.88624085589418
 20
10.18883916967781
 10
11.94449716242313
 20
10.24018545745216
 10
12.00420576323735
 20
10.29047085935541
 10
12.06527710065089
 20
10.33968810879363
 10
12.12749575095865
 20
10.38774274402883
 10
12.19061482395077
 20
10.43451850453712
 10
12.25438742941737
 20
10.47989912979455
 10
12.31856667714859
 20
10.52376835927719
 10
12.38290567693457
 20
10.56600993246114
 10
12.44715753856544
 20
10.60650758882244
 10
12.51107537183134
 20
10.64514506783718
 10
12.57440260465884
 20
10.68183275191443
 10
12.63684393752044
 20
10.71658759519517
 10
12.69809438902507
 20
10.74945319475342
 10
12.75784897778167
 20
10.78047314766314
 10
12.81580272239919
 20
10.80969105099835
 10
12.87165064148654
 20
10.83715050183302
 10
12.92508775365268
 20
10.86289509724117
 10
12.97580907750656
 20
10.88696843429675
 10
13.02361371267632
 20
10.90941895463577
 10
13.06871708286704
 20
10.93031447814213
 10
13.11143869280308
 20
10.94972766926175
 10
13.15209804720873
 20
10.96773119244054
 10
13.19101465080833
 20
10.98439771212438
 10
13.22850800832615
 20
10.99979989275921
 10
13.26489762448656
 20
11.0140103987909
 10
13.30050300401387
 20
11.02710189466538
 10
13.33555167298098
 20
11.03916157710354
 10
13.3699032428553
 20
11.05033477192627
 10
13.40332534645279
 20
11.06078133722951
 10
13.43558561658944
 20
11.07066113110915
 10
13.46645168608125
 20
11.08013401166107
 10
13.49569118774417
 20
11.08935983698122
 10
13.52307175439423
 20
11.09849846516546
 10
13.54836101884738
 20
11.10770975430972
 10
13.57137986470702
 20
11.1171438742989
 10
13.59216217872603
 20
11.12691224217388
 10
13.61079509844475
 20
11.13711658676462
 10
13.62736576140347
 20
11.147858636901
 10
13.64196130514247
 20
11.15924012141292
 10
13.65466886720211
 20
11.17136276913031
 10
13.66557558512263
 20
11.18432830888308
 10
13.67476859644436
 20
11.19823846950114
 10
13.68233987976747
 20
11.21321677884936
 10
13.6884007779315
 20
11.22947396093257
 10
13.69306747483588
 20
11.24724253879057
 10
13.69645615437999
 20
11.26675503546312
 10
13.69868300046328
 20
11.28824397399006
 10
13.69986419698513
 20
11.31194187741117
 10
13.70011592784498
 20
11.33808126876621
 10
13.69955437694222
 20
11.36689467109503
 10
13.69829814847566
 20
11.39846928070349
 10
13.69647552784155
 20
11.43231098696203
 10
13.69421722073553
 20
11.46778035250719
 10
13.69165393285326
 20
11.50423793997552
 10
13.68891636989039
 20
11.54104431200351
 10
13.68613523754256
 20
11.57756003122775
 10
13.68344124150542
 20
11.61314566028474
 10
13.68096508747459
 20
11.64716176181104
 10
13.67882295837608
 20
11.67910453663408
 10
13.67707294605709
 20
11.7090127383448
 10
13.67575861959518
 20
11.73706075872508
 10
13.67492354806793
 20
11.76342298955679
 10
13.67461130055287
 20
11.78827382262177
 10
13.67486544612757
 20
11.8117876497019
 10
13.67572955386958
 20
11.83413886257904
 10
13.67724719285646
 20
11.85550185303503
 10
13.67947161413179
 20
11.87600983714577
 10
13.68249479660307
 20
11.89563132816326
 10
13.68641840114391
 20
11.91429366363355
 10
13.69134408862786
 20
11.93192418110266
 10
13.69737351992848
 20
11.94845021811662
 10
13.70460835591932
 20
11.96379911222149
 10
13.71315025747394
 20
11.97789820096327
 10
13.7231008854659
 20
11.99067482188802
 10
13.73463908075481
 20
12.00214377809146
 10
13.74825240414432
 20
12.01266973486808
 10
13.76450559642413
 20
12.02270482306204
 10
13.78396339838394
 20
12.03270117351757
 10
13.80719055081345
 20
12.0431109170788
 10
13.83475179450237
 20
12.05438618458996
 10
13.86721187024039
 20
12.0669791068952
 10
13.90513551881721
 20
12.08134181483871
 10
13.94890761343136
 20
12.09790654120361
 10
13.99819355691678
 20
12.1170259265288
 10
14.05247888451625
 20
12.13903271329208
 10
14.11124913147253
 20
12.16425964397126
 10
14.17398983302841
 20
12.19303946104419
 10
14.24018652442664
 20
12.22570490698866
 10
14.30932474091002
 20
12.2625887242825
 10
14.38089001772131
 20
12.30402365540354
 10
14.45438127670533
 20
12.35028051551662
 10
14.52935098611511
 20
12.40138241053482
 10
14.60536500080572
 20
12.45729051905823
 10
14.68198917563225
 20
12.51796601968694
 10
14.75878936544977
 20
12.58337009102106
 10
14.83533142511337
 20
12.65346391166067
 10
14.91118120947812
 20
12.72820866020588
 10
14.9859045733991
 20
12.8075655152568
 10
15.05913044015268
 20
12.89156486915685
 10
15.13074000670053
 20
12.98051396922279
 10
15.20067753842554
 20
13.07478927651473
 10
15.26888730071071
 20
13.17476725209277
 10
15.33531355893896
 20
13.28082435701699
 10
15.39990057849325
 20
13.39333705234751
 10
15.4625926247565
 20
13.51268179914442
 10
15.52333396311167
 20
13.63923505846781
 10
15.5820456362102
 20
13.77310140330472
 10
15.63855579577762
 20
13.91329785434979
 10
15.6926693708079
 20
14.05856954422462
 10
15.74419129029507
 20
14.2076616055508
 10
15.79292648323314
 20
14.3593191709499
 10
15.8386798786161
 20
14.51228737304351
 10
15.88125640543798
 20
14.66531134445322
 10
15.92046099269279
 20
14.81713621780061
 10
15.95618217124886
 20
14.9666372603363
 10
15.98864287947197
 20
15.11321027782706
 10
16.01814965760221
 20
15.25638121066869
 10
16.04500904587968
 20
15.39567599925698
 10
16.06952758454449
 20
15.53062058398775
 10
16.09201181383675
 20
15.66074090525678
 10
16.11276827399654
 20
15.78556290345987
 10
16.13210350526399
 20
15.90461251899283
 10
16.15034030364264
 20
16.01760856964354
 10
16.16786648818991
 20
16.12504138276818
 10
16.18508613372672
 20
16.22759416311497
 10
16.20240331507392
 20
16.32595011543221
 10
16.22022210705242
 20
16.42079244446809
 10
16.23894658448308
 20
16.51280435497092
 10
16.25898082218677
 20
16.6026690516889
 10
16.28072889498442
 20
16.69106973937033
 10
16.30444857469857
 20
16.77847583067436
 10
16.32981242115849
 20
16.86450156990386
 10
16.35634669119511
 20
16.94854740927266
 10
16.38357764163939
 20
17.03001380099454
 10
16.41103152932227
 20
17.10830119728331
 10
16.43823461107471
 20
17.18281005035278
 10
16.46471314372764
 20
17.25294081241672
 10
16.489993384112
 20
17.31809393568898
 10
16.51371538037644
 20
17.37780000684638
 10
16.53597434594038
 20
17.43211015041793
 10
16.55697928554091
 20
17.48120562539568
 10
16.57693920391514
 20
17.52526769077167
 10
16.59606310580019
 20
17.56447760553795
 10
16.61455999593315
 20
17.59901662868658
 10
16.63263887905113
 20
17.62906601920962
 10
16.65050875989125
 20
17.65480703609908
 10
16.66832290852231
 20
17.67643023356503
 10
16.68601165633999
 20
17.69416334668957
 10
16.70344960007163
 20
17.70824340577277
 10
16.72051133644463
 20
17.7189074411147
 10
16.73707146218634
 20
17.72639248301547
 10
16.75300457402413
 20
17.73093556177514
 10
16.76818526868538
 20
17.73277370769382
 10
16.78248814289745
 20
17.73214395107158
 10
16.79581798308724
 20
17.72916945466748
 10
16.80820033447968
 20
17.72351791107639
 10
16.81969093199923
 20
17.71474314535216
 10
16.83034551057034
 20
17.70239898254864
 10
16.84021980511749
 20
17.6860392477197
 10
16.84936955056515
 20
17.66521776591915
 10
16.85785048183775
 20
17.63948836220088
 10
16.86571833385976
 20
17.60840486161871
 10
16.87310315417346
 20
17.57172558601457
 10
16.88043224079232
 20
17.53002684438265
 10
16.8882072043476
 20
17.48408944250525
 10
16.89692965547063
 20
17.43469418616464
 10
16.90710120479266
 20
17.38262188114308
 10
16.91922346294501
 20
17.32865333322286
 10
16.93379804055892
 20
17.27356934818626
 10
16.9513265482657
 20
17.21815073181555
 10
16.97216661583313
 20
17.16312251808698
 10
16.99609994957496
 20
17.10898665375274
 10
17.02276427494143
 20
17.05618931375896
 10
17.0517973173828
 20
17.00517667305179
 10
17.08283680234931
 20
16.95639490657741
 10
17.1155204552912
 20
16.91029018928194
 10
17.14948600165872
 20
16.86730869611156
 10
17.18437116690212
 20
16.82789660201239
 10
17.21994523583003
 20
16.79237053392764
 10
17.25650373068468
 20
16.76052892678868
 10
17.29447373306666
 20
16.73204066752388
 10
17.33428232457654
 20
16.70657464306166
 10
17.37635658681495
 20
16.68379974033039
 10
17.42112360138248
 20
16.6633848462585
 10
17.46901044987972
 20
16.64499884777438
 10
17.52044421390728
 20
16.62831063180641
 10
17.57571350396971
 20
16.61316067332752
 10
17.63455304618739
 20
16.60007579948873
 10
17.6965590955846
 20
16.58975442548555
 10
17.76132790718567
 20
16.58289496651355
 10
17.82845573601495
 20
16.58019583776821
 10
17.89753883709672
 20
16.5823554544451
 10
17.96817346545533
 20
16.59007223173973
 10
18.03995587611508
 20
16.60404458484763
 10
18.11243469389973
 20
16.6248061237216
 10
18.18496802283088
 20
16.65223123734336
 10
18.25686633672957
 20
16.68602950945194
 10
18.32744010941684
 20
16.72591052378633
 10
18.39599981471376
 20
16.77158386408553
 10
18.46185592644133
 20
16.82275911408853
 10
18.52431891842062
 20
16.87914585753436
 10
18.58269926447263
 20
16.94045367816198
 10
18.63640428297823
 20
17.00631695761706
 10
18.68522867055738
 20
17.07606926917169
 10
18.72906396838979
 20
17.14896898400467
 10
18.76780171765522
 20
17.22427447329474
 10
18.80133345953342
 20
17.30124410822067
 10
18.82955073520413
 20
17.37913625996123
 10
18.8523450858471
 20
17.45720929969516
 10
18.86960805264206
 20
17.53472159860124
 10
18.88132758445529
 20
17.61100991124442
 10
18.88787726089917
 20
17.68572452573431
 10
18.88972706927258
 20
17.75859411356674
 10
18.88734699687439
 20
17.82934734623754
 10
18.88120703100355
 20
17.89771289524252
 10
18.87177715895892
 20
17.9634194320775
 10
18.85952736803938
 20
18.02619562823829
 10
18.84492764554387
 20
18.08577015522072
 10
18.82847509324575
 20
18.14192595025463
 10
18.8107752708165
 20
18.19466301350603
 10
18.79246085240204
 20
18.24403561087494
 10
18.77416451214836
 20
18.2900980082614
 10
18.7565189242014
 20
18.33290447156542
 10
18.74015676270713
 20
18.37250926668706
 10
18.72571070181149
 20
18.40896665952631
 10
18.71381341566044
 20
18.44233091598324
 10
18.70495597987135
 20
18.47265931667475
 10
18.69906307594711
 20
18.50002120108534
 10
18.69591778686201
 20
18.52448892341641
 10
18.69530319559035
 20
18.5461348378693
 10
18.69700238510645
 20
18.56503129864542
 10
18.70079843838459
 20
18.58125065994617
 10
18.70647443839906
 20
18.5948652759729
 10
18.71381346812417
 20
18.60594750092703
 10
18.72263175060122
 20
18.61459380699404
 10
18.73287806913946
 20
18.620997138296
 10
18.74453434711513
 20
18.62537455693903
 10
18.75758250790451
 20
18.62794312502934
 10
18.77200447488385
 20
18.62891990467309
 10
18.78778217142938
 20
18.62852195797644
 10
18.8048975209174
 20
18.62696634704556
 10
18.82333244672413
 20
18.6244701339866
 10
18.84301163035249
 20
18.62123832187218
 10
18.86363078581199
 20
18.61742767764065
 10
18.88482838523882
 20
18.61318290919679
 10
18.90624290076913
 20
18.60864872444536
 10
18.92751280453909
 20
18.60396983129117
 10
18.9482765686849
 20
18.599290937639
 10
18.96817266534269
 20
18.59475675139363
 10
18.98683956664866
 20
18.59051198045984
 10
19.00401516493996
 20
18.5867043475423
 10
19.01983503335763
 20
18.58349363454524
 10
19.03453416524373
 20
18.58104263817279
 10
19.0483475539403
 20
18.57951415512907
 10
19.06151019278939
 20
18.57907098211821
 10
19.07425707513304
 20
18.57987591584431
 10
19.08682319431327
 20
18.5820917530115
 10
19.09944354367215
 20
18.5858812903239
 10
19.11231997643348
 20
18.59140430976875
 10
19.12552178534817
 20
18.59880853446571
 10
19.13908512304891
 20
18.60823867281752
 10
19.15304614216837
 20
18.61983943322699
 10
19.16744099533923
 20
18.63375552409685
 10
19.18230583519419
 20
18.65013165382989
 10
19.19767681436591
 20
18.66911253082889
 10
19.21359008548706
 20
18.69084286349657
 10
19.23010590309919
 20
18.71538897660058
 10
19.24738092937904
 20
18.74250366036781
 10
19.26559592841226
 20
18.77186132139004
 10
19.28493166428445
 20
18.80313636625902
 10
19.30556890108125
 20
18.83600320156651
 10
19.32768840288824
 20
18.87013623390424
 10
19.35147093379107
 20
18.90520986986402
 10
19.37709725787534
 20
18.94089851603757
 10
19.40469089730209
 20
18.9769278297848
 10
19.43414640653404
 20
19.01322847153822
 10
19.4653010981093
 20
19.04978235249852
 10
19.497992284566
 20
19.08657138386632
 10
19.53205727844229
 20
19.1235774768423
 10
19.56733339227627
 20
19.16078254262714
 10
19.60365793860609
 20
19.19816849242148
 10
19.64086822996985
 20
19.23571723742599
 10
19.67875337508806
 20
19.27339561517386
 10
19.71690966741062
 20
19.31111016852848
 10
19.75488519656978
 20
19.34875236668574
 10
19.79222805219779
 20
19.38621367884157
 10
19.82848632392689
 20
19.42338557419185
 10
19.86320810138937
 20
19.4601595219325
 10
19.89594147421746
 20
19.49642699125945
 10
19.92623453204344
 20
19.53207945136858
 10
19.95373177198112
 20
19.56702947464005
 10
19.97846332107073
 20
19.60127404619097
 10
20.00055571383404
 20
19.63483125432271
 10
20.02013548479282
 20
19.6677191873366
 10
20.03732916846889
 20
19.699955933534
 10
20.05226329938403
 20
19.73155958121628
 10
20.06506441206
 20
19.76254821868478
 10
20.07585904101863
 20
19.79293993424085
 10
20.08479481007357
 20
19.82271362445126
 10
20.09210370020613
 20
19.85169141894443
 10
20.09803878168949
 20
19.87965625561421
 10
20.10285312479685
 20
19.90639107235441
 10
20.10679979980142
 20
19.93167880705887
 10
20.11013187697635
 20
19.95530239762143
 10
20.11310242659487
 20
19.9770447819359
 10
20.11596451893014
 20
19.99668889789615
 10
20.1189471222441
 20
20.01407797848082
 10
20.12218279675345
 20
20.02929643700783
 10
20.12578000066366
 20
20.04248898187999
 10
20.12984719218016
 20
20.05380032150003
 10
20.13449282950841
 20
20.06337516427074
 10
20.13982537085385
 20
20.07135821859488
 10
20.14595327442194
 20
20.07789419287522
 10
20.15298499841811
 20
20.08312779551454
 10
20.16109829400366
 20
20.08720976434938
 10
20.17074808416324
 20
20.09031495495142
 10
20.18245858483737
 20
20.09262425232616
 10
20.19675401196657
 20
20.09431854147905
 10
20.21415858149135
 20
20.09557870741558
 10
20.23519650935221
 20
20.09658563514122
 10
20.26039201148964
 20
20.09752020966144
 10
20.29026930384421
 20
20.09856331598173
 10
20.32505735431913
 20
20.09986267688974
 10
20.36380413866869
 20
20.10143336630195
 10
20.4052623846099
 20
20.10325729591698
 10
20.44818481985979
 20
20.10531637743349
 10
20.49132417213539
 20
20.10759252255011
 10
20.53343316915372
 20
20.1100676429655
 10
20.57326453863178
 20
20.11272365037831
 10
20.60957100828662
 20
20.11554245648717
 10
20.64139151566308
 20
20.11853612032566
 10
20.66890983761743
 20
20.12183729026701
 10
20.69259596083373
 20
20.12560876201937
 10
20.71291987199607
 20
20.13001333129088
 10
20.73035155778855
 20
20.13521379378973
 10
20.74536100489523
 20
20.14137294522403
 10
20.75841820000023
 20
20.14865358130194
 10
20.7699931297876
 20
20.15721849773163
 10
20.78048648803683
 20
20.16716115123473
 10
20.79002179690896
 20
20.17829764258687
 10
20.7986532856604
 20
20.19037473357715
 10
20.8064351835476
 20
20.20313918599468
 10
20.81342171982696
 20
20.21633776162857
 10
20.81966712375492
 20
20.22971722226794
 10
20.82522562458791
 20
20.2430243297019
 10
20.83015145158233
 20
20.25600584571956
 10
20.83452896129101
 20
20.26844169416182
 10
20.83856301945219
 20
20.28024444707687
 10
20.84248861910054
 20
20.29135983856466
 10
20.84654075327065
 20
20.30173360272517
 10
20.8509544149972
 20
20.31131147365836
 10
20.85596459731481
 20
20.32003918546421
 10
20.86180629325812
 20
20.32786247224269
 10
20.86871449586176
 20
20.33472706809375
 10
20.87690612189527
 20
20.34065407595267
 10
20.88652578306777
 20
20.34596607409579
 10
20.89770001482324
 20
20.35106100963476
 10
20.91055535260568
 20
20.35633682968122
 10
20.9252183318591
 20
20.36219148134682
 10
20.94181548802751
 20
20.36902291174318
 10
20.96047335655489
 20
20.37722906798196
 10
20.98131847288525
 20
20.3872078971748
 10
21.00438397749546
 20
20.39928499248095
 10
21.02932943099383
 20
20.41349653125009
 10
21.05572099902159
 20
20.42980633687951
 10
21.08312484721988
 20
20.44817823276651
 10
21.11110714122993
 20
20.46857604230838
 10
21.13923404669291
 20
20.49096358890242
 10
21.16707172925002
 20
20.51530469594591
 10
21.19418635454244
 20
20.54156318683615
 10
21.22021036844783
 20
20.56968178153719
 10
21.24504133778964
 20
20.59951878628019
 10
21.26864310962781
 20
20.63091140386299
 10
21.29097953102221
 20
20.66369683708353
 10
21.31201444903279
 20
20.69771228873969
 10
21.33171171071945
 20
20.73279496162935
 10
21.35003516314211
 20
20.76878205855042
 10
21.36694865336067
 20
20.8055107823008
 10
21.38242958590288
 20
20.84286204986177
 10
21.39650959516768
 20
20.88089163494831
 10
21.40923387302184
 20
20.91969902545882
 10
21.42064761133213
 20
20.95938370929163
 10
21.43079600196531
 20
21.00004517434513
 10
21.43972423678816
 20
21.04178290851772
 10
21.44747750766744
 20
21.08469639970774
 10
21.45410100646991
 20
21.1288851358136
 10
21.45964595019373
 20
21.17448478125337
 10
21.46418765636252
 20
21.22177570652398
 10
21.46780746763132
 20
21.27107445864206
 10
21.47058672665514
 20
21.32269758462425
 10
21.47260677608905
 20
21.3769616314883
  0
DIMENSION
  5
95E6
330
18
100
AcDbEntity
  8
DIM
100
AcDbDimension
  2
*D1
 10
2.804015492790285
 20
21.3742904231718
 30
0.0
 11
2.804015492790281
 21
12.05651504811269
 31
0.0
 70
    32
 71
     5
 42
18.6355507501182
  3
STANDARD
100
AcDbAlignedDimension
 13
7.830084965146299
 23
2.738739673053589
 33
0.0
 14
7.721536400712423
 24
21.3742904231718
 34
0.0
 50
90.0
100
AcDbRotatedDimension
  0
LINE
  5
95F4
330
18
100
AcDbEntity
  8
0
100
AcDbLine
 10
24.70650874449844
 20
21.37429042317179
 30
0.0
 11
26.20650874449844
 21
21.37429042317179
 31
0.0
  0
LINE
  5
95F5
330
18
100
AcDbEntity
  8
0
100
AcDbLine
 10
26.20650874449844
 20
21.37429042317179
 30
0.0
 11
26.20650874449844
 21
2.749290423171789
 31
0.0
  0
LINE
  5
95F6
330
18
100
AcDbEntity
  8
0
100
AcDbLine
 10
26.20650874449844
 20
2.749290423171789
 30
0.0
 11
24.70650874449844
 21
2.749290423171789
 31
0.0
  0
LINE
  5
95F7
330
18
100
AcDbEntity
  8
0
100
AcDbLine
 10
24.70650874449844
 20
2.749290423171789
 30
0.0
 11
24.70650874449844
 21
21.37429042317179
 31
0.0
  0
DIMENSION
  5
95F9
330
18
100
AcDbEntity
  8
DIM
100
AcDbDimension
  2
*D2
 10
26.20650874449844
 20
24.08873048391046
 30
0.0
 11
27.14317541116511
 21
24.08873048391046
 31
0.0
 70
    32
 71
     5
 42
1.5
  3
STANDARD
100
AcDbAlignedDimension
 13
24.70650874449844
 23
12.06179042317179
 33
0.0
 14
26.20650874449844
 24
12.06179042317179
 34
0.0
100
AcDbRotatedDimension
  0
DIMENSION
  5
9607
330
18
100
AcDbEntity
  8
DIM
100
AcDbDimension
  2
*D3
 10
7.721536400712423
 20
23.77513412193437
 30
0.0
 11
14.59707158840073
 21
23.77513412193437
 31
0.0
 70
    32
 71
     5
 42
13.75107037537662
  3
STANDARD
100
AcDbAlignedDimension
 13
21.47260677608905
 23
21.3769616314883
 33
0.0
 14
7.721536400712423
 24
21.3742904231718
 34
0.0
100
AcDbRotatedDimension
  0
ENDSEC
  0
SECTION
  2
OBJECTS
  0
DICTIONARY
  5
C
330
0
100
AcDbDictionary
281
     1
  3
ACAD_COLOR
350
950F
  3
ACAD_GROUP
350
D
  3
ACAD_IMAGE_DICT
350
21
  3
ACAD_IMAGE_VARS
350
20
  3
ACAD_LAYOUT
350
9510
  3
ACAD_MATERIAL
350
950E
  3
ACAD_MLINESTYLE
350
1B
  3
ACAD_PLOTSETTINGS
350
9511
  3
ACAD_PLOTSTYLENAME
350
950C
  0
DICTIONARY
  5
950F
102
{ACAD_REACTORS
330
C
102
}
330
C
100
AcDbDictionary
281
     1
  0
DICTIONARY
  5
D
102
{ACAD_REACTORS
330
C
102
}
330
C
100
AcDbDictionary
281
     1
  0
DICTIONARY
  5
21
102
{ACAD_REACTORS
330
C
102
}
330
C
100
AcDbDictionary
281
     1
  3
3310-1
350
7CF0
  3
3310-2
350
7CF3
  3
3310-3
350
7CF6
  0
RASTERVARIABLES
  5
20
102
{ACAD_REACTORS
330
C
102
}
330
C
100
AcDbRasterVariables
 90
        0
 70
     1
 71
     1
 72
     0
  0
DICTIONARY
  5
9510
102
{ACAD_REACTORS
330
C
102
}
330
C
100
AcDbDictionary
281
     1
  3
Layout1
350
9513
  3
Model
350
9512
  0
DICTIONARY
  5
950E
102
{ACAD_REACTORS
330
C
102
}
330
C
100
AcDbDictionary
281
     1
  0
DICTIONARY
  5
1B
102
{ACAD_REACTORS
330
C
102
}
330
C
100
AcDbDictionary
281
     1
  3
STANDARD
350
1C
  0
DICTIONARY
  5
9511
102
{ACAD_REACTORS
330
C
102
}
330
C
100
AcDbDictionary
281
     1
  0
ACDBDICTIONARYWDFLT
  5
950C
102
{ACAD_REACTORS
330
C
102
}
330
C
100
AcDbDictionary
281
     1
  3
Normal
350
950D
100
AcDbDictionaryWithDefault
340
950D
  0
IMAGEDEF
  5
7CF0
102
{ACAD_REACTORS
330
21
102
}
330
21
100
AcDbRasterImageDef
 90
        0
  1
U:\TPDWG\MichelQ\3310-1.tif
 10
2681.0
 20
3592.0
 11
0.0705555555555556
 21
0.0705555555555556
280
     1
281
     5
  0
IMAGEDEF
  5
7CF3
102
{ACAD_REACTORS
330
21
102
}
330
21
100
AcDbRasterImageDef
 90
        0
  1
U:\TPDWG\MichelQ\3310-2.tif
 10
2681.0
 20
3592.0
 11
0.0705555555555556
 21
0.0705555555555556
280
     1
281
     5
  0
IMAGEDEF
  5
7CF6
102
{ACAD_REACTORS
330
21
102
}
330
21
100
AcDbRasterImageDef
 90
        0
  1
U:\TPDWG\MichelQ\3310-3.tif
 10
2681.0
 20
3592.0
 11
0.0705555555555556
 21
0.0705555555555556
280
     1
281
     5
  0
LAYOUT
  5
9513
102
{ACAD_REACTORS
330
9510
102
}
330
9510
100
AcDbPlotSettings
  1

  2
None
  4

  6

 40
0.0
 41
0.0
 42
0.0
 43
0.0
 44
0.0
 45
0.0
 46
0.0
 47
0.0
 48
0.0
 49
0.0
140
0.0
141
0.0
142
1.0
143
1.0
 70
   688
 72
     0
 73
     0
 74
     5
  7

 75
    16
147
1.0
 76
     0
 77
     2
 78
   300
148
0.0
149
0.0
100
AcDbLayout
  1
Layout1
 70
     1
 71
     1
 10
0.0
 20
0.0
 11
12.0
 21
9.0
 12
0.0
 22
0.0
 32
0.0
 14
1.000000000000000E+20
 24
1.000000000000000E+20
 34
1.000000000000000E+20
 15
-1.000000000000000E+20
 25
-1.000000000000000E+20
 35
-1.000000000000000E+20
146
0.0
 13
0.0
 23
0.0
 33
0.0
 16
1.0
 26
0.0
 36
0.0
 17
0.0
 27
1.0
 37
0.0
 76
     0
330
15
  0
LAYOUT
  5
9512
102
{ACAD_REACTORS
330
9510
102
}
330
9510
100
AcDbPlotSettings
  1

  2
None
  4

  6

 40
0.0
 41
0.0
 42
0.0
 43
0.0
 44
0.0
 45
0.0
 46
0.0
 47
0.0
 48
0.0
 49
0.0
140
0.0
141
0.0
142
1.0
143
1.0
 70
  1712
 72
     0
 73
     0
 74
     0
  7

 75
     0
147
1.0
 76
     0
 77
     2
 78
   300
148
0.0
149
0.0
100
AcDbLayout
  1
Model
 70
     1
 71
     0
 10
0.0
 20
0.0
 11
12.0
 21
9.0
 12
0.0
 22
0.0
 32
0.0
 14
0.0
 24
0.0
 34
0.0
 15
0.0
 25
0.0
 35
0.0
146
0.0
 13
0.0
 23
0.0
 33
0.0
 16
1.0
 26
0.0
 36
0.0
 17
0.0
 27
1.0
 37
0.0
 76
     0
330
18
  0
MLINESTYLE
  5
1C
102
{ACAD_REACTORS
330
1B
102
}
330
1B
100
AcDbMlineStyle
  2
STANDARD
 70
     0
  3

 62
   256
 51
90.0
 52
90.0
 71
     2
 49
0.5
 62
   256
  6
BYLAYER
 49
-0.5
 62
   256
  6
BYLAYER
  0
ACDBPLACEHOLDER
  5
950D
102
{ACAD_REACTORS
330
950C
102
}
330
950C
  0
ENDSEC
  0
EOF
