  0
SECTION
  2
HEADER
  9
$ACADVER
  1
AC1018
  9
$ACADMAINTVER
 70
     0
  9
$DWGCODEPAGE
  3
ANSI_1252
  9
$INSBASE
 10
0.0
 20
0.0
 30
0.0
  9
$EXTMIN
 10
7.402274994999331
 20
10.89323918106759
 30
0.0
  9
$EXTMAX
 10
33.33040067972686
 20
33.10003605477299
 30
0.0
  9
$LIMMIN
 10
0.0
 20
0.0
  9
$LIMMAX
 10
12.0
 20
9.0
  9
$ORTHOMODE
 70
     0
  9
$REGENMODE
 70
     1
  9
$FILLMODE
 70
     1
  9
$QTEXTMODE
 70
     0
  9
$MIRRTEXT
 70
     1
  9
$LTSCALE
 40
1.0
  9
$ATTMODE
 70
     1
  9
$TEXTSIZE
 40
0.2
  9
$TRACEWID
 40
0.05
  9
$TEXTSTYLE
  7
STANDARD
  9
$CLAYER
  8
0
  9
$CELTYPE
  6
BYLAYER
  9
$CECOLOR
 62
   256
  9
$CELTSCALE
 40
1.0
  9
$DISPSILH
 70
     0
  9
$DIMSCALE
 40
1.0
  9
$DIMASZ
 40
0.18
  9
$DIMEXO
 40
0.0625
  9
$DIMDLI
 40
0.38
  9
$DIMRND
 40
0.0
  9
$DIMDLE
 40
0.0
  9
$DIMEXE
 40
0.18
  9
$DIMTP
 40
0.0
  9
$DIMTM
 40
0.0
  9
$DIMTXT
 40
1.0
  9
$DIMCEN
 40
0.09
  9
$DIMTSZ
 40
0.0
  9
$DIMTOL
 70
     0
  9
$DIMLIM
 70
     0
  9
$DIMTIH
 70
     1
  9
$DIMTOH
 70
     1
  9
$DIMSE1
 70
     0
  9
$DIMSE2
 70
     0
  9
$DIMTAD
 70
     0
  9
$DIMZIN
 70
     0
  9
$DIMBLK
  1

  9
$DIMASO
 70
     1
  9
$DIMSHO
 70
     1
  9
$DIMPOST
  1

  9
$DIMAPOST
  1

  9
$DIMALT
 70
     0
  9
$DIMALTD
 70
     2
  9
$DIMALTF
 40
25.4
  9
$DIMLFAC
 40
1.0
  9
$DIMTOFL
 70
     0
  9
$DIMTVP
 40
0.0
  9
$DIMTIX
 70
     0
  9
$DIMSOXD
 70
     0
  9
$DIMSAH
 70
     0
  9
$DIMBLK1
  1

  9
$DIMBLK2
  1

  9
$DIMSTYLE
  2
STANDARD
  9
$DIMCLRD
 70
     0
  9
$DIMCLRE
 70
     0
  9
$DIMCLRT
 70
     0
  9
$DIMTFAC
 40
1.0
  9
$DIMGAP
 40
0.09
  9
$DIMJUST
 70
     0
  9
$DIMSD1
 70
     0
  9
$DIMSD2
 70
     0
  9
$DIMTOLJ
 70
     1
  9
$DIMTZIN
 70
     0
  9
$DIMALTZ
 70
     0
  9
$DIMALTTZ
 70
     0
  9
$DIMUPT
 70
     0
  9
$DIMDEC
 70
     4
  9
$DIMTDEC
 70
     4
  9
$DIMALTU
 70
     2
  9
$DIMALTTD
 70
     2
  9
$DIMTXSTY
  7
STANDARD
  9
$DIMAUNIT
 70
     0
  9
$DIMADEC
 70
     0
  9
$DIMALTRND
 40
0.0
  9
$DIMAZIN
 70
     0
  9
$DIMDSEP
 70
    46
  9
$DIMATFIT
 70
     3
  9
$DIMFRAC
 70
     0
  9
$DIMLDRBLK
  1

  9
$DIMLUNIT
 70
     5
  9
$DIMLWD
 70
    -2
  9
$DIMLWE
 70
    -2
  9
$DIMTMOVE
 70
     0
  9
$LUNITS
 70
     4
  9
$LUPREC
 70
     4
  9
$SKETCHINC
 40
0.1
  9
$FILLETRAD
 40
0.0
  9
$AUNITS
 70
     0
  9
$AUPREC
 70
     0
  9
$MENU
  1
.
  9
$ELEVATION
 40
0.0
  9
$PELEVATION
 40
0.0
  9
$THICKNESS
 40
0.0
  9
$LIMCHECK
 70
     0
  9
$CHAMFERA
 40
0.5
  9
$CHAMFERB
 40
0.5
  9
$CHAMFERC
 40
1.0
  9
$CHAMFERD
 40
0.0
  9
$SKPOLY
 70
     0
  9
$TDCREATE
 40
2451160.318790972
  9
$TDUCREATE
 40
2451160.485457639
  9
$TDUPDATE
 40
2453488.684619943
  9
$TDUUPDATE
 40
2453488.851286609
  9
$TDINDWG
 40
0.1608619676
  9
$TDUSRTIMER
 40
0.1608619676
  9
$USRTIMER
 70
     1
  9
$ANGBASE
 50
0.0
  9
$ANGDIR
 70
     0
  9
$PDMODE
 70
     3
  9
$PDSIZE
 40
1.0
  9
$PLINEWID
 40
0.0
  9
$SPLFRAME
 70
     0
  9
$SPLINETYPE
 70
     6
  9
$SPLINESEGS
 70
     8
  9
$HANDSEED
  5
8F84
  9
$SURFTAB1
 70
     6
  9
$SURFTAB2
 70
     6
  9
$SURFTYPE
 70
     6
  9
$SURFU
 70
     6
  9
$SURFV
 70
     6
  9
$UCSBASE
  2

  9
$UCSNAME
  2

  9
$UCSORG
 10
0.0
 20
0.0
 30
0.0
  9
$UCSXDIR
 10
1.0
 20
0.0
 30
0.0
  9
$UCSYDIR
 10
0.0
 20
1.0
 30
0.0
  9
$UCSORTHOREF
  2

  9
$UCSORTHOVIEW
 70
     0
  9
$UCSORGTOP
 10
0.0
 20
0.0
 30
0.0
  9
$UCSORGBOTTOM
 10
0.0
 20
0.0
 30
0.0
  9
$UCSORGLEFT
 10
0.0
 20
0.0
 30
0.0
  9
$UCSORGRIGHT
 10
0.0
 20
0.0
 30
0.0
  9
$UCSORGFRONT
 10
0.0
 20
0.0
 30
0.0
  9
$UCSORGBACK
 10
0.0
 20
0.0
 30
0.0
  9
$PUCSBASE
  2

  9
$PUCSNAME
  2

  9
$PUCSORG
 10
0.0
 20
0.0
 30
0.0
  9
$PUCSXDIR
 10
1.0
 20
0.0
 30
0.0
  9
$PUCSYDIR
 10
0.0
 20
1.0
 30
0.0
  9
$PUCSORTHOREF
  2

  9
$PUCSORTHOVIEW
 70
     0
  9
$PUCSORGTOP
 10
0.0
 20
0.0
 30
0.0
  9
$PUCSORGBOTTOM
 10
0.0
 20
0.0
 30
0.0
  9
$PUCSORGLEFT
 10
0.0
 20
0.0
 30
0.0
  9
$PUCSORGRIGHT
 10
0.0
 20
0.0
 30
0.0
  9
$PUCSORGFRONT
 10
0.0
 20
0.0
 30
0.0
  9
$PUCSORGBACK
 10
0.0
 20
0.0
 30
0.0
  9
$USERI1
 70
     0
  9
$USERI2
 70
     0
  9
$USERI3
 70
     0
  9
$USERI4
 70
     0
  9
$USERI5
 70
     0
  9
$USERR1
 40
0.0
  9
$USERR2
 40
0.0
  9
$USERR3
 40
0.0
  9
$USERR4
 40
0.0
  9
$USERR5
 40
0.0
  9
$WORLDVIEW
 70
     1
  9
$SHADEDGE
 70
     3
  9
$SHADEDIF
 70
    70
  9
$TILEMODE
 70
     1
  9
$MAXACTVP
 70
    48
  9
$PINSBASE
 10
0.0
 20
0.0
 30
0.0
  9
$PLIMCHECK
 70
     0
  9
$PEXTMIN
 10
1.000000000000000E+20
 20
1.000000000000000E+20
 30
1.000000000000000E+20
  9
$PEXTMAX
 10
-1.000000000000000E+20
 20
-1.000000000000000E+20
 30
-1.000000000000000E+20
  9
$PLIMMIN
 10
0.0
 20
0.0
  9
$PLIMMAX
 10
12.0
 20
9.0
  9
$UNITMODE
 70
     0
  9
$VISRETAIN
 70
     1
  9
$PLINEGEN
 70
     0
  9
$PSLTSCALE
 70
     1
  9
$TREEDEPTH
 70
  3020
  9
$CMLSTYLE
  2
STANDARD
  9
$CMLJUST
 70
     0
  9
$CMLSCALE
 40
1.0
  9
$PROXYGRAPHICS
 70
     1
  9
$MEASUREMENT
 70
     0
  9
$CELWEIGHT
370
    -1
  9
$ENDCAPS
280
     0
  9
$JOINSTYLE
280
     0
  9
$LWDISPLAY
290
     0
  9
$INSUNITS
 70
     0
  9
$HYPERLINKBASE
  1

  9
$STYLESHEET
  1

  9
$XEDIT
290
     1
  9
$CEPSNTYPE
380
     0
  9
$PSTYLEMODE
290
     1
  9
$FINGERPRINTGUID
  2
{B3BBDD25-DBB8-4DE0-8BCF-270E70DACCB2}
  9
$VERSIONGUID
  2
{3DD25C3A-E083-443B-9213-E11813BD4294}
  9
$EXTNAMES
290
     1
  9
$PSVPSCALE
 40
0.0
  9
$OLESTARTUP
290
     0
  9
$SORTENTS
280
   127
  9
$INDEXCTL
280
     0
  9
$HIDETEXT
280
     0
  9
$XCLIPFRAME
290
     0
  9
$HALOGAP
280
     0
  9
$OBSCOLOR
 70
   257
  9
$OBSLTYPE
280
     0
  9
$INTERSECTIONDISPLAY
280
     0
  9
$INTERSECTIONCOLOR
 70
   257
  9
$DIMASSOC
280
     1
  9
$PROJECTNAME
  1

  0
ENDSEC
  0
SECTION
  2
CLASSES
  0
CLASS
  1
RASTERVARIABLES
  2
AcDbRasterVariables
  3
ISM
 90
        0
 91
        1
280
     0
281
     0
  0
CLASS
  1
IMAGEDEF
  2
AcDbRasterImageDef
  3
ISM
 90
        0
 91
        3
280
     0
281
     0
  0
CLASS
  1
IMAGEDEF_REACTOR
  2
AcDbRasterImageDefReactor
  3
ISM
 90
        1
 91
        0
280
     0
281
     0
  0
CLASS
  1
IMAGE
  2
AcDbRasterImage
  3
ISM
 90
      127
 91
        0
280
     0
281
     1
  0
CLASS
  1
ACDBDICTIONARYWDFLT
  2
AcDbDictionaryWithDefault
  3
ObjectDBX Classes
 90
        0
 91
        1
280
     0
281
     0
  0
ENDSEC
  0
SECTION
  2
TABLES
  0
TABLE
  2
VPORT
  5
8
330
0
100
AcDbSymbolTable
 70
     2
  0
VPORT
  5
8F83
330
8
100
AcDbSymbolTableRecord
100
AcDbViewportTableRecord
  2
*Active
 70
     0
 10
0.0
 20
0.0
 11
1.0
 21
1.0
 12
20.67238739105324
 22
21.12418651149877
 13
0.0
 23
0.0
 14
0.5
 24
0.5
 15
0.5
 25
0.5
 16
0.0
 26
0.0
 36
1.0
 17
0.0
 27
0.0
 37
0.0
 40
24.2531040303373
 41
1.977142857142856
 42
50.0
 43
0.0
 44
0.0
 50
0.0
 51
0.0
 71
     0
 72
   100
 73
     1
 74
     1
 75
     0
 76
     0
 77
     0
 78
     0
281
     0
 65
     1
110
0.0
120
0.0
130
0.0
111
1.0
121
0.0
131
0.0
112
0.0
122
1.0
132
0.0
 79
     0
146
0.0
  0
ENDTAB
  0
TABLE
  2
LTYPE
  5
5
330
0
100
AcDbSymbolTable
 70
     1
  0
LTYPE
  5
12
330
5
100
AcDbSymbolTableRecord
100
AcDbLinetypeTableRecord
  2
BYBLOCK
 70
     0
  3

 72
    65
 73
     0
 40
0.0
  0
LTYPE
  5
13
330
5
100
AcDbSymbolTableRecord
100
AcDbLinetypeTableRecord
  2
BYLAYER
 70
     0
  3

 72
    65
 73
     0
 40
0.0
  0
LTYPE
  5
14
330
5
100
AcDbSymbolTableRecord
100
AcDbLinetypeTableRecord
  2
CONTINUOUS
 70
     0
  3
Solid line
 72
    65
 73
     0
 40
0.0
  0
ENDTAB
  0
TABLE
  2
LAYER
  5
2
330
0
100
AcDbSymbolTable
 70
     3
  0
LAYER
  5
E
330
2
100
AcDbSymbolTableRecord
100
AcDbLayerTableRecord
  2
0
 70
     0
 62
     7
  6
CONTINUOUS
370
    -3
390
8E62
  0
LAYER
  5
8E6C
330
2
100
AcDbSymbolTableRecord
100
AcDbLayerTableRecord
  2
Defpoints
 70
     0
 62
     7
  6
CONTINUOUS
290
     0
370
    -3
390
8E62
  0
LAYER
  5
8F41
330
2
100
AcDbSymbolTableRecord
100
AcDbLayerTableRecord
  2
DIM
 70
     0
 62
    -3
  6
CONTINUOUS
370
    -3
390
8E62
  0
ENDTAB
  0
TABLE
  2
STYLE
  5
3
330
0
100
AcDbSymbolTable
 70
     1
  0
STYLE
  5
F
330
3
100
AcDbSymbolTableRecord
100
AcDbTextStyleTableRecord
  2
STANDARD
 70
     0
 40
0.0
 41
1.0
 50
0.0
 71
     0
 42
0.2
  3
txt
  4

  0
ENDTAB
  0
TABLE
  2
VIEW
  5
6
330
0
100
AcDbSymbolTable
 70
     0
  0
ENDTAB
  0
TABLE
  2
UCS
  5
7
330
0
100
AcDbSymbolTable
 70
     0
  0
ENDTAB
  0
TABLE
  2
APPID
  5
9
330
0
100
AcDbSymbolTable
 70
     1
  0
APPID
  5
10
330
9
100
AcDbSymbolTableRecord
100
AcDbRegAppTableRecord
  2
ACAD
 70
     0
  0
ENDTAB
  0
TABLE
  2
DIMSTYLE
  5
A
330
0
100
AcDbSymbolTable
 70
     1
100
AcDbDimStyleTable
 71
     1
340
1D
  0
DIMSTYLE
105
1D
102
{ACAD_REACTORS
330
8F0D
330
8F1F
330
8F2D
102
}
330
A
100
AcDbSymbolTableRecord
100
AcDbDimStyleTableRecord
  2
STANDARD
 70
     0
140
1.0
277
     5
340
F
  0
ENDTAB
  0
TABLE
  2
BLOCK_RECORD
  5
1
330
0
100
AcDbSymbolTable
 70
     4
  0
BLOCK_RECORD
  5
18
330
1
100
AcDbSymbolTableRecord
100
AcDbBlockTableRecord
  2
*MODEL_SPACE
340
8E67
  0
BLOCK_RECORD
  5
15
330
1
100
AcDbSymbolTableRecord
100
AcDbBlockTableRecord
  2
*PAPER_SPACE
340
8E68
  0
BLOCK_RECORD
  5
8964
330
1
100
AcDbSymbolTableRecord
100
AcDbBlockTableRecord
  2
3311_E
340
0
  0
BLOCK_RECORD
  5
8F0E
330
1
100
AcDbSymbolTableRecord
100
AcDbBlockTableRecord
  2
*D1
340
0
  0
BLOCK_RECORD
  5
8F20
330
1
100
AcDbSymbolTableRecord
100
AcDbBlockTableRecord
  2
*D2
340
0
  0
BLOCK_RECORD
  5
8F2E
330
1
100
AcDbSymbolTableRecord
100
AcDbBlockTableRecord
  2
*D3
340
0
  0
ENDTAB
  0
ENDSEC
  0
SECTION
  2
BLOCKS
  0
BLOCK
  5
19
330
18
100
AcDbEntity
  8
0
100
AcDbBlockBegin
  2
*MODEL_SPACE
 70
     0
 10
0.0
 20
0.0
 30
0.0
  3
*MODEL_SPACE
  1

  0
ENDBLK
  5
1A
330
18
100
AcDbEntity
  8
0
100
AcDbBlockEnd
  0
BLOCK
  5
16
330
15
100
AcDbEntity
 67
     1
  8
0
100
AcDbBlockBegin
  2
*PAPER_SPACE
 70
     0
 10
0.0
 20
0.0
 30
0.0
  3
*PAPER_SPACE
  1

  0
ENDBLK
  5
17
330
15
100
AcDbEntity
 67
     1
  8
0
100
AcDbBlockEnd
  0
BLOCK
  5
8965
330
8964
100
AcDbEntity
  8
0
100
AcDbBlockBegin
  2
3311_E
 70
     0
 10
0.0
 20
0.0
 30
0.0
  3
3311_E
  1

  0
LINE
  5
8966
330
8964
100
AcDbEntity
  8
0
100
AcDbLine
 10
0.0
 20
0.0
 30
0.0
 11
0.0
 21
-18.16392665088901
 31
0.0
  0
LWPOLYLINE
  5
8967
330
8964
100
AcDbEntity
  8
0
100
AcDbPolyline
 90
      882
 70
     0
 43
0.0
 10
0.0
 20
-18.16392665088903
 10
0.0153791229316696
 20
-18.16692583131646
 10
0.045939740474882
 20
-18.1719174387765
 10
0.0768313934865432
 20
-18.17561921884951
 10
0.1085547702602092
 20
-18.17788003675543
 10
0.1414450420837898
 20
-18.17855082791462
 10
0.1758373802452144
 20
-18.17748252774745
 10
0.2120669560323911
 20
-18.17452607167427
 10
0.2504689407332563
 20
-18.16953239511545
 10
0.2913785056357145
 20
-18.16235243349136
 10
0.3351308220277112
 20
-18.15283712222232
 10
0.3818500272748402
 20
-18.14088501460353
 10
0.4308161230535692
 20
-18.12658513542922
 10
0.4810980771180251
 20
-18.1100741273684
 10
0.5317648572223597
 20
-18.09148863309015
 10
0.5818854311207069
 20
-18.0709652952635
 10
0.6305287665672168
 20
-18.04864075655748
 10
0.6767638313160376
 20
-18.02465165964116
 10
0.719659593121305
 20
-17.99913464718356
 10
0.7584774330485509
 20
-17.97225534670522
 10
0.7932483854088197
 20
-17.9442953251327
 10
0.8241958978245449
 20
-17.91556513424408
 10
0.8515434179181369
 20
-17.88637532581743
 10
0.8755143933120432
 20
-17.85703645163083
 10
0.8963322716286867
 20
-17.82785906346236
 10
0.9142205004904866
 20
-17.79915371309005
 10
0.9294025275198798
 20
-17.771230952292
 10
0.9421618002987717
 20
-17.74435992600546
 10
0.9530217662469091
 20
-17.71864415180458
 10
0.9625658727435535
 20
-17.69414574042265
 10
0.971377567167929
 20
-17.67092680259299
 10
0.9800402968992774
 20
-17.64904944904892
 10
0.9891375093168299
 20
-17.62857579052375
 10
0.9992526517998303
 20
-17.60956793775081
 10
1.010969171727523
 20
-17.59208800146338
 10
1.024694654654595
 20
-17.5761525446811
 10
1.040133238837562
 20
-17.56159593956865
 10
1.056813200708411
 20
-17.548207010577
 10
1.074262816699103
 20
-17.53577458215714
 10
1.092010363241625
 20
-17.52408747876008
 10
1.109584116767955
 20
-17.51293452483675
 10
1.126512353710067
 20
-17.50210454483816
 10
1.142323350499939
 20
-17.49138636321526
 10
1.156636417985774
 20
-17.48057294521333
 10
1.169435004680748
 20
-17.46947381925452
 10
1.18079359351425
 20
-17.45790265455526
 10
1.190786667415686
 20
-17.44567312033201
 10
1.199488709314458
 20
-17.43259888580119
 10
1.206974202139965
 20
-17.41849362017924
 10
1.213317628821608
 20
-17.40317099268257
 10
1.21859347228878
 20
-17.38644467252765
 10
1.222880353330461
 20
-17.36818836883432
 10
1.226273444173871
 20
-17.34851595033603
 10
1.228872054905799
 20
-17.32760132566975
 10
1.230775495613052
 20
-17.30561840347231
 10
1.232083076382416
 20
-17.28274109238067
 10
1.232894107300698
 20
-17.25914330103172
 10
1.233307898454683
 20
-17.23499893806233
 10
1.233423759931167
 20
-17.21048191210946
 10
1.233336863908812
 20
-17.18578269467218
 10
1.233125830933701
 20
-17.16115800869847
 10
1.232865143643806
 20
-17.13688113999859
 10
1.232629284677075
 20
-17.11322537438273
 10
1.232492736671471
 20
-17.09046399766107
 10
1.232529982264944
 20
-17.06887029564385
 10
1.232815504095459
 20
-17.04871755414126
 10
1.233423784800972
 20
-17.03027905896354
 10
1.234443789649349
 20
-17.01375149307654
 10
1.236022414428123
 20
-16.99902512806891
 10
1.238321037554758
 20
-16.98591363268492
 10
1.241501037446674
 20
-16.97423067566894
 10
1.245723792521337
 20
-16.96378992576522
 10
1.251150681196179
 20
-16.95440505171809
 10
1.257943081888669
 20
-16.94588972227187
 10
1.266262373016235
 20
-16.93805760617083
 10
1.276259588371704
 20
-16.9307140908069
 10
1.288044383249388
 20
-16.92363143816225
 10
1.301716068318961
 20
-16.91657362886666
 10
1.317373954250111
 20
-16.90930464354994
 10
1.335117351712515
 20
-16.90158846284184
 10
1.35504557137585
 20
-16.89318906737216
 10
1.377257923909811
 20
-16.88387043777069
 10
1.401853719984066
 20
-16.87339655466719
 10
1.428837097992486
 20
-16.86155210219052
 10
1.457831507225762
 20
-16.84820457846591
 10
1.488365224698736
 20
-16.83324218511763
 10
1.519966527426284
 20
-16.81655312376997
 10
1.552163692423254
 20
-16.79802559604722
 10
1.584484996704514
 20
-16.77754780357364
 10
1.616458717284929
 20
-16.75500794797356
 10
1.647613131179365
 20
-16.73029423087125
 10
1.677524101394853
 20
-16.70342735592315
 10
1.705957834907172
 20
-16.67495803491442
 10
1.732728124684243
 20
-16.6455694816624
 10
1.757648763694021
 20
-16.61594490998443
 10
1.780533544904454
 20
-16.58676753369781
 10
1.801196261283479
 20
-16.55872056661991
 10
1.819450705799031
 20
-16.53248722256802
 10
1.835110671419066
 20
-16.50875071535947
 10
1.848120295800807
 20
-16.48801620906571
 10
1.858945095358626
 20
-16.47007666877459
 10
1.868180931196176
 20
-16.45454700982805
 10
1.876423664417119
 20
-16.44104214756804
 10
1.884269156125112
 20
-16.42917699733651
 10
1.892313267423801
 20
-16.41856647447542
 10
1.901151859416859
 20
-16.40882549432672
 10
1.91138079320793
 20
-16.39956897223233
 10
1.923426275084066
 20
-16.39046979339464
 10
1.937035892065857
 20
-16.38143272245748
 10
1.951787576357283
 20
-16.37242049392516
 10
1.967259260162336
 20
-16.36339584230192
 10
1.983028875684983
 20
-16.354321502092
 10
1.998674355129214
 20
-16.34516020779973
 10
2.013773630699004
 20
-16.33587469392931
 10
2.02790463459835
 20
-16.32642769498503
 10
2.040732195247862
 20
-16.31675710117785
 10
2.052268725934812
 20
-16.30670142554539
 10
2.062613536163116
 20
-16.29607433683194
 10
2.071865935436665
 20
-16.28468950378183
 10
2.080125233259378
 20
-16.27236059513934
 10
2.087490739135162
 20
-16.2589012796488
 10
2.094061762567932
 20
-16.24412522605451
 10
2.09993761306158
 20
-16.22784610310077
 10
2.105232083041396
 20
-16.20995211193976
 10
2.110116896618073
 20
-16.19062958335502
 10
2.114778260823653
 20
-16.17013938053798
 10
2.119402382690203
 20
-16.14874236668006
 10
2.124175469249792
 20
-16.12669940497267
 10
2.12928372753446
 20
-16.10427135860723
 10
2.134913364576265
 20
-16.08171909077515
 10
2.141250587407281
 20
-16.05930346466787
 10
2.148450568505632
 20
-16.03723772564135
 10
2.156544342133798
 20
-16.01554464770983
 10
2.165531908000341
 20
-15.99419938705213
 10
2.175413265813805
 20
-15.97317709984702
 10
2.18618841528276
 20
-15.9524529422733
 10
2.197857356115751
 20
-15.93200207050983
 10
2.210420088021344
 20
-15.91179964073534
 10
2.223876610708096
 20
-15.89182080912867
 10
2.238218648068274
 20
-15.87205936485255
 10
2.253404820729056
 20
-15.8525836290054
 10
2.2693854735013
 20
-15.83348055566967
 10
2.286110951195908
 20
-15.81483709892771
 10
2.303531598623752
 20
-15.79674021286189
 10
2.321597760595713
 20
-15.77927685155463
 10
2.340259781922675
 20
-15.76253396908831
 10
2.359468007415511
 20
-15.74659851954531
 10
2.37913760966593
 20
-15.73152640195611
 10
2.399043072388861
 20
-15.71724929514358
 10
2.418923707080073
 20
-15.70366782287865
 10
2.43851882523532
 20
-15.69068260893228
 10
2.457567738350345
 20
-15.67819427707543
 10
2.47580975792094
 20
-15.66610345107904
 10
2.492984195442822
 20
-15.65431075471406
 10
2.50883036241178
 20
-15.64271681175141
 10
2.523137225221233
 20
-15.63120775345765
 10
2.535892369855325
 20
-15.61961174108148
 10
2.547133037195855
 20
-15.60774244336725
 10
2.556896468124659
 20
-15.59541352905924
 10
2.565219903523541
 20
-15.58243866690176
 10
2.572140584274318
 20
-15.56863152563912
 10
2.577695751258797
 20
-15.55380577401563
 10
2.581922645358792
 20
-15.53777508077559
 10
2.584856438550628
 20
-15.52038624030906
 10
2.586524027188639
 20
-15.50161854958907
 10
2.586950238721653
 20
-15.48148443123442
 10
2.586159900598524
 20
-15.45999630786391
 10
2.584177840268075
 20
-15.43716660209634
 10
2.581028885179151
 20
-15.41300773655046
 10
2.576737862780591
 20
-15.3875321338451
 10
2.571329600521233
 20
-15.36075221659903
 10
2.564816512125492
 20
-15.33271560304114
 10
2.557161356420117
 20
-15.30361069384063
 10
2.548314478507418
 20
-15.27366108527679
 10
2.538226223489738
 20
-15.24309037362897
 10
2.526846936469395
 20
-15.21212215517642
 10
2.514126962548701
 20
-15.18098002619844
 10
2.50001664682999
 20
-15.14988758297437
 10
2.484466334415589
 20
-15.11906842178349
 10
2.467509128813485
 20
-15.08873785786742
 10
2.44950916715431
 20
-15.05907808231712
 10
2.430913344974356
 20
-15.03026300518586
 10
2.412168557809936
 20
-15.00246653652698
 10
2.393721701197339
 20
-14.97586258639371
 10
2.37601967067288
 20
-14.95062506483935
 10
2.359509361772843
 20
-14.9269278819172
 10
2.34463767003354
 20
-14.90494494768051
 10
2.331766663582946
 20
-14.88477149874445
 10
2.32091910091584
 20
-14.8661880779715
 10
2.312032913118695
 20
-14.84889655478599
 10
2.305046031277964
 20
-14.83259879861225
 10
2.299896386480098
 20
-14.81699667887466
 10
2.29652190981157
 20
-14.8017920649975
 10
2.294860532358846
 20
-14.78668682640514
 10
2.294850185208376
 20
-14.77138283252191
 10
2.296445351176339
 20
-14.75559437507621
 10
2.299666719997727
 20
-14.73908543501256
 10
2.304551533137225
 20
-14.72163241557949
 10
2.311137032059553
 20
-14.70301172002564
 10
2.319460458229407
 20
-14.68299975159953
 10
2.329559053111479
 20
-14.66137291354976
 10
2.341470058170475
 20
-14.6379076091249
 10
2.355230714871098
 20
-14.61238024157351
 10
2.370803782040075
 20
-14.58464174647334
 10
2.387854087952341
 20
-14.55484118871875
 10
2.405971978244837
 20
-14.52320216553335
 10
2.424747798554541
 20
-14.48994827414065
 10
2.443771894518381
 20
-14.45530311176422
 10
2.462634611773342
 20
-14.41949027562762
 10
2.480926295956372
 20
-14.38273336295439
 10
2.498237292704416
 20
-14.34525597096811
 10
2.514237447435592
 20
-14.30721922419459
 10
2.52891460469258
 20
-14.2685343563687
 10
2.54233610879919
 20
-14.22905012852763
 10
2.55456930407926
 20
-14.18861530170852
 10
2.565681534856601
 20
-14.14707863694853
 10
2.57574014545505
 20
-14.10428889528481
 10
2.584812480198419
 20
-14.06009483775454
 10
2.592965883410533
 20
-14.01434522539485
 10
2.600275820280955
 20
-13.96694746188499
 10
2.606850239462186
 20
-13.91804352147247
 10
2.612805210472464
 20
-13.8678340210469
 10
2.618256802830007
 20
-13.81651957749789
 10
2.623321086053064
 20
-13.76430080771502
 10
2.628114129659865
 20
-13.71137832858791
 10
2.632752003168635
 20
-13.65795275700614
 10
2.63735077609763
 20
-13.60422470985933
 10
2.642044052149216
 20
-13.5503731170177
 10
2.64703557176246
 20
-13.4964901602741
 10
2.652546609560534
 20
-13.44264633440201
 10
2.658798440166648
 20
-13.38891213417486
 10
2.666012338203993
 20
-13.33535805436612
 10
2.674409578295765
 20
-13.28205458974928
 10
2.68421143506517
 20
-13.22907223509782
 10
2.695639183135391
 20
-13.17648148518517
 10
2.708857976762638
 20
-13.12437317600476
 10
2.723808488735091
 20
-13.07291950842959
 10
2.740375271473954
 20
-13.02231302455266
 10
2.758442877400405
 20
-12.97274626646689
 10
2.777895858935643
 20
-12.92441177626527
 10
2.798618768500867
 20
-12.87750209604076
 10
2.820496158517254
 20
-12.8322097678863
 10
2.843412581406012
 20
-12.78872733389487
 10
2.867300692843301
 20
-12.74717673743924
 10
2.892285561525245
 20
-12.70739752701129
 10
2.918540359402939
 20
-12.66915865238278
 10
2.946238258427481
 20
-12.63222906332543
 10
2.975552430549981
 20
-12.59637770961096
 10
3.00665604772152
 20
-12.5613735410111
 10
3.039722281893197
 20
-12.52698550729756
 10
3.074924305016125
 20
-12.49298255824206
 10
3.112355116755459
 20
-12.45922991466282
 10
3.151787027632611
 20
-12.42597788156398
 10
3.192912175883073
 20
-12.39357303499611
 10
3.235422699742315
 20
-12.36236195100983
 10
3.279010737445837
 20
-12.33269120565575
 10
3.323368427229098
 20
-12.30490737498447
 10
3.368187907327591
 20
-12.27935703504661
 10
3.413161315976804
 20
-12.25638676189276
 10
3.458000032918221
 20
-12.23625648744286
 10
3.502492403917337
 20
-12.21887956709409
 10
3.546446016245663
 20
-12.20408271211294
 10
3.589668457174703
 20
-12.19169263376595
 10
3.631967313975955
 20
-12.18153604331959
 10
3.67315017392093
 20
-12.17343965204039
 10
3.713024624281139
 20
-12.16723017119485
 10
3.751398252328076
 20
-12.16273431204946
 10
3.788120334704338
 20
-12.15976594998302
 10
3.823206905536792
 20
-12.15808761682337
 10
3.856715688323419
 20
-12.15744900851065
 10
3.888704406562155
 20
-12.15759982098498
 10
3.919230783750975
 20
-12.15828975018649
 10
3.948352543387848
 20
-12.15926849205532
 10
3.976127408970722
 20
-12.16028574253159
 10
4.00261310399756
 20
-12.16109119755544
 10
4.027873765898807
 20
-12.16147947946093
 10
4.051999187834841
 20
-12.16142491615783
 10
4.075085576898509
 20
-12.16094676194988
 10
4.097229140182673
 20
-12.1600642711408
 10
4.118526084780182
 20
-12.15879669803431
 10
4.139072617783888
 20
-12.15716329693412
 10
4.158964946286658
 20
-12.15518332214397
 10
4.178299277381345
 20
-12.15287602796757
 10
4.197155783596741
 20
-12.15017402465665
 10
4.215550499205466
 20
-12.14666334625494
 10
4.233483423916073
 20
-12.14184338275422
 10
4.250954557437111
 20
-12.1352135241462
 10
4.267963899477155
 20
-12.12627316042266
 10
4.284511449744741
 20
-12.11452168157533
 10
4.300597207948449
 20
-12.09945847759597
 10
4.316221173796808
 20
-12.08058293847632
 10
4.331360898841886
 20
-12.05756774223343
 10
4.345904142009636
 20
-12.03077871898557
 10
4.359716214069553
 20
-12.0007549868763
 10
4.372662425791105
 20
-11.9680356640492
 10
4.384608087943725
 20
-11.93315986864782
 10
4.395418511296906
 20
-11.89666671881575
 10
4.404959006620103
 20
-11.85909533269654
 10
4.413094884682795
 20
-11.82098482843377
 10
4.419710697517572
 20
-11.78279409822024
 10
4.424767962209589
 20
-11.74466113044575
 10
4.428247437107099
 20
-11.70664368754933
 10
4.430129880558393
 20
-11.66879953197002
 10
4.430396050911724
 20
-11.63118642614688
 10
4.429026706515404
 20
-11.59386213251891
 10
4.42600260571767
 20
-11.55688441352516
 10
4.42130450686681
 20
-11.52031103160468
 10
4.414961271808962
 20
-11.48422542160146
 10
4.407194176381658
 20
-11.44881370797935
 10
4.398272599920296
 20
-11.41428768760716
 10
4.388465921760275
 20
-11.38085915735369
 10
4.378043521236996
 20
-11.34873991408776
 10
4.367274777685842
 20
-11.31814175467819
 10
4.356429070442217
 20
-11.28927647599377
 10
4.345775778841524
 20
-11.26235587490332
 10
4.33556183381976
 20
-11.23751152216752
 10
4.325944372715401
 20
-11.21455408411452
 10
4.317058084467557
 20
-11.19321400096436
 10
4.309037658015299
 20
-11.17322171293704
 10
4.302017782297738
 20
-11.1543076602526
 10
4.296133146253932
 20
-11.13620228313108
 10
4.291518438822997
 20
-11.11863602179247
 10
4.288308348944028
 20
-11.10133931645683
 10
4.28662473803115
 20
-11.08411320645782
 10
4.286538157398727
 20
-11.06704112758368
 10
4.28810633083615
 20
-11.05027711473631
 10
4.291386982132841
 20
-11.03397520281764
 10
4.296437835078183
 20
-11.01828942672954
 10
4.3033166134616
 20
-11.00337382137393
 10
4.312081041072481
 20
-10.9893824216527
 10
4.322788841700251
 20
-10.97646926246775
 10
4.335565083895268
 20
-10.9647241975512
 10
4.350804215251908
 20
-10.95398035595606
 10
4.368968028125507
 20
-10.94400668556551
 10
4.390518314871378
 20
-10.93457213426279
 10
4.415916867844863
 20
-10.92544564993111
 10
4.445625479401293
 20
-10.91639618045368
 10
4.480105941896013
 20
-10.9071926737137
 10
4.519820047684348
 20
-10.89760407759441
 10
4.565008313721257
 20
-10.88739292242858
 10
4.615026155360173
 20
-10.8762960683473
 10
4.669007712554186
 20
-10.86404395793123
 10
4.726087125256334
 20
-10.85036703376104
 10
4.785398533419698
 20
-10.8349957384174
 10
4.846076076997334
 20
-10.81766051448094
 10
4.907253895942325
 20
-10.79809180453236
 10
4.968066130207713
 20
-10.77602005115229
 10
5.027768781500739
 20
-10.75126875852384
 10
5.086105298545255
 20
-10.72403367723977
 10
5.142940991819283
 20
-10.69460361949524
 10
5.198141171800859
 20
-10.66326739748548
 10
5.251571148968004
 20
-10.63031382340564
 10
5.30309623379874
 20
-10.59603170945094
 10
5.352581736771078
 20
-10.56070986781654
 10
5.399892968363069
 20
-10.52463711069763
 10
5.444959376871739
 20
-10.48798672517527
 10
5.487966961870291
 20
-10.45046989787395
 10
5.529165860750975
 20
-10.41168229030402
 10
5.568806210905982
 20
-10.37121956397584
 10
5.607138149727564
 20
-10.32867738039977
 10
5.644411814607959
 20
-10.28365140108616
 10
5.680877342939371
 20
-10.23573728754537
 10
5.716784872114025
 20
-10.18453070128776
 10
5.752288332868481
 20
-10.1297749195227
 10
5.787156829316515
 20
-10.07180368225571
 10
5.821063258916186
 20
-10.01109834519131
 10
5.85368051912561
 20
-9.948140264034041
 10
5.884681507402845
 20
-9.883410794488415
 10
5.913739121205999
 20
-9.817391292258974
 10
5.940526257993145
 20
-9.750563113050247
 10
5.964715815222369
 20
-9.683407612566753
 10
5.985990311031901
 20
-9.616274575988427
 10
6.004070746280547
 20
-9.548987506396713
 10
6.018687742507211
 20
-9.481238336348436
 10
6.029571921250838
 20
-9.41271899840045
 10
6.036453904050368
 20
-9.343121425109579
 10
6.039064312444729
 20
-9.272137549032663
 10
6.037133767972854
 20
-9.199459302726559
 10
6.030392892173676
 20
-9.124778618748074
 10
6.018668513144657
 20
-9.047989598977558
 10
6.002172285217476
 20
-8.969795022589416
 10
5.981212069282292
 20
-8.89109983808153
 10
5.956095726229293
 20
-8.812808993951794
 10
5.927131116948697
 20
-8.735827438698109
 10
5.894626102330668
 20
-8.661060120818373
 10
5.858888543265393
 20
-8.589411988810468
 10
5.820226300643085
 20
-8.521787991172306
 10
5.778899132098921
 20
-8.458929415292264
 10
5.734974382248186
 20
-8.400922904120712
 10
5.688471292451154
 20
-8.347691439498515
 10
5.6394091040681
 20
-8.299158003266519
 10
5.587807058459329
 20
-8.25524557726559
 10
5.533684396985108
 20
-8.21587714333657
 10
5.477060361005722
 20
-8.180975683320355
 10
5.417954191881449
 20
-8.15046417905776
 10
5.356426820586527
 20
-8.124326584508835
 10
5.292705936550966
 20
-8.102790742110229
 10
5.2270609188187
 20
-8.086145466417775
 10
5.159761146433698
 20
-8.074679571987296
 10
5.091075998439908
 20
-8.068681873374607
 10
5.021274853881283
 20
-8.06844118513554
 10
4.950627091801784
 20
-8.074246321825903
 10
4.879402091245353
 20
-8.086386098001554
 10
4.807939782667439
 20
-8.105020966429528
 10
4.736862302169512
 20
-8.129797932721956
 10
4.666862337264504
 20
-8.160235640702143
 10
4.598632575465387
 20
-8.195852734193458
 10
4.532865704285079
 20
-8.236167857019232
 10
4.47025441123656
 20
-8.280699653002809
 10
4.411491383832775
 20
-8.328966765967535
 10
4.357269309586666
 20
-8.380487839736755
 10
4.308165428140927
 20
-8.434759055094211
 10
4.264295187657268
 20
-8.491186740665298
 10
4.225658588427137
 20
-8.549154762035826
 10
4.192255630741961
 20
-8.608046984791588
 10
4.164086314893179
 20
-8.667247274518373
 10
4.141150641172242
 20
-8.726139496801998
 10
4.1234486098706
 20
-8.784107517228271
 10
4.110980221279685
 20
-8.840535201382976
 10
4.103607579421307
 20
-8.894873804442816
 10
4.10064120323874
 20
-8.946844139948087
 10
4.101253715405601
 20
-8.996234411029977
 10
4.104617738595532
 20
-9.04283282081969
 10
4.109905895482146
 20
-9.086427572448386
 10
4.116290808739091
 20
-9.126806869047271
 10
4.122945101039988
 20
-9.163758913747553
 10
4.129041395058472
 20
-9.197071909680389
 10
4.133854933910608
 20
-9.226620704107673
 10
4.137071442482305
 20
-9.252626720814014
 10
4.138479266101889
 20
-9.275398027714693
 10
4.137866750097696
 20
-9.295242692724997
 10
4.135022239798054
 20
-9.312468783760234
 10
4.129734080531321
 20
-9.327384368735678
 10
4.121790617625812
 20
-9.340297515566625
 10
4.110980196409879
 20
-9.351516292168366
 10
4.097180955129356
 20
-9.361287794730465
 10
4.080630203700096
 20
-9.369615232539612
 10
4.061655044955461
 20
-9.376440843156764
 10
4.040582581728806
 20
-9.381706864142898
 10
4.017739916853486
 20
-9.385355533058969
 10
3.993454153162861
 20
-9.387329087465928
 10
3.968052393490296
 20
-9.387569764924752
 10
3.941861740669139
 20
-9.386019802996397
 10
3.915119504518095
 20
-9.382547631313634
 10
3.887703822797263
 20
-9.376726447796393
 10
3.859403040252107
 20
-9.368055642436445
 10
3.830005501628068
 20
-9.356034605225524
 10
3.7992995516706
 20
-9.34016272615538
 10
3.767073535125163
 20
-9.319939395217765
 10
3.733115796737187
 20
-9.29486400240443
 10
3.697214681252127
 20
-9.264435937707119
 10
3.659286809150671
 20
-9.228298997765985
 10
3.619761903854332
 20
-9.186674605814825
 10
3.579197964519849
 20
-9.139928591735841
 10
3.538152990303984
 20
-9.08842678541124
 10
3.497184980363478
 20
-9.032535016723194
 10
3.45685193385507
 20
-8.972619115553943
 10
3.417711849935514
 20
-8.909044911785652
 10
3.380322727761559
 20
-8.842178235300536
 10
3.345204083720798
 20
-8.772253345613563
 10
3.312721503124297
 20
-8.698978220770733
 10
3.283202088513963
 20
-8.621929268450791
 10
3.256972942431715
 20
-8.540682896332526
 10
3.234361167419471
 20
-8.454815512094683
 10
3.215693866019137
 20
-8.363903523416013
 10
3.201298140772628
 20
-8.267523337975305
 10
3.191501094221866
 20
-8.1652513634513
 10
3.186520794728114
 20
-8.057029837562353
 10
3.186139173930108
 20
-7.944264318185091
 10
3.190029129285932
 20
-7.828726193235748
 10
3.197863558253665
 20
-7.712186850630537
 10
3.209315358291398
 20
-7.596417678285696
 10
3.224057426857214
 20
-7.483190064117405
 10
3.241762661409204
 20
-7.37427539604193
 10
3.26210395940545
 20
-7.271445061975455
 10
3.284851808488362
 20
-7.175986519382362
 10
3.310167057037659
 20
-7.08725150391961
 10
3.33830814361741
 20
-7.004107820792292
 10
3.369533506791654
 20
-6.925423275205499
 10
3.404101585124443
 20
-6.850065672364337
 10
3.442270817179831
 20
-6.776902817473892
 10
3.48429964152185
 20
-6.704802515739281
 10
3.530446496714581
 20
-6.632632572365594
 10
3.58083605028279
 20
-6.559625263971945
 10
3.635057885594186
 20
-6.486470752833444
 10
3.692567814977227
 20
-6.414223672639245
 10
3.752821650760349
 20
-6.343938657078453
 10
3.815275205271994
 20
-6.276670339840237
 10
3.879384290840611
 20
-6.213473354613711
 10
3.944604719794646
 20
-6.15540233508802
 10
4.010392304462548
 20
-6.103511914952292
 10
4.076328223043617
 20
-6.05860056166469
 10
4.142495117220562
 20
-6.020442077759433
 10
4.209100994546997
 20
-5.988554099539797
 10
4.276353862576499
 20
-5.962454263309023
 10
4.34446172886264
 20
-5.941660205370382
 10
4.413632600959029
 20
-5.925689562027116
 10
4.484074486419231
 20
-5.914059969582496
 10
4.555995392796859
 20
-5.906289064339766
 10
4.629381211966258
 20
-5.901896720879978
 10
4.70332937308499
 20
-5.900411766895356
 10
4.776715189631403
 20
-5.901365268355888
 10
4.84841397508384
 20
-5.904288291231587
 10
4.917301042920634
 20
-5.908711901492473
 10
4.982251706620125
 20
-5.914167165108523
 10
5.042141279660658
 20
-5.920185148049768
 10
5.095845075520578
 20
-5.92629691628619
 10
5.142554725759403
 20
-5.932076521501663
 10
5.18272713426138
 20
-5.937269958235383
 10
5.217135522991927
 20
-5.941666206740418
 10
5.24655311391648
 20
-5.945054247269808
 10
5.271753129000451
 20
-5.947223060076616
 10
5.29350879020928
 20
-5.947961625413903
 10
5.31259331950838
 20
-5.947058923534726
 10
5.329779938863193
 20
-5.944303934692115
 10
5.345712999960124
 20
-5.939512993577025
 10
5.360521373369621
 20
-5.932611852631865
 10
5.374205059383143
 20
-5.923553618736882
 10
5.386764058292104
 20
-5.912291398772378
 10
5.398198370387973
 20
-5.898778299618633
 10
5.408507995962182
 20
-5.8829674281559
 10
5.41769293530617
 20
-5.864811891264473
 10
5.4257531887114
 20
-5.844264795824624
 10
5.432688756420709
 20
-5.821353496431612
 10
5.438499638482699
 20
-5.796402338540534
 10
5.443185834897356
 20
-5.769809915321509
 10
5.446747345664682
 20
-5.741974819944609
 10
5.44918417078469
 20
-5.713295645579925
 10
5.450496310257349
 20
-5.684170985397571
 10
5.450683764082693
 20
-5.654999432567603
 10
5.449746532260704
 20
-5.626179580260149
 10
5.447754907644338
 20
-5.598055312769528
 10
5.445060354498398
 20
-5.570751678887155
 10
5.442084629940623
 20
-5.544339018528653
 10
5.439249491088762
 20
-5.518887671609682
 10
5.436976695060572
 20
-5.494467978045896
 10
5.43568799897379
 20
-5.471150277752936
 10
5.435805159946177
 20
-5.449004910646458
 10
5.437749935095467
 20
-5.428102216642095
 10
5.441865978450422
 20
-5.408504720056868
 10
5.448184531683811
 20
-5.390243682813203
 10
5.456658733379384
 20
-5.373342551234912
 10
5.46724172212091
 20
-5.357824771645788
 10
5.479886636492164
 20
-5.343713790369626
 10
5.494546615076906
 20
-5.331033053730223
 10
5.511174796458902
 20
-5.319806008051372
 10
5.529724319221934
 20
-5.310056099656883
 10
5.550109270138097
 20
-5.301771605070101
 10
5.572087528732883
 20
-5.294800121612585
 10
5.595377922720143
 20
-5.288954076805424
 10
5.619699279813694
 20
-5.284045898169758
 10
5.644770427727401
 20
-5.279888013226674
 10
5.670310194175083
 20
-5.276292849497277
 10
5.696037406870587
 20
-5.273072834502691
 10
5.721670893527765
 20
-5.270040395764027
 10
5.74696072338747
 20
-5.267015776086253
 10
5.771781931798759
 20
-5.263850479409953
 10
5.796040795637729
 20
-5.260403824959585
 10
5.819643591780469
 20
-5.256535131959566
 10
5.842496597103057
 20
-5.252103719634369
 10
5.864506088481604
 20
-5.24696890720844
 10
5.885578342792172
 20
-5.240990013906213
 10
5.905619636910877
 20
-5.234026358952149
 10
5.924528437137738
 20
-5.225960708445313
 10
5.942171967468564
 20
-5.21676961598321
 10
5.958409641323122
 20
-5.206453082037974
 10
5.973100872121158
 20
-5.195011107081732
 10
5.986105073282416
 20
-5.18244369158662
 10
5.997281658226672
 20
-5.168750836024742
 10
6.00649004037367
 20
-5.153932540868236
 10
6.013589633143165
 20
-5.137988806589234
 10
6.01848280690887
 20
-5.120880555745344
 10
6.021243759860347
 20
-5.102412399236083
 10
6.021989647141122
 20
-5.082349870046463
 10
6.020837623894706
 20
-5.060458501161477
 10
6.017904845264631
 20
-5.036503825566128
 10
6.01330846639442
 20
-5.010251376245431
 10
6.00716564242758
 20
-4.981466686184379
 10
5.999593528507631
 20
-4.949915288367968
 10
5.990767857204147
 20
-4.915393978175778
 10
5.981098670790835
 20
-4.877824600565645
 10
5.971054588967458
 20
-4.837160262889977
 10
5.961104231433751
 20
-4.79335407250117
 10
5.95171621788949
 20
-4.746359136751625
 10
5.943359168034422
 20
-4.696128562993767
 10
5.936501701568296
 20
-4.642615458579982
 10
5.931612438190867
 20
-4.585772930862688
 10
5.929163902695634
 20
-4.525612703633285
 10
5.929644240250993
 20
-4.462380966439148
 10
5.933545501119123
 20
-4.396382525266684
 10
5.941359735562144
 20
-4.327922186102284
 10
5.953578993842214
 20
-4.257304754932334
 10
5.970695326221502
 20
-4.184835037743219
 10
5.993200782962123
 20
-4.110817840521338
 10
6.021587414326258
 20
-4.035557969253076
 10
6.056159822822444
 20
-3.959434477797163
 10
6.096472819944764
 20
-3.883123411501728
 10
6.141893769433718
 20
-3.807375063587222
 10
6.191790035029804
 20
-3.732939727274111
 10
6.245528980473494
 20
-3.66056769578283
 10
6.302477969505304
 20
-3.591009262333869
 10
6.362004365865711
 20
-3.525014720147687
 10
6.423475533295206
 20
-3.463334362444719
 10
6.486364274862289
 20
-3.406562171416865
 10
6.550565150947516
 20
-3.354666885141682
 10
6.61607816125943
 20
-3.307460930668142
 10
6.682903305506609
 20
-3.264756735045239
 10
6.751040583397582
 20
-3.226366725321938
 10
6.820489994640933
 20
-3.192103328547233
 10
6.891251538945201
 20
-3.161778971770111
 10
6.96332521601894
 20
-3.135206082039523
 10
7.036738361858322
 20
-3.112240071882261
 10
7.111627657609801
 20
-3.092908295736172
 10
7.188157120707501
 20
-3.077281093516923
 10
7.26649076858548
 20
-3.065428805140129
 10
7.346792618677842
 20
-3.057421770521486
 10
7.429226688418644
 20
-3.053330329576603
 10
7.513956995241986
 20
-3.053224822221139
 10
7.60114755658196
 20
-3.05717558837076
 10
7.690786657400209
 20
-3.065272506780317
 10
7.782159652768797
 20
-3.07768361156161
 10
7.874376165287294
 20
-3.09459647566566
 10
7.966545817555338
 20
-3.116198672043488
 10
8.05777823217253
 20
-3.142677773646113
 10
8.147183031738478
 20
-3.174221353424542
 10
8.233869838852811
 20
-3.211016984329816
 10
8.316948276115105
 20
-3.253252239312956
 10
8.395664646834344
 20
-3.300884132581401
 10
8.469811977156766
 20
-3.352947443368449
 10
8.539319973937985
 20
-3.408246392163825
 10
8.604118344033587
 20
-3.465585199457258
 10
8.664136794299167
 20
-3.523768085738467
 10
8.719305031590351
 20
-3.581599271497175
 10
8.769552762762721
 20
-3.637882977223117
 10
8.814809694671872
 20
-3.691423423406021
 10
8.855095353029341
 20
-3.741239758239245
 10
8.89078853897039
 20
-3.787210840730722
 10
8.922357872486216
 20
-3.829430457592035
 10
8.950271973568018
 20
-3.867992395534738
 10
8.974999462207001
 20
-3.902990441270425
 10
8.997008958394346
 20
-3.934518381510667
 10
9.016769082121264
 20
-3.962670002967019
 10
9.034748453378952
 20
-3.987539092351077
 10
9.051380545537831
 20
-4.009227251973058
 10
9.066958245485224
 20
-4.027867346537725
 10
9.081739293487672
 20
-4.043600056348498
 10
9.09598142981175
 20
-4.056566061708821
 10
9.109942394723987
 20
-4.066906042922113
 10
9.123879928490943
 20
-4.074760680291795
 10
9.138051771379178
 20
-4.080270654121285
 10
9.152715663655214
 20
-4.083576644714007
 10
9.168117630207291
 20
-4.084745084343676
 10
9.184456834410212
 20
-4.083545413165111
 10
9.201920724260471
 20
-4.07967282330339
 10
9.22069674775453
 20
-4.072822506883643
 10
9.240972352888881
 20
-4.062689656030947
 10
9.262934987659996
 20
-4.048969462870406
 10
9.286772100064357
 20
-4.031357119527125
 10
9.312671138098444
 20
-4.009547818126204
 10
9.340686774191702
 20
-3.983412601211377
 10
9.370342578505507
 20
-3.953525913000838
 10
9.401029345634164
 20
-3.920638048131436
 10
9.432137870172006
 20
-3.885499301240031
 10
9.463058946713388
 20
-3.848859966963445
 10
9.493183369852609
 20
-3.81147033993853
 10
9.521901934184008
 20
-3.774080714802131
 10
9.548605434301919
 20
-3.737441386191076
 10
9.572824060981869
 20
-3.702188908742158
 10
9.594645589724105
 20
-3.668504877091919
 10
9.61429719221012
 20
-3.636457145876846
 10
9.632006040121371
 20
-3.60611356973343
 10
9.647999305139325
 20
-3.577542003298148
 10
9.662504158945438
 20
-3.550810301207505
 10
9.675747773221182
 20
-3.525986318097949
 10
9.687957319648024
 20
-3.503137908605999
 10
9.699363357981226
 20
-3.482314630932428
 10
9.710210000271231
 20
-3.463492857535143
 10
9.72074474664231
 20
-3.446630664436383
 10
9.731215097218694
 20
-3.431686127658359
 10
9.741868552124632
 20
-3.418617323223287
 10
9.752952611484381
 20
-3.407382327153406
 10
9.764714775422195
 20
-3.397939215470906
 10
9.777402544062315
 20
-3.390246064198024
 10
9.791200184640572
 20
-3.384229894069015
 10
9.80603903283908
 20
-3.379693504666228
 10
9.821787191451527
 20
-3.376408640284076
 10
9.838312763271623
 20
-3.374147045216943
 10
9.85548385109304
 20
-3.372680463759245
 10
9.87316855770949
 20
-3.371780640205365
 10
9.89123498591466
 20
-3.371219318849703
 10
9.909551238502253
 20
-3.370768243986674
 10
9.928039340812475
 20
-3.370210158671589
 10
9.946837008371737
 20
-3.369371801003559
 10
9.966135879252945
 20
-3.368090907842585
 10
9.986127591529019
 20
-3.366205216048697
 10
10.00700378327289
 20
-3.363552462481912
 10
10.02895609255747
 20
-3.359970384002259
 10
10.05217615745569
 20
-3.355296717469762
 10
10.07685561604045
 20
-3.349369199744437
 10
10.10314925292782
 20
-3.342020650478403
 10
10.1310644389063
 20
-3.333064220492076
 10
10.16057169130754
 20
-3.322308143397997
 10
10.1916415274632
 20
-3.309560652808691
 10
10.2242444647049
 20
-3.294629982336651
 10
10.25835102036432
 20
-3.277324365594438
 10
10.29393171177305
 20
-3.257452036194557
 10
10.33095705626278
 20
-3.23482122774952
 10
10.3693386056827
 20
-3.209353266663818
 10
10.4087520499523
 20
-3.181421850509664
 10
10.44881411350861
 20
-3.151513769651273
 10
10.48914152078868
 20
-3.120115814452823
 10
10.52935099622955
 20
-3.087714775278485
 10
10.56905926426827
 20
-3.054797442492464
 10
10.60788304934188
 20
-3.021850606458947
 10
10.64543907588744
 20
-2.989361057542112
 10
10.68143988732986
 20
-2.957749205609111
 10
10.71598130304562
 20
-2.927169938538838
 10
10.74925496139909
 20
-2.897711763713168
 10
10.78145250075463
 20
-2.869463188513968
 10
10.81276555947662
 20
-2.842512720323092
 10
10.84338577592939
 20
-2.816948866522402
 10
10.87350478847734
 20
-2.792860134493793
 10
10.9033142354848
 20
-2.770335031619076
 10
10.93299347060387
 20
-2.74942764569031
 10
10.96267270863737
 20
-2.730054386140089
 10
10.99246987967582
 20
-2.712097242811168
 10
11.02250291380978
 20
-2.695438205546331
 10
11.0528897411298
 20
-2.679959264188326
 10
11.08374829172639
 20
-2.665542408579916
 10
11.11519649569009
 20
-2.652069628563879
 10
11.14735228311145
 20
-2.639422913982969
 10
11.18025742064252
 20
-2.627491630491824
 10
11.21364902118141
 20
-2.616194646992589
 10
11.24718803418777
 20
-2.605458208199266
 10
11.28053540912119
 20
-2.595208558825881
 10
11.31335209544132
 20
-2.585371943586444
 10
11.34529904260778
 20
-2.575874607194954
 10
11.37603720008021
 20
-2.566642794365449
 10
11.40522751731824
 20
-2.557602749811927
 10
11.43258253837825
 20
-2.548656132680953
 10
11.45802118570368
 20
-2.539606259849271
 10
11.48151397633474
 20
-2.530231862626131
 10
11.50303142731161
 20
-2.520311672320829
 10
11.52254405567452
 20
-2.50962442024263
 10
11.54002237846365
 20
-2.49794883770081
 10
11.55543691271921
 20
-2.485063656004662
 10
11.56875817548141
 20
-2.470747606463454
 10
11.5799984509768
 20
-2.454865469243046
 10
11.58933709217739
 20
-2.437626219935701
 10
11.59699521924161
 20
-2.419324882990231
 10
11.60319395232784
 20
-2.400256482855496
 10
11.60815441159445
 20
-2.380716043980321
 10
11.61209771719986
 20
-2.360998590813544
 10
11.61524498930242
 20
-2.341399147804004
 10
11.61781734806056
 20
-2.322212739400541
 10
11.62002117234705
 20
-2.303697511936874
 10
11.62200387589227
 20
-2.285964099286211
 10
11.62389813114096
 20
-2.269086257206694
 10
11.62583661053792
 20
-2.253137741456441
 10
11.6279519865279
 20
-2.238192307793539
 10
11.63037693155567
 20
-2.224323711976126
 10
11.63324411806599
 20
-2.211605709762295
 10
11.63668621850362
 20
-2.200112056910178
 10
11.64083099143814
 20
-2.189872255644324
 10
11.64578653993828
 20
-2.180738794055059
 10
11.65165605319754
 20
-2.172519906699179
 10
11.65854272040946
 20
-2.165023828133442
 10
11.66654973076758
 20
-2.158058792914637
 10
11.67578027346538
 20
-2.151433035599538
 10
11.68633753769642
 20
-2.144954790744918
 10
11.69832471265423
 20
-2.138432292907559
 10
11.71183515997619
 20
-2.13165902541391
 10
11.72692293107525
 20
-2.124369466669229
 10
11.74363224980821
 20
-2.116283343848401
 10
11.76200734003188
 20
-2.107120384126346
 10
11.78209242560309
 20
-2.096600314677992
 10
11.80393173037863
 20
-2.084442862678244
 10
11.82756947821533
 20
-2.070367755302001
 10
11.85304989297
 20
-2.05409471972419
 10
11.88032629358105
 20
-2.035404946330167
 10
11.9089883793134
 20
-2.01432547834711
 10
11.93853494451354
 20
-1.990944822212604
 10
11.96846478352798
 20
-1.965351484364276
 10
11.99827669070321
 20
-1.937633971239719
 10
12.02746946038576
 20
-1.907880789276561
 10
12.05554188692213
 20
-1.876180444912385
 10
12.08199276465882
 20
-1.842621444584821
 10
12.10641670673593
 20
-1.807339007183735
 10
12.12879160146792
 20
-1.770655201408068
 10
12.14919115596285
 20
-1.732938808409031
 10
12.16768907732878
 20
-1.694558609337818
 10
12.18435907267375
 20
-1.655883385345639
 10
12.19927484910583
 20
-1.617281917583703
 10
12.21251011373306
 20
-1.579122987203206
 10
12.2241385736635
 20
-1.541775375355364
 10
12.23424622032891
 20
-1.50557098491889
 10
12.24296818245593
 20
-1.470694205682505
 10
12.25045187309489
 20
-1.437292549162414
 10
12.25684470529613
 20
-1.405513526874877
 10
12.26229409210997
 20
-1.37550465033609
 10
12.26694744658677
 20
-1.347413431062307
 10
12.27095218177683
 20
-1.321387380569746
 10
12.27445571073053
 20
-1.297574010374631
 10
12.27760298968201
 20
-1.276076578538322
 10
12.28052914760078
 20
-1.256821329302709
 10
12.28336685664015
 20
-1.239690253454817
 10
12.28624878895344
 20
-1.224565341781641
 10
12.28930761669398
 20
-1.211328585070219
 10
12.2926760120151
 20
-1.19986197410757
 10
12.29648664707011
 20
-1.190047499680702
 10
12.30087219401234
 20
-1.18176715257664
 10
12.30595549743899
 20
-1.174890630719964
 10
12.3118200917228
 20
-1.16923846058566
 10
12.31853968368037
 20
-1.164618875786203
 10
12.32618798012832
 20
-1.160840109934142
 10
12.33483868788325
 20
-1.157710396641988
 10
12.34456551376178
 20
-1.155037969522261
 10
12.35544216458052
 20
-1.152631062187488
 10
12.36754234715609
 20
-1.150297908250202
 10
12.3808906304759
 20
-1.14786395131454
 10
12.39531503221077
 20
-1.145223474951286
 10
12.41059443220229
 20
-1.142287972722797
 10
12.42650771029208
 20
-1.138968938191489
 10
12.44283374632172
 20
-1.135177864919739
 10
12.45935142013285
 20
-1.130826246469951
 10
12.47583961156706
 20
-1.125825576404508
 10
12.49207720046598
 20
-1.1200873482858
 10
12.50786026491869
 20
-1.113552557822089
 10
12.52305367600427
 20
-1.106280209305104
 10
12.53753950304933
 20
-1.098358809172474
 10
12.55119981538041
 20
-1.089876863861803
 10
12.5639166823241
 20
-1.080922879810685
 10
12.57557217320698
 20
-1.071585363456748
 10
12.58604835735563
 20
-1.061952821237582
 10
12.59522730409661
 20
-1.052113759590824
 10
12.60305987564934
 20
-1.042151768139561
 10
12.60977210580455
 20
-1.032130769249057
 10
12.61565882124578
 20
-1.022109768470045
 10
12.62101484865663
 20
-1.012147771353255
 10
12.62613501472062
 20
-1.002303783449463
 10
12.63131414612131
 20
-0.9926368103093921
 10
12.63684706954228
 20
-0.9832058574837887
 10
12.64302861166707
 20
-0.9740699305234059
 10
12.65010200448536
 20
-0.9652880348216257
 10
12.65810410121112
 20
-0.9569191751422891
 10
12.66702016036449
 20
-0.9490223560918877
 10
12.67683544046554
 20
-0.9416565822769413
 10
12.68753520003439
 20
-0.93488085830392
 10
12.69910469759112
 20
-0.9287541887793295
 10
12.71152919165584
 20
-0.9233355783096257
 10
12.72479394074867
 20
-0.9186840315013427
 10
12.73892597062463
 20
-0.9147503774556113
 10
12.7541193759785
 20
-0.9110527432522204
 10
12.77061001874003
 20
-0.9070010804656263
 10
12.78863376083896
 20
-0.9020053406702999
 10
12.80842646420503
 20
-0.8954754754406621
 10
12.83022399076794
 20
-0.8868214363512052
 10
12.85426220245745
 20
-0.8754531749763572
 10
12.88077696120329
 20
-0.8607806428905604
 10
12.90984688779443
 20
-0.8423637622606179
 10
12.94092163845675
 20
-0.8203623376225195
 10
12.97329362827538
 20
-0.7950861441046016
 10
13.00625527233547
 20
-0.7668449568352145
 10
13.03909898572214
 20
-0.7359485509426733
 10
13.0711171835205
 20
-0.7027067015553144
 10
13.10160228081571
 20
-0.6674291838014668
 10
13.12984669269287
 20
-0.630425772809474
 10
13.15529393316748
 20
-0.5919865755054872
 10
13.17799191197631
 20
-0.5523230260070236
 10
13.19813963778653
 20
-0.5116268902294508
 10
13.2159361192653
 20
-0.4700899340881151
 10
13.23158036507976
 20
-0.4279039234983486
 10
13.24527138389705
 20
-0.385260624375519
 10
13.25720818438434
 20
-0.3423518026349583
 10
13.26758977520876
 20
-0.2993692241920414
 10
13.27660288022802
 20
-0.2563522257658306
 10
13.28438508406199
 20
-0.2127304272903174
 10
13.29106168652114
 20
-0.1677810195032379
 10
13.29675798741586
 20
-0.1207811931422924
 10
13.30159928655664
 20
-0.0710081389452313
 10
13.30571088375388
 20
-0.0177390476497479
 10
13.30679309861314
 20
-0.0000000000000142
  0
LINE
  5
8CDB
330
8964
100
AcDbEntity
  8
0
100
AcDbLine
 10
0.0
 20
0.0
 30
0.0
 11
13.30679309861314
 21
-0.0000000000000071
 31
0.0
  0
POLYLINE
  5
8CDC
330
8964
100
AcDbEntity
  8
0
100
AcDb2dPolyline
 66
     1
 10
0.0
 20
0.0
 30
0.0
 70
     5
 75
     6
  0
VERTEX
  5
8CDD
330
8CDC
100
AcDbEntity
  8
0
100
AcDbVertex
100
AcDb2dVertex
 10
6.054346518644031
 20
-1.942276153320342
 30
0.0
 70
    16
  0
VERTEX
  5
8CDE
330
8CDC
100
AcDbEntity
  8
0
100
AcDbVertex
100
AcDb2dVertex
 10
2.737031666248403
 20
-1.936393107251497
 30
0.0
 70
     8
  0
VERTEX
  5
8CDF
330
8CDC
100
AcDbEntity
  8
0
100
AcDbVertex
100
AcDb2dVertex
 10
2.511815137927154
 20
-1.936559717269368
 30
0.0
 70
     8
  0
VERTEX
  5
8CE0
330
8CDC
100
AcDbEntity
  8
0
100
AcDbVertex
100
AcDb2dVertex
 10
2.339407686778635
 20
-1.937174451825526
 30
0.0
 70
     8
  0
VERTEX
  5
8CE1
330
8CDC
100
AcDbEntity
  8
0
100
AcDbVertex
100
AcDb2dVertex
 10
2.212402951520214
 20
-1.938409667673781
 30
0.0
 70
     8
  0
VERTEX
  5
8CE2
330
8CDC
100
AcDbEntity
  8
0
100
AcDbVertex
100
AcDb2dVertex
 10
2.123394570869265
 20
-1.940437721567938
 30
0.0
 70
     8
  0
VERTEX
  5
8CE3
330
8CDC
100
AcDbEntity
  8
0
100
AcDbVertex
100
AcDb2dVertex
 10
2.064976183543148
 20
-1.943430970261807
 30
0.0
 70
     8
  0
VERTEX
  5
8CE4
330
8CDC
100
AcDbEntity
  8
0
100
AcDbVertex
100
AcDb2dVertex
 10
2.029741428259224
 20
-1.947561770509196
 30
0.0
 70
     8
  0
VERTEX
  5
8CE5
330
8CDC
100
AcDbEntity
  8
0
100
AcDbVertex
100
AcDb2dVertex
 10
2.010283943734876
 20
-1.953002479063918
 30
0.0
 70
     8
  0
VERTEX
  5
8CE6
330
8CDC
100
AcDbEntity
  8
0
100
AcDbVertex
100
AcDb2dVertex
 10
1.999197368687465
 20
-1.959925452679776
 30
0.0
 70
     8
  0
VERTEX
  5
8CE7
330
8CDC
100
AcDbEntity
  8
0
100
AcDbVertex
100
AcDb2dVertex
 10
1.990306864716185
 20
-1.969677943218258
 30
0.0
 70
     8
  0
VERTEX
  5
8CE8
330
8CDC
100
AcDbEntity
  8
0
100
AcDbVertex
100
AcDb2dVertex
 10
1.98236368494758
 20
-1.988306782971498
 30
0.0
 70
     8
  0
VERTEX
  5
8CE9
330
8CDC
100
AcDbEntity
  8
0
100
AcDbVertex
100
AcDb2dVertex
 10
1.975350605390032
 20
-2.023033699339336
 30
0.0
 70
     8
  0
VERTEX
  5
8CEA
330
8CDC
100
AcDbEntity
  8
0
100
AcDbVertex
100
AcDb2dVertex
 10
1.969250402051896
 20
-2.081080419721587
 30
0.0
 70
     8
  0
VERTEX
  5
8CEB
330
8CDC
100
AcDbEntity
  8
0
100
AcDbVertex
100
AcDb2dVertex
 10
1.96404585094155
 20
-2.169668671518081
 30
0.0
 70
     8
  0
VERTEX
  5
8CEC
330
8CDC
100
AcDbEntity
  8
0
100
AcDbVertex
100
AcDb2dVertex
 10
1.959719728067357
 20
-2.296020182128629
 30
0.0
 70
     8
  0
VERTEX
  5
8CED
330
8CDC
100
AcDbEntity
  8
0
100
AcDbVertex
100
AcDb2dVertex
 10
1.956254809437702
 20
-2.467356678953059
 30
0.0
 70
     8
  0
VERTEX
  5
8CEE
330
8CDC
100
AcDbEntity
  8
0
100
AcDbVertex
100
AcDb2dVertex
 10
1.953633871060945
 20
-2.690899889391197
 30
0.0
 70
     8
  0
VERTEX
  5
8CEF
330
8CDC
100
AcDbEntity
  8
0
100
AcDbVertex
100
AcDb2dVertex
 10
1.951856913082819
 20
-2.970185989405152
 30
0.0
 70
     8
  0
VERTEX
  5
8CF0
330
8CDC
100
AcDbEntity
  8
0
100
AcDbVertex
100
AcDb2dVertex
 10
1.950992832198435
 20
-3.294008949206201
 30
0.0
 70
     8
  0
VERTEX
  5
8CF1
330
8CDC
100
AcDbEntity
  8
0
100
AcDbVertex
100
AcDb2dVertex
 10
1.951127749240272
 20
-3.647477187567886
 30
0.0
 70
     8
  0
VERTEX
  5
8CF2
330
8CDC
100
AcDbEntity
  8
0
100
AcDbVertex
100
AcDb2dVertex
 10
1.952347785040803
 20
-4.015699123263779
 30
0.0
 70
     8
  0
VERTEX
  5
8CF3
330
8CDC
100
AcDbEntity
  8
0
100
AcDbVertex
100
AcDb2dVertex
 10
1.954739060432498
 20
-4.383783175067424
 30
0.0
 70
     8
  0
VERTEX
  5
8CF4
330
8CDC
100
AcDbEntity
  8
0
100
AcDbVertex
100
AcDb2dVertex
 10
1.958387696247838
 20
-4.736837761752401
 30
0.0
 70
     8
  0
VERTEX
  5
8CF5
330
8CDC
100
AcDbEntity
  8
0
100
AcDbVertex
100
AcDb2dVertex
 10
1.96337981331928
 20
-5.05997130209225
 30
0.0
 70
     8
  0
VERTEX
  5
8CF6
330
8CDC
100
AcDbEntity
  8
0
100
AcDbVertex
100
AcDb2dVertex
 10
1.969801532479317
 20
-5.338292214860533
 30
0.0
 70
     8
  0
VERTEX
  5
8CF7
330
8CDC
100
AcDbEntity
  8
0
100
AcDbVertex
100
AcDb2dVertex
 10
1.977718879612069
 20
-5.560577234545927
 30
0.0
 70
     8
  0
VERTEX
  5
8CF8
330
8CDC
100
AcDbEntity
  8
0
100
AcDbVertex
100
AcDb2dVertex
 10
1.987117500808295
 20
-5.730276358497583
 30
0.0
 70
     8
  0
VERTEX
  5
8CF9
330
8CDC
100
AcDbEntity
  8
0
100
AcDbVertex
100
AcDb2dVertex
 10
1.997962947210401
 20
-5.854507899779747
 30
0.0
 70
     8
  0
VERTEX
  5
8CFA
330
8CDC
100
AcDbEntity
  8
0
100
AcDbVertex
100
AcDb2dVertex
 10
2.010220769960813
 20
-5.940390171456691
 30
0.0
 70
     8
  0
VERTEX
  5
8CFB
330
8CDC
100
AcDbEntity
  8
0
100
AcDbVertex
100
AcDb2dVertex
 10
2.023856520201931
 20
-5.995041486592668
 30
0.0
 70
     8
  0
VERTEX
  5
8CFC
330
8CDC
100
AcDbEntity
  8
0
100
AcDbVertex
100
AcDb2dVertex
 10
2.038835749076184
 20
-6.025580158251948
 30
0.0
 70
     8
  0
VERTEX
  5
8CFD
330
8CDC
100
AcDbEntity
  8
0
100
AcDbVertex
100
AcDb2dVertex
 10
2.05512400772597
 20
-6.03912449949879
 30
0.0
 70
     8
  0
VERTEX
  5
8CFE
330
8CDC
100
AcDbEntity
  8
0
100
AcDbVertex
100
AcDb2dVertex
 10
2.072686847293711
 20
-6.042792823397448
 30
0.0
 70
     8
  0
VERTEX
  5
8CFF
330
8CDC
100
AcDbEntity
  8
0
100
AcDbVertex
100
AcDb2dVertex
 10
2.091647706677523
 20
-6.042247032754609
 30
0.0
 70
     8
  0
VERTEX
  5
8D00
330
8CDC
100
AcDbEntity
  8
0
100
AcDbVertex
100
AcDb2dVertex
 10
2.112761575798337
 20
-6.037323389346596
 30
0.0
 70
     8
  0
VERTEX
  5
8D01
330
8CDC
100
AcDbEntity
  8
0
100
AcDbVertex
100
AcDb2dVertex
 10
2.136941332332774
 20
-6.026401744692165
 30
0.0
 70
     8
  0
VERTEX
  5
8D02
330
8CDC
100
AcDbEntity
  8
0
100
AcDbVertex
100
AcDb2dVertex
 10
2.165099853957476
 20
-6.007861950310068
 30
0.0
 70
     8
  0
VERTEX
  5
8D03
330
8CDC
100
AcDbEntity
  8
0
100
AcDbVertex
100
AcDb2dVertex
 10
2.198150018349085
 20
-5.980083857719062
 30
0.0
 70
     8
  0
VERTEX
  5
8D04
330
8CDC
100
AcDbEntity
  8
0
100
AcDbVertex
100
AcDb2dVertex
 10
2.23700470318422
 20
-5.941447318437873
 30
0.0
 70
     8
  0
VERTEX
  5
8D05
330
8CDC
100
AcDbEntity
  8
0
100
AcDbVertex
100
AcDb2dVertex
 10
2.282576786139507
 20
-5.890332183985286
 30
0.0
 70
     8
  0
VERTEX
  5
8D06
330
8CDC
100
AcDbEntity
  8
0
100
AcDbVertex
100
AcDb2dVertex
 10
2.335779144891594
 20
-5.825118305880028
 30
0.0
 70
     8
  0
VERTEX
  5
8D07
330
8CDC
100
AcDbEntity
  8
0
100
AcDbVertex
100
AcDb2dVertex
 10
2.397068218424514
 20
-5.74502433616448
 30
0.0
 70
     8
  0
VERTEX
  5
8D08
330
8CDC
100
AcDbEntity
  8
0
100
AcDbVertex
100
AcDb2dVertex
 10
2.465074690951922
 20
-5.652624128975599
 30
0.0
 70
     8
  0
VERTEX
  5
8D09
330
8CDC
100
AcDbEntity
  8
0
100
AcDbVertex
100
AcDb2dVertex
 10
2.537972807994892
 20
-5.551330338973919
 30
0.0
 70
     8
  0
VERTEX
  5
8D0A
330
8CDC
100
AcDbEntity
  8
0
100
AcDbVertex
100
AcDb2dVertex
 10
2.61393681507447
 20
-5.444555620820004
 30
0.0
 70
     8
  0
VERTEX
  5
8D0B
330
8CDC
100
AcDbEntity
  8
0
100
AcDbVertex
100
AcDb2dVertex
 10
2.691140957711738
 20
-5.335712629174427
 30
0.0
 70
     8
  0
VERTEX
  5
8D0C
330
8CDC
100
AcDbEntity
  8
0
100
AcDbVertex
100
AcDb2dVertex
 10
2.767759481427747
 20
-5.228214018697755
 30
0.0
 70
     8
  0
VERTEX
  5
8D0D
330
8CDC
100
AcDbEntity
  8
0
100
AcDbVertex
100
AcDb2dVertex
 10
2.841966631743561
 20
-5.125472444050554
 30
0.0
 70
     8
  0
VERTEX
  5
8D0E
330
8CDC
100
AcDbEntity
  8
0
100
AcDbVertex
100
AcDb2dVertex
 10
2.911936654180259
 20
-5.03090055989336
 30
0.0
 70
     8
  0
VERTEX
  5
8D0F
330
8CDC
100
AcDbEntity
  8
0
100
AcDbVertex
100
AcDb2dVertex
 10
2.976311715563987
 20
-4.947187124314858
 30
0.0
 70
     8
  0
VERTEX
  5
8D10
330
8CDC
100
AcDbEntity
  8
0
100
AcDbVertex
100
AcDb2dVertex
 10
3.035605667941371
 20
-4.874125309116031
 30
0.0
 70
     8
  0
VERTEX
  5
8D11
330
8CDC
100
AcDbEntity
  8
0
100
AcDbVertex
100
AcDb2dVertex
 10
3.090800284664094
 20
-4.810784389525966
 30
0.0
 70
     8
  0
VERTEX
  5
8D12
330
8CDC
100
AcDbEntity
  8
0
100
AcDbVertex
100
AcDb2dVertex
 10
3.142877339083877
 20
-4.756233640773785
 30
0.0
 70
     8
  0
VERTEX
  5
8D13
330
8CDC
100
AcDbEntity
  8
0
100
AcDbVertex
100
AcDb2dVertex
 10
3.192818604552414
 20
-4.709542338088542
 30
0.0
 70
     8
  0
VERTEX
  5
8D14
330
8CDC
100
AcDbEntity
  8
0
100
AcDbVertex
100
AcDb2dVertex
 10
3.241605854421408
 20
-4.669779756699362
 30
0.0
 70
     8
  0
VERTEX
  5
8D15
330
8CDC
100
AcDbEntity
  8
0
100
AcDbVertex
100
AcDb2dVertex
 10
3.29022086204257
 20
-4.636015171835328
 30
0.0
 70
     8
  0
VERTEX
  5
8D16
330
8CDC
100
AcDbEntity
  8
0
100
AcDbVertex
100
AcDb2dVertex
 10
3.339645400767608
 20
-4.607317858725522
 30
0.0
 70
     8
  0
VERTEX
  5
8D17
330
8CDC
100
AcDbEntity
  8
0
100
AcDbVertex
100
AcDb2dVertex
 10
3.390556951680789
 20
-4.582849016216805
 30
0.0
 70
     8
  0
VERTEX
  5
8D18
330
8CDC
100
AcDbEntity
  8
0
100
AcDbVertex
100
AcDb2dVertex
 10
3.442415826796647
 20
-4.562137537627133
 30
0.0
 70
     8
  0
VERTEX
  5
8D19
330
8CDC
100
AcDbEntity
  8
0
100
AcDbVertex
100
AcDb2dVertex
 10
3.494378045862276
 20
-4.544804239892194
 30
0.0
 70
     8
  0
VERTEX
  5
8D1A
330
8CDC
100
AcDbEntity
  8
0
100
AcDbVertex
100
AcDb2dVertex
 10
3.545599628624778
 20
-4.5304699399477
 30
0.0
 70
     8
  0
VERTEX
  5
8D1B
330
8CDC
100
AcDbEntity
  8
0
100
AcDbVertex
100
AcDb2dVertex
 10
3.595236594831241
 20
-4.518755454729351
 30
0.0
 70
     8
  0
VERTEX
  5
8D1C
330
8CDC
100
AcDbEntity
  8
0
100
AcDbVertex
100
AcDb2dVertex
 10
3.642444964228776
 20
-4.509281601172872
 30
0.0
 70
     8
  0
VERTEX
  5
8D1D
330
8CDC
100
AcDbEntity
  8
0
100
AcDbVertex
100
AcDb2dVertex
 10
3.686380756564474
 20
-4.501669196213942
 30
0.0
 70
     8
  0
VERTEX
  5
8D1E
330
8CDC
100
AcDbEntity
  8
0
100
AcDbVertex
100
AcDb2dVertex
 10
3.726199991585442
 20
-4.495539056788267
 30
0.0
 70
     8
  0
VERTEX
  5
8D1F
330
8CDC
100
AcDbEntity
  8
0
100
AcDbVertex
100
AcDb2dVertex
 10
3.761273990099894
 20
-4.490540725642457
 30
0.0
 70
     8
  0
VERTEX
  5
8D20
330
8CDC
100
AcDbEntity
  8
0
100
AcDbVertex
100
AcDb2dVertex
 10
3.791835277160608
 20
-4.486438648766625
 30
0.0
 70
     8
  0
VERTEX
  5
8D21
330
8CDC
100
AcDbEntity
  8
0
100
AcDbVertex
100
AcDb2dVertex
 10
3.81833167888146
 20
-4.483025997961782
 30
0.0
 70
     8
  0
VERTEX
  5
8D22
330
8CDC
100
AcDbEntity
  8
0
100
AcDbVertex
100
AcDb2dVertex
 10
3.841211021376366
 20
-4.480095945028914
 30
0.0
 70
     8
  0
VERTEX
  5
8D23
330
8CDC
100
AcDbEntity
  8
0
100
AcDbVertex
100
AcDb2dVertex
 10
3.860921130759205
 20
-4.47744166176902
 30
0.0
 70
     8
  0
VERTEX
  5
8D24
330
8CDC
100
AcDbEntity
  8
0
100
AcDbVertex
100
AcDb2dVertex
 10
3.877909833143878
 20
-4.474856319983132
 30
0.0
 70
     8
  0
VERTEX
  5
8D25
330
8CDC
100
AcDbEntity
  8
0
100
AcDbVertex
100
AcDb2dVertex
 10
3.892624954644269
 20
-4.472133091472244
 30
0.0
 70
     8
  0
VERTEX
  5
8D26
330
8CDC
100
AcDbEntity
  8
0
100
AcDbVertex
100
AcDb2dVertex
 10
3.905514321374287
 20
-4.469065148037351
 30
0.0
 70
     8
  0
VERTEX
  5
8D27
330
8CDC
100
AcDbEntity
  8
0
100
AcDbVertex
100
AcDb2dVertex
 10
3.916959733855136
 20
-4.465448534296605
 30
0.0
 70
     8
  0
VERTEX
  5
8D28
330
8CDC
100
AcDbEntity
  8
0
100
AcDbVertex
100
AcDb2dVertex
 10
3.927078890237268
 20
-4.461090786136789
 30
0.0
 70
     8
  0
VERTEX
  5
8D29
330
8CDC
100
AcDbEntity
  8
0
100
AcDbVertex
100
AcDb2dVertex
 10
3.935923463078463
 20
-4.455802312261809
 30
0.0
 70
     8
  0
VERTEX
  5
8D2A
330
8CDC
100
AcDbEntity
  8
0
100
AcDbVertex
100
AcDb2dVertex
 10
3.943545124936488
 20
-4.44939352137559
 30
0.0
 70
     8
  0
VERTEX
  5
8D2B
330
8CDC
100
AcDbEntity
  8
0
100
AcDbVertex
100
AcDb2dVertex
 10
3.94999554836912
 20
-4.441674822182022
 30
0.0
 70
     8
  0
VERTEX
  5
8D2C
330
8CDC
100
AcDbEntity
  8
0
100
AcDbVertex
100
AcDb2dVertex
 10
3.95532640593413
 20
-4.432456623385057
 30
0.0
 70
     8
  0
VERTEX
  5
8D2D
330
8CDC
100
AcDbEntity
  8
0
100
AcDbVertex
100
AcDb2dVertex
 10
3.959589370189284
 20
-4.421549333688588
 30
0.0
 70
     8
  0
VERTEX
  5
8D2E
330
8CDC
100
AcDbEntity
  8
0
100
AcDbVertex
100
AcDb2dVertex
 10
3.962836113692368
 20
-4.408763361796541
 30
0.0
 70
     8
  0
VERTEX
  5
8D2F
330
8CDC
100
AcDbEntity
  8
0
100
AcDbVertex
100
AcDb2dVertex
 10
3.965118308904003
 20
-4.393986676653035
 30
0.0
 70
     8
  0
VERTEX
  5
8D30
330
8CDC
100
AcDbEntity
  8
0
100
AcDbVertex
100
AcDb2dVertex
 10
3.966487627896221
 20
-4.377417488162976
 30
0.0
 70
     8
  0
VERTEX
  5
8D31
330
8CDC
100
AcDbEntity
  8
0
100
AcDbVertex
100
AcDb2dVertex
 10
3.966995742643902
 20
-4.359331566471478
 30
0.0
 70
     8
  0
VERTEX
  5
8D32
330
8CDC
100
AcDbEntity
  8
0
100
AcDbVertex
100
AcDb2dVertex
 10
3.966694325121942
 20
-4.340004681723669
 30
0.0
 70
     8
  0
VERTEX
  5
8D33
330
8CDC
100
AcDbEntity
  8
0
100
AcDbVertex
100
AcDb2dVertex
 10
3.965635047305219
 20
-4.319712604064662
 30
0.0
 70
     8
  0
VERTEX
  5
8D34
330
8CDC
100
AcDbEntity
  8
0
100
AcDbVertex
100
AcDb2dVertex
 10
3.96386958116863
 20
-4.298731103639553
 30
0.0
 70
     8
  0
VERTEX
  5
8D35
330
8CDC
100
AcDbEntity
  8
0
100
AcDbVertex
100
AcDb2dVertex
 10
3.96144959868706
 20
-4.277335950593489
 30
0.0
 70
     8
  0
VERTEX
  5
8D36
330
8CDC
100
AcDbEntity
  8
0
100
AcDbVertex
100
AcDb2dVertex
 10
3.95842677183538
 20
-4.255802915071555
 30
0.0
 70
     8
  0
VERTEX
  5
8D37
330
8CDC
100
AcDbEntity
  8
0
100
AcDbVertex
100
AcDb2dVertex
 10
3.954892962242315
 20
-4.234338824564581
 30
0.0
 70
     8
  0
VERTEX
  5
8D38
330
8CDC
100
AcDbEntity
  8
0
100
AcDbVertex
100
AcDb2dVertex
 10
3.95110079015183
 20
-4.212874735946105
 30
0.0
 70
     8
  0
VERTEX
  5
8D39
330
8CDC
100
AcDbEntity
  8
0
100
AcDbVertex
100
AcDb2dVertex
 10
3.947343065461708
 20
-4.191272763435407
 30
0.0
 70
     8
  0
VERTEX
  5
8D3A
330
8CDC
100
AcDbEntity
  8
0
100
AcDbVertex
100
AcDb2dVertex
 10
3.943912598069765
 20
-4.169395021251716
 30
0.0
 70
     8
  0
VERTEX
  5
8D3B
330
8CDC
100
AcDbEntity
  8
0
100
AcDbVertex
100
AcDb2dVertex
 10
3.941102197873767
 20
-4.147103623614285
 30
0.0
 70
     8
  0
VERTEX
  5
8D3C
330
8CDC
100
AcDbEntity
  8
0
100
AcDbVertex
100
AcDb2dVertex
 10
3.939204674771513
 20
-4.124260684742367
 30
0.0
 70
     8
  0
VERTEX
  5
8D3D
330
8CDC
100
AcDbEntity
  8
0
100
AcDbVertex
100
AcDb2dVertex
 10
3.938512838660798
 20
-4.10072831885521
 30
0.0
 70
     8
  0
VERTEX
  5
8D3E
330
8CDC
100
AcDbEntity
  8
0
100
AcDbVertex
100
AcDb2dVertex
 10
3.939319499439427
 20
-4.07636864017207
 30
0.0
 70
     8
  0
VERTEX
  5
8D3F
330
8CDC
100
AcDbEntity
  8
0
100
AcDbVertex
100
AcDb2dVertex
 10
3.941874406686075
 20
-4.051150049514106
 30
0.0
 70
     8
  0
VERTEX
  5
8D40
330
8CDC
100
AcDbEntity
  8
0
100
AcDbVertex
100
AcDb2dVertex
 10
3.946255068703095
 20
-4.025466094110043
 30
0.0
 70
     8
  0
VERTEX
  5
8D41
330
8CDC
100
AcDbEntity
  8
0
100
AcDbVertex
100
AcDb2dVertex
 10
3.95249593347377
 20
-3.999816607790538
 30
0.0
 70
     8
  0
VERTEX
  5
8D42
330
8CDC
100
AcDbEntity
  8
0
100
AcDbVertex
100
AcDb2dVertex
 10
3.960631448981331
 20
-3.974701424386218
 30
0.0
 70
     8
  0
VERTEX
  5
8D43
330
8CDC
100
AcDbEntity
  8
0
100
AcDbVertex
100
AcDb2dVertex
 10
3.970696063209047
 20
-3.95062037772773
 30
0.0
 70
     8
  0
VERTEX
  5
8D44
330
8CDC
100
AcDbEntity
  8
0
100
AcDbVertex
100
AcDb2dVertex
 10
3.982724224140163
 20
-3.928073301645721
 30
0.0
 70
     8
  0
VERTEX
  5
8D45
330
8CDC
100
AcDbEntity
  8
0
100
AcDbVertex
100
AcDb2dVertex
 10
3.996750379757958
 20
-3.907560029970817
 30
0.0
 70
     8
  0
VERTEX
  5
8D46
330
8CDC
100
AcDbEntity
  8
0
100
AcDbVertex
100
AcDb2dVertex
 10
4.012808978045672
 20
-3.889580396533673
 30
0.0
 70
     8
  0
VERTEX
  5
8D47
330
8CDC
100
AcDbEntity
  8
0
100
AcDbVertex
100
AcDb2dVertex
 10
4.030911501567256
 20
-3.874513585578895
 30
0.0
 70
     8
  0
VERTEX
  5
8D48
330
8CDC
100
AcDbEntity
  8
0
100
AcDbVertex
100
AcDb2dVertex
 10
4.050977571209362
 20
-3.862256183006977
 30
0.0
 70
     8
  0
VERTEX
  5
8D49
330
8CDC
100
AcDbEntity
  8
0
100
AcDbVertex
100
AcDb2dVertex
 10
4.072903842439334
 20
-3.85258412513242
 30
0.0
 70
     8
  0
VERTEX
  5
8D4A
330
8CDC
100
AcDbEntity
  8
0
100
AcDbVertex
100
AcDb2dVertex
 10
4.096586970724516
 20
-3.845273348269678
 30
0.0
 70
     8
  0
VERTEX
  5
8D4B
330
8CDC
100
AcDbEntity
  8
0
100
AcDbVertex
100
AcDb2dVertex
 10
4.121923611532231
 20
-3.84009978873323
 30
0.0
 70
     8
  0
VERTEX
  5
8D4C
330
8CDC
100
AcDbEntity
  8
0
100
AcDbVertex
100
AcDb2dVertex
 10
4.148810420329844
 20
-3.836839382837545
 30
0.0
 70
     8
  0
VERTEX
  5
8D4D
330
8CDC
100
AcDbEntity
  8
0
100
AcDbVertex
100
AcDb2dVertex
 10
4.177144052584683
 20
-3.8352680668971
 30
0.0
 70
     8
  0
VERTEX
  5
8D4E
330
8CDC
100
AcDbEntity
  8
0
100
AcDbVertex
100
AcDb2dVertex
 10
4.206821163764089
 20
-3.835161777226375
 30
0.0
 70
     8
  0
VERTEX
  5
8D4F
330
8CDC
100
AcDbEntity
  8
0
100
AcDbVertex
100
AcDb2dVertex
 10
4.237675254359423
 20
-3.836290705135034
 30
0.0
 70
     8
  0
VERTEX
  5
8D50
330
8CDC
100
AcDbEntity
  8
0
100
AcDbVertex
100
AcDb2dVertex
 10
4.269287204958061
 20
-3.838402061913555
 30
0.0
 70
     8
  0
VERTEX
  5
8D51
330
8CDC
100
AcDbEntity
  8
0
100
AcDbVertex
100
AcDb2dVertex
 10
4.301174741171426
 20
-3.841237313847614
 30
0.0
 70
     8
  0
VERTEX
  5
8D52
330
8CDC
100
AcDbEntity
  8
0
100
AcDbVertex
100
AcDb2dVertex
 10
4.332855588610918
 20
-3.844537927222869
 30
0.0
 70
     8
  0
VERTEX
  5
8D53
330
8CDC
100
AcDbEntity
  8
0
100
AcDbVertex
100
AcDb2dVertex
 10
4.36384747288794
 20
-3.848045368324985
 30
0.0
 70
     8
  0
VERTEX
  5
8D54
330
8CDC
100
AcDbEntity
  8
0
100
AcDbVertex
100
AcDb2dVertex
 10
4.393668119613884
 20
-3.851501103439638
 30
0.0
 70
     8
  0
VERTEX
  5
8D55
330
8CDC
100
AcDbEntity
  8
0
100
AcDbVertex
100
AcDb2dVertex
 10
4.421835254400175
 20
-3.8546465988525
 30
0.0
 70
     8
  0
VERTEX
  5
8D56
330
8CDC
100
AcDbEntity
  8
0
100
AcDbVertex
100
AcDb2dVertex
 10
4.447866602858216
 20
-3.85722332084925
 30
0.0
 70
     8
  0
VERTEX
  5
8D57
330
8CDC
100
AcDbEntity
  8
0
100
AcDbVertex
100
AcDb2dVertex
 10
4.471397588458412
 20
-3.85900146152641
 30
0.0
 70
     8
  0
VERTEX
  5
8D58
330
8CDC
100
AcDbEntity
  8
0
100
AcDbVertex
100
AcDb2dVertex
 10
4.492534426107262
 20
-3.859866116224104
 30
0.0
 70
     8
  0
VERTEX
  5
8D59
330
8CDC
100
AcDbEntity
  8
0
100
AcDbVertex
100
AcDb2dVertex
 10
4.511501028570283
 20
-3.859731106093263
 30
0.0
 70
     8
  0
VERTEX
  5
8D5A
330
8CDC
100
AcDbEntity
  8
0
100
AcDbVertex
100
AcDb2dVertex
 10
4.528521308612955
 20
-3.858510252284879
 30
0.0
 70
     8
  0
VERTEX
  5
8D5B
330
8CDC
100
AcDbEntity
  8
0
100
AcDbVertex
100
AcDb2dVertex
 10
4.543819179000792
 20
-3.856117375949921
 30
0.0
 70
     8
  0
VERTEX
  5
8D5C
330
8CDC
100
AcDbEntity
  8
0
100
AcDbVertex
100
AcDb2dVertex
 10
4.557618552499299
 20
-3.852466298239349
 30
0.0
 70
     8
  0
VERTEX
  5
8D5D
330
8CDC
100
AcDbEntity
  8
0
100
AcDbVertex
100
AcDb2dVertex
 10
4.570143341873983
 20
-3.847470840304126
 30
0.0
 70
     8
  0
VERTEX
  5
8D5E
330
8CDC
100
AcDbEntity
  8
0
100
AcDbVertex
100
AcDb2dVertex
 10
4.581617459890349
 20
-3.841044823295234
 30
0.0
 70
     8
  0
VERTEX
  5
8D5F
330
8CDC
100
AcDbEntity
  8
0
100
AcDbVertex
100
AcDb2dVertex
 10
4.592224629902943
 20
-3.833087705615564
 30
0.0
 70
     8
  0
VERTEX
  5
8D60
330
8CDC
100
AcDbEntity
  8
0
100
AcDbVertex
100
AcDb2dVertex
 10
4.601987817622529
 20
-3.823441494675769
 30
0.0
 70
     8
  0
VERTEX
  5
8D61
330
8CDC
100
AcDbEntity
  8
0
100
AcDbVertex
100
AcDb2dVertex
 10
4.610889799348939
 20
-3.811933835138404
 30
0.0
 70
     8
  0
VERTEX
  5
8D62
330
8CDC
100
AcDbEntity
  8
0
100
AcDbVertex
100
AcDb2dVertex
 10
4.618913351381959
 20
-3.79839237166605
 30
0.0
 70
     8
  0
VERTEX
  5
8D63
330
8CDC
100
AcDbEntity
  8
0
100
AcDbVertex
100
AcDb2dVertex
 10
4.62604125002143
 20
-3.782644748921292
 30
0.0
 70
     8
  0
VERTEX
  5
8D64
330
8CDC
100
AcDbEntity
  8
0
100
AcDbVertex
100
AcDb2dVertex
 10
4.632256271567143
 20
-3.7645186115667
 30
0.0
 70
     8
  0
VERTEX
  5
8D65
330
8CDC
100
AcDbEntity
  8
0
100
AcDbVertex
100
AcDb2dVertex
 10
4.637541192318931
 20
-3.743841604264829
 30
0.0
 70
     8
  0
VERTEX
  5
8D66
330
8CDC
100
AcDbEntity
  8
0
100
AcDbVertex
100
AcDb2dVertex
 10
4.641878788576612
 20
-3.720441371678283
 30
0.0
 70
     8
  0
VERTEX
  5
8D67
330
8CDC
100
AcDbEntity
  8
0
100
AcDbVertex
100
AcDb2dVertex
 10
4.64534656907967
 20
-3.694182901945072
 30
0.0
 70
     8
  0
VERTEX
  5
8D68
330
8CDC
100
AcDbEntity
  8
0
100
AcDbVertex
100
AcDb2dVertex
 10
4.648400972326427
 20
-3.665080557105067
 30
0.0
 70
     8
  0
VERTEX
  5
8D69
330
8CDC
100
AcDbEntity
  8
0
100
AcDbVertex
100
AcDb2dVertex
 10
4.651593169254873
 20
-3.633186042673631
 30
0.0
 70
     8
  0
VERTEX
  5
8D6A
330
8CDC
100
AcDbEntity
  8
0
100
AcDbVertex
100
AcDb2dVertex
 10
4.655474330803006
 20
-3.598551064166066
 30
0.0
 70
     8
  0
VERTEX
  5
8D6B
330
8CDC
100
AcDbEntity
  8
0
100
AcDbVertex
100
AcDb2dVertex
 10
4.660595627908818
 20
-3.561227327097739
 30
0.0
 70
     8
  0
VERTEX
  5
8D6C
330
8CDC
100
AcDbEntity
  8
0
100
AcDbVertex
100
AcDb2dVertex
 10
4.667508231510311
 20
-3.521266536983958
 30
0.0
 70
     8
  0
VERTEX
  5
8D6D
330
8CDC
100
AcDbEntity
  8
0
100
AcDbVertex
100
AcDb2dVertex
 10
4.676763312545471
 20
-3.478720399340069
 30
0.0
 70
     8
  0
VERTEX
  5
8D6E
330
8CDC
100
AcDbEntity
  8
0
100
AcDbVertex
100
AcDb2dVertex
 10
4.688912041952317
 20
-3.433640619681398
 30
0.0
 70
     8
  0
VERTEX
  5
8D6F
330
8CDC
100
AcDbEntity
  8
0
100
AcDbVertex
100
AcDb2dVertex
 10
4.704393634091779
 20
-3.386153591654533
 30
0.0
 70
     8
  0
VERTEX
  5
8D70
330
8CDC
100
AcDbEntity
  8
0
100
AcDbVertex
100
AcDb2dVertex
 10
4.72319947701661
 20
-3.336684461431005
 30
0.0
 70
     8
  0
VERTEX
  5
8D71
330
8CDC
100
AcDbEntity
  8
0
100
AcDbVertex
100
AcDb2dVertex
 10
4.74520900220255
 20
-3.285733063313557
 30
0.0
 70
     8
  0
VERTEX
  5
8D72
330
8CDC
100
AcDbEntity
  8
0
100
AcDbVertex
100
AcDb2dVertex
 10
4.770301641125289
 20
-3.23379923160499
 30
0.0
 70
     8
  0
VERTEX
  5
8D73
330
8CDC
100
AcDbEntity
  8
0
100
AcDbVertex
100
AcDb2dVertex
 10
4.798356825260533
 20
-3.181382800608062
 30
0.0
 70
     8
  0
VERTEX
  5
8D74
330
8CDC
100
AcDbEntity
  8
0
100
AcDbVertex
100
AcDb2dVertex
 10
4.829253986084015
 20
-3.128983604625524
 30
0.0
 70
     8
  0
VERTEX
  5
8D75
330
8CDC
100
AcDbEntity
  8
0
100
AcDbVertex
100
AcDb2dVertex
 10
4.862872555071447
 20
-3.077101477960155
 30
0.0
 70
     8
  0
VERTEX
  5
8D76
330
8CDC
100
AcDbEntity
  8
0
100
AcDbVertex
100
AcDb2dVertex
 10
4.899091963698509
 20
-3.026236254914735
 30
0.0
 70
     8
  0
VERTEX
  5
8D77
330
8CDC
100
AcDbEntity
  8
0
100
AcDbVertex
100
AcDb2dVertex
 10
4.937751453787136
 20
-2.976807336655973
 30
0.0
 70
     8
  0
VERTEX
  5
8D78
330
8CDC
100
AcDbEntity
  8
0
100
AcDbVertex
100
AcDb2dVertex
 10
4.978529508543925
 20
-2.928912391806456
 30
0.0
 70
     8
  0
VERTEX
  5
8D79
330
8CDC
100
AcDbEntity
  8
0
100
AcDbVertex
100
AcDb2dVertex
 10
5.021064421521696
 20
-2.882568655852693
 30
0.0
 70
     8
  0
VERTEX
  5
8D7A
330
8CDC
100
AcDbEntity
  8
0
100
AcDbVertex
100
AcDb2dVertex
 10
5.064994486273242
 20
-2.837793364281253
 30
0.0
 70
     8
  0
VERTEX
  5
8D7B
330
8CDC
100
AcDbEntity
  8
0
100
AcDbVertex
100
AcDb2dVertex
 10
5.109957996351383
 20
-2.794603752578623
 30
0.0
 70
     8
  0
VERTEX
  5
8D7C
330
8CDC
100
AcDbEntity
  8
0
100
AcDbVertex
100
AcDb2dVertex
 10
5.155593245308924
 20
-2.753017056231357
 30
0.0
 70
     8
  0
VERTEX
  5
8D7D
330
8CDC
100
AcDbEntity
  8
0
100
AcDbVertex
100
AcDb2dVertex
 10
5.201538526698676
 20
-2.71305051072597
 30
0.0
 70
     8
  0
VERTEX
  5
8D7E
330
8CDC
100
AcDbEntity
  8
0
100
AcDbVertex
100
AcDb2dVertex
 10
5.247432134073434
 20
-2.67472135154901
 30
0.0
 70
     8
  0
VERTEX
  5
8D7F
330
8CDC
100
AcDbEntity
  8
0
100
AcDbVertex
100
AcDb2dVertex
 10
5.293024317708773
 20
-2.63802383330222
 30
0.0
 70
     8
  0
VERTEX
  5
8D80
330
8CDC
100
AcDbEntity
  8
0
100
AcDbVertex
100
AcDb2dVertex
 10
5.338513154771373
 20
-2.602860287048279
 30
0.0
 70
     8
  0
VERTEX
  5
8D81
330
8CDC
100
AcDbEntity
  8
0
100
AcDbVertex
100
AcDb2dVertex
 10
5.384208679150617
 20
-2.569110062965101
 30
0.0
 70
     8
  0
VERTEX
  5
8D82
330
8CDC
100
AcDbEntity
  8
0
100
AcDbVertex
100
AcDb2dVertex
 10
5.43042092473594
 20
-2.536652511230613
 30
0.0
 70
     8
  0
VERTEX
  5
8D83
330
8CDC
100
AcDbEntity
  8
0
100
AcDbVertex
100
AcDb2dVertex
 10
5.477459925416781
 20
-2.505366982022692
 30
0.0
 70
     8
  0
VERTEX
  5
8D84
330
8CDC
100
AcDbEntity
  8
0
100
AcDbVertex
100
AcDb2dVertex
 10
5.525635715082529
 20
-2.47513282551926
 30
0.0
 70
     8
  0
VERTEX
  5
8D85
330
8CDC
100
AcDbEntity
  8
0
100
AcDbVertex
100
AcDb2dVertex
 10
5.57525832762262
 20
-2.445829391898222
 30
0.0
 70
     8
  0
VERTEX
  5
8D86
330
8CDC
100
AcDbEntity
  8
0
100
AcDbVertex
100
AcDb2dVertex
 10
5.626637796926477
 20
-2.417336031337498
 30
0.0
 70
     8
  0
VERTEX
  5
8D87
330
8CDC
100
AcDbEntity
  8
0
100
AcDbVertex
100
AcDb2dVertex
 10
5.679851631636459
 20
-2.389546457156498
 30
0.0
 70
     8
  0
VERTEX
  5
8D88
330
8CDC
100
AcDbEntity
  8
0
100
AcDbVertex
100
AcDb2dVertex
 10
5.734047239406702
 20
-2.362411835240628
 30
0.0
 70
     8
  0
VERTEX
  5
8D89
330
8CDC
100
AcDbEntity
  8
0
100
AcDbVertex
100
AcDb2dVertex
 10
5.788139502644291
 20
-2.335897694616875
 30
0.0
 70
     8
  0
VERTEX
  5
8D8A
330
8CDC
100
AcDbEntity
  8
0
100
AcDbVertex
100
AcDb2dVertex
 10
5.841043303756297
 20
-2.309969564312162
 30
0.0
 70
     8
  0
VERTEX
  5
8D8B
330
8CDC
100
AcDbEntity
  8
0
100
AcDbVertex
100
AcDb2dVertex
 10
5.891673525149791
 20
-2.284592973353404
 30
0.0
 70
     8
  0
VERTEX
  5
8D8C
330
8CDC
100
AcDbEntity
  8
0
100
AcDbVertex
100
AcDb2dVertex
 10
5.938945049231882
 20
-2.259733450767576
 30
0.0
 70
     8
  0
VERTEX
  5
8D8D
330
8CDC
100
AcDbEntity
  8
0
100
AcDbVertex
100
AcDb2dVertex
 10
5.981772758409615
 20
-2.235356525581593
 30
0.0
 70
     8
  0
VERTEX
  5
8D8E
330
8CDC
100
AcDbEntity
  8
0
100
AcDbVertex
100
AcDb2dVertex
 10
6.019071535090084
 20
-2.211427726822428
 30
0.0
 70
     8
  0
VERTEX
  5
8D8F
330
8CDC
100
AcDbEntity
  8
0
100
AcDbVertex
100
AcDb2dVertex
 10
6.050023235007834
 20
-2.187938436904147
 30
0.0
 70
     8
  0
VERTEX
  5
8D90
330
8CDC
100
AcDbEntity
  8
0
100
AcDbVertex
100
AcDb2dVertex
 10
6.074877607207248
 20
-2.164983451789595
 30
0.0
 70
     8
  0
VERTEX
  5
8D91
330
8CDC
100
AcDbEntity
  8
0
100
AcDbVertex
100
AcDb2dVertex
 10
6.094151374060182
 20
-2.142683420828682
 30
0.0
 70
     8
  0
VERTEX
  5
8D92
330
8CDC
100
AcDbEntity
  8
0
100
AcDbVertex
100
AcDb2dVertex
 10
6.108361257938483
 20
-2.121158993371416
 30
0.0
 70
     8
  0
VERTEX
  5
8D93
330
8CDC
100
AcDbEntity
  8
0
100
AcDbVertex
100
AcDb2dVertex
 10
6.118023981214022
 20
-2.10053081876773
 30
0.0
 70
     8
  0
VERTEX
  5
8D94
330
8CDC
100
AcDbEntity
  8
0
100
AcDbVertex
100
AcDb2dVertex
 10
6.123656266258635
 20
-2.08091954636761
 30
0.0
 70
     8
  0
VERTEX
  5
8D95
330
8CDC
100
AcDbEntity
  8
0
100
AcDbVertex
100
AcDb2dVertex
 10
6.125774835444172
 20
-2.06244582552101
 30
0.0
 70
     8
  0
VERTEX
  5
8D96
330
8CDC
100
AcDbEntity
  8
0
100
AcDbVertex
100
AcDb2dVertex
 10
6.12489641114249
 20
-2.045230305577895
 30
0.0
 70
     8
  0
VERTEX
  5
8D97
330
8CDC
100
AcDbEntity
  8
0
100
AcDbVertex
100
AcDb2dVertex
 10
6.120245908678622
 20
-2.029370655082132
 30
0.0
 70
     8
  0
VERTEX
  5
8D98
330
8CDC
100
AcDbEntity
  8
0
100
AcDbVertex
100
AcDb2dVertex
 10
6.105881015190249
 20
-2.014872619353305
 30
0.0
 70
     8
  0
VERTEX
  5
8D99
330
8CDC
100
AcDbEntity
  8
0
100
AcDbVertex
100
AcDb2dVertex
 10
6.074567610768269
 20
-2.00171896290486
 30
0.0
 70
     8
  0
VERTEX
  5
8D9A
330
8CDC
100
AcDbEntity
  8
0
100
AcDbVertex
100
AcDb2dVertex
 10
6.019071575503531
 20
-1.989892450250266
 30
0.0
 70
     8
  0
VERTEX
  5
8D9B
330
8CDC
100
AcDbEntity
  8
0
100
AcDbVertex
100
AcDb2dVertex
 10
5.932158789486916
 20
-1.979375845903014
 30
0.0
 70
     8
  0
VERTEX
  5
8D9C
330
8CDC
100
AcDbEntity
  8
0
100
AcDbVertex
100
AcDb2dVertex
 10
5.806595132809288
 20
-1.970151914376558
 30
0.0
 70
     8
  0
VERTEX
  5
8D9D
330
8CDC
100
AcDbEntity
  8
0
100
AcDbVertex
100
AcDb2dVertex
 10
5.635146485561531
 20
-1.962203420184373
 30
0.0
 70
     8
  0
VERTEX
  5
8D9E
330
8CDC
100
AcDbEntity
  8
0
100
AcDbVertex
100
AcDb2dVertex
 10
5.410578727834508
 20
-1.955513127839921
 30
0.0
 70
     8
  0
VERTEX
  5
8D9F
330
8CDC
100
AcDbEntity
  8
0
100
AcDbVertex
100
AcDb2dVertex
 10
5.129375273638189
 20
-1.950046566134098
 30
0.0
 70
     8
  0
VERTEX
  5
8DA0
330
8CDC
100
AcDbEntity
  8
0
100
AcDbVertex
100
AcDb2dVertex
 10
4.802889672658945
 20
-1.945700320967389
 30
0.0
 70
     8
  0
VERTEX
  5
8DA1
330
8CDC
100
AcDbEntity
  8
0
100
AcDbVertex
100
AcDb2dVertex
 10
4.446193008502255
 20
-1.942353742517703
 30
0.0
 70
     8
  0
VERTEX
  5
8DA2
330
8CDC
100
AcDbEntity
  8
0
100
AcDbVertex
100
AcDb2dVertex
 10
4.074356364773578
 20
-1.939886180962957
 30
0.0
 70
     8
  0
VERTEX
  5
8DA3
330
8CDC
100
AcDbEntity
  8
0
100
AcDbVertex
100
AcDb2dVertex
 10
3.702450825078386
 20
-1.93817698648106
 30
0.0
 70
     8
  0
VERTEX
  5
8DA4
330
8CDC
100
AcDbEntity
  8
0
100
AcDbVertex
100
AcDb2dVertex
 10
3.345547473022136
 20
-1.93710550924991
 30
0.0
 70
     8
  0
VERTEX
  5
8DA5
330
8CDC
100
AcDbEntity
  8
0
100
AcDbVertex
100
AcDb2dVertex
 10
3.018717392210323
 20
-1.93655109944742
 30
0.0
 70
     8
  0
VERTEX
  5
8DA6
330
8CDC
100
AcDbEntity
  8
0
100
AcDbVertex
100
AcDb2dVertex
 10
2.09473365605787
 20
-1.933451584217074
 30
0.0
 70
    16
  0
VERTEX
  5
8DA7
330
8CDC
100
AcDbEntity
  8
0
100
AcDbVertex
100
AcDb2dVertex
 10
1.988908854614882
 20
-1.942276153320342
 30
0.0
 70
    16
  0
VERTEX
  5
8DA8
330
8CDC
100
AcDbEntity
  8
0
100
AcDbVertex
100
AcDb2dVertex
 10
1.944815137607367
 20
-2.056996518580227
 30
0.0
 70
    16
  0
VERTEX
  5
8DA9
330
8CDC
100
AcDbEntity
  8
0
100
AcDbVertex
100
AcDb2dVertex
 10
1.953633821321348
 20
-5.975137108705929
 30
0.0
 70
    16
  0
VERTEX
  5
8DAA
330
8CDC
100
AcDbEntity
  8
0
100
AcDbVertex
100
AcDb2dVertex
 10
2.059458771983143
 20
-6.072208335759242
 30
0.0
 70
    16
  0
VERTEX
  5
8DAB
330
8CDC
100
AcDbEntity
  8
0
100
AcDbVertex
100
AcDb2dVertex
 10
2.244652174508374
 20
-5.992786488641787
 30
0.0
 70
    16
  0
VERTEX
  5
8DAC
330
8CDC
100
AcDbEntity
  8
0
100
AcDbVertex
100
AcDb2dVertex
 10
2.976607399332927
 20
-4.907355544953759
 30
0.0
 70
    16
  0
VERTEX
  5
8DAD
330
8CDC
100
AcDbEntity
  8
0
100
AcDbVertex
100
AcDb2dVertex
 10
3.320538153241447
 20
-4.563194690903365
 30
0.0
 70
    16
  0
VERTEX
  5
8DAE
330
8CDC
100
AcDbEntity
  8
0
100
AcDbVertex
100
AcDb2dVertex
 10
3.779112392306934
 20
-4.483772843785907
 30
0.0
 70
    16
  0
VERTEX
  5
8DAF
330
8CDC
100
AcDbEntity
  8
0
100
AcDbVertex
100
AcDb2dVertex
 10
3.920212227043457
 20
-4.474948274682642
 30
0.0
 70
    16
  0
VERTEX
  5
8DB0
330
8CDC
100
AcDbEntity
  8
0
100
AcDbVertex
100
AcDb2dVertex
 10
3.973124627764953
 20
-4.43082494570762
 30
0.0
 70
    16
  0
VERTEX
  5
8DB1
330
8CDC
100
AcDbEntity
  8
0
100
AcDbVertex
100
AcDb2dVertex
 10
3.964305944050973
 20
-4.254332113266126
 30
0.0
 70
    16
  0
VERTEX
  5
8DB2
330
8CDC
100
AcDbEntity
  8
0
100
AcDbVertex
100
AcDb2dVertex
 10
3.920212227043457
 20
-4.086664091657222
 30
0.0
 70
    16
  0
VERTEX
  5
8DB3
330
8CDC
100
AcDbEntity
  8
0
100
AcDbVertex
100
AcDb2dVertex
 10
3.990762144411718
 20
-3.857223361137442
 30
0.0
 70
    16
  0
VERTEX
  5
8DB4
330
8CDC
100
AcDbEntity
  8
0
100
AcDbVertex
100
AcDb2dVertex
 10
4.193593063583719
 20
-3.821924842995009
 30
0.0
 70
    16
  0
VERTEX
  5
8DB5
330
8CDC
100
AcDbEntity
  8
0
100
AcDbVertex
100
AcDb2dVertex
 10
4.475792583837957
 20
-3.866047930240757
 30
0.0
 70
    16
  0
VERTEX
  5
8DB6
330
8CDC
100
AcDbEntity
  8
0
100
AcDbVertex
100
AcDb2dVertex
 10
4.590436218213731
 20
-3.857223361137442
 30
0.0
 70
    16
  0
VERTEX
  5
8DB7
330
8CDC
100
AcDbEntity
  8
0
100
AcDbVertex
100
AcDb2dVertex
 10
4.652167302649182
 20
-3.751327564980869
 30
0.0
 70
    16
  0
VERTEX
  5
8DB8
330
8CDC
100
AcDbEntity
  8
0
100
AcDbVertex
100
AcDb2dVertex
 10
4.652167302649182
 20
-3.460114609008755
 30
0.0
 70
    16
  0
VERTEX
  5
8DB9
330
8CDC
100
AcDbEntity
  8
0
100
AcDbVertex
100
AcDb2dVertex
 10
4.87263573846797
 20
-3.010057717072513
 30
0.0
 70
    16
  0
VERTEX
  5
8DBA
330
8CDC
100
AcDbEntity
  8
0
100
AcDbVertex
100
AcDb2dVertex
 10
5.251841525670023
 20
-2.657072052189576
 30
0.0
 70
    16
  0
VERTEX
  5
8DBB
330
8CDC
100
AcDbEntity
  8
0
100
AcDbVertex
100
AcDb2dVertex
 10
5.604590963292523
 20
-2.409982183463213
 30
0.0
 70
    16
  0
VERTEX
  5
8DBC
330
8CDC
100
AcDbEntity
  8
0
100
AcDbVertex
100
AcDb2dVertex
 10
6.089621402718734
 20
-2.207015401982552
 30
0.0
 70
    16
  0
VERTEX
  5
8DBD
330
8CDC
100
AcDbEntity
  8
0
100
AcDbVertex
100
AcDb2dVertex
 10
6.15135263637304
 20
-2.030522569541112
 30
0.0
 70
    16
  0
SEQEND
  5
8DBE
330
8CDC
100
AcDbEntity
  8
0
  0
POLYLINE
  5
8DBF
330
8964
100
AcDbEntity
  8
0
100
AcDb2dPolyline
 66
     1
 10
0.0
 20
0.0
 30
0.0
 70
     5
 75
     6
  0
VERTEX
  5
8DC0
330
8DBF
100
AcDbEntity
  8
0
100
AcDbVertex
100
AcDb2dVertex
 10
1.997156328642454
 20
-9.438605228019028
 30
0.0
 70
    16
  0
VERTEX
  5
8DC1
330
8DBF
100
AcDbEntity
  8
0
100
AcDbVertex
100
AcDb2dVertex
 10
2.018962497171234
 20
-11.75581936849876
 30
0.0
 70
     8
  0
VERTEX
  5
8DC2
330
8DBF
100
AcDbEntity
  8
0
100
AcDbVertex
100
AcDb2dVertex
 10
2.026881490325644
 20
-11.91421443923529
 30
0.0
 70
     8
  0
VERTEX
  5
8DC3
330
8DBF
100
AcDbEntity
  8
0
100
AcDbVertex
100
AcDb2dVertex
 10
2.036284261330596
 20
-12.03577063761698
 30
0.0
 70
     8
  0
VERTEX
  5
8DC4
330
8DBF
100
AcDbEntity
  8
0
100
AcDbVertex
100
AcDb2dVertex
 10
2.047005946110017
 20
-12.12535471954374
 30
0.0
 70
     8
  0
VERTEX
  5
8DC5
330
8DBF
100
AcDbEntity
  8
0
100
AcDbVertex
100
AcDb2dVertex
 10
2.058881680587798
 20
-12.1878334409155
 30
0.0
 70
     8
  0
VERTEX
  5
8DC6
330
8DBF
100
AcDbEntity
  8
0
100
AcDbVertex
100
AcDb2dVertex
 10
2.071746600687873
 20
-12.22807355763217
 30
0.0
 70
     8
  0
VERTEX
  5
8DC7
330
8DBF
100
AcDbEntity
  8
0
100
AcDbVertex
100
AcDb2dVertex
 10
2.085435842334142
 20
-12.25094182559367
 30
0.0
 70
     8
  0
VERTEX
  5
8DC8
330
8DBF
100
AcDbEntity
  8
0
100
AcDbVertex
100
AcDb2dVertex
 10
2.099784541450539
 20
-12.26130500069991
 30
0.0
 70
     8
  0
VERTEX
  5
8DC9
330
8DBF
100
AcDbEntity
  8
0
100
AcDbVertex
100
AcDb2dVertex
 10
2.114627833960957
 20
-12.26402983885084
 30
0.0
 70
     8
  0
VERTEX
  5
8DCA
330
8DBF
100
AcDbEntity
  8
0
100
AcDbVertex
100
AcDb2dVertex
 10
2.129803603465628
 20
-12.26309223227079
 30
0.0
 70
     8
  0
VERTEX
  5
8DCB
330
8DBF
100
AcDbEntity
  8
0
100
AcDbVertex
100
AcDb2dVertex
 10
2.145160724270041
 20
-12.25890461848196
 30
0.0
 70
     8
  0
VERTEX
  5
8DCC
330
8DBF
100
AcDbEntity
  8
0
100
AcDbVertex
100
AcDb2dVertex
 10
2.160550818355973
 20
-12.25098857133092
 30
0.0
 70
     8
  0
VERTEX
  5
8DCD
330
8DBF
100
AcDbEntity
  8
0
100
AcDbVertex
100
AcDb2dVertex
 10
2.175825507705217
 20
-12.2388656646643
 30
0.0
 70
     8
  0
VERTEX
  5
8DCE
330
8DBF
100
AcDbEntity
  8
0
100
AcDbVertex
100
AcDb2dVertex
 10
2.190836414299576
 20
-12.22205747232872
 30
0.0
 70
     8
  0
VERTEX
  5
8DCF
330
8DBF
100
AcDbEntity
  8
0
100
AcDbVertex
100
AcDb2dVertex
 10
2.205435160120838
 20
-12.20008556817077
 30
0.0
 70
     8
  0
VERTEX
  5
8DD0
330
8DBF
100
AcDbEntity
  8
0
100
AcDbVertex
100
AcDb2dVertex
 10
2.219473367150794
 20
-12.17247152603708
 30
0.0
 70
     8
  0
VERTEX
  5
8DD1
330
8DBF
100
AcDbEntity
  8
0
100
AcDbVertex
100
AcDb2dVertex
 10
2.232802657371223
 20
-12.13873691977424
 30
0.0
 70
     8
  0
VERTEX
  5
8DD2
330
8DBF
100
AcDbEntity
  8
0
100
AcDbVertex
100
AcDb2dVertex
 10
2.245348841724462
 20
-12.09865353483044
 30
0.0
 70
     8
  0
VERTEX
  5
8DD3
330
8DBF
100
AcDbEntity
  8
0
100
AcDbVertex
100
AcDb2dVertex
 10
2.25733448699494
 20
-12.05299400306014
 30
0.0
 70
     8
  0
VERTEX
  5
8DD4
330
8DBF
100
AcDbEntity
  8
0
100
AcDbVertex
100
AcDb2dVertex
 10
2.269056348927646
 20
-12.00278116791934
 30
0.0
 70
     8
  0
VERTEX
  5
8DD5
330
8DBF
100
AcDbEntity
  8
0
100
AcDbVertex
100
AcDb2dVertex
 10
2.280811183267557
 20
-11.94903787286409
 30
0.0
 70
     8
  0
VERTEX
  5
8DD6
330
8DBF
100
AcDbEntity
  8
0
100
AcDbVertex
100
AcDb2dVertex
 10
2.292895745759629
 20
-11.89278696135039
 30
0.0
 70
     8
  0
VERTEX
  5
8DD7
330
8DBF
100
AcDbEntity
  8
0
100
AcDbVertex
100
AcDb2dVertex
 10
2.305606792148852
 20
-11.83505127683427
 30
0.0
 70
     8
  0
VERTEX
  5
8DD8
330
8DBF
100
AcDbEntity
  8
0
100
AcDbVertex
100
AcDb2dVertex
 10
2.319241078180189
 20
-11.77685366277176
 30
0.0
 70
     8
  0
VERTEX
  5
8DD9
330
8DBF
100
AcDbEntity
  8
0
100
AcDbVertex
100
AcDb2dVertex
 10
2.334095359598631
 20
-11.71921696261886
 30
0.0
 70
     8
  0
VERTEX
  5
8DDA
330
8DBF
100
AcDbEntity
  8
0
100
AcDbVertex
100
AcDb2dVertex
 10
2.350429297766025
 20
-11.66297704852841
 30
0.0
 70
     8
  0
VERTEX
  5
8DDB
330
8DBF
100
AcDbEntity
  8
0
100
AcDbVertex
100
AcDb2dVertex
 10
2.368354176511743
 20
-11.60822190744038
 30
0.0
 70
     8
  0
VERTEX
  5
8DDC
330
8DBF
100
AcDbEntity
  8
0
100
AcDbVertex
100
AcDb2dVertex
 10
2.387944185282087
 20
-11.55485255499154
 30
0.0
 70
     8
  0
VERTEX
  5
8DDD
330
8DBF
100
AcDbEntity
  8
0
100
AcDbVertex
100
AcDb2dVertex
 10
2.409273513523295
 20
-11.50277000681868
 30
0.0
 70
     8
  0
VERTEX
  5
8DDE
330
8DBF
100
AcDbEntity
  8
0
100
AcDbVertex
100
AcDb2dVertex
 10
2.432416350681654
 20
-11.45187527855855
 30
0.0
 70
     8
  0
VERTEX
  5
8DDF
330
8DBF
100
AcDbEntity
  8
0
100
AcDbVertex
100
AcDb2dVertex
 10
2.457446886203427
 20
-11.40206938584794
 30
0.0
 70
     8
  0
VERTEX
  5
8DE0
330
8DBF
100
AcDbEntity
  8
0
100
AcDbVertex
100
AcDb2dVertex
 10
2.484439309534877
 20
-11.35325334432364
 30
0.0
 70
     8
  0
VERTEX
  5
8DE1
330
8DBF
100
AcDbEntity
  8
0
100
AcDbVertex
100
AcDb2dVertex
 10
2.513467810122284
 20
-11.30532816962239
 30
0.0
 70
     8
  0
VERTEX
  5
8DE2
330
8DBF
100
AcDbEntity
  8
0
100
AcDbVertex
100
AcDb2dVertex
 10
2.544562613425149
 20
-11.25826636621892
 30
0.0
 70
     8
  0
VERTEX
  5
8DE3
330
8DBF
100
AcDbEntity
  8
0
100
AcDbVertex
100
AcDb2dVertex
 10
2.577578088955824
 20
-11.21232639393957
 30
0.0
 70
     8
  0
VERTEX
  5
8DE4
330
8DBF
100
AcDbEntity
  8
0
100
AcDbVertex
100
AcDb2dVertex
 10
2.61232464223994
 20
-11.16783820144867
 30
0.0
 70
     8
  0
VERTEX
  5
8DE5
330
8DBF
100
AcDbEntity
  8
0
100
AcDbVertex
100
AcDb2dVertex
 10
2.648612678803077
 20
-11.1251317374105
 30
0.0
 70
     8
  0
VERTEX
  5
8DE6
330
8DBF
100
AcDbEntity
  8
0
100
AcDbVertex
100
AcDb2dVertex
 10
2.686252604170876
 20
-11.08453695048936
 30
0.0
 70
     8
  0
VERTEX
  5
8DE7
330
8DBF
100
AcDbEntity
  8
0
100
AcDbVertex
100
AcDb2dVertex
 10
2.725054823868909
 20
-11.04638378934955
 30
0.0
 70
     8
  0
VERTEX
  5
8DE8
330
8DBF
100
AcDbEntity
  8
0
100
AcDbVertex
100
AcDb2dVertex
 10
2.764829743422801
 20
-11.01100220265537
 30
0.0
 70
     8
  0
VERTEX
  5
8DE9
330
8DBF
100
AcDbEntity
  8
0
100
AcDbVertex
100
AcDb2dVertex
 10
2.805387768358148
 20
-10.9787221390711
 30
0.0
 70
     8
  0
VERTEX
  5
8DEA
330
8DBF
100
AcDbEntity
  8
0
100
AcDbVertex
100
AcDb2dVertex
 10
2.846473358511836
 20
-10.94975256600546
 30
0.0
 70
     8
  0
VERTEX
  5
8DEB
330
8DBF
100
AcDbEntity
  8
0
100
AcDbVertex
100
AcDb2dVertex
 10
2.887567190965853
 20
-10.92381852584475
 30
0.0
 70
     8
  0
VERTEX
  5
8DEC
330
8DBF
100
AcDbEntity
  8
0
100
AcDbVertex
100
AcDb2dVertex
 10
2.928083997113471
 20
-10.90052407971969
 30
0.0
 70
     8
  0
VERTEX
  5
8DED
330
8DBF
100
AcDbEntity
  8
0
100
AcDbVertex
100
AcDb2dVertex
 10
2.967438508347953
 20
-10.879473288761
 30
0.0
 70
     8
  0
VERTEX
  5
8DEE
330
8DBF
100
AcDbEntity
  8
0
100
AcDbVertex
100
AcDb2dVertex
 10
3.005045456062575
 20
-10.86027021409939
 30
0.0
 70
     8
  0
VERTEX
  5
8DEF
330
8DBF
100
AcDbEntity
  8
0
100
AcDbVertex
100
AcDb2dVertex
 10
3.040319571650595
 20
-10.84251891686559
 30
0.0
 70
     8
  0
VERTEX
  5
8DF0
330
8DBF
100
AcDbEntity
  8
0
100
AcDbVertex
100
AcDb2dVertex
 10
3.072675586505283
 20
-10.8258234581903
 30
0.0
 70
     8
  0
VERTEX
  5
8DF1
330
8DBF
100
AcDbEntity
  8
0
100
AcDbVertex
100
AcDb2dVertex
 10
3.101528232019909
 20
-10.80978789920424
 30
0.0
 70
     8
  0
VERTEX
  5
8DF2
330
8DBF
100
AcDbEntity
  8
0
100
AcDbVertex
100
AcDb2dVertex
 10
3.1264103924379
 20
-10.79407541690933
 30
0.0
 70
     8
  0
VERTEX
  5
8DF3
330
8DBF
100
AcDbEntity
  8
0
100
AcDbVertex
100
AcDb2dVertex
 10
3.147327563403337
 20
-10.77858565179232
 30
0.0
 70
     8
  0
VERTEX
  5
8DF4
330
8DBF
100
AcDbEntity
  8
0
100
AcDbVertex
100
AcDb2dVertex
 10
3.164403393410431
 20
-10.76327736021115
 30
0.0
 70
     8
  0
VERTEX
  5
8DF5
330
8DBF
100
AcDbEntity
  8
0
100
AcDbVertex
100
AcDb2dVertex
 10
3.177761530953404
 20
-10.74810929852377
 30
0.0
 70
     8
  0
VERTEX
  5
8DF6
330
8DBF
100
AcDbEntity
  8
0
100
AcDbVertex
100
AcDb2dVertex
 10
3.187525624526511
 20
-10.73304022308813
 30
0.0
 70
     8
  0
VERTEX
  5
8DF7
330
8DBF
100
AcDbEntity
  8
0
100
AcDbVertex
100
AcDb2dVertex
 10
3.193819322623973
 20
-10.71802889026217
 30
0.0
 70
     8
  0
VERTEX
  5
8DF8
330
8DBF
100
AcDbEntity
  8
0
100
AcDbVertex
100
AcDb2dVertex
 10
3.196766273740006
 20
-10.70303405640383
 30
0.0
 70
     8
  0
VERTEX
  5
8DF9
330
8DBF
100
AcDbEntity
  8
0
100
AcDbVertex
100
AcDb2dVertex
 10
3.19649012636885
 20
-10.68801447787107
 30
0.0
 70
     8
  0
VERTEX
  5
8DFA
330
8DBF
100
AcDbEntity
  8
0
100
AcDbVertex
100
AcDb2dVertex
 10
3.19310628573292
 20
-10.67294815800758
 30
0.0
 70
     8
  0
VERTEX
  5
8DFB
330
8DBF
100
AcDbEntity
  8
0
100
AcDbVertex
100
AcDb2dVertex
 10
3.186697183967407
 20
-10.65789008810003
 30
0.0
 70
     8
  0
VERTEX
  5
8DFC
330
8DBF
100
AcDbEntity
  8
0
100
AcDbVertex
100
AcDb2dVertex
 10
3.177337009935698
 20
-10.64291450642084
 30
0.0
 70
     8
  0
VERTEX
  5
8DFD
330
8DBF
100
AcDbEntity
  8
0
100
AcDbVertex
100
AcDb2dVertex
 10
3.165099952501172
 20
-10.62809565124244
 30
0.0
 70
     8
  0
VERTEX
  5
8DFE
330
8DBF
100
AcDbEntity
  8
0
100
AcDbVertex
100
AcDb2dVertex
 10
3.150060200527207
 20
-10.61350776083723
 30
0.0
 70
     8
  0
VERTEX
  5
8DFF
330
8DBF
100
AcDbEntity
  8
0
100
AcDbVertex
100
AcDb2dVertex
 10
3.132291942877202
 20
-10.59922507347764
 30
0.0
 70
     8
  0
VERTEX
  5
8E00
330
8DBF
100
AcDbEntity
  8
0
100
AcDbVertex
100
AcDb2dVertex
 10
3.111869368414538
 20
-10.58532182743608
 30
0.0
 70
     8
  0
VERTEX
  5
8E01
330
8DBF
100
AcDbEntity
  8
0
100
AcDbVertex
100
AcDb2dVertex
 10
3.088866666002576
 20
-10.57187226098499
 30
0.0
 70
     8
  0
VERTEX
  5
8E02
330
8DBF
100
AcDbEntity
  8
0
100
AcDbVertex
100
AcDb2dVertex
 10
3.06341710088122
 20
-10.55886812511266
 30
0.0
 70
     8
  0
VERTEX
  5
8E03
330
8DBF
100
AcDbEntity
  8
0
100
AcDbVertex
100
AcDb2dVertex
 10
3.035890243796394
 20
-10.54597122167099
 30
0.0
 70
     8
  0
VERTEX
  5
8E04
330
8DBF
100
AcDbEntity
  8
0
100
AcDbVertex
100
AcDb2dVertex
 10
3.006714741870503
 20
-10.53276086522776
 30
0.0
 70
     8
  0
VERTEX
  5
8E05
330
8DBF
100
AcDbEntity
  8
0
100
AcDbVertex
100
AcDb2dVertex
 10
2.976319242225976
 20
-10.51881637035075
 30
0.0
 70
     8
  0
VERTEX
  5
8E06
330
8DBF
100
AcDbEntity
  8
0
100
AcDbVertex
100
AcDb2dVertex
 10
2.945132391985225
 20
-10.50371705160775
 30
0.0
 70
     8
  0
VERTEX
  5
8E07
330
8DBF
100
AcDbEntity
  8
0
100
AcDbVertex
100
AcDb2dVertex
 10
2.913582838270677
 20
-10.48704222356654
 30
0.0
 70
     8
  0
VERTEX
  5
8E08
330
8DBF
100
AcDbEntity
  8
0
100
AcDbVertex
100
AcDb2dVertex
 10
2.882099228204751
 20
-10.46837120079489
 30
0.0
 70
     8
  0
VERTEX
  5
8E09
330
8DBF
100
AcDbEntity
  8
0
100
AcDbVertex
100
AcDb2dVertex
 10
2.851110208909865
 20
-10.44728329786059
 30
0.0
 70
     8
  0
VERTEX
  5
8E0A
330
8DBF
100
AcDbEntity
  8
0
100
AcDbVertex
100
AcDb2dVertex
 10
2.820951004522278
 20
-10.42339357371105
 30
0.0
 70
     8
  0
VERTEX
  5
8E0B
330
8DBF
100
AcDbEntity
  8
0
100
AcDbVertex
100
AcDb2dVertex
 10
2.791583147233591
 20
-10.39646006481211
 30
0.0
 70
     8
  0
VERTEX
  5
8E0C
330
8DBF
100
AcDbEntity
  8
0
100
AcDbVertex
100
AcDb2dVertex
 10
2.762874746249254
 20
-10.36627655200927
 30
0.0
 70
     8
  0
VERTEX
  5
8E0D
330
8DBF
100
AcDbEntity
  8
0
100
AcDbVertex
100
AcDb2dVertex
 10
2.734693910774701
 20
-10.33263681614799
 30
0.0
 70
     8
  0
VERTEX
  5
8E0E
330
8DBF
100
AcDbEntity
  8
0
100
AcDbVertex
100
AcDb2dVertex
 10
2.706908750015365
 20
-10.29533463807378
 30
0.0
 70
     8
  0
VERTEX
  5
8E0F
330
8DBF
100
AcDbEntity
  8
0
100
AcDbVertex
100
AcDb2dVertex
 10
2.6793873731767
 20
-10.25416379863209
 30
0.0
 70
     8
  0
VERTEX
  5
8E10
330
8DBF
100
AcDbEntity
  8
0
100
AcDbVertex
100
AcDb2dVertex
 10
2.651997889464128
 20
-10.20891807866842
 30
0.0
 70
     8
  0
VERTEX
  5
8E11
330
8DBF
100
AcDbEntity
  8
0
100
AcDbVertex
100
AcDb2dVertex
 10
2.624608408083101
 20
-10.15939125902823
 30
0.0
 70
     8
  0
VERTEX
  5
8E12
330
8DBF
100
AcDbEntity
  8
0
100
AcDbVertex
100
AcDb2dVertex
 10
2.597163974730195
 20
-10.10557096627269
 30
0.0
 70
     8
  0
VERTEX
  5
8E13
330
8DBF
100
AcDbEntity
  8
0
100
AcDbVertex
100
AcDb2dVertex
 10
2.569917381066431
 20
-10.04822020982566
 30
0.0
 70
     8
  0
VERTEX
  5
8E14
330
8DBF
100
AcDbEntity
  8
0
100
AcDbVertex
100
AcDb2dVertex
 10
2.543198355243996
 20
-9.988295844826705
 30
0.0
 70
     8
  0
VERTEX
  5
8E15
330
8DBF
100
AcDbEntity
  8
0
100
AcDbVertex
100
AcDb2dVertex
 10
2.517336625415065
 20
-9.926754726415353
 30
0.0
 70
     8
  0
VERTEX
  5
8E16
330
8DBF
100
AcDbEntity
  8
0
100
AcDbVertex
100
AcDb2dVertex
 10
2.4926619197318
 20
-9.864553709731147
 30
0.0
 70
     8
  0
VERTEX
  5
8E17
330
8DBF
100
AcDbEntity
  8
0
100
AcDbVertex
100
AcDb2dVertex
 10
2.46950396634638
 20
-9.802649649913639
 30
0.0
 70
     8
  0
VERTEX
  5
8E18
330
8DBF
100
AcDbEntity
  8
0
100
AcDbVertex
100
AcDb2dVertex
 10
2.448192493410974
 20
-9.741999402102365
 30
0.0
 70
     8
  0
VERTEX
  5
8E19
330
8DBF
100
AcDbEntity
  8
0
100
AcDbVertex
100
AcDb2dVertex
 10
2.42905722907775
 20
-9.68355982143688
 30
0.0
 70
     8
  0
VERTEX
  5
8E1A
330
8DBF
100
AcDbEntity
  8
0
100
AcDbVertex
100
AcDb2dVertex
 10
2.412309748891594
 20
-9.62813516090442
 30
0.0
 70
     8
  0
VERTEX
  5
8E1B
330
8DBF
100
AcDbEntity
  8
0
100
AcDbVertex
100
AcDb2dVertex
 10
2.397689017968225
 20
-9.575919264882955
 30
0.0
 70
     8
  0
VERTEX
  5
8E1C
330
8DBF
100
AcDbEntity
  8
0
100
AcDbVertex
100
AcDb2dVertex
 10
2.384815848816057
 20
-9.526953375598171
 30
0.0
 70
     8
  0
VERTEX
  5
8E1D
330
8DBF
100
AcDbEntity
  8
0
100
AcDbVertex
100
AcDb2dVertex
 10
2.373311053943524
 20
-9.481278735275719
 30
0.0
 70
     8
  0
VERTEX
  5
8E1E
330
8DBF
100
AcDbEntity
  8
0
100
AcDbVertex
100
AcDb2dVertex
 10
2.362795445859052
 20
-9.438936586141277
 30
0.0
 70
     8
  0
VERTEX
  5
8E1F
330
8DBF
100
AcDbEntity
  8
0
100
AcDbVertex
100
AcDb2dVertex
 10
2.352889837071066
 20
-9.399968170420532
 30
0.0
 70
     8
  0
VERTEX
  5
8E20
330
8DBF
100
AcDbEntity
  8
0
100
AcDbVertex
100
AcDb2dVertex
 10
2.343215040087983
 20
-9.364414730339138
 30
0.0
 70
     8
  0
VERTEX
  5
8E21
330
8DBF
100
AcDbEntity
  8
0
100
AcDbVertex
100
AcDb2dVertex
 10
2.333391867418233
 20
-9.332317508122777
 30
0.0
 70
     8
  0
VERTEX
  5
8E22
330
8DBF
100
AcDbEntity
  8
0
100
AcDbVertex
100
AcDb2dVertex
 10
2.323090590666788
 20
-9.303686126280702
 30
0.0
 70
     8
  0
VERTEX
  5
8E23
330
8DBF
100
AcDbEntity
  8
0
100
AcDbVertex
100
AcDb2dVertex
 10
2.312179317824725
 20
-9.278403728456616
 30
0.0
 70
     8
  0
VERTEX
  5
8E24
330
8DBF
100
AcDbEntity
  8
0
100
AcDbVertex
100
AcDb2dVertex
 10
2.300575615979678
 20
-9.256321838577814
 30
0.0
 70
     8
  0
VERTEX
  5
8E25
330
8DBF
100
AcDbEntity
  8
0
100
AcDbVertex
100
AcDb2dVertex
 10
2.288197052219285
 20
-9.237291980571576
 30
0.0
 70
     8
  0
VERTEX
  5
8E26
330
8DBF
100
AcDbEntity
  8
0
100
AcDbVertex
100
AcDb2dVertex
 10
2.274961193631151
 20
-9.221165678365196
 30
0.0
 70
     8
  0
VERTEX
  5
8E27
330
8DBF
100
AcDbEntity
  8
0
100
AcDbVertex
100
AcDb2dVertex
 10
2.260785607302922
 20
-9.207794455885945
 30
0.0
 70
     8
  0
VERTEX
  5
8E28
330
8DBF
100
AcDbEntity
  8
0
100
AcDbVertex
100
AcDb2dVertex
 10
2.245587860322226
 20
-9.197029837061137
 30
0.0
 70
     8
  0
VERTEX
  5
8E29
330
8DBF
100
AcDbEntity
  8
0
100
AcDbVertex
100
AcDb2dVertex
 10
2.229285519776691
 20
-9.188723345818051
 30
0.0
 70
     8
  0
VERTEX
  5
8E2A
330
8DBF
100
AcDbEntity
  8
0
100
AcDbVertex
100
AcDb2dVertex
 10
2.211873089682224
 20
-9.182732004952971
 30
0.0
 70
     8
  0
VERTEX
  5
8E2B
330
8DBF
100
AcDbEntity
  8
0
100
AcDbVertex
100
AcDb2dVertex
 10
2.193652821767889
 20
-9.178934832738171
 30
0.0
 70
     8
  0
VERTEX
  5
8E2C
330
8DBF
100
AcDbEntity
  8
0
100
AcDbVertex
100
AcDb2dVertex
 10
2.175003904691033
 20
-9.177216346314942
 30
0.0
 70
     8
  0
VERTEX
  5
8E2D
330
8DBF
100
AcDbEntity
  8
0
100
AcDbVertex
100
AcDb2dVertex
 10
2.156305527109005
 20
-9.177461062824523
 30
0.0
 70
     8
  0
VERTEX
  5
8E2E
330
8DBF
100
AcDbEntity
  8
0
100
AcDbVertex
100
AcDb2dVertex
 10
2.137936877679138
 20
-9.179553499408221
 30
0.0
 70
     8
  0
VERTEX
  5
8E2F
330
8DBF
100
AcDbEntity
  8
0
100
AcDbVertex
100
AcDb2dVertex
 10
2.120277145058796
 20
-9.183378173207287
 30
0.0
 70
     8
  0
VERTEX
  5
8E30
330
8DBF
100
AcDbEntity
  8
0
100
AcDbVertex
100
AcDb2dVertex
 10
2.103705517905321
 20
-9.188819601363015
 30
0.0
 70
     8
  0
VERTEX
  5
8E31
330
8DBF
100
AcDbEntity
  8
0
100
AcDbVertex
100
AcDb2dVertex
 10
2.088601184876056
 20
-9.19576230101665
 30
0.0
 70
     8
  0
VERTEX
  5
8E32
330
8DBF
100
AcDbEntity
  8
0
100
AcDbVertex
100
AcDb2dVertex
 10
2.075254032938067
 20
-9.204096288493232
 30
0.0
 70
     8
  0
VERTEX
  5
8E33
330
8DBF
100
AcDbEntity
  8
0
100
AcDbVertex
100
AcDb2dVertex
 10
2.063596742297331
 20
-9.213733576852778
 30
0.0
 70
     8
  0
VERTEX
  5
8E34
330
8DBF
100
AcDbEntity
  8
0
100
AcDbVertex
100
AcDb2dVertex
 10
2.053472691469531
 20
-9.224591678339049
 30
0.0
 70
     8
  0
VERTEX
  5
8E35
330
8DBF
100
AcDbEntity
  8
0
100
AcDbVertex
100
AcDb2dVertex
 10
2.044725258970341
 20
-9.236588105195821
 30
0.0
 70
     8
  0
VERTEX
  5
8E36
330
8DBF
100
AcDbEntity
  8
0
100
AcDbVertex
100
AcDb2dVertex
 10
2.037197823315466
 20
-9.249640369666856
 30
0.0
 70
     8
  0
VERTEX
  5
8E37
330
8DBF
100
AcDbEntity
  8
0
100
AcDbVertex
100
AcDb2dVertex
 10
2.030733763020592
 20
-9.26366598399591
 30
0.0
 70
     8
  0
VERTEX
  5
8E38
330
8DBF
100
AcDbEntity
  8
0
100
AcDbVertex
100
AcDb2dVertex
 10
2.025176456601405
 20
-9.278582460426754
 30
0.0
 70
     8
  0
VERTEX
  5
8E39
330
8DBF
100
AcDbEntity
  8
0
100
AcDbVertex
100
AcDb2dVertex
 10
2.020369282573593
 20
-9.294307311203169
 30
0.0
 70
     8
  0
VERTEX
  5
8E3A
330
8DBF
100
AcDbEntity
  8
0
100
AcDbVertex
100
AcDb2dVertex
 10
2.016176227632371
 20
-9.311606294160554
 30
0.0
 70
     8
  0
VERTEX
  5
8E3B
330
8DBF
100
AcDbEntity
  8
0
100
AcDbVertex
100
AcDb2dVertex
 10
2.012543711191
 20
-9.334638149500989
 30
0.0
 70
     8
  0
VERTEX
  5
8E3C
330
8DBF
100
AcDbEntity
  8
0
100
AcDbVertex
100
AcDb2dVertex
 10
2.009438760842312
 20
-9.36840986301815
 30
0.0
 70
     8
  0
VERTEX
  5
8E3D
330
8DBF
100
AcDbEntity
  8
0
100
AcDbVertex
100
AcDb2dVertex
 10
2.006828404179092
 20
-9.417928420505774
 30
0.0
 70
     8
  0
VERTEX
  5
8E3E
330
8DBF
100
AcDbEntity
  8
0
100
AcDbVertex
100
AcDb2dVertex
 10
2.004679668794143
 20
-9.488200807757543
 30
0.0
 70
     8
  0
VERTEX
  5
8E3F
330
8DBF
100
AcDbEntity
  8
0
100
AcDbVertex
100
AcDb2dVertex
 10
2.002959582280276
 20
-9.584234010567193
 30
0.0
 70
     8
  0
VERTEX
  5
8E40
330
8DBF
100
AcDbEntity
  8
0
100
AcDbVertex
100
AcDb2dVertex
 10
2.00163517223029
 20
-9.711035014728409
 30
0.0
 70
     8
  0
VERTEX
  5
8E41
330
8DBF
100
AcDbEntity
  8
0
100
AcDbVertex
100
AcDb2dVertex
 10
2.000673466236992
 20
-9.873610806034896
 30
0.0
 70
     8
  0
VERTEX
  5
8E42
330
8DBF
100
AcDbEntity
  8
0
100
AcDbVertex
100
AcDb2dVertex
 10
2.000074464591811
 20
-10.07441538512321
 30
0.0
 70
     8
  0
VERTEX
  5
8E43
330
8DBF
100
AcDbEntity
  8
0
100
AcDbVertex
100
AcDb2dVertex
 10
1.999970058380771
 20
-10.30569081200131
 30
0.0
 70
     8
  0
VERTEX
  5
8E44
330
8DBF
100
AcDbEntity
  8
0
100
AcDbVertex
100
AcDb2dVertex
 10
2.000525111388503
 20
-10.55712616151996
 30
0.0
 70
     8
  0
VERTEX
  5
8E45
330
8DBF
100
AcDbEntity
  8
0
100
AcDbVertex
100
AcDb2dVertex
 10
2.001904487399642
 20
-10.81841050852993
 30
0.0
 70
     8
  0
VERTEX
  5
8E46
330
8DBF
100
AcDbEntity
  8
0
100
AcDbVertex
100
AcDb2dVertex
 10
2.004273050198847
 20
-11.07923292788202
 30
0.0
 70
     8
  0
VERTEX
  5
8E47
330
8DBF
100
AcDbEntity
  8
0
100
AcDbVertex
100
AcDb2dVertex
 10
2.007795663570748
 20
-11.32928249442699
 30
0.0
 70
     8
  0
VERTEX
  5
8E48
330
8DBF
100
AcDbEntity
  8
0
100
AcDbVertex
100
AcDb2dVertex
 10
2.012637191299992
 20
-11.55824828301565
 30
0.0
 70
     8
  0
VERTEX
  5
8E49
330
8DBF
100
AcDbEntity
  8
0
100
AcDbVertex
100
AcDb2dVertex
 10
2.001376983287181
 20
-12.20067940321624
 30
0.0
 70
    16
  0
VERTEX
  5
8E4A
330
8DBF
100
AcDbEntity
  8
0
100
AcDbVertex
100
AcDb2dVertex
 10
2.111110721236226
 20
-12.29359337010855
 30
0.0
 70
    16
  0
VERTEX
  5
8E4B
330
8DBF
100
AcDbEntity
  8
0
100
AcDbVertex
100
AcDb2dVertex
 10
2.241947135533639
 20
-12.20912614945456
 30
0.0
 70
    16
  0
VERTEX
  5
8E4C
330
8DBF
100
AcDbEntity
  8
0
100
AcDbVertex
100
AcDb2dVertex
 10
2.317916680856555
 20
-11.70232355071864
 30
0.0
 70
    16
  0
VERTEX
  5
8E4D
330
8DBF
100
AcDbEntity
  8
0
100
AcDbVertex
100
AcDb2dVertex
 10
2.490958298631927
 20
-11.29688142338407
 30
0.0
 70
    16
  0
VERTEX
  5
8E4E
330
8DBF
100
AcDbEntity
  8
0
100
AcDbVertex
100
AcDb2dVertex
 10
2.799056985349475
 20
-10.94211977347944
 30
0.0
 70
    16
  0
VERTEX
  5
8E4F
330
8DBF
100
AcDbEntity
  8
0
100
AcDbVertex
100
AcDb2dVertex
 10
3.145140370119047
 20
-10.80697231712479
 30
0.0
 70
    16
  0
VERTEX
  5
8E50
330
8DBF
100
AcDbEntity
  8
0
100
AcDbVertex
100
AcDb2dVertex
 10
3.229550926293796
 20
-10.68871835324684
 30
0.0
 70
    16
  0
VERTEX
  5
8E51
330
8DBF
100
AcDbEntity
  8
0
100
AcDbVertex
100
AcDb2dVertex
 10
3.115596682918848
 20
-10.56624113711431
 30
0.0
 70
    16
  0
VERTEX
  5
8E52
330
8DBF
100
AcDbEntity
  8
0
100
AcDbVertex
100
AcDb2dVertex
 10
2.841262338046265
 20
-10.47755066420585
 30
0.0
 70
    16
  0
VERTEX
  5
8E53
330
8DBF
100
AcDbEntity
  8
0
100
AcDbVertex
100
AcDb2dVertex
 10
2.626015218355274
 20
-10.20725599322588
 30
0.0
 70
    16
  0
VERTEX
  5
8E54
330
8DBF
100
AcDbEntity
  8
0
100
AcDbVertex
100
AcDb2dVertex
 10
2.402327237031283
 20
-9.649772917060023
 30
0.0
 70
    16
  0
VERTEX
  5
8E55
330
8DBF
100
AcDbEntity
  8
0
100
AcDbVertex
100
AcDb2dVertex
 10
2.339019207986124
 20
-9.295011267155338
 30
0.0
 70
    16
  0
VERTEX
  5
8E56
330
8DBF
100
AcDbEntity
  8
0
100
AcDbVertex
100
AcDb2dVertex
 10
2.241947135533644
 20
-9.164087063055262
 30
0.0
 70
    16
  0
VERTEX
  5
8E57
330
8DBF
100
AcDbEntity
  8
0
100
AcDbVertex
100
AcDb2dVertex
 10
2.068905368539443
 20
-9.18098055553191
 30
0.0
 70
    16
  0
VERTEX
  5
8E58
330
8DBF
100
AcDbEntity
  8
0
100
AcDbVertex
100
AcDb2dVertex
 10
2.01403849956492
 20
-9.286564520917018
 30
0.0
 70
    16
  0
SEQEND
  5
8E59
330
8DBF
100
AcDbEntity
  8
0
  0
ENDBLK
  5
8E5A
330
8964
100
AcDbEntity
  8
0
100
AcDbBlockEnd
  0
BLOCK
  5
8F19
330
8F0E
100
AcDbEntity
  8
0
100
AcDbBlockBegin
  2
*D1
 70
     1
 10
0.0
 20
0.0
 30
0.0
  3
*D1
  1

  0
LINE
  5
8F60
330
8F0E
100
AcDbEntity
  8
DIM
 62
     0
370
    -2
100
AcDbLine
 10
13.0805369702874
 20
10.90786335809318
 30
0.0
 11
8.388941661665997
 21
10.90786335809318
 31
0.0
  0
LINE
  5
8F61
330
8F0E
100
AcDbEntity
  8
DIM
 62
     0
370
    -2
100
AcDbLine
 10
13.0805369702874
 20
29.15786063068285
 30
0.0
 11
8.388941661666002
 21
29.15786063068285
 31
0.0
  0
LINE
  5
8F62
330
8F0E
100
AcDbEntity
  8
DIM
 62
     0
370
    -2
100
AcDbLine
 10
8.568941661665997
 20
11.08786335809318
 30
0.0
 11
8.568941661665999
 21
18.77619532772135
 31
0.0
  0
LINE
  5
8F63
330
8F0E
100
AcDbEntity
  8
DIM
 62
     0
370
    -2
100
AcDbLine
 10
8.568941661666002
 20
28.97786063068285
 30
0.0
 11
8.568941661666
 21
21.28952866105469
 31
0.0
  0
SOLID
  5
8F64
330
8F0E
100
AcDbEntity
  8
DIM
 62
     0
100
AcDbTrace
 10
8.538941661665997
 20
11.08786335809318
 30
0.0
 11
8.598941661665996
 21
11.08786335809318
 31
0.0
 12
8.568941661665997
 22
10.90786335809318
 32
0.0
 13
8.568941661665997
 23
10.90786335809318
 33
0.0
  0
SOLID
  5
8F65
330
8F0E
100
AcDbEntity
  8
DIM
 62
     0
100
AcDbTrace
 10
8.538941661666003
 20
28.97786063068285
 30
0.0
 11
8.598941661666001
 21
28.97786063068285
 31
0.0
 12
8.568941661666002
 22
29.15786063068285
 32
0.0
 13
8.568941661666002
 23
29.15786063068285
 33
0.0
  0
MTEXT
  5
8F66
330
8F0E
100
AcDbEntity
  8
DIM
 62
     0
100
AcDbMText
 10
8.568941661665997
 20
20.03286199438802
 30
0.0
 40
1.0
 41
0.0
 71
     5
 72
     1
  1
\A1;18{\H1.000000x;\S1/4;}
 73
     1
 44
1.0
  0
POINT
  5
8F67
330
8F0E
100
AcDbEntity
  8
Defpoints
 62
     0
100
AcDbPoint
 10
13.1430369702874
 20
10.90786335809318
 30
0.0
  0
POINT
  5
8F68
330
8F0E
100
AcDbEntity
  8
Defpoints
 62
     0
100
AcDbPoint
 10
13.1430369702874
 20
29.15786063068285
 30
0.0
  0
POINT
  5
8F69
330
8F0E
100
AcDbEntity
  8
Defpoints
 62
     0
100
AcDbPoint
 10
8.568941661666002
 20
29.15786063068285
 30
0.0
  0
ENDBLK
  5
8F1A
330
8F0E
100
AcDbEntity
  8
0
100
AcDbBlockEnd
  0
BLOCK
  5
8F2B
330
8F20
100
AcDbEntity
  8
0
100
AcDbBlockBegin
  2
*D2
 70
     1
 10
0.0
 20
0.0
 30
0.0
  3
*D2
  1

  0
LINE
  5
8F74
330
8F20
100
AcDbEntity
  8
DIM
 62
     0
370
    -2
100
AcDbLine
 10
30.35206734639352
 20
20.09535329420586
 30
0.0
 11
30.35206734639352
 21
32.11336938810633
 31
0.0
  0
LINE
  5
8F75
330
8F20
100
AcDbEntity
  8
DIM
 62
     0
370
    -2
100
AcDbLine
 10
31.72706734639353
 20
20.09535329420586
 30
0.0
 11
31.72706734639353
 21
32.11336938810633
 31
0.0
  0
LINE
  5
8F76
330
8F20
100
AcDbEntity
  8
DIM
 62
     0
370
    -2
100
AcDbLine
 10
30.53206734639353
 20
31.93336938810633
 30
0.0
 11
31.54706734639353
 21
31.93336938810633
 31
0.0
  0
LINE
  5
8F77
330
8F20
100
AcDbEntity
  8
DIM
 62
     0
370
    -2
100
AcDbLine
 10
31.72706734639353
 20
31.93336938810633
 30
0.0
 11
31.90706734639352
 21
31.93336938810633
 31
0.0
  0
SOLID
  5
8F78
330
8F20
100
AcDbEntity
  8
DIM
 62
     0
100
AcDbTrace
 10
30.53206734639353
 20
31.96336938810633
 30
0.0
 11
30.53206734639353
 21
31.90336938810633
 31
0.0
 12
30.35206734639352
 22
31.93336938810633
 32
0.0
 13
30.35206734639352
 23
31.93336938810633
 33
0.0
  0
SOLID
  5
8F79
330
8F20
100
AcDbEntity
  8
DIM
 62
     0
100
AcDbTrace
 10
31.54706734639353
 20
31.96336938810633
 30
0.0
 11
31.54706734639353
 21
31.90336938810633
 31
0.0
 12
31.72706734639353
 22
31.93336938810633
 32
0.0
 13
31.72706734639353
 23
31.93336938810633
 33
0.0
  0
MTEXT
  5
8F7A
330
8F20
100
AcDbEntity
  8
DIM
 62
     0
100
AcDbMText
 10
32.66373401306019
 20
31.93336938810633
 30
0.0
 40
1.0
 41
0.0
 71
     5
 72
     1
  1
\A1;1{\H1.000000x;\S3/8;}
 73
     1
 44
1.0
  0
POINT
  5
8F7B
330
8F20
100
AcDbEntity
  8
Defpoints
 62
     0
100
AcDbPoint
 10
30.35206734639352
 20
20.03285329420586
 30
0.0
  0
POINT
  5
8F7C
330
8F20
100
AcDbEntity
  8
Defpoints
 62
     0
100
AcDbPoint
 10
31.72706734639353
 20
20.03285329420586
 30
0.0
  0
POINT
  5
8F7D
330
8F20
100
AcDbEntity
  8
Defpoints
 62
     0
100
AcDbPoint
 10
31.72706734639353
 20
31.93336938810633
 30
0.0
  0
ENDBLK
  5
8F2C
330
8F20
100
AcDbEntity
  8
0
100
AcDbBlockEnd
  0
BLOCK
  5
8F39
330
8F2E
100
AcDbEntity
  8
0
100
AcDbBlockBegin
  2
*D3
 70
     1
 10
0.0
 20
0.0
 30
0.0
  3
*D3
  1

  0
LINE
  5
8F6A
330
8F2E
100
AcDbEntity
  8
DIM
 62
     0
370
    -2
100
AcDbLine
 10
26.40980144342945
 20
29.22018867356534
 30
0.0
 11
26.40980144342945
 21
31.91069723622901
 31
0.0
  0
LINE
  5
8F6B
330
8F2E
100
AcDbEntity
  8
DIM
 62
     0
370
    -2
100
AcDbLine
 10
13.15460797784412
 20
29.22018867356534
 30
0.0
 11
13.15460797784412
 21
31.91069723622901
 31
0.0
  0
LINE
  5
8F6C
330
8F2E
100
AcDbEntity
  8
DIM
 62
     0
370
    -2
100
AcDbLine
 10
26.22980144342946
 20
31.73069723622901
 30
0.0
 11
21.03887137730346
 21
31.73069723622901
 31
0.0
  0
LINE
  5
8F6D
330
8F2E
100
AcDbEntity
  8
DIM
 62
     0
370
    -2
100
AcDbLine
 10
13.33460797784412
 20
31.73069723622901
 30
0.0
 11
18.52553804397012
 21
31.73069723622901
 31
0.0
  0
SOLID
  5
8F6E
330
8F2E
100
AcDbEntity
  8
DIM
 62
     0
100
AcDbTrace
 10
26.22980144342946
 20
31.76069723622901
 30
0.0
 11
26.22980144342946
 21
31.700697236229
 31
0.0
 12
26.40980144342945
 22
31.73069723622901
 32
0.0
 13
26.40980144342945
 23
31.73069723622901
 33
0.0
  0
SOLID
  5
8F6F
330
8F2E
100
AcDbEntity
  8
DIM
 62
     0
100
AcDbTrace
 10
13.33460797784412
 20
31.76069723622901
 30
0.0
 11
13.33460797784412
 21
31.700697236229
 31
0.0
 12
13.15460797784412
 22
31.73069723622901
 32
0.0
 13
13.15460797784412
 23
31.73069723622901
 33
0.0
  0
MTEXT
  5
8F70
330
8F2E
100
AcDbEntity
  8
DIM
 62
     0
100
AcDbMText
 10
19.78220471063679
 20
31.73069723622901
 30
0.0
 40
1.0
 41
0.0
 71
     5
 72
     1
  1
\A1;13{\H1.000000x;\S1/4;}
 73
     1
 44
1.0
  0
POINT
  5
8F71
330
8F2E
100
AcDbEntity
  8
Defpoints
 62
     0
100
AcDbPoint
 10
26.40980144342945
 20
29.15768867356535
 30
0.0
  0
POINT
  5
8F72
330
8F2E
100
AcDbEntity
  8
Defpoints
 62
     0
100
AcDbPoint
 10
13.15460797784412
 20
29.15768867356535
 30
0.0
  0
POINT
  5
8F73
330
8F2E
100
AcDbEntity
  8
Defpoints
 62
     0
100
AcDbPoint
 10
13.15460797784412
 20
31.73069723622901
 30
0.0
  0
ENDBLK
  5
8F3A
330
8F2E
100
AcDbEntity
  8
0
100
AcDbBlockEnd
  0
ENDSEC
  0
SECTION
  2
ENTITIES
  0
POLYLINE
  5
7CF0
330
18
100
AcDbEntity
  8
0
100
AcDb2dPolyline
 66
     1
 10
0.0
 20
0.0
 30
0.0
 70
     5
 75
     6
  0
VERTEX
  5
7CF1
330
7CF0
100
AcDbEntity
  8
0
100
AcDbVertex
100
AcDb2dVertex
 10
15.15176441086164
 20
19.71924806618683
 30
0.0
 70
    16
  0
VERTEX
  5
7CF2
330
7CF0
100
AcDbEntity
  8
0
100
AcDbVertex
100
AcDb2dVertex
 10
15.17357057939042
 20
17.4020339257071
 30
0.0
 70
     8
  0
VERTEX
  5
7CF3
330
7CF0
100
AcDbEntity
  8
0
100
AcDbVertex
100
AcDb2dVertex
 10
15.18148957254483
 20
17.24363885497056
 30
0.0
 70
     8
  0
VERTEX
  5
7CF4
330
7CF0
100
AcDbEntity
  8
0
100
AcDbVertex
100
AcDb2dVertex
 10
15.19089234354978
 20
17.12208265658887
 30
0.0
 70
     8
  0
VERTEX
  5
7CF5
330
7CF0
100
AcDbEntity
  8
0
100
AcDbVertex
100
AcDb2dVertex
 10
15.2016140283292
 20
17.03249857466211
 30
0.0
 70
     8
  0
VERTEX
  5
7CF6
330
7CF0
100
AcDbEntity
  8
0
100
AcDbVertex
100
AcDb2dVertex
 10
15.21348976280698
 20
16.97001985329036
 30
0.0
 70
     8
  0
VERTEX
  5
7CF7
330
7CF0
100
AcDbEntity
  8
0
100
AcDbVertex
100
AcDb2dVertex
 10
15.22635468290706
 20
16.92977973657369
 30
0.0
 70
     8
  0
VERTEX
  5
7CF8
330
7CF0
100
AcDbEntity
  8
0
100
AcDbVertex
100
AcDb2dVertex
 10
15.24004392455332
 20
16.90691146861219
 30
0.0
 70
     8
  0
VERTEX
  5
7CF9
330
7CF0
100
AcDbEntity
  8
0
100
AcDbVertex
100
AcDb2dVertex
 10
15.25439262366972
 20
16.89654829350594
 30
0.0
 70
     8
  0
VERTEX
  5
7CFA
330
7CF0
100
AcDbEntity
  8
0
100
AcDbVertex
100
AcDb2dVertex
 10
15.26923591618014
 20
16.89382345535502
 30
0.0
 70
     8
  0
VERTEX
  5
7CFB
330
7CF0
100
AcDbEntity
  8
0
100
AcDbVertex
100
AcDb2dVertex
 10
15.28441168568481
 20
16.89476106193506
 30
0.0
 70
     8
  0
VERTEX
  5
7CFC
330
7CF0
100
AcDbEntity
  8
0
100
AcDbVertex
100
AcDb2dVertex
 10
15.29976880648922
 20
16.8989486757239
 30
0.0
 70
     8
  0
VERTEX
  5
7CFD
330
7CF0
100
AcDbEntity
  8
0
100
AcDbVertex
100
AcDb2dVertex
 10
15.31515890057516
 20
16.90686472287494
 30
0.0
 70
     8
  0
VERTEX
  5
7CFE
330
7CF0
100
AcDbEntity
  8
0
100
AcDbVertex
100
AcDb2dVertex
 10
15.3304335899244
 20
16.91898762954155
 30
0.0
 70
     8
  0
VERTEX
  5
7CFF
330
7CF0
100
AcDbEntity
  8
0
100
AcDbVertex
100
AcDb2dVertex
 10
15.34544449651876
 20
16.93579582187713
 30
0.0
 70
     8
  0
VERTEX
  5
7D00
330
7CF0
100
AcDbEntity
  8
0
100
AcDbVertex
100
AcDb2dVertex
 10
15.36004324234002
 20
16.95776772603508
 30
0.0
 70
     8
  0
VERTEX
  5
7D01
330
7CF0
100
AcDbEntity
  8
0
100
AcDbVertex
100
AcDb2dVertex
 10
15.37408144936998
 20
16.98538176816878
 30
0.0
 70
     8
  0
VERTEX
  5
7D02
330
7CF0
100
AcDbEntity
  8
0
100
AcDbVertex
100
AcDb2dVertex
 10
15.38741073959041
 20
17.01911637443162
 30
0.0
 70
     8
  0
VERTEX
  5
7D03
330
7CF0
100
AcDbEntity
  8
0
100
AcDbVertex
100
AcDb2dVertex
 10
15.39995692394365
 20
17.05919975937542
 30
0.0
 70
     8
  0
VERTEX
  5
7D04
330
7CF0
100
AcDbEntity
  8
0
100
AcDbVertex
100
AcDb2dVertex
 10
15.41194256921412
 20
17.10485929114571
 30
0.0
 70
     8
  0
VERTEX
  5
7D05
330
7CF0
100
AcDbEntity
  8
0
100
AcDbVertex
100
AcDb2dVertex
 10
15.42366443114683
 20
17.15507212628651
 30
0.0
 70
     8
  0
VERTEX
  5
7D06
330
7CF0
100
AcDbEntity
  8
0
100
AcDbVertex
100
AcDb2dVertex
 10
15.43541926548674
 20
17.20881542134177
 30
0.0
 70
     8
  0
VERTEX
  5
7D07
330
7CF0
100
AcDbEntity
  8
0
100
AcDbVertex
100
AcDb2dVertex
 10
15.44750382797881
 20
17.26506633285547
 30
0.0
 70
     8
  0
VERTEX
  5
7D08
330
7CF0
100
AcDbEntity
  8
0
100
AcDbVertex
100
AcDb2dVertex
 10
15.46021487436803
 20
17.32280201737158
 30
0.0
 70
     8
  0
VERTEX
  5
7D09
330
7CF0
100
AcDbEntity
  8
0
100
AcDbVertex
100
AcDb2dVertex
 10
15.47384916039937
 20
17.3809996314341
 30
0.0
 70
     8
  0
VERTEX
  5
7D0A
330
7CF0
100
AcDbEntity
  8
0
100
AcDbVertex
100
AcDb2dVertex
 10
15.48870344181781
 20
17.43863633158699
 30
0.0
 70
     8
  0
VERTEX
  5
7D0B
330
7CF0
100
AcDbEntity
  8
0
100
AcDbVertex
100
AcDb2dVertex
 10
15.50503737998521
 20
17.49487624567744
 30
0.0
 70
     8
  0
VERTEX
  5
7D0C
330
7CF0
100
AcDbEntity
  8
0
100
AcDbVertex
100
AcDb2dVertex
 10
15.52296225873092
 20
17.54963138676547
 30
0.0
 70
     8
  0
VERTEX
  5
7D0D
330
7CF0
100
AcDbEntity
  8
0
100
AcDbVertex
100
AcDb2dVertex
 10
15.54255226750127
 20
17.60300073921431
 30
0.0
 70
     8
  0
VERTEX
  5
7D0E
330
7CF0
100
AcDbEntity
  8
0
100
AcDbVertex
100
AcDb2dVertex
 10
15.56388159574248
 20
17.65508328738718
 30
0.0
 70
     8
  0
VERTEX
  5
7D0F
330
7CF0
100
AcDbEntity
  8
0
100
AcDbVertex
100
AcDb2dVertex
 10
15.58702443290084
 20
17.7059780156473
 30
0.0
 70
     8
  0
VERTEX
  5
7D10
330
7CF0
100
AcDbEntity
  8
0
100
AcDbVertex
100
AcDb2dVertex
 10
15.61205496842261
 20
17.75578390835791
 30
0.0
 70
     8
  0
VERTEX
  5
7D11
330
7CF0
100
AcDbEntity
  8
0
100
AcDbVertex
100
AcDb2dVertex
 10
15.63904739175406
 20
17.80459994988222
 30
0.0
 70
     8
  0
VERTEX
  5
7D12
330
7CF0
100
AcDbEntity
  8
0
100
AcDbVertex
100
AcDb2dVertex
 10
15.66807589234147
 20
17.85252512458346
 30
0.0
 70
     8
  0
VERTEX
  5
7D13
330
7CF0
100
AcDbEntity
  8
0
100
AcDbVertex
100
AcDb2dVertex
 10
15.69917069564433
 20
17.89958692798694
 30
0.0
 70
     8
  0
VERTEX
  5
7D14
330
7CF0
100
AcDbEntity
  8
0
100
AcDbVertex
100
AcDb2dVertex
 10
15.73218617117501
 20
17.94552690026628
 30
0.0
 70
     8
  0
VERTEX
  5
7D15
330
7CF0
100
AcDbEntity
  8
0
100
AcDbVertex
100
AcDb2dVertex
 10
15.76693272445912
 20
17.99001509275718
 30
0.0
 70
     8
  0
VERTEX
  5
7D16
330
7CF0
100
AcDbEntity
  8
0
100
AcDbVertex
100
AcDb2dVertex
 10
15.80322076102226
 20
18.03272155679535
 30
0.0
 70
     8
  0
VERTEX
  5
7D17
330
7CF0
100
AcDbEntity
  8
0
100
AcDbVertex
100
AcDb2dVertex
 10
15.84086068639006
 20
18.07331634371649
 30
0.0
 70
     8
  0
VERTEX
  5
7D18
330
7CF0
100
AcDbEntity
  8
0
100
AcDbVertex
100
AcDb2dVertex
 10
15.87966290608809
 20
18.1114695048563
 30
0.0
 70
     8
  0
VERTEX
  5
7D19
330
7CF0
100
AcDbEntity
  8
0
100
AcDbVertex
100
AcDb2dVertex
 10
15.91943782564198
 20
18.14685109155049
 30
0.0
 70
     8
  0
VERTEX
  5
7D1A
330
7CF0
100
AcDbEntity
  8
0
100
AcDbVertex
100
AcDb2dVertex
 10
15.95999585057733
 20
18.17913115513475
 30
0.0
 70
     8
  0
VERTEX
  5
7D1B
330
7CF0
100
AcDbEntity
  8
0
100
AcDbVertex
100
AcDb2dVertex
 10
16.00108144073102
 20
18.20810072820039
 30
0.0
 70
     8
  0
VERTEX
  5
7D1C
330
7CF0
100
AcDbEntity
  8
0
100
AcDbVertex
100
AcDb2dVertex
 10
16.04217527318503
 20
18.2340347683611
 30
0.0
 70
     8
  0
VERTEX
  5
7D1D
330
7CF0
100
AcDbEntity
  8
0
100
AcDbVertex
100
AcDb2dVertex
 10
16.08269207933265
 20
18.25732921448616
 30
0.0
 70
     8
  0
VERTEX
  5
7D1E
330
7CF0
100
AcDbEntity
  8
0
100
AcDbVertex
100
AcDb2dVertex
 10
16.12204659056714
 20
18.27838000544485
 30
0.0
 70
     8
  0
VERTEX
  5
7D1F
330
7CF0
100
AcDbEntity
  8
0
100
AcDbVertex
100
AcDb2dVertex
 10
16.15965353828176
 20
18.29758308010646
 30
0.0
 70
     8
  0
VERTEX
  5
7D20
330
7CF0
100
AcDbEntity
  8
0
100
AcDbVertex
100
AcDb2dVertex
 10
16.19492765386978
 20
18.31533437734026
 30
0.0
 70
     8
  0
VERTEX
  5
7D21
330
7CF0
100
AcDbEntity
  8
0
100
AcDbVertex
100
AcDb2dVertex
 10
16.22728366872447
 20
18.33202983601555
 30
0.0
 70
     8
  0
VERTEX
  5
7D22
330
7CF0
100
AcDbEntity
  8
0
100
AcDbVertex
100
AcDb2dVertex
 10
16.25613631423909
 20
18.34806539500162
 30
0.0
 70
     8
  0
VERTEX
  5
7D23
330
7CF0
100
AcDbEntity
  8
0
100
AcDbVertex
100
AcDb2dVertex
 10
16.28101847465708
 20
18.36377787729652
 30
0.0
 70
     8
  0
VERTEX
  5
7D24
330
7CF0
100
AcDbEntity
  8
0
100
AcDbVertex
100
AcDb2dVertex
 10
16.30193564562252
 20
18.37926764241353
 30
0.0
 70
     8
  0
VERTEX
  5
7D25
330
7CF0
100
AcDbEntity
  8
0
100
AcDbVertex
100
AcDb2dVertex
 10
16.31901147562961
 20
18.3945759339947
 30
0.0
 70
     8
  0
VERTEX
  5
7D26
330
7CF0
100
AcDbEntity
  8
0
100
AcDbVertex
100
AcDb2dVertex
 10
16.33236961317258
 20
18.40974399568208
 30
0.0
 70
     8
  0
VERTEX
  5
7D27
330
7CF0
100
AcDbEntity
  8
0
100
AcDbVertex
100
AcDb2dVertex
 10
16.34213370674569
 20
18.42481307111772
 30
0.0
 70
     8
  0
VERTEX
  5
7D28
330
7CF0
100
AcDbEntity
  8
0
100
AcDbVertex
100
AcDb2dVertex
 10
16.34842740484315
 20
18.43982440394369
 30
0.0
 70
     8
  0
VERTEX
  5
7D29
330
7CF0
100
AcDbEntity
  8
0
100
AcDbVertex
100
AcDb2dVertex
 10
16.35137435595919
 20
18.45481923780202
 30
0.0
 70
     8
  0
VERTEX
  5
7D2A
330
7CF0
100
AcDbEntity
  8
0
100
AcDbVertex
100
AcDb2dVertex
 10
16.35109820858803
 20
18.46983881633478
 30
0.0
 70
     8
  0
VERTEX
  5
7D2B
330
7CF0
100
AcDbEntity
  8
0
100
AcDbVertex
100
AcDb2dVertex
 10
16.3477143679521
 20
18.48490513619827
 30
0.0
 70
     8
  0
VERTEX
  5
7D2C
330
7CF0
100
AcDbEntity
  8
0
100
AcDbVertex
100
AcDb2dVertex
 10
16.34130526618659
 20
18.49996320610582
 30
0.0
 70
     8
  0
VERTEX
  5
7D2D
330
7CF0
100
AcDbEntity
  8
0
100
AcDbVertex
100
AcDb2dVertex
 10
16.33194509215488
 20
18.51493878778501
 30
0.0
 70
     8
  0
VERTEX
  5
7D2E
330
7CF0
100
AcDbEntity
  8
0
100
AcDbVertex
100
AcDb2dVertex
 10
16.31970803472035
 20
18.52975764296342
 30
0.0
 70
     8
  0
VERTEX
  5
7D2F
330
7CF0
100
AcDbEntity
  8
0
100
AcDbVertex
100
AcDb2dVertex
 10
16.30466828274639
 20
18.54434553336863
 30
0.0
 70
     8
  0
VERTEX
  5
7D30
330
7CF0
100
AcDbEntity
  8
0
100
AcDbVertex
100
AcDb2dVertex
 10
16.28690002509638
 20
18.55862822072822
 30
0.0
 70
     8
  0
VERTEX
  5
7D31
330
7CF0
100
AcDbEntity
  8
0
100
AcDbVertex
100
AcDb2dVertex
 10
16.26647745063372
 20
18.57253146676977
 30
0.0
 70
     8
  0
VERTEX
  5
7D32
330
7CF0
100
AcDbEntity
  8
0
100
AcDbVertex
100
AcDb2dVertex
 10
16.24347474822176
 20
18.58598103322087
 30
0.0
 70
     8
  0
VERTEX
  5
7D33
330
7CF0
100
AcDbEntity
  8
0
100
AcDbVertex
100
AcDb2dVertex
 10
16.2180251831004
 20
18.5989851690932
 30
0.0
 70
     8
  0
VERTEX
  5
7D34
330
7CF0
100
AcDbEntity
  8
0
100
AcDbVertex
100
AcDb2dVertex
 10
16.19049832601558
 20
18.61188207253487
 30
0.0
 70
     8
  0
VERTEX
  5
7D35
330
7CF0
100
AcDbEntity
  8
0
100
AcDbVertex
100
AcDb2dVertex
 10
16.16132282408969
 20
18.62509242897809
 30
0.0
 70
     8
  0
VERTEX
  5
7D36
330
7CF0
100
AcDbEntity
  8
0
100
AcDbVertex
100
AcDb2dVertex
 10
16.13092732444516
 20
18.6390369238551
 30
0.0
 70
     8
  0
VERTEX
  5
7D37
330
7CF0
100
AcDbEntity
  8
0
100
AcDbVertex
100
AcDb2dVertex
 10
16.09974047420441
 20
18.6541362425981
 30
0.0
 70
     8
  0
VERTEX
  5
7D38
330
7CF0
100
AcDbEntity
  8
0
100
AcDbVertex
100
AcDb2dVertex
 10
16.06819092048986
 20
18.67081107063931
 30
0.0
 70
     8
  0
VERTEX
  5
7D39
330
7CF0
100
AcDbEntity
  8
0
100
AcDbVertex
100
AcDb2dVertex
 10
16.03670731042393
 20
18.68948209341096
 30
0.0
 70
     8
  0
VERTEX
  5
7D3A
330
7CF0
100
AcDbEntity
  8
0
100
AcDbVertex
100
AcDb2dVertex
 10
16.00571829112905
 20
18.71056999634526
 30
0.0
 70
     8
  0
VERTEX
  5
7D3B
330
7CF0
100
AcDbEntity
  8
0
100
AcDbVertex
100
AcDb2dVertex
 10
15.97555908674146
 20
18.73445972049481
 30
0.0
 70
     8
  0
VERTEX
  5
7D3C
330
7CF0
100
AcDbEntity
  8
0
100
AcDbVertex
100
AcDb2dVertex
 10
15.94619122945277
 20
18.76139322939375
 30
0.0
 70
     8
  0
VERTEX
  5
7D3D
330
7CF0
100
AcDbEntity
  8
0
100
AcDbVertex
100
AcDb2dVertex
 10
15.91748282846844
 20
18.79157674219658
 30
0.0
 70
     8
  0
VERTEX
  5
7D3E
330
7CF0
100
AcDbEntity
  8
0
100
AcDbVertex
100
AcDb2dVertex
 10
15.88930199299388
 20
18.82521647805786
 30
0.0
 70
     8
  0
VERTEX
  5
7D3F
330
7CF0
100
AcDbEntity
  8
0
100
AcDbVertex
100
AcDb2dVertex
 10
15.86151683223455
 20
18.86251865613207
 30
0.0
 70
     8
  0
VERTEX
  5
7D40
330
7CF0
100
AcDbEntity
  8
0
100
AcDbVertex
100
AcDb2dVertex
 10
15.83399545539588
 20
18.90368949557376
 30
0.0
 70
     8
  0
VERTEX
  5
7D41
330
7CF0
100
AcDbEntity
  8
0
100
AcDbVertex
100
AcDb2dVertex
 10
15.80660597168331
 20
18.94893521553744
 30
0.0
 70
     8
  0
VERTEX
  5
7D42
330
7CF0
100
AcDbEntity
  8
0
100
AcDbVertex
100
AcDb2dVertex
 10
15.77921649030228
 20
18.99846203517762
 30
0.0
 70
     8
  0
VERTEX
  5
7D43
330
7CF0
100
AcDbEntity
  8
0
100
AcDbVertex
100
AcDb2dVertex
 10
15.75177205694938
 20
19.05228232793316
 30
0.0
 70
     8
  0
VERTEX
  5
7D44
330
7CF0
100
AcDbEntity
  8
0
100
AcDbVertex
100
AcDb2dVertex
 10
15.72452546328561
 20
19.10963308438019
 30
0.0
 70
     8
  0
VERTEX
  5
7D45
330
7CF0
100
AcDbEntity
  8
0
100
AcDbVertex
100
AcDb2dVertex
 10
15.69780643746318
 20
19.16955744937915
 30
0.0
 70
     8
  0
VERTEX
  5
7D46
330
7CF0
100
AcDbEntity
  8
0
100
AcDbVertex
100
AcDb2dVertex
 10
15.67194470763425
 20
19.2310985677905
 30
0.0
 70
     8
  0
VERTEX
  5
7D47
330
7CF0
100
AcDbEntity
  8
0
100
AcDbVertex
100
AcDb2dVertex
 10
15.64727000195098
 20
19.29329958447471
 30
0.0
 70
     8
  0
VERTEX
  5
7D48
330
7CF0
100
AcDbEntity
  8
0
100
AcDbVertex
100
AcDb2dVertex
 10
15.62411204856556
 20
19.35520364429222
 30
0.0
 70
     8
  0
VERTEX
  5
7D49
330
7CF0
100
AcDbEntity
  8
0
100
AcDbVertex
100
AcDb2dVertex
 10
15.60280057563016
 20
19.41585389210349
 30
0.0
 70
     8
  0
VERTEX
  5
7D4A
330
7CF0
100
AcDbEntity
  8
0
100
AcDbVertex
100
AcDb2dVertex
 10
15.58366531129693
 20
19.47429347276898
 30
0.0
 70
     8
  0
VERTEX
  5
7D4B
330
7CF0
100
AcDbEntity
  8
0
100
AcDbVertex
100
AcDb2dVertex
 10
15.56691783111078
 20
19.52971813330144
 30
0.0
 70
     8
  0
VERTEX
  5
7D4C
330
7CF0
100
AcDbEntity
  8
0
100
AcDbVertex
100
AcDb2dVertex
 10
15.55229710018741
 20
19.5819340293229
 30
0.0
 70
     8
  0
VERTEX
  5
7D4D
330
7CF0
100
AcDbEntity
  8
0
100
AcDbVertex
100
AcDb2dVertex
 10
15.53942393103524
 20
19.63089991860768
 30
0.0
 70
     8
  0
VERTEX
  5
7D4E
330
7CF0
100
AcDbEntity
  8
0
100
AcDbVertex
100
AcDb2dVertex
 10
15.52791913616271
 20
19.67657455893014
 30
0.0
 70
     8
  0
VERTEX
  5
7D4F
330
7CF0
100
AcDbEntity
  8
0
100
AcDbVertex
100
AcDb2dVertex
 10
15.51740352807823
 20
19.71891670806458
 30
0.0
 70
     8
  0
VERTEX
  5
7D50
330
7CF0
100
AcDbEntity
  8
0
100
AcDbVertex
100
AcDb2dVertex
 10
15.50749791929025
 20
19.75788512378532
 30
0.0
 70
     8
  0
VERTEX
  5
7D51
330
7CF0
100
AcDbEntity
  8
0
100
AcDbVertex
100
AcDb2dVertex
 10
15.49782312230717
 20
19.79343856386672
 30
0.0
 70
     8
  0
VERTEX
  5
7D52
330
7CF0
100
AcDbEntity
  8
0
100
AcDbVertex
100
AcDb2dVertex
 10
15.48799994963742
 20
19.82553578608308
 30
0.0
 70
     8
  0
VERTEX
  5
7D53
330
7CF0
100
AcDbEntity
  8
0
100
AcDbVertex
100
AcDb2dVertex
 10
15.47769867288597
 20
19.85416716792515
 30
0.0
 70
     8
  0
VERTEX
  5
7D54
330
7CF0
100
AcDbEntity
  8
0
100
AcDbVertex
100
AcDb2dVertex
 10
15.46678740004391
 20
19.87944956574924
 30
0.0
 70
     8
  0
VERTEX
  5
7D55
330
7CF0
100
AcDbEntity
  8
0
100
AcDbVertex
100
AcDb2dVertex
 10
15.45518369819886
 20
19.90153145562804
 30
0.0
 70
     8
  0
VERTEX
  5
7D56
330
7CF0
100
AcDbEntity
  8
0
100
AcDbVertex
100
AcDb2dVertex
 10
15.44280513443847
 20
19.92056131363428
 30
0.0
 70
     8
  0
VERTEX
  5
7D57
330
7CF0
100
AcDbEntity
  8
0
100
AcDbVertex
100
AcDb2dVertex
 10
15.42956927585033
 20
19.93668761584066
 30
0.0
 70
     8
  0
VERTEX
  5
7D58
330
7CF0
100
AcDbEntity
  8
0
100
AcDbVertex
100
AcDb2dVertex
 10
15.41539368952211
 20
19.95005883831991
 30
0.0
 70
     8
  0
VERTEX
  5
7D59
330
7CF0
100
AcDbEntity
  8
0
100
AcDbVertex
100
AcDb2dVertex
 10
15.40019594254141
 20
19.96082345714472
 30
0.0
 70
     8
  0
VERTEX
  5
7D5A
330
7CF0
100
AcDbEntity
  8
0
100
AcDbVertex
100
AcDb2dVertex
 10
15.38389360199587
 20
19.9691299483878
 30
0.0
 70
     8
  0
VERTEX
  5
7D5B
330
7CF0
100
AcDbEntity
  8
0
100
AcDbVertex
100
AcDb2dVertex
 10
15.36648117190141
 20
19.97512128925288
 30
0.0
 70
     8
  0
VERTEX
  5
7D5C
330
7CF0
100
AcDbEntity
  8
0
100
AcDbVertex
100
AcDb2dVertex
 10
15.34826090398707
 20
19.97891846146768
 30
0.0
 70
     8
  0
VERTEX
  5
7D5D
330
7CF0
100
AcDbEntity
  8
0
100
AcDbVertex
100
AcDb2dVertex
 10
15.32961198691022
 20
19.98063694789091
 30
0.0
 70
     8
  0
VERTEX
  5
7D5E
330
7CF0
100
AcDbEntity
  8
0
100
AcDbVertex
100
AcDb2dVertex
 10
15.31091360932819
 20
19.98039223138133
 30
0.0
 70
     8
  0
VERTEX
  5
7D5F
330
7CF0
100
AcDbEntity
  8
0
100
AcDbVertex
100
AcDb2dVertex
 10
15.29254495989832
 20
19.97829979479763
 30
0.0
 70
     8
  0
VERTEX
  5
7D60
330
7CF0
100
AcDbEntity
  8
0
100
AcDbVertex
100
AcDb2dVertex
 10
15.27488522727798
 20
19.97447512099857
 30
0.0
 70
     8
  0
VERTEX
  5
7D61
330
7CF0
100
AcDbEntity
  8
0
100
AcDbVertex
100
AcDb2dVertex
 10
15.2583136001245
 20
19.96903369284284
 30
0.0
 70
     8
  0
VERTEX
  5
7D62
330
7CF0
100
AcDbEntity
  8
0
100
AcDbVertex
100
AcDb2dVertex
 10
15.24320926709524
 20
19.96209099318921
 30
0.0
 70
     8
  0
VERTEX
  5
7D63
330
7CF0
100
AcDbEntity
  8
0
100
AcDbVertex
100
AcDb2dVertex
 10
15.22986211515725
 20
19.95375700571262
 30
0.0
 70
     8
  0
VERTEX
  5
7D64
330
7CF0
100
AcDbEntity
  8
0
100
AcDbVertex
100
AcDb2dVertex
 10
15.21820482451651
 20
19.94411971735308
 30
0.0
 70
     8
  0
VERTEX
  5
7D65
330
7CF0
100
AcDbEntity
  8
0
100
AcDbVertex
100
AcDb2dVertex
 10
15.20808077368871
 20
19.93326161586681
 30
0.0
 70
     8
  0
VERTEX
  5
7D66
330
7CF0
100
AcDbEntity
  8
0
100
AcDbVertex
100
AcDb2dVertex
 10
15.19933334118952
 20
19.92126518901003
 30
0.0
 70
     8
  0
VERTEX
  5
7D67
330
7CF0
100
AcDbEntity
  8
0
100
AcDbVertex
100
AcDb2dVertex
 10
15.19180590553465
 20
19.908212924539
 30
0.0
 70
     8
  0
VERTEX
  5
7D68
330
7CF0
100
AcDbEntity
  8
0
100
AcDbVertex
100
AcDb2dVertex
 10
15.18534184523977
 20
19.89418731020995
 30
0.0
 70
     8
  0
VERTEX
  5
7D69
330
7CF0
100
AcDbEntity
  8
0
100
AcDbVertex
100
AcDb2dVertex
 10
15.17978453882059
 20
19.8792708337791
 30
0.0
 70
     8
  0
VERTEX
  5
7D6A
330
7CF0
100
AcDbEntity
  8
0
100
AcDbVertex
100
AcDb2dVertex
 10
15.17497736479278
 20
19.86354598300269
 30
0.0
 70
     8
  0
VERTEX
  5
7D6B
330
7CF0
100
AcDbEntity
  8
0
100
AcDbVertex
100
AcDb2dVertex
 10
15.17078430985155
 20
19.8462470000453
 30
0.0
 70
     8
  0
VERTEX
  5
7D6C
330
7CF0
100
AcDbEntity
  8
0
100
AcDbVertex
100
AcDb2dVertex
 10
15.16715179341018
 20
19.82321514470487
 30
0.0
 70
     8
  0
VERTEX
  5
7D6D
330
7CF0
100
AcDbEntity
  8
0
100
AcDbVertex
100
AcDb2dVertex
 10
15.1640468430615
 20
19.7894434311877
 30
0.0
 70
     8
  0
VERTEX
  5
7D6E
330
7CF0
100
AcDbEntity
  8
0
100
AcDbVertex
100
AcDb2dVertex
 10
15.16143648639827
 20
19.73992487370008
 30
0.0
 70
     8
  0
VERTEX
  5
7D6F
330
7CF0
100
AcDbEntity
  8
0
100
AcDbVertex
100
AcDb2dVertex
 10
15.15928775101333
 20
19.66965248644831
 30
0.0
 70
     8
  0
VERTEX
  5
7D70
330
7CF0
100
AcDbEntity
  8
0
100
AcDbVertex
100
AcDb2dVertex
 10
15.15756766449946
 20
19.57361928363866
 30
0.0
 70
     8
  0
VERTEX
  5
7D71
330
7CF0
100
AcDbEntity
  8
0
100
AcDbVertex
100
AcDb2dVertex
 10
15.15624325444947
 20
19.44681827947745
 30
0.0
 70
     8
  0
VERTEX
  5
7D72
330
7CF0
100
AcDbEntity
  8
0
100
AcDbVertex
100
AcDb2dVertex
 10
15.15528154845618
 20
19.28424248817096
 30
0.0
 70
     8
  0
VERTEX
  5
7D73
330
7CF0
100
AcDbEntity
  8
0
100
AcDbVertex
100
AcDb2dVertex
 10
15.15468254681099
 20
19.08343790908264
 30
0.0
 70
     8
  0
VERTEX
  5
7D74
330
7CF0
100
AcDbEntity
  8
0
100
AcDbVertex
100
AcDb2dVertex
 10
15.15457814059995
 20
18.85216248220454
 30
0.0
 70
     8
  0
VERTEX
  5
7D75
330
7CF0
100
AcDbEntity
  8
0
100
AcDbVertex
100
AcDb2dVertex
 10
15.15513319360769
 20
18.60072713268589
 30
0.0
 70
     8
  0
VERTEX
  5
7D76
330
7CF0
100
AcDbEntity
  8
0
100
AcDbVertex
100
AcDb2dVertex
 10
15.15651256961882
 20
18.33944278567592
 30
0.0
 70
     8
  0
VERTEX
  5
7D77
330
7CF0
100
AcDbEntity
  8
0
100
AcDbVertex
100
AcDb2dVertex
 10
15.15888113241803
 20
18.07862036632384
 30
0.0
 70
     8
  0
VERTEX
  5
7D78
330
7CF0
100
AcDbEntity
  8
0
100
AcDbVertex
100
AcDb2dVertex
 10
15.16240374578993
 20
17.82857079977886
 30
0.0
 70
     8
  0
VERTEX
  5
7D79
330
7CF0
100
AcDbEntity
  8
0
100
AcDbVertex
100
AcDb2dVertex
 10
15.16724527351917
 20
17.5996050111902
 30
0.0
 70
     8
  0
VERTEX
  5
7D7A
330
7CF0
100
AcDbEntity
  8
0
100
AcDbVertex
100
AcDb2dVertex
 10
15.15598506550636
 20
16.95717389098961
 30
0.0
 70
    16
  0
VERTEX
  5
7D7B
330
7CF0
100
AcDbEntity
  8
0
100
AcDbVertex
100
AcDb2dVertex
 10
15.26571880345541
 20
16.8642599240973
 30
0.0
 70
    16
  0
VERTEX
  5
7D7C
330
7CF0
100
AcDbEntity
  8
0
100
AcDbVertex
100
AcDb2dVertex
 10
15.39655521775282
 20
16.94872714475129
 30
0.0
 70
    16
  0
VERTEX
  5
7D7D
330
7CF0
100
AcDbEntity
  8
0
100
AcDbVertex
100
AcDb2dVertex
 10
15.47252476307574
 20
17.45552974348722
 30
0.0
 70
    16
  0
VERTEX
  5
7D7E
330
7CF0
100
AcDbEntity
  8
0
100
AcDbVertex
100
AcDb2dVertex
 10
15.64556638085111
 20
17.86097187082178
 30
0.0
 70
    16
  0
VERTEX
  5
7D7F
330
7CF0
100
AcDbEntity
  8
0
100
AcDbVertex
100
AcDb2dVertex
 10
15.95366506756866
 20
18.21573352072642
 30
0.0
 70
    16
  0
VERTEX
  5
7D80
330
7CF0
100
AcDbEntity
  8
0
100
AcDbVertex
100
AcDb2dVertex
 10
16.29974845233823
 20
18.35088097708106
 30
0.0
 70
    16
  0
VERTEX
  5
7D81
330
7CF0
100
AcDbEntity
  8
0
100
AcDbVertex
100
AcDb2dVertex
 10
16.38415900851298
 20
18.46913494095901
 30
0.0
 70
    16
  0
VERTEX
  5
7D82
330
7CF0
100
AcDbEntity
  8
0
100
AcDbVertex
100
AcDb2dVertex
 10
16.27020476513803
 20
18.59161215709155
 30
0.0
 70
    16
  0
VERTEX
  5
7D83
330
7CF0
100
AcDbEntity
  8
0
100
AcDbVertex
100
AcDb2dVertex
 10
15.99587042026545
 20
18.68030263000001
 30
0.0
 70
    16
  0
VERTEX
  5
7D84
330
7CF0
100
AcDbEntity
  8
0
100
AcDbVertex
100
AcDb2dVertex
 10
15.78062330057446
 20
18.95059730097998
 30
0.0
 70
    16
  0
VERTEX
  5
7D85
330
7CF0
100
AcDbEntity
  8
0
100
AcDbVertex
100
AcDb2dVertex
 10
15.55693531925047
 20
19.50808037714583
 30
0.0
 70
    16
  0
VERTEX
  5
7D86
330
7CF0
100
AcDbEntity
  8
0
100
AcDbVertex
100
AcDb2dVertex
 10
15.49362729020531
 20
19.86284202705052
 30
0.0
 70
    16
  0
VERTEX
  5
7D87
330
7CF0
100
AcDbEntity
  8
0
100
AcDbVertex
100
AcDb2dVertex
 10
15.39655521775283
 20
19.99376623115059
 30
0.0
 70
    16
  0
VERTEX
  5
7D88
330
7CF0
100
AcDbEntity
  8
0
100
AcDbVertex
100
AcDb2dVertex
 10
15.22351345075863
 20
19.97687273867395
 30
0.0
 70
    16
  0
VERTEX
  5
7D89
330
7CF0
100
AcDbEntity
  8
0
100
AcDbVertex
100
AcDb2dVertex
 10
15.1686465817841
 20
19.87128877328884
 30
0.0
 70
    16
  0
SEQEND
  5
7D8A
330
7CF0
100
AcDbEntity
  8
0
  0
POLYLINE
  5
817C
330
18
100
AcDbEntity
  8
0
100
AcDb2dPolyline
 66
     1
 10
0.0
 20
0.0
 30
0.0
 70
     5
 75
     6
  0
VERTEX
  5
817D
330
817C
100
AcDbEntity
  8
0
100
AcDbVertex
100
AcDb2dVertex
 10
19.20895460086321
 20
27.21557714088552
 30
0.0
 70
    16
  0
VERTEX
  5
817E
330
817C
100
AcDbEntity
  8
0
100
AcDbVertex
100
AcDb2dVertex
 10
15.89163974846759
 20
27.22146018695436
 30
0.0
 70
     8
  0
VERTEX
  5
817F
330
817C
100
AcDbEntity
  8
0
100
AcDbVertex
100
AcDb2dVertex
 10
15.66642322014634
 20
27.22129357693649
 30
0.0
 70
     8
  0
VERTEX
  5
8180
330
817C
100
AcDbEntity
  8
0
100
AcDbVertex
100
AcDb2dVertex
 10
15.49401576899782
 20
27.22067884238033
 30
0.0
 70
     8
  0
VERTEX
  5
8181
330
817C
100
AcDbEntity
  8
0
100
AcDbVertex
100
AcDb2dVertex
 10
15.3670110337394
 20
27.21944362653208
 30
0.0
 70
     8
  0
VERTEX
  5
8182
330
817C
100
AcDbEntity
  8
0
100
AcDbVertex
100
AcDb2dVertex
 10
15.27800265308845
 20
27.21741557263792
 30
0.0
 70
     8
  0
VERTEX
  5
8183
330
817C
100
AcDbEntity
  8
0
100
AcDbVertex
100
AcDb2dVertex
 10
15.21958426576233
 20
27.21442232394405
 30
0.0
 70
     8
  0
VERTEX
  5
8184
330
817C
100
AcDbEntity
  8
0
100
AcDbVertex
100
AcDb2dVertex
 10
15.18434951047841
 20
27.21029152369666
 30
0.0
 70
     8
  0
VERTEX
  5
8185
330
817C
100
AcDbEntity
  8
0
100
AcDbVertex
100
AcDb2dVertex
 10
15.16489202595406
 20
27.20485081514194
 30
0.0
 70
     8
  0
VERTEX
  5
8186
330
817C
100
AcDbEntity
  8
0
100
AcDbVertex
100
AcDb2dVertex
 10
15.15380545090665
 20
27.19792784152608
 30
0.0
 70
     8
  0
VERTEX
  5
8187
330
817C
100
AcDbEntity
  8
0
100
AcDbVertex
100
AcDb2dVertex
 10
15.14491494693537
 20
27.1881753509876
 30
0.0
 70
     8
  0
VERTEX
  5
8188
330
817C
100
AcDbEntity
  8
0
100
AcDbVertex
100
AcDb2dVertex
 10
15.13697176716676
 20
27.16954651123436
 30
0.0
 70
     8
  0
VERTEX
  5
8189
330
817C
100
AcDbEntity
  8
0
100
AcDbVertex
100
AcDb2dVertex
 10
15.12995868760921
 20
27.13481959486652
 30
0.0
 70
     8
  0
VERTEX
  5
818A
330
817C
100
AcDbEntity
  8
0
100
AcDbVertex
100
AcDb2dVertex
 10
15.12385848427108
 20
27.07677287448427
 30
0.0
 70
     8
  0
VERTEX
  5
818B
330
817C
100
AcDbEntity
  8
0
100
AcDbVertex
100
AcDb2dVertex
 10
15.11865393316073
 20
26.98818462268778
 30
0.0
 70
     8
  0
VERTEX
  5
818C
330
817C
100
AcDbEntity
  8
0
100
AcDbVertex
100
AcDb2dVertex
 10
15.11432781028654
 20
26.86183311207723
 30
0.0
 70
     8
  0
VERTEX
  5
818D
330
817C
100
AcDbEntity
  8
0
100
AcDbVertex
100
AcDb2dVertex
 10
15.11086289165688
 20
26.6904966152528
 30
0.0
 70
     8
  0
VERTEX
  5
818E
330
817C
100
AcDbEntity
  8
0
100
AcDbVertex
100
AcDb2dVertex
 10
15.10824195328013
 20
26.46695340481466
 30
0.0
 70
     8
  0
VERTEX
  5
818F
330
817C
100
AcDbEntity
  8
0
100
AcDbVertex
100
AcDb2dVertex
 10
15.106464995302
 20
26.18766730480071
 30
0.0
 70
     8
  0
VERTEX
  5
8190
330
817C
100
AcDbEntity
  8
0
100
AcDbVertex
100
AcDb2dVertex
 10
15.10560091441762
 20
25.86384434499966
 30
0.0
 70
     8
  0
VERTEX
  5
8191
330
817C
100
AcDbEntity
  8
0
100
AcDbVertex
100
AcDb2dVertex
 10
15.10573583145945
 20
25.51037610663797
 30
0.0
 70
     8
  0
VERTEX
  5
8192
330
817C
100
AcDbEntity
  8
0
100
AcDbVertex
100
AcDb2dVertex
 10
15.10695586725999
 20
25.14215417094208
 30
0.0
 70
     8
  0
VERTEX
  5
8193
330
817C
100
AcDbEntity
  8
0
100
AcDbVertex
100
AcDb2dVertex
 10
15.10934714265168
 20
24.77407011913844
 30
0.0
 70
     8
  0
VERTEX
  5
8194
330
817C
100
AcDbEntity
  8
0
100
AcDbVertex
100
AcDb2dVertex
 10
15.11299577846702
 20
24.42101553245346
 30
0.0
 70
     8
  0
VERTEX
  5
8195
330
817C
100
AcDbEntity
  8
0
100
AcDbVertex
100
AcDb2dVertex
 10
15.11798789553846
 20
24.09788199211361
 30
0.0
 70
     8
  0
VERTEX
  5
8196
330
817C
100
AcDbEntity
  8
0
100
AcDbVertex
100
AcDb2dVertex
 10
15.1244096146985
 20
23.81956107934533
 30
0.0
 70
     8
  0
VERTEX
  5
8197
330
817C
100
AcDbEntity
  8
0
100
AcDbVertex
100
AcDb2dVertex
 10
15.13232696183125
 20
23.59727605965993
 30
0.0
 70
     8
  0
VERTEX
  5
8198
330
817C
100
AcDbEntity
  8
0
100
AcDbVertex
100
AcDb2dVertex
 10
15.14172558302748
 20
23.42757693570828
 30
0.0
 70
     8
  0
VERTEX
  5
8199
330
817C
100
AcDbEntity
  8
0
100
AcDbVertex
100
AcDb2dVertex
 10
15.15257102942958
 20
23.30334539442611
 30
0.0
 70
     8
  0
VERTEX
  5
819A
330
817C
100
AcDbEntity
  8
0
100
AcDbVertex
100
AcDb2dVertex
 10
15.16482885218
 20
23.21746312274917
 30
0.0
 70
     8
  0
VERTEX
  5
819B
330
817C
100
AcDbEntity
  8
0
100
AcDbVertex
100
AcDb2dVertex
 10
15.17846460242111
 20
23.16281180761319
 30
0.0
 70
     8
  0
VERTEX
  5
819C
330
817C
100
AcDbEntity
  8
0
100
AcDbVertex
100
AcDb2dVertex
 10
15.19344383129537
 20
23.13227313595391
 30
0.0
 70
     8
  0
VERTEX
  5
819D
330
817C
100
AcDbEntity
  8
0
100
AcDbVertex
100
AcDb2dVertex
 10
15.20973208994515
 20
23.11872879470707
 30
0.0
 70
     8
  0
VERTEX
  5
819E
330
817C
100
AcDbEntity
  8
0
100
AcDbVertex
100
AcDb2dVertex
 10
15.22729492951289
 20
23.11506047080841
 30
0.0
 70
     8
  0
VERTEX
  5
819F
330
817C
100
AcDbEntity
  8
0
100
AcDbVertex
100
AcDb2dVertex
 10
15.2462557888967
 20
23.11560626145125
 30
0.0
 70
     8
  0
VERTEX
  5
81A0
330
817C
100
AcDbEntity
  8
0
100
AcDbVertex
100
AcDb2dVertex
 10
15.26736965801752
 20
23.12052990485926
 30
0.0
 70
     8
  0
VERTEX
  5
81A1
330
817C
100
AcDbEntity
  8
0
100
AcDbVertex
100
AcDb2dVertex
 10
15.29154941455196
 20
23.13145154951369
 30
0.0
 70
     8
  0
VERTEX
  5
81A2
330
817C
100
AcDbEntity
  8
0
100
AcDbVertex
100
AcDb2dVertex
 10
15.31970793617666
 20
23.14999134389579
 30
0.0
 70
     8
  0
VERTEX
  5
81A3
330
817C
100
AcDbEntity
  8
0
100
AcDbVertex
100
AcDb2dVertex
 10
15.35275810056827
 20
23.17776943648679
 30
0.0
 70
     8
  0
VERTEX
  5
81A4
330
817C
100
AcDbEntity
  8
0
100
AcDbVertex
100
AcDb2dVertex
 10
15.3916127854034
 20
23.21640597576799
 30
0.0
 70
     8
  0
VERTEX
  5
81A5
330
817C
100
AcDbEntity
  8
0
100
AcDbVertex
100
AcDb2dVertex
 10
15.43718486835869
 20
23.26752111022057
 30
0.0
 70
     8
  0
VERTEX
  5
81A6
330
817C
100
AcDbEntity
  8
0
100
AcDbVertex
100
AcDb2dVertex
 10
15.49038722711078
 20
23.33273498832583
 30
0.0
 70
     8
  0
VERTEX
  5
81A7
330
817C
100
AcDbEntity
  8
0
100
AcDbVertex
100
AcDb2dVertex
 10
15.5516763006437
 20
23.41282895804138
 30
0.0
 70
     8
  0
VERTEX
  5
81A8
330
817C
100
AcDbEntity
  8
0
100
AcDbVertex
100
AcDb2dVertex
 10
15.61968277317111
 20
23.50522916523026
 30
0.0
 70
     8
  0
VERTEX
  5
81A9
330
817C
100
AcDbEntity
  8
0
100
AcDbVertex
100
AcDb2dVertex
 10
15.69258089021407
 20
23.60652295523194
 30
0.0
 70
     8
  0
VERTEX
  5
81AA
330
817C
100
AcDbEntity
  8
0
100
AcDbVertex
100
AcDb2dVertex
 10
15.76854489729365
 20
23.71329767338585
 30
0.0
 70
     8
  0
VERTEX
  5
81AB
330
817C
100
AcDbEntity
  8
0
100
AcDbVertex
100
AcDb2dVertex
 10
15.84574903993092
 20
23.82214066503143
 30
0.0
 70
     8
  0
VERTEX
  5
81AC
330
817C
100
AcDbEntity
  8
0
100
AcDbVertex
100
AcDb2dVertex
 10
15.92236756364693
 20
23.9296392755081
 30
0.0
 70
     8
  0
VERTEX
  5
81AD
330
817C
100
AcDbEntity
  8
0
100
AcDbVertex
100
AcDb2dVertex
 10
15.99657471396274
 20
24.03238085015531
 30
0.0
 70
     8
  0
VERTEX
  5
81AE
330
817C
100
AcDbEntity
  8
0
100
AcDbVertex
100
AcDb2dVertex
 10
16.06654473639944
 20
24.1269527343125
 30
0.0
 70
     8
  0
VERTEX
  5
81AF
330
817C
100
AcDbEntity
  8
0
100
AcDbVertex
100
AcDb2dVertex
 10
16.13091979778317
 20
24.210666169891
 30
0.0
 70
     8
  0
VERTEX
  5
81B0
330
817C
100
AcDbEntity
  8
0
100
AcDbVertex
100
AcDb2dVertex
 10
16.19021375016055
 20
24.28372798508983
 30
0.0
 70
     8
  0
VERTEX
  5
81B1
330
817C
100
AcDbEntity
  8
0
100
AcDbVertex
100
AcDb2dVertex
 10
16.24540836688328
 20
24.34706890467989
 30
0.0
 70
     8
  0
VERTEX
  5
81B2
330
817C
100
AcDbEntity
  8
0
100
AcDbVertex
100
AcDb2dVertex
 10
16.29748542130306
 20
24.40161965343207
 30
0.0
 70
     8
  0
VERTEX
  5
81B3
330
817C
100
AcDbEntity
  8
0
100
AcDbVertex
100
AcDb2dVertex
 10
16.3474266867716
 20
24.44831095611732
 30
0.0
 70
     8
  0
VERTEX
  5
81B4
330
817C
100
AcDbEntity
  8
0
100
AcDbVertex
100
AcDb2dVertex
 10
16.39621393664059
 20
24.4880735375065
 30
0.0
 70
     8
  0
VERTEX
  5
81B5
330
817C
100
AcDbEntity
  8
0
100
AcDbVertex
100
AcDb2dVertex
 10
16.44482894426175
 20
24.52183812237053
 30
0.0
 70
     8
  0
VERTEX
  5
81B6
330
817C
100
AcDbEntity
  8
0
100
AcDbVertex
100
AcDb2dVertex
 10
16.49425348298679
 20
24.55053543548034
 30
0.0
 70
     8
  0
VERTEX
  5
81B7
330
817C
100
AcDbEntity
  8
0
100
AcDbVertex
100
AcDb2dVertex
 10
16.54516503389997
 20
24.57500427798905
 30
0.0
 70
     8
  0
VERTEX
  5
81B8
330
817C
100
AcDbEntity
  8
0
100
AcDbVertex
100
AcDb2dVertex
 10
16.59702390901583
 20
24.59571575657872
 30
0.0
 70
     8
  0
VERTEX
  5
81B9
330
817C
100
AcDbEntity
  8
0
100
AcDbVertex
100
AcDb2dVertex
 10
16.64898612808146
 20
24.61304905431366
 30
0.0
 70
     8
  0
VERTEX
  5
81BA
330
817C
100
AcDbEntity
  8
0
100
AcDbVertex
100
AcDb2dVertex
 10
16.70020771084396
 20
24.62738335425816
 30
0.0
 70
     8
  0
VERTEX
  5
81BB
330
817C
100
AcDbEntity
  8
0
100
AcDbVertex
100
AcDb2dVertex
 10
16.74984467705042
 20
24.63909783947651
 30
0.0
 70
     8
  0
VERTEX
  5
81BC
330
817C
100
AcDbEntity
  8
0
100
AcDbVertex
100
AcDb2dVertex
 10
16.79705304644796
 20
24.64857169303299
 30
0.0
 70
     8
  0
VERTEX
  5
81BD
330
817C
100
AcDbEntity
  8
0
100
AcDbVertex
100
AcDb2dVertex
 10
16.84098883878366
 20
24.65618409799192
 30
0.0
 70
     8
  0
VERTEX
  5
81BE
330
817C
100
AcDbEntity
  8
0
100
AcDbVertex
100
AcDb2dVertex
 10
16.88080807380462
 20
24.66231423741759
 30
0.0
 70
     8
  0
VERTEX
  5
81BF
330
817C
100
AcDbEntity
  8
0
100
AcDbVertex
100
AcDb2dVertex
 10
16.91588207231908
 20
24.6673125685634
 30
0.0
 70
     8
  0
VERTEX
  5
81C0
330
817C
100
AcDbEntity
  8
0
100
AcDbVertex
100
AcDb2dVertex
 10
16.94644335937979
 20
24.67141464543923
 30
0.0
 70
     8
  0
VERTEX
  5
81C1
330
817C
100
AcDbEntity
  8
0
100
AcDbVertex
100
AcDb2dVertex
 10
16.97293976110064
 20
24.67482729624407
 30
0.0
 70
     8
  0
VERTEX
  5
81C2
330
817C
100
AcDbEntity
  8
0
100
AcDbVertex
100
AcDb2dVertex
 10
16.99581910359555
 20
24.67775734917694
 30
0.0
 70
     8
  0
VERTEX
  5
81C3
330
817C
100
AcDbEntity
  8
0
100
AcDbVertex
100
AcDb2dVertex
 10
17.01552921297839
 20
24.68041163243684
 30
0.0
 70
     8
  0
VERTEX
  5
81C4
330
817C
100
AcDbEntity
  8
0
100
AcDbVertex
100
AcDb2dVertex
 10
17.03251791536306
 20
24.68299697422273
 30
0.0
 70
     8
  0
VERTEX
  5
81C5
330
817C
100
AcDbEntity
  8
0
100
AcDbVertex
100
AcDb2dVertex
 10
17.04723303686345
 20
24.68572020273362
 30
0.0
 70
     8
  0
VERTEX
  5
81C6
330
817C
100
AcDbEntity
  8
0
100
AcDbVertex
100
AcDb2dVertex
 10
17.06012240359347
 20
24.6887881461685
 30
0.0
 70
     8
  0
VERTEX
  5
81C7
330
817C
100
AcDbEntity
  8
0
100
AcDbVertex
100
AcDb2dVertex
 10
17.07156781607432
 20
24.69240475990925
 30
0.0
 70
     8
  0
VERTEX
  5
81C8
330
817C
100
AcDbEntity
  8
0
100
AcDbVertex
100
AcDb2dVertex
 10
17.08168697245645
 20
24.69676250806907
 30
0.0
 70
     8
  0
VERTEX
  5
81C9
330
817C
100
AcDbEntity
  8
0
100
AcDbVertex
100
AcDb2dVertex
 10
17.09053154529765
 20
24.70205098194405
 30
0.0
 70
     8
  0
VERTEX
  5
81CA
330
817C
100
AcDbEntity
  8
0
100
AcDbVertex
100
AcDb2dVertex
 10
17.09815320715567
 20
24.70845977283027
 30
0.0
 70
     8
  0
VERTEX
  5
81CB
330
817C
100
AcDbEntity
  8
0
100
AcDbVertex
100
AcDb2dVertex
 10
17.1046036305883
 20
24.71617847202383
 30
0.0
 70
     8
  0
VERTEX
  5
81CC
330
817C
100
AcDbEntity
  8
0
100
AcDbVertex
100
AcDb2dVertex
 10
17.10993448815331
 20
24.7253966708208
 30
0.0
 70
     8
  0
VERTEX
  5
81CD
330
817C
100
AcDbEntity
  8
0
100
AcDbVertex
100
AcDb2dVertex
 10
17.11419745240847
 20
24.73630396051727
 30
0.0
 70
     8
  0
VERTEX
  5
81CE
330
817C
100
AcDbEntity
  8
0
100
AcDbVertex
100
AcDb2dVertex
 10
17.11744419591155
 20
24.74908993240932
 30
0.0
 70
     8
  0
VERTEX
  5
81CF
330
817C
100
AcDbEntity
  8
0
100
AcDbVertex
100
AcDb2dVertex
 10
17.11972639112319
 20
24.76386661755282
 30
0.0
 70
     8
  0
VERTEX
  5
81D0
330
817C
100
AcDbEntity
  8
0
100
AcDbVertex
100
AcDb2dVertex
 10
17.1210957101154
 20
24.78043580604288
 30
0.0
 70
     8
  0
VERTEX
  5
81D1
330
817C
100
AcDbEntity
  8
0
100
AcDbVertex
100
AcDb2dVertex
 10
17.12160382486309
 20
24.79852172773438
 30
0.0
 70
     8
  0
VERTEX
  5
81D2
330
817C
100
AcDbEntity
  8
0
100
AcDbVertex
100
AcDb2dVertex
 10
17.12130240734112
 20
24.81784861248219
 30
0.0
 70
     8
  0
VERTEX
  5
81D3
330
817C
100
AcDbEntity
  8
0
100
AcDbVertex
100
AcDb2dVertex
 10
17.1202431295244
 20
24.83814069014119
 30
0.0
 70
     8
  0
VERTEX
  5
81D4
330
817C
100
AcDbEntity
  8
0
100
AcDbVertex
100
AcDb2dVertex
 10
17.11847766338781
 20
24.8591221905663
 30
0.0
 70
     8
  0
VERTEX
  5
81D5
330
817C
100
AcDbEntity
  8
0
100
AcDbVertex
100
AcDb2dVertex
 10
17.11605768090624
 20
24.88051734361237
 30
0.0
 70
     8
  0
VERTEX
  5
81D6
330
817C
100
AcDbEntity
  8
0
100
AcDbVertex
100
AcDb2dVertex
 10
17.11303485405456
 20
24.9020503791343
 30
0.0
 70
     8
  0
VERTEX
  5
81D7
330
817C
100
AcDbEntity
  8
0
100
AcDbVertex
100
AcDb2dVertex
 10
17.1095010444615
 20
24.92351446964128
 30
0.0
 70
     8
  0
VERTEX
  5
81D8
330
817C
100
AcDbEntity
  8
0
100
AcDbVertex
100
AcDb2dVertex
 10
17.10570887237101
 20
24.94497855825975
 30
0.0
 70
     8
  0
VERTEX
  5
81D9
330
817C
100
AcDbEntity
  8
0
100
AcDbVertex
100
AcDb2dVertex
 10
17.10195114768089
 20
24.96658053077045
 30
0.0
 70
     8
  0
VERTEX
  5
81DA
330
817C
100
AcDbEntity
  8
0
100
AcDbVertex
100
AcDb2dVertex
 10
17.09852068028895
 20
24.98845827295414
 30
0.0
 70
     8
  0
VERTEX
  5
81DB
330
817C
100
AcDbEntity
  8
0
100
AcDbVertex
100
AcDb2dVertex
 10
17.09571028009295
 20
25.01074967059157
 30
0.0
 70
     8
  0
VERTEX
  5
81DC
330
817C
100
AcDbEntity
  8
0
100
AcDbVertex
100
AcDb2dVertex
 10
17.0938127569907
 20
25.03359260946349
 30
0.0
 70
     8
  0
VERTEX
  5
81DD
330
817C
100
AcDbEntity
  8
0
100
AcDbVertex
100
AcDb2dVertex
 10
17.09312092087998
 20
25.05712497535065
 30
0.0
 70
     8
  0
VERTEX
  5
81DE
330
817C
100
AcDbEntity
  8
0
100
AcDbVertex
100
AcDb2dVertex
 10
17.09392758165861
 20
25.08148465403379
 30
0.0
 70
     8
  0
VERTEX
  5
81DF
330
817C
100
AcDbEntity
  8
0
100
AcDbVertex
100
AcDb2dVertex
 10
17.09648248890526
 20
25.10670324469175
 30
0.0
 70
     8
  0
VERTEX
  5
81E0
330
817C
100
AcDbEntity
  8
0
100
AcDbVertex
100
AcDb2dVertex
 10
17.10086315092228
 20
25.13238720009582
 30
0.0
 70
     8
  0
VERTEX
  5
81E1
330
817C
100
AcDbEntity
  8
0
100
AcDbVertex
100
AcDb2dVertex
 10
17.10710401569295
 20
25.15803668641532
 30
0.0
 70
     8
  0
VERTEX
  5
81E2
330
817C
100
AcDbEntity
  8
0
100
AcDbVertex
100
AcDb2dVertex
 10
17.11523953120051
 20
25.18315186981964
 30
0.0
 70
     8
  0
VERTEX
  5
81E3
330
817C
100
AcDbEntity
  8
0
100
AcDbVertex
100
AcDb2dVertex
 10
17.12530414542823
 20
25.20723291647813
 30
0.0
 70
     8
  0
VERTEX
  5
81E4
330
817C
100
AcDbEntity
  8
0
100
AcDbVertex
100
AcDb2dVertex
 10
17.13733230635934
 20
25.22977999256014
 30
0.0
 70
     8
  0
VERTEX
  5
81E5
330
817C
100
AcDbEntity
  8
0
100
AcDbVertex
100
AcDb2dVertex
 10
17.15135846197714
 20
25.25029326423504
 30
0.0
 70
     8
  0
VERTEX
  5
81E6
330
817C
100
AcDbEntity
  8
0
100
AcDbVertex
100
AcDb2dVertex
 10
17.16741706026486
 20
25.26827289767219
 30
0.0
 70
     8
  0
VERTEX
  5
81E7
330
817C
100
AcDbEntity
  8
0
100
AcDbVertex
100
AcDb2dVertex
 10
17.18551958378644
 20
25.28333970862696
 30
0.0
 70
     8
  0
VERTEX
  5
81E8
330
817C
100
AcDbEntity
  8
0
100
AcDbVertex
100
AcDb2dVertex
 10
17.20558565342854
 20
25.29559711119888
 30
0.0
 70
     8
  0
VERTEX
  5
81E9
330
817C
100
AcDbEntity
  8
0
100
AcDbVertex
100
AcDb2dVertex
 10
17.22751192465852
 20
25.30526916907344
 30
0.0
 70
     8
  0
VERTEX
  5
81EA
330
817C
100
AcDbEntity
  8
0
100
AcDbVertex
100
AcDb2dVertex
 10
17.2511950529437
 20
25.31257994593618
 30
0.0
 70
     8
  0
VERTEX
  5
81EB
330
817C
100
AcDbEntity
  8
0
100
AcDbVertex
100
AcDb2dVertex
 10
17.27653169375141
 20
25.31775350547263
 30
0.0
 70
     8
  0
VERTEX
  5
81EC
330
817C
100
AcDbEntity
  8
0
100
AcDbVertex
100
AcDb2dVertex
 10
17.30341850254903
 20
25.32101391136831
 30
0.0
 70
     8
  0
VERTEX
  5
81ED
330
817C
100
AcDbEntity
  8
0
100
AcDbVertex
100
AcDb2dVertex
 10
17.33175213480387
 20
25.32258522730876
 30
0.0
 70
     8
  0
VERTEX
  5
81EE
330
817C
100
AcDbEntity
  8
0
100
AcDbVertex
100
AcDb2dVertex
 10
17.36142924598327
 20
25.32269151697948
 30
0.0
 70
     8
  0
VERTEX
  5
81EF
330
817C
100
AcDbEntity
  8
0
100
AcDbVertex
100
AcDb2dVertex
 10
17.39228333657861
 20
25.32156258907082
 30
0.0
 70
     8
  0
VERTEX
  5
81F0
330
817C
100
AcDbEntity
  8
0
100
AcDbVertex
100
AcDb2dVertex
 10
17.42389528717724
 20
25.3194512322923
 30
0.0
 70
     8
  0
VERTEX
  5
81F1
330
817C
100
AcDbEntity
  8
0
100
AcDbVertex
100
AcDb2dVertex
 10
17.45578282339061
 20
25.31661598035825
 30
0.0
 70
     8
  0
VERTEX
  5
81F2
330
817C
100
AcDbEntity
  8
0
100
AcDbVertex
100
AcDb2dVertex
 10
17.4874636708301
 20
25.31331536698299
 30
0.0
 70
     8
  0
VERTEX
  5
81F3
330
817C
100
AcDbEntity
  8
0
100
AcDbVertex
100
AcDb2dVertex
 10
17.51845555510712
 20
25.30980792588087
 30
0.0
 70
     8
  0
VERTEX
  5
81F4
330
817C
100
AcDbEntity
  8
0
100
AcDbVertex
100
AcDb2dVertex
 10
17.54827620183307
 20
25.30635219076622
 30
0.0
 70
     8
  0
VERTEX
  5
81F5
330
817C
100
AcDbEntity
  8
0
100
AcDbVertex
100
AcDb2dVertex
 10
17.57644333661936
 20
25.30320669535336
 30
0.0
 70
     8
  0
VERTEX
  5
81F6
330
817C
100
AcDbEntity
  8
0
100
AcDbVertex
100
AcDb2dVertex
 10
17.6024746850774
 20
25.30062997335661
 30
0.0
 70
     8
  0
VERTEX
  5
81F7
330
817C
100
AcDbEntity
  8
0
100
AcDbVertex
100
AcDb2dVertex
 10
17.62600567067759
 20
25.29885183267945
 30
0.0
 70
     8
  0
VERTEX
  5
81F8
330
817C
100
AcDbEntity
  8
0
100
AcDbVertex
100
AcDb2dVertex
 10
17.64714250832644
 20
25.29798717798175
 30
0.0
 70
     8
  0
VERTEX
  5
81F9
330
817C
100
AcDbEntity
  8
0
100
AcDbVertex
100
AcDb2dVertex
 10
17.66610911078946
 20
25.29812218811259
 30
0.0
 70
     8
  0
VERTEX
  5
81FA
330
817C
100
AcDbEntity
  8
0
100
AcDbVertex
100
AcDb2dVertex
 10
17.68312939083214
 20
25.29934304192098
 30
0.0
 70
     8
  0
VERTEX
  5
81FB
330
817C
100
AcDbEntity
  8
0
100
AcDbVertex
100
AcDb2dVertex
 10
17.69842726121997
 20
25.30173591825594
 30
0.0
 70
     8
  0
VERTEX
  5
81FC
330
817C
100
AcDbEntity
  8
0
100
AcDbVertex
100
AcDb2dVertex
 10
17.71222663471848
 20
25.30538699596651
 30
0.0
 70
     8
  0
VERTEX
  5
81FD
330
817C
100
AcDbEntity
  8
0
100
AcDbVertex
100
AcDb2dVertex
 10
17.72475142409317
 20
25.31038245390173
 30
0.0
 70
     8
  0
VERTEX
  5
81FE
330
817C
100
AcDbEntity
  8
0
100
AcDbVertex
100
AcDb2dVertex
 10
17.73622554210953
 20
25.31680847091062
 30
0.0
 70
     8
  0
VERTEX
  5
81FF
330
817C
100
AcDbEntity
  8
0
100
AcDbVertex
100
AcDb2dVertex
 10
17.74683271212213
 20
25.32476558859029
 30
0.0
 70
     8
  0
VERTEX
  5
8200
330
817C
100
AcDbEntity
  8
0
100
AcDbVertex
100
AcDb2dVertex
 10
17.75659589984171
 20
25.33441179953009
 30
0.0
 70
     8
  0
VERTEX
  5
8201
330
817C
100
AcDbEntity
  8
0
100
AcDbVertex
100
AcDb2dVertex
 10
17.76549788156812
 20
25.34591945906746
 30
0.0
 70
     8
  0
VERTEX
  5
8202
330
817C
100
AcDbEntity
  8
0
100
AcDbVertex
100
AcDb2dVertex
 10
17.77352143360114
 20
25.35946092253981
 30
0.0
 70
     8
  0
VERTEX
  5
8203
330
817C
100
AcDbEntity
  8
0
100
AcDbVertex
100
AcDb2dVertex
 10
17.78064933224061
 20
25.37520854528457
 30
0.0
 70
     8
  0
VERTEX
  5
8204
330
817C
100
AcDbEntity
  8
0
100
AcDbVertex
100
AcDb2dVertex
 10
17.78686435378633
 20
25.39333468263916
 30
0.0
 70
     8
  0
VERTEX
  5
8205
330
817C
100
AcDbEntity
  8
0
100
AcDbVertex
100
AcDb2dVertex
 10
17.79214927453811
 20
25.41401168994103
 30
0.0
 70
     8
  0
VERTEX
  5
8206
330
817C
100
AcDbEntity
  8
0
100
AcDbVertex
100
AcDb2dVertex
 10
17.79648687079579
 20
25.43741192252757
 30
0.0
 70
     8
  0
VERTEX
  5
8207
330
817C
100
AcDbEntity
  8
0
100
AcDbVertex
100
AcDb2dVertex
 10
17.79995465129885
 20
25.46367039226078
 30
0.0
 70
     8
  0
VERTEX
  5
8208
330
817C
100
AcDbEntity
  8
0
100
AcDbVertex
100
AcDb2dVertex
 10
17.80300905454561
 20
25.49277273710079
 30
0.0
 70
     8
  0
VERTEX
  5
8209
330
817C
100
AcDbEntity
  8
0
100
AcDbVertex
100
AcDb2dVertex
 10
17.80620125147406
 20
25.52466725153223
 30
0.0
 70
     8
  0
VERTEX
  5
820A
330
817C
100
AcDbEntity
  8
0
100
AcDbVertex
100
AcDb2dVertex
 10
17.81008241302219
 20
25.55930223003979
 30
0.0
 70
     8
  0
VERTEX
  5
820B
330
817C
100
AcDbEntity
  8
0
100
AcDbVertex
100
AcDb2dVertex
 10
17.815203710128
 20
25.59662596710812
 30
0.0
 70
     8
  0
VERTEX
  5
820C
330
817C
100
AcDbEntity
  8
0
100
AcDbVertex
100
AcDb2dVertex
 10
17.82211631372949
 20
25.6365867572219
 30
0.0
 70
     8
  0
VERTEX
  5
820D
330
817C
100
AcDbEntity
  8
0
100
AcDbVertex
100
AcDb2dVertex
 10
17.83137139476465
 20
25.67913289486579
 30
0.0
 70
     8
  0
VERTEX
  5
820E
330
817C
100
AcDbEntity
  8
0
100
AcDbVertex
100
AcDb2dVertex
 10
17.8435201241715
 20
25.72421267452446
 30
0.0
 70
     8
  0
VERTEX
  5
820F
330
817C
100
AcDbEntity
  8
0
100
AcDbVertex
100
AcDb2dVertex
 10
17.85900171631096
 20
25.77169970255133
 30
0.0
 70
     8
  0
VERTEX
  5
8210
330
817C
100
AcDbEntity
  8
0
100
AcDbVertex
100
AcDb2dVertex
 10
17.87780755923579
 20
25.82116883277485
 30
0.0
 70
     8
  0
VERTEX
  5
8211
330
817C
100
AcDbEntity
  8
0
100
AcDbVertex
100
AcDb2dVertex
 10
17.89981708442173
 20
25.8721202308923
 30
0.0
 70
     8
  0
VERTEX
  5
8212
330
817C
100
AcDbEntity
  8
0
100
AcDbVertex
100
AcDb2dVertex
 10
17.92490972334447
 20
25.92405406260087
 30
0.0
 70
     8
  0
VERTEX
  5
8213
330
817C
100
AcDbEntity
  8
0
100
AcDbVertex
100
AcDb2dVertex
 10
17.95296490747972
 20
25.9764704935978
 30
0.0
 70
     8
  0
VERTEX
  5
8214
330
817C
100
AcDbEntity
  8
0
100
AcDbVertex
100
AcDb2dVertex
 10
17.9838620683032
 20
26.02886968958034
 30
0.0
 70
     8
  0
VERTEX
  5
8215
330
817C
100
AcDbEntity
  8
0
100
AcDbVertex
100
AcDb2dVertex
 10
18.01748063729063
 20
26.0807518162457
 30
0.0
 70
     8
  0
VERTEX
  5
8216
330
817C
100
AcDbEntity
  8
0
100
AcDbVertex
100
AcDb2dVertex
 10
18.05370004591769
 20
26.13161703929112
 30
0.0
 70
     8
  0
VERTEX
  5
8217
330
817C
100
AcDbEntity
  8
0
100
AcDbVertex
100
AcDb2dVertex
 10
18.09235953600632
 20
26.18104595754989
 30
0.0
 70
     8
  0
VERTEX
  5
8218
330
817C
100
AcDbEntity
  8
0
100
AcDbVertex
100
AcDb2dVertex
 10
18.13313759076311
 20
26.2289409023994
 30
0.0
 70
     8
  0
VERTEX
  5
8219
330
817C
100
AcDbEntity
  8
0
100
AcDbVertex
100
AcDb2dVertex
 10
18.17567250374088
 20
26.27528463835317
 30
0.0
 70
     8
  0
VERTEX
  5
821A
330
817C
100
AcDbEntity
  8
0
100
AcDbVertex
100
AcDb2dVertex
 10
18.21960256849243
 20
26.32005992992461
 30
0.0
 70
     8
  0
VERTEX
  5
821B
330
817C
100
AcDbEntity
  8
0
100
AcDbVertex
100
AcDb2dVertex
 10
18.26456607857057
 20
26.36324954162724
 30
0.0
 70
     8
  0
VERTEX
  5
821C
330
817C
100
AcDbEntity
  8
0
100
AcDbVertex
100
AcDb2dVertex
 10
18.31020132752811
 20
26.4048362379745
 30
0.0
 70
     8
  0
VERTEX
  5
821D
330
817C
100
AcDbEntity
  8
0
100
AcDbVertex
100
AcDb2dVertex
 10
18.35614660891786
 20
26.44480278347989
 30
0.0
 70
     8
  0
VERTEX
  5
821E
330
817C
100
AcDbEntity
  8
0
100
AcDbVertex
100
AcDb2dVertex
 10
18.40204021629262
 20
26.48313194265685
 30
0.0
 70
     8
  0
VERTEX
  5
821F
330
817C
100
AcDbEntity
  8
0
100
AcDbVertex
100
AcDb2dVertex
 10
18.44763239992795
 20
26.51982946090364
 30
0.0
 70
     8
  0
VERTEX
  5
8220
330
817C
100
AcDbEntity
  8
0
100
AcDbVertex
100
AcDb2dVertex
 10
18.49312123699055
 20
26.55499300715758
 30
0.0
 70
     8
  0
VERTEX
  5
8221
330
817C
100
AcDbEntity
  8
0
100
AcDbVertex
100
AcDb2dVertex
 10
18.5388167613698
 20
26.58874323124076
 30
0.0
 70
     8
  0
VERTEX
  5
8222
330
817C
100
AcDbEntity
  8
0
100
AcDbVertex
100
AcDb2dVertex
 10
18.58502900695512
 20
26.62120078297525
 30
0.0
 70
     8
  0
VERTEX
  5
8223
330
817C
100
AcDbEntity
  8
0
100
AcDbVertex
100
AcDb2dVertex
 10
18.63206800763596
 20
26.65248631218317
 30
0.0
 70
     8
  0
VERTEX
  5
8224
330
817C
100
AcDbEntity
  8
0
100
AcDbVertex
100
AcDb2dVertex
 10
18.68024379730171
 20
26.6827204686866
 30
0.0
 70
     8
  0
VERTEX
  5
8225
330
817C
100
AcDbEntity
  8
0
100
AcDbVertex
100
AcDb2dVertex
 10
18.7298664098418
 20
26.71202390230764
 30
0.0
 70
     8
  0
VERTEX
  5
8226
330
817C
100
AcDbEntity
  8
0
100
AcDbVertex
100
AcDb2dVertex
 10
18.78124587914566
 20
26.74051726286836
 30
0.0
 70
     8
  0
VERTEX
  5
8227
330
817C
100
AcDbEntity
  8
0
100
AcDbVertex
100
AcDb2dVertex
 10
18.83445971385564
 20
26.76830683704936
 30
0.0
 70
     8
  0
VERTEX
  5
8228
330
817C
100
AcDbEntity
  8
0
100
AcDbVertex
100
AcDb2dVertex
 10
18.88865532162588
 20
26.79544145896523
 30
0.0
 70
     8
  0
VERTEX
  5
8229
330
817C
100
AcDbEntity
  8
0
100
AcDbVertex
100
AcDb2dVertex
 10
18.94274758486347
 20
26.82195559958898
 30
0.0
 70
     8
  0
VERTEX
  5
822A
330
817C
100
AcDbEntity
  8
0
100
AcDbVertex
100
AcDb2dVertex
 10
18.99565138597548
 20
26.8478837298937
 30
0.0
 70
     8
  0
VERTEX
  5
822B
330
817C
100
AcDbEntity
  8
0
100
AcDbVertex
100
AcDb2dVertex
 10
19.04628160736897
 20
26.87326032085245
 30
0.0
 70
     8
  0
VERTEX
  5
822C
330
817C
100
AcDbEntity
  8
0
100
AcDbVertex
100
AcDb2dVertex
 10
19.09355313145107
 20
26.89811984343828
 30
0.0
 70
     8
  0
VERTEX
  5
822D
330
817C
100
AcDbEntity
  8
0
100
AcDbVertex
100
AcDb2dVertex
 10
19.1363808406288
 20
26.92249676862426
 30
0.0
 70
     8
  0
VERTEX
  5
822E
330
817C
100
AcDbEntity
  8
0
100
AcDbVertex
100
AcDb2dVertex
 10
19.17367961730927
 20
26.94642556738343
 30
0.0
 70
     8
  0
VERTEX
  5
822F
330
817C
100
AcDbEntity
  8
0
100
AcDbVertex
100
AcDb2dVertex
 10
19.20463131722702
 20
26.96991485730171
 30
0.0
 70
     8
  0
VERTEX
  5
8230
330
817C
100
AcDbEntity
  8
0
100
AcDbVertex
100
AcDb2dVertex
 10
19.22948568942643
 20
26.99286984241626
 30
0.0
 70
     8
  0
VERTEX
  5
8231
330
817C
100
AcDbEntity
  8
0
100
AcDbVertex
100
AcDb2dVertex
 10
19.24875945627936
 20
27.01516987337718
 30
0.0
 70
     8
  0
VERTEX
  5
8232
330
817C
100
AcDbEntity
  8
0
100
AcDbVertex
100
AcDb2dVertex
 10
19.26296934015766
 20
27.03669430083444
 30
0.0
 70
     8
  0
VERTEX
  5
8233
330
817C
100
AcDbEntity
  8
0
100
AcDbVertex
100
AcDb2dVertex
 10
19.27263206343321
 20
27.05732247543813
 30
0.0
 70
     8
  0
VERTEX
  5
8234
330
817C
100
AcDbEntity
  8
0
100
AcDbVertex
100
AcDb2dVertex
 10
19.27826434847782
 20
27.07693374783825
 30
0.0
 70
     8
  0
VERTEX
  5
8235
330
817C
100
AcDbEntity
  8
0
100
AcDbVertex
100
AcDb2dVertex
 10
19.28038291766335
 20
27.09540746868485
 30
0.0
 70
     8
  0
VERTEX
  5
8236
330
817C
100
AcDbEntity
  8
0
100
AcDbVertex
100
AcDb2dVertex
 10
19.27950449336167
 20
27.11262298862796
 30
0.0
 70
     8
  0
VERTEX
  5
8237
330
817C
100
AcDbEntity
  8
0
100
AcDbVertex
100
AcDb2dVertex
 10
19.2748539908978
 20
27.12848263912372
 30
0.0
 70
     8
  0
VERTEX
  5
8238
330
817C
100
AcDbEntity
  8
0
100
AcDbVertex
100
AcDb2dVertex
 10
19.26048909740943
 20
27.14298067485255
 30
0.0
 70
     8
  0
VERTEX
  5
8239
330
817C
100
AcDbEntity
  8
0
100
AcDbVertex
100
AcDb2dVertex
 10
19.22917569298745
 20
27.156134331301
 30
0.0
 70
     8
  0
VERTEX
  5
823A
330
817C
100
AcDbEntity
  8
0
100
AcDbVertex
100
AcDb2dVertex
 10
19.17367965772271
 20
27.16796084395559
 30
0.0
 70
     8
  0
VERTEX
  5
823B
330
817C
100
AcDbEntity
  8
0
100
AcDbVertex
100
AcDb2dVertex
 10
19.0867668717061
 20
27.17847744830284
 30
0.0
 70
     8
  0
VERTEX
  5
823C
330
817C
100
AcDbEntity
  8
0
100
AcDbVertex
100
AcDb2dVertex
 10
18.96120321502847
 20
27.1877013798293
 30
0.0
 70
     8
  0
VERTEX
  5
823D
330
817C
100
AcDbEntity
  8
0
100
AcDbVertex
100
AcDb2dVertex
 10
18.78975456778071
 20
27.19564987402149
 30
0.0
 70
     8
  0
VERTEX
  5
823E
330
817C
100
AcDbEntity
  8
0
100
AcDbVertex
100
AcDb2dVertex
 10
18.56518681005369
 20
27.20234016636594
 30
0.0
 70
     8
  0
VERTEX
  5
823F
330
817C
100
AcDbEntity
  8
0
100
AcDbVertex
100
AcDb2dVertex
 10
18.28398335585737
 20
27.20780672807176
 30
0.0
 70
     8
  0
VERTEX
  5
8240
330
817C
100
AcDbEntity
  8
0
100
AcDbVertex
100
AcDb2dVertex
 10
17.95749775487813
 20
27.21215297323847
 30
0.0
 70
     8
  0
VERTEX
  5
8241
330
817C
100
AcDbEntity
  8
0
100
AcDbVertex
100
AcDb2dVertex
 10
17.60080109072144
 20
27.21549955168816
 30
0.0
 70
     8
  0
VERTEX
  5
8242
330
817C
100
AcDbEntity
  8
0
100
AcDbVertex
100
AcDb2dVertex
 10
17.22896444699276
 20
27.2179671132429
 30
0.0
 70
     8
  0
VERTEX
  5
8243
330
817C
100
AcDbEntity
  8
0
100
AcDbVertex
100
AcDb2dVertex
 10
16.85705890729757
 20
27.2196763077248
 30
0.0
 70
     8
  0
VERTEX
  5
8244
330
817C
100
AcDbEntity
  8
0
100
AcDbVertex
100
AcDb2dVertex
 10
16.50015555524132
 20
27.22074778495595
 30
0.0
 70
     8
  0
VERTEX
  5
8245
330
817C
100
AcDbEntity
  8
0
100
AcDbVertex
100
AcDb2dVertex
 10
16.1733254744295
 20
27.22130219475844
 30
0.0
 70
     8
  0
VERTEX
  5
8246
330
817C
100
AcDbEntity
  8
0
100
AcDbVertex
100
AcDb2dVertex
 10
15.24934173827705
 20
27.22440170998878
 30
0.0
 70
    16
  0
VERTEX
  5
8247
330
817C
100
AcDbEntity
  8
0
100
AcDbVertex
100
AcDb2dVertex
 10
15.14351693683406
 20
27.21557714088552
 30
0.0
 70
    16
  0
VERTEX
  5
8248
330
817C
100
AcDbEntity
  8
0
100
AcDbVertex
100
AcDb2dVertex
 10
15.09942321982655
 20
27.10085677562563
 30
0.0
 70
    16
  0
VERTEX
  5
8249
330
817C
100
AcDbEntity
  8
0
100
AcDbVertex
100
AcDb2dVertex
 10
15.10824190354053
 20
23.18271618549993
 30
0.0
 70
    16
  0
VERTEX
  5
824A
330
817C
100
AcDbEntity
  8
0
100
AcDbVertex
100
AcDb2dVertex
 10
15.21406685420233
 20
23.08564495844661
 30
0.0
 70
    16
  0
VERTEX
  5
824B
330
817C
100
AcDbEntity
  8
0
100
AcDbVertex
100
AcDb2dVertex
 10
15.39926025672756
 20
23.16506680556407
 30
0.0
 70
    16
  0
VERTEX
  5
824C
330
817C
100
AcDbEntity
  8
0
100
AcDbVertex
100
AcDb2dVertex
 10
16.13121548155211
 20
24.2504977492521
 30
0.0
 70
    16
  0
VERTEX
  5
824D
330
817C
100
AcDbEntity
  8
0
100
AcDbVertex
100
AcDb2dVertex
 10
16.47514623546063
 20
24.59465860330249
 30
0.0
 70
    16
  0
VERTEX
  5
824E
330
817C
100
AcDbEntity
  8
0
100
AcDbVertex
100
AcDb2dVertex
 10
16.93372047452612
 20
24.67408045041995
 30
0.0
 70
    16
  0
VERTEX
  5
824F
330
817C
100
AcDbEntity
  8
0
100
AcDbVertex
100
AcDb2dVertex
 10
17.07482030926264
 20
24.68290501952322
 30
0.0
 70
    16
  0
VERTEX
  5
8250
330
817C
100
AcDbEntity
  8
0
100
AcDbVertex
100
AcDb2dVertex
 10
17.12773270998414
 20
24.72702834849824
 30
0.0
 70
    16
  0
VERTEX
  5
8251
330
817C
100
AcDbEntity
  8
0
100
AcDbVertex
100
AcDb2dVertex
 10
17.11891402627015
 20
24.90352118093973
 30
0.0
 70
    16
  0
VERTEX
  5
8252
330
817C
100
AcDbEntity
  8
0
100
AcDbVertex
100
AcDb2dVertex
 10
17.07482030926264
 20
25.07118920254864
 30
0.0
 70
    16
  0
VERTEX
  5
8253
330
817C
100
AcDbEntity
  8
0
100
AcDbVertex
100
AcDb2dVertex
 10
17.1453702266309
 20
25.30062993306842
 30
0.0
 70
    16
  0
VERTEX
  5
8254
330
817C
100
AcDbEntity
  8
0
100
AcDbVertex
100
AcDb2dVertex
 10
17.3482011458029
 20
25.33592845121085
 30
0.0
 70
    16
  0
VERTEX
  5
8255
330
817C
100
AcDbEntity
  8
0
100
AcDbVertex
100
AcDb2dVertex
 10
17.63040066605714
 20
25.2918053639651
 30
0.0
 70
    16
  0
VERTEX
  5
8256
330
817C
100
AcDbEntity
  8
0
100
AcDbVertex
100
AcDb2dVertex
 10
17.74504430043291
 20
25.30062993306842
 30
0.0
 70
    16
  0
VERTEX
  5
8257
330
817C
100
AcDbEntity
  8
0
100
AcDbVertex
100
AcDb2dVertex
 10
17.80677538486837
 20
25.40652572922499
 30
0.0
 70
    16
  0
VERTEX
  5
8258
330
817C
100
AcDbEntity
  8
0
100
AcDbVertex
100
AcDb2dVertex
 10
17.80677538486837
 20
25.6977386851971
 30
0.0
 70
    16
  0
VERTEX
  5
8259
330
817C
100
AcDbEntity
  8
0
100
AcDbVertex
100
AcDb2dVertex
 10
18.02724382068715
 20
26.14779557713335
 30
0.0
 70
    16
  0
VERTEX
  5
825A
330
817C
100
AcDbEntity
  8
0
100
AcDbVertex
100
AcDb2dVertex
 10
18.40644960788921
 20
26.50078124201628
 30
0.0
 70
    16
  0
VERTEX
  5
825B
330
817C
100
AcDbEntity
  8
0
100
AcDbVertex
100
AcDb2dVertex
 10
18.75919904551171
 20
26.74787111074265
 30
0.0
 70
    16
  0
VERTEX
  5
825C
330
817C
100
AcDbEntity
  8
0
100
AcDbVertex
100
AcDb2dVertex
 10
19.24422948493791
 20
26.9508378922233
 30
0.0
 70
    16
  0
VERTEX
  5
825D
330
817C
100
AcDbEntity
  8
0
100
AcDbVertex
100
AcDb2dVertex
 10
19.30596071859222
 20
27.12733072466475
 30
0.0
 70
    16
  0
SEQEND
  5
825E
330
817C
100
AcDbEntity
  8
0
  0
LINE
  5
8261
330
18
100
AcDbEntity
  8
0
100
AcDbLine
 10
13.15460808221918
 20
29.15785329420586
 30
0.0
 11
26.40980144342945
 21
29.15768867356535
 31
0.0
  0
LINE
  5
8262
330
18
100
AcDbEntity
  8
0
100
AcDbLine
 10
13.15460808221918
 20
29.15785329420586
 30
0.0
 11
13.1430369702874
 21
10.90786335809319
 31
0.0
  0
LWPOLYLINE
  5
85E7
330
18
100
AcDbEntity
  8
0
100
AcDbPolyline
 90
      882
 70
     0
 43
0.0
 10
13.1430369702874
 20
10.90786335809318
 10
13.15841609321907
 20
10.90486417766575
 10
13.18897671076228
 20
10.89987257020571
 10
13.21986836377394
 20
10.8961707901327
 10
13.25159174054761
 20
10.89390997222678
 10
13.28448201237119
 20
10.89323918106759
 10
13.31887435053261
 20
10.89430748123476
 10
13.35510392631979
 20
10.89726393730794
 10
13.39350591102065
 20
10.90225761386676
 10
13.43441547592311
 20
10.90943757549085
 10
13.47816779231511
 20
10.91895288675988
 10
13.52488699756224
 20
10.93090499437868
 10
13.57385309334097
 20
10.94520487355299
 10
13.62413504740542
 20
10.96171588161381
 10
13.67480182750976
 20
10.98030137589206
 10
13.7249224014081
 20
11.00082471371871
 10
13.77356573685461
 20
11.02314925242472
 10
13.81980080160343
 20
11.04713834934105
 10
13.8626965634087
 20
11.07265536179865
 10
13.90151440333595
 20
11.09953466227699
 10
13.93628535569622
 20
11.12749468384951
 10
13.96723286811194
 20
11.15622487473813
 10
13.99458038820553
 20
11.18541468316478
 10
14.01855136359944
 20
11.21475355735137
 10
14.03936924191608
 20
11.24393094551985
 10
14.05725747077788
 20
11.27263629589216
 10
14.07243949780728
 20
11.30055905669021
 10
14.08519877058617
 20
11.32743008297675
 10
14.09605873653431
 20
11.35314585717763
 10
14.10560284303095
 20
11.37764426855956
 10
14.11441453745533
 20
11.40086320638922
 10
14.12307726718667
 20
11.42274055993329
 10
14.13217447960423
 20
11.44321421845845
 10
14.14228962208723
 20
11.4622220712314
 10
14.15400614201492
 20
11.47970200751883
 10
14.16773162494199
 20
11.49563746430111
 10
14.18317020912496
 20
11.51019406941356
 10
14.19985017099581
 20
11.52358299840521
 10
14.2172997869865
 20
11.53601542682507
 10
14.23504733352902
 20
11.54770253022213
 10
14.25262108705535
 20
11.55885548414546
 10
14.26954932399747
 20
11.56968546414405
 10
14.28536032078734
 20
11.58040364576694
 10
14.29967338827317
 20
11.59121706376888
 10
14.31247197496815
 20
11.60231618972769
 10
14.32383056380165
 20
11.61388735442695
 10
14.33382363770308
 20
11.6261168886502
 10
14.34252567960186
 20
11.63919112318102
 10
14.35001117242736
 20
11.65329638880297
 10
14.35635459910901
 20
11.66861901629964
 10
14.36163044257618
 20
11.68534533645456
 10
14.36591732361786
 20
11.70360164014789
 10
14.36931041446127
 20
11.72327405864618
 10
14.3719090251932
 20
11.74418868331246
 10
14.37381246590045
 20
11.76617160550989
 10
14.37512004666981
 20
11.78904891660154
 10
14.37593107758809
 20
11.81264670795049
 10
14.37634486874208
 20
11.83679107091987
 10
14.38803184215035
 20
11.98577138209639
 10
14.387944946128
 20
12.01047059953368
 10
14.38773391315288
 20
12.03509528550739
 10
14.38747322586299
 20
12.05937215420726
 10
14.38723736689626
 20
12.08302791982313
 10
14.38710081889065
 20
12.10578929654478
 10
14.38713806448413
 20
12.127382998562
 10
14.38742358631464
 20
12.1475357400646
 10
14.38803186702015
 20
12.16597423524232
 10
14.38905187186853
 20
12.14410180112932
 10
14.39063049664731
 20
12.15882816613695
 10
14.39292911977394
 20
12.17193966152094
 10
14.39610911966586
 20
12.18362261853692
 10
14.40033187474052
 20
12.19406336844064
 10
14.40575876341536
 20
12.20344824248776
 10
14.41255116410785
 20
12.21196357193399
 10
14.42087045523542
 20
12.21979568803503
 10
14.43086767059089
 20
12.22713920339895
 10
14.44265246546857
 20
12.2342218560436
 10
14.45632415053814
 20
12.24127966533919
 10
14.47198203646929
 20
12.24854865065592
 10
14.4897254339317
 20
12.25626483136401
 10
14.50965365359503
 20
12.26466422683369
 10
14.53186600612899
 20
12.27398285643517
 10
14.55646180220325
 20
12.28445673953866
 10
14.58344518021167
 20
12.29630119201533
 10
14.61243958944494
 20
12.30964871573994
 10
14.64297330691792
 20
12.32461110908823
 10
14.67457460964547
 20
12.34130017043588
 10
14.70677177464244
 20
12.35982769815864
 10
14.7390930789237
 20
12.38030549063221
 10
14.77106679950411
 20
12.40284534623229
 10
14.80222121339855
 20
12.4275590633346
 10
14.83213218361403
 20
12.45442593828271
 10
14.86056591712635
 20
12.48289525929143
 10
14.88733620690342
 20
12.51228381254345
 10
14.9122568459132
 20
12.54190838422142
 10
14.93514162712363
 20
12.57108576050804
 10
14.95580434350266
 20
12.59913272758594
 10
14.97405878801821
 20
12.62536607163784
 10
14.98971875363825
 20
12.64910257884638
 10
15.00272837801999
 20
12.66983708514015
 10
15.01355317757781
 20
12.68777662543126
 10
15.02278901341536
 20
12.7033062843778
 10
15.0310317466363
 20
12.71681114663781
 10
15.03887723834429
 20
12.72867629686935
 10
15.04692134964298
 20
12.73928681973043
 10
15.05575994163604
 20
12.74902779987914
 10
15.06598887542711
 20
12.75828432197352
 10
15.07803435730325
 20
12.76738350081122
 10
15.09164397428504
 20
12.77642057174837
 10
15.10639565857647
 20
12.7854328002807
 10
15.12186734238152
 20
12.79445745190394
 10
15.13763695790417
 20
12.80353179211385
 10
15.1532824373484
 20
12.81269308640612
 10
15.16838171291819
 20
12.82197860027654
 10
15.18251271681753
 20
12.83142559922082
 10
15.19534027746704
 20
12.841096193028
 10
15.206876808154
 20
12.85115186866047
 10
15.2172216183823
 20
12.86177895737391
 10
15.22647401765585
 20
12.87316379042403
 10
15.23473331547856
 20
12.88549269906652
 10
15.24209882135435
 20
12.89895201455705
 10
15.24866984478711
 20
12.91372806815134
 10
15.25454569528076
 20
12.93000719110508
 10
15.25984016526058
 20
12.94790118226609
 10
15.26472497883726
 20
12.96722371085083
 10
15.26938634304284
 20
12.98771391366787
 10
15.27401046490939
 20
13.00911092752579
 10
15.27878355146897
 20
13.03115388923318
 10
15.28389180975364
 20
13.05358193559863
 10
15.28952144679545
 20
13.0761342034307
 10
15.29585866962646
 20
13.09854982953799
 10
15.30305865072481
 20
13.12061556856451
 10
15.31115242435298
 20
13.14230864649603
 10
15.32013999021952
 20
13.16365390715372
 10
15.33002134803299
 20
13.18467619435884
 10
15.34079649750194
 20
13.20540035193255
 10
15.35246543833493
 20
13.22585122369603
 10
15.36502817024053
 20
13.24605365347051
 10
15.37848469292728
 20
13.26603248507718
 10
15.39282673028746
 20
13.2857939293533
 10
15.40801290294824
 20
13.30526966520045
 10
15.42399355572048
 20
13.32437273853618
 10
15.44071903341509
 20
13.34301619527815
 10
15.45813968084293
 20
13.36111308134397
 10
15.4762058428149
 20
13.37857644265122
 10
15.49486786414186
 20
13.39531932511755
 10
15.51407608963469
 20
13.41125477466054
 10
15.53374569188511
 20
13.42632689224975
 10
15.55365115460804
 20
13.44060399906227
 10
15.57353178929926
 20
13.45418547132721
 10
15.5931269074545
 20
13.46717068527357
 10
15.61217582056953
 20
13.47965901713042
 10
15.63041784014012
 20
13.49174984312681
 10
15.64759227766201
 20
13.50354253949179
 10
15.66343844463096
 20
13.51513648245444
 10
15.67774530744042
 20
13.5266455407482
 10
15.69050045207451
 20
13.53824155312437
 10
15.70174111941504
 20
13.55011085083861
 10
15.71150455034384
 20
13.56243976514661
 10
15.71982798574272
 20
13.5754146273041
 10
15.7267486664935
 20
13.58922176856674
 10
15.73230383347798
 20
13.60404752019023
 10
15.73653072757798
 20
13.62007821343026
 10
15.73946452076981
 20
13.6374670538968
 10
15.74113210940782
 20
13.65623474461678
 10
15.74155832094084
 20
13.67636886297143
 10
15.74076798281771
 20
13.69785698634194
 10
15.73878592248726
 20
13.72068669210951
 10
15.73563696739833
 20
13.7448455576554
 10
15.73134594499977
 20
13.77032116036075
 10
15.72593768274042
 20
13.79710107760682
 10
15.71942459434468
 20
13.82513769116472
 10
15.7117694386393
 20
13.85424260036522
 10
15.7029225607266
 20
13.88419220892906
 10
15.69283430570892
 20
13.91476292057689
 10
15.68145501868858
 20
13.94573113902944
 10
15.66873504476788
 20
13.97687326800741
 10
15.65462472904917
 20
14.00796571123149
 10
15.63907441663477
 20
14.03878487242236
 10
15.62211721103267
 20
14.06911543633843
 10
15.60411724937349
 20
14.09877521188873
 10
15.58552142719354
 20
14.12759028901999
 10
15.56677664002912
 20
14.15538675767888
 10
15.54832978341652
 20
14.18199070781215
 10
15.53062775289206
 20
14.2072282293665
 10
15.51411744399203
 20
14.23092541228865
 10
15.49924575225272
 20
14.25290834652534
 10
15.48637474580213
 20
14.27308179546141
 10
15.47552718313502
 20
14.29166521623435
 10
15.46664099533788
 20
14.30895673941987
 10
15.45965411349715
 20
14.3252544955936
 10
15.45450446869928
 20
14.3408566153312
 10
15.45112999203075
 20
14.35606122920835
 10
15.44946861457803
 20
14.37116646780071
 10
15.44945826742756
 20
14.38647046168394
 10
15.45105343339552
 20
14.40225891912964
 10
15.45427480221691
 20
14.4187678591933
 10
15.45915961535641
 20
14.43622087862636
 10
15.46574511427874
 20
14.45484157418021
 10
15.47406854044859
 20
14.47485354260632
 10
15.48416713533066
 20
14.49648038065609
 10
15.49607814038966
 20
14.51994568508095
 10
15.50983879709028
 20
14.54547305263234
 10
15.52541186425926
 20
14.57321154773251
 10
15.54246217017152
 20
14.6030121054871
 10
15.56058006046402
 20
14.6346511286725
 10
15.57935588077372
 20
14.6679050200652
 10
15.59837997673756
 20
14.70255018244164
 10
15.61724269399253
 20
14.73836301857824
 10
15.63553437817556
 20
14.77511993125146
 10
15.6528453749236
 20
14.81259732323774
 10
15.66884552965477
 20
14.85063407001127
 10
15.68352268691176
 20
14.88931893783715
 10
15.69694419101837
 20
14.92880316567822
 10
15.70917738629844
 20
14.96923799249733
 10
15.72028961707578
 20
15.01077465725732
 10
15.73034822767423
 20
15.05356439892104
 10
15.7394205624176
 20
15.09775845645132
 10
15.74757396562971
 20
15.143508068811
 10
15.75488390250014
 20
15.19090583232086
 10
15.76145832168137
 20
15.23980977273339
 10
15.76741329269165
 20
15.29001927315895
 10
15.77286488504919
 20
15.34133371670796
 10
15.77792916827225
 20
15.39355248649083
 10
15.78272221187905
 20
15.44647496561794
 10
15.78736008538782
 20
15.49990053719971
 10
15.79195885831681
 20
15.55362858434652
 10
15.7966521343684
 20
15.60748017718815
 10
15.80164365398164
 20
15.66136313393175
 10
15.80715469177972
 20
15.71520695980384
 10
15.81340652238583
 20
15.76894116003099
 10
15.82062042042317
 20
15.82249523983973
 10
15.82901766051495
 20
15.87579870445657
 10
15.83881951728435
 20
15.92878105910804
 10
15.85024726535457
 20
15.98137180902068
 10
15.86346605898182
 20
16.03348011820109
 10
15.87841657095427
 20
16.08493378577626
 10
15.89498335369314
 20
16.1355402696532
 10
15.91305095961959
 20
16.18510702773897
 10
15.93250394115482
 20
16.23344151794058
 10
15.95322685072005
 20
16.28035119816509
 10
15.97510424073644
 20
16.32564352631956
 10
15.99802066362519
 20
16.36912596031098
 10
16.02190877506248
 20
16.41067655676662
 10
16.04689364374443
 20
16.45045576719456
 10
16.07314844162212
 20
16.48869464182308
 10
16.10084634064666
 20
16.52562423088042
 10
16.13016051276916
 20
16.56147558459489
 10
16.1612641299407
 20
16.59647975319475
 10
16.19433036411238
 20
16.6308677869083
 10
16.22953238723531
 20
16.66487073596379
 10
16.26696319897464
 20
16.69862337954303
 10
16.30639510985179
 20
16.73187541264188
 10
16.34752025810225
 20
16.76428025920975
 10
16.3900307819615
 20
16.79549134319602
 10
16.43361881966502
 20
16.82516208855011
 10
16.47797650944828
 20
16.85294591922138
 10
16.52279598954677
 20
16.87849625915924
 10
16.56776939819599
 20
16.90146653231309
 10
16.6126081151374
 20
16.92159680676299
 10
16.65710048613652
 20
16.93897372711177
 10
16.70105409846485
 20
16.95377058209291
 10
16.74427653939388
 20
16.96616066043991
 10
16.78657539619514
 20
16.97631725088626
 10
16.82775825614011
 20
16.98441364216546
 10
16.86763270650032
 20
16.99062312301101
 10
16.90600633454726
 20
16.99511898215639
 10
16.94272841692352
 20
16.99808734422284
 10
16.97781498775597
 20
16.99976567738248
 10
17.0113237705426
 20
17.00040428569521
 10
17.04331248878134
 20
17.00025347322087
 10
17.07383886597016
 20
16.99956354401936
 10
17.10296062560703
 20
16.99858480215053
 10
17.1307354911899
 20
16.99756755167426
 10
17.15722118621674
 20
16.99676209665041
 10
17.18248184811799
 20
16.99637381474493
 10
17.20660727005402
 20
16.99642837804802
 10
17.22969365911769
 20
16.99690653225597
 10
17.25183722240186
 20
16.99778902306505
 10
17.27313416699936
 20
16.99905659617154
 10
17.29368070000307
 20
17.00068999727173
 10
17.31357302850584
 20
17.00266997206188
 10
17.33290735960053
 20
17.00497726623828
 10
17.35176386581592
 20
17.00767926954921
 10
17.37015858142465
 20
17.01118994795091
 10
17.38809150613526
 20
17.01600991145164
 10
17.40556263965629
 20
17.02263977005965
 10
17.42257198169634
 20
17.03158013378319
 10
17.43911953196392
 20
17.04333161263052
 10
17.45520529016763
 20
17.05839481660988
 10
17.47082925601599
 20
17.07727035572954
 10
17.48596898106107
 20
17.10028555197243
 10
17.50051222422882
 20
17.12707457522029
 10
17.51432429628874
 20
17.15709830732955
 10
17.52727050801029
 20
17.18981763015665
 10
17.53921617016291
 20
17.22469342555803
 10
17.55002659351609
 20
17.2611865753901
 10
17.55956708883928
 20
17.29875796150931
 10
17.56770296690198
 20
17.33686846577209
 10
17.57431877973675
 20
17.37505919598562
 10
17.57937604442877
 20
17.4131921637601
 10
17.58285551932628
 20
17.45120960665652
 10
17.58473796277758
 20
17.48905376223583
 10
17.58500413313091
 20
17.52666686805898
 10
17.58363478873459
 20
17.56399116168695
 10
17.58061068793685
 20
17.60096888068069
 10
17.57591258908599
 20
17.63754226260117
 10
17.56956935402814
 20
17.67362787260439
 10
17.56180225860084
 20
17.7090395862265
 10
17.55288068213948
 20
17.74356560659869
 10
17.54307400397946
 20
17.77699413685216
 10
17.53265160345618
 20
17.80911338011809
 10
17.52188285990502
 20
17.83971153952766
 10
17.5110371526614
 20
17.86857681821208
 10
17.50038386106071
 20
17.89549741930253
 10
17.49016991603894
 20
17.92034177203833
 10
17.48055245493458
 20
17.94329921009133
 10
17.47166616668674
 20
17.9646392932415
 10
17.46364574023448
 20
17.98463158126881
 10
17.45662586451692
 20
18.00354563395325
 10
17.45074122847311
 20
18.02165101107477
 10
17.44612652104218
 20
18.03921727241338
 10
17.44291643116321
 20
18.05651397774902
 10
17.44123282025033
 20
18.07374008774804
 10
17.44114623961791
 20
18.09081216662218
 10
17.44271441305533
 20
18.10757617946954
 10
17.44599506435202
 20
18.12387809138821
 10
17.45104591729736
 20
18.13956386747631
 10
17.45792469568078
 20
18.15447947283192
 10
17.46668912329166
 20
18.16847087255315
 10
17.47739692391943
 20
18.1813840317381
 10
17.49017316611445
 20
18.19312909665465
 10
17.50541229747109
 20
18.2038729382498
 10
17.52357611034469
 20
18.21384660864034
 10
17.54512639709056
 20
18.22328115994306
 10
17.57052495006405
 20
18.23240764427474
 10
17.60023356162047
 20
18.24145711375218
 10
17.6347140241152
 20
18.25066062049215
 10
17.67442812990353
 20
18.26024921661145
 10
17.71961639594044
 20
18.27046037177727
 10
17.76963423757935
 20
18.28155722585855
 10
17.82361579477337
 20
18.29380933627462
 10
17.88069520747552
 20
18.30748626044481
 10
17.94000661563888
 20
18.32285755578846
 10
18.00068415921652
 20
18.34019277972491
 10
18.06186197816151
 20
18.35976148967349
 10
18.1226742124269
 20
18.38183324305356
 10
18.18237686371992
 20
18.40658453568201
 10
18.24071338076444
 20
18.43381961696609
 10
18.29754907403847
 20
18.46324967471061
 10
18.35274925402004
 20
18.49458589672037
 10
18.40617923118719
 20
18.52753947080021
 10
18.45770431601792
 20
18.56182158475492
 10
18.50718981899026
 20
18.59714342638931
 10
18.55450105058225
 20
18.63321618350822
 10
18.59956745909092
 20
18.66986656903059
 10
18.64257504408947
 20
18.7073833963319
 10
18.68377394297016
 20
18.74617100390184
 10
18.72341429312516
 20
18.78663373023001
 10
18.76174623194675
 20
18.82917591380609
 10
18.79901989682714
 20
18.8742018931197
 10
18.83548542515855
 20
18.92211600666048
 10
18.87139295433321
 20
18.97332259291809
 10
18.90689641508766
 20
19.02807837468315
 10
18.9417649115357
 20
19.08604961195014
 10
18.97567134113537
 20
19.14675494901454
 10
19.00828860134479
 20
19.20971303017181
 10
19.03928958962203
 20
19.27444249971744
 10
19.06834720342518
 20
19.34046200194688
 10
19.09513434021233
 20
19.40729018115561
 10
19.11932389744155
 20
19.4744456816391
 10
19.14059839325108
 20
19.54157871821743
 10
19.15867882849973
 20
19.60886578780914
 10
19.17329582472639
 20
19.67661495785742
 10
19.18418000347002
 20
19.74513429580541
 10
19.19106198626955
 20
19.81473186909628
 10
19.19367239466391
 20
19.88571574517319
 10
19.19174185019204
 20
19.9583939914793
 10
19.18500097439286
 20
20.03307467545778
 10
19.17327659536384
 20
20.1098636952283
 10
19.15678036743666
 20
20.18805827161644
 10
19.13582015150147
 20
20.26675345612433
 10
19.11070380844847
 20
20.34504430025406
 10
19.08173919916788
 20
20.42202585550775
 10
19.04923418454985
 20
20.49679317338748
 10
19.01349662548458
 20
20.56844130539539
 10
18.97483438286227
 20
20.63606530303355
 10
18.9335072143181
 20
20.69892387891359
 10
18.88958246446737
 20
20.75693039008514
 10
18.84307937467034
 20
20.81016185470734
 10
18.79401718628728
 20
20.85869529093934
 10
18.74241514067851
 20
20.90260771694027
 10
18.68829247920429
 20
20.94197615086929
 10
18.6316684432249
 20
20.9768776108855
 10
18.57256227410063
 20
21.0073891151481
 10
18.51103490280571
 20
21.03352670969702
 10
18.44731401877015
 20
21.05506255209563
 10
18.38166900103788
 20
21.07170782778808
 10
18.31436922865288
 20
21.08317372221856
 10
18.24568408065909
 20
21.08917142083125
 10
18.17588293610047
 20
21.08941210907032
 10
18.10523517402097
 20
21.08360697237996
 10
18.03401017346454
 20
21.0714671962043
 10
17.96254786488662
 20
21.05283232777633
 10
17.89147038438869
 20
21.0280553614839
 10
17.82147041948369
 20
20.99761765350371
 10
17.75324065768457
 20
20.9620005600124
 10
17.68747378650426
 20
20.92168543718663
 10
17.62486249345574
 20
20.87715364120305
 10
17.56609946605196
 20
20.82888652823832
 10
17.51187739180585
 20
20.7773654544691
 10
17.46277351036011
 20
20.72309423911165
 10
17.41890326987645
 20
20.66666655354056
 10
17.38026667064632
 20
20.60869853217003
 10
17.34686371296114
 20
20.54980630941427
 10
17.31869439711236
 20
20.49060601968748
 10
17.29575872339142
 20
20.43171379740386
 10
17.27805669208978
 20
20.37374577697759
 10
17.26558830349887
 20
20.31731809282288
 10
17.25821566164049
 20
20.26297948976304
 10
17.25524928545792
 20
20.21100915425777
 10
17.25586179762478
 20
20.16161888317588
 10
17.25922582081471
 20
20.11502047338617
 10
17.26451397770133
 20
20.07142572175747
 10
17.27089889095827
 20
20.03104642515859
 10
17.27755318325917
 20
19.9940943804583
 10
17.28364947727765
 20
19.96078138452547
 10
17.28846301612979
 20
19.93123259009818
 10
17.29167952470149
 20
19.90522657339184
 10
17.29308734832107
 20
19.88245526649116
 10
17.29247483231688
 20
19.86261060148086
 10
17.28963032201724
 20
19.84538451044562
 10
17.2843421627505
 20
19.83046892547018
 10
17.27639869984499
 20
19.81755577863923
 10
17.26558827862906
 20
19.80633700203749
 10
17.25178903734854
 20
19.79656549947539
 10
17.23523828591928
 20
19.78823806166624
 10
17.21626312717464
 20
19.78141245104909
 10
17.19519066394799
 20
19.77614643006296
 10
17.17234799907267
 20
19.77249776114689
 10
17.14806223538204
 20
19.77052420673993
 10
17.12266047570948
 20
19.7702835292811
 10
17.09646982288832
 20
19.77183349120946
 10
17.06972758673728
 20
19.77530566289222
 10
17.04231190501644
 20
19.78112684640946
 10
17.01401112247129
 20
19.78979765176941
 10
16.98461358384725
 20
19.80181868898033
 10
16.95390763388978
 20
19.81769056805047
 10
16.92168161734435
 20
19.83791389898809
 10
16.88772387895637
 20
19.86298929180142
 10
16.85182276347131
 20
19.89341735649874
 10
16.81389489136985
 20
19.92955429643987
 10
16.77436998607351
 20
19.97117868839103
 10
16.73380604673903
 20
20.01792470247002
 10
16.69276107252317
 20
20.06942650879462
 10
16.65179306258266
 20
20.12531827748266
 10
16.61146001607425
 20
20.18523417865191
 10
16.5723199321547
 20
20.24880838242021
 10
16.53493080998074
 20
20.31567505890532
 10
16.49981216593998
 20
20.38559994859229
 10
16.46732958534348
 20
20.45887507343512
 10
16.43781017073315
 20
20.53592402575507
 10
16.4115810246509
 20
20.61717039787333
 10
16.38896924963865
 20
20.70303778211117
 10
16.37030194823832
 20
20.79394977078985
 10
16.35590622299181
 20
20.89032995623055
 10
16.34610917644105
 20
20.99260193075456
 10
16.3411288769473
 20
21.1008234566435
 10
16.34074725614929
 20
21.21358897602076
 10
16.34463721150511
 20
21.32912710097011
 10
16.35247164047285
 20
21.44566644357532
 10
16.36392344051058
 20
21.56143561592016
 10
16.3786655090764
 20
21.67466323008845
 10
16.39637074362839
 20
21.78357789816393
 10
16.41671204162463
 20
21.8864082322304
 10
16.43945989070754
 20
21.98186677482349
 10
16.46477513925684
 20
22.07060179028625
 10
16.49291622583659
 20
22.15374547341356
 10
16.52414158901084
 20
22.23243001900036
 10
16.55870966734363
 20
22.30778762184152
 10
16.59687889939901
 20
22.38095047673196
 10
16.63890772374103
 20
22.45305077846658
 10
16.68505457893376
 20
22.52522072184026
 10
16.73544413250197
 20
22.59822803023391
 10
16.78966596781337
 20
22.67138254137242
 10
16.84717589719641
 20
22.74362962156661
 10
16.90742973297953
 20
22.8139146371274
 10
16.96988328749118
 20
22.88118295436562
 10
17.03399237305979
 20
22.94437993959215
 10
17.09921280201383
 20
23.00245095911784
 10
17.16500038668173
 20
23.05434137925356
 10
17.2309363052628
 20
23.09925273254117
 10
17.29710319943974
 20
23.13741121644643
 10
17.36370907676618
 20
23.16929919466606
 10
17.43096194479568
 20
23.19539903089683
 10
17.49906981108182
 20
23.21619308883548
 10
17.56824068317821
 20
23.23216373217874
 10
17.63868256863841
 20
23.24379332462336
 10
17.71060347501604
 20
23.25156422986609
 10
17.78398929418544
 20
23.25595657332588
 10
17.85793745530417
 20
23.2574415273105
 10
17.93132327185058
 20
23.25648802584997
 10
18.00302205730302
 20
23.25356500297427
 10
18.07190912513982
 20
23.24914139271339
 10
18.13685978883931
 20
23.24368612909733
 10
18.19674936187984
 20
23.23766814615609
 10
18.25045315773976
 20
23.23155637791967
 10
18.29716280797859
 20
23.2257767727042
 10
18.33733521648056
 20
23.22058333597047
 10
18.37174360521111
 20
23.21618708746544
 10
18.40116119613566
 20
23.21279904693605
 10
18.42636121121963
 20
23.21063023412924
 10
18.44811687242846
 20
23.20989166879195
 10
18.46720140172756
 20
23.21079437067113
 10
18.48438802108238
 20
23.21354935951374
 10
18.50032108217931
 20
23.21834030062883
 10
18.5151294555888
 20
23.22524144157399
 10
18.52881314160233
 20
23.23429967546898
 10
18.54137214051129
 20
23.24556189543348
 10
18.55280645260716
 20
23.25907499458722
 10
18.56311607818136
 20
23.27488586604996
 10
18.57230101752535
 20
23.29304140294139
 10
18.58036127093058
 20
23.31358849838123
 10
18.58729683863989
 20
23.33649979777424
 10
18.59310772070188
 20
23.36145095566532
 10
18.59779391711654
 20
23.38804337888435
 10
18.60135542788387
 20
23.41587847426125
 10
18.60379225300387
 20
23.44455764862593
 10
18.60510439247653
 20
23.47368230880829
 10
18.60529184630188
 20
23.50285386163825
 10
18.60435461447989
 20
23.53167371394571
 10
18.60236298986352
 20
23.55979798143633
 10
18.59966843671758
 20
23.5871016153187
 10
18.59669271215981
 20
23.6135142756772
 10
18.59385757330795
 20
23.63896562259617
 10
18.59158477727975
 20
23.66338531615996
 10
18.59029608119297
 20
23.68670301645292
 10
18.59041324216536
 20
23.7088483835594
 10
18.59235801731465
 20
23.72975107756376
 10
18.59647406066961
 20
23.74934857414899
 10
18.60279261390299
 20
23.76760961139265
 10
18.61126681559857
 20
23.78451074297094
 10
18.62184980434009
 20
23.80002852256007
 10
18.63449471871135
 20
23.81413950383623
 10
18.64915469729609
 20
23.82682024047563
 10
18.66578287867809
 20
23.83804728615448
 10
18.68433240144112
 20
23.84779719454897
 10
18.70471735235728
 20
23.85608168913575
 10
18.72669561095207
 20
23.86305317259327
 10
18.74998600493933
 20
23.86889921740043
 10
18.77430736203288
 20
23.8738073960361
 10
18.79937850994658
 20
23.87796528097918
 10
18.82491827639427
 20
23.88156044470858
 10
18.85064548908977
 20
23.88478045970316
 10
18.87627897574695
 20
23.88781289844183
 10
18.90156880560665
 20
23.8908375181196
 10
18.92639001401794
 20
23.8940028147959
 10
18.95064887785691
 20
23.89744946924627
 10
18.97425167399965
 20
23.90131816224629
 10
18.99710467932224
 20
23.90574957457149
 10
19.01911417070079
 20
23.91088438699742
 10
19.04018642501135
 20
23.91686328029964
 10
19.06022771913006
 20
23.92382693525371
 10
19.07913651935692
 20
23.93189258576054
 10
19.09678004968775
 20
23.94108367822265
 10
19.1130177235423
 20
23.95140021216788
 10
19.12770895434034
 20
23.96284218712413
 10
19.1407131555016
 20
23.97540960261924
 10
19.15188974044585
 20
23.98910245818111
 10
19.16109812259285
 20
24.00392075333762
 10
19.16819771536235
 20
24.01986448761662
 10
19.17309088912805
 20
24.03697273846051
 10
19.17585184207953
 20
24.05544089496978
 10
19.17659772936031
 20
24.0755034241594
 10
19.17544570611389
 20
24.09739479304438
 10
19.17251292748381
 20
24.12134946863973
 10
19.1679165486136
 20
24.14760191796043
 10
19.16177372464676
 20
24.17638660802148
 10
19.15420161072681
 20
24.20793800583789
 10
19.14537593942333
 20
24.24245931603008
 10
19.13570675301002
 20
24.28002869364021
 10
19.12566267118664
 20
24.32069303131588
 10
19.11571231365293
 20
24.36449922170469
 10
19.10632430010867
 20
24.41149415745423
 10
19.0979672502536
 20
24.46172473121209
 10
19.09110978378748
 20
24.51523783562588
 10
19.08622052041005
 20
24.57208036334317
 10
19.08377198491482
 20
24.63224059057257
 10
19.08425232247018
 20
24.69547232776671
 10
19.0881535833383
 20
24.76147076893917
 10
19.09596781778133
 20
24.82993110810357
 10
19.10818707606139
 20
24.90054853927353
 10
19.12530340844068
 20
24.97301825646264
 10
19.14780886518131
 20
25.04703545368452
 10
19.17619549654544
 20
25.12229532495278
 10
19.21076790504162
 20
25.1984188164087
 10
19.25108090216395
 20
25.27472988270413
 10
19.2965018516529
 20
25.35047823061864
 10
19.34639811724899
 20
25.42491356693175
 10
19.40013706269268
 20
25.49728559842303
 10
19.45708605172448
 20
25.56684403187199
 10
19.51661244808489
 20
25.63283857405817
 10
19.57808361551439
 20
25.69451893176114
 10
19.64097235708147
 20
25.75129112278899
 10
19.7051732331667
 20
25.80318640906418
 10
19.77068624347861
 20
25.85039236353772
 10
19.83751138772579
 20
25.89309655916062
 10
19.90564866561676
 20
25.93148656888392
 10
19.97509807686012
 20
25.96574996565863
 10
20.04585962116439
 20
25.99607432243575
 10
20.11793329823813
 20
26.02264721216633
 10
20.19134644407751
 20
26.0456132223236
 10
20.26623573982899
 20
26.06494499846969
 10
20.34276520292669
 20
26.08057220068893
 10
20.42109885080467
 20
26.09242448906573
 10
20.50140070089703
 20
26.10043152368437
 10
20.58383477063783
 20
26.10452296462926
 10
20.66856507746117
 20
26.10462847198472
 10
20.70415590139828
 20
26.10051308519459
 10
20.79379500221653
 20
26.09241616678504
 10
20.88516799758512
 20
26.08000506200375
 10
20.97738451010361
 20
26.06309219789969
 10
21.06955416237166
 20
26.04149000152187
 10
21.16078657698885
 20
26.01501089991924
 10
21.25019137655479
 20
25.98346732014081
 10
21.33687818366913
 20
25.94667168923554
 10
21.41995662093142
 20
25.9044364342524
 10
21.49867299165066
 20
25.85680454098395
 10
21.57282032197308
 20
25.80474123019691
 10
21.6423283187543
 20
25.74944228140153
 10
21.7071266888499
 20
25.69210347410809
 10
21.76714513911548
 20
25.63392058782689
 10
21.82231337640667
 20
25.57608940206818
 10
21.87256110757904
 20
25.51980569634224
 10
21.91781803948819
 20
25.46626525015933
 10
21.95810369784566
 20
25.41644891532611
 10
21.99379688378671
 20
25.37047783283463
 10
22.02536621730253
 20
25.32825821597332
 10
22.05328031838433
 20
25.28969627803062
 10
22.07800780702332
 20
25.25469823229493
 10
22.10001730321066
 20
25.22317029205469
 10
22.11977742693758
 20
25.19501867059834
 10
22.13775679819527
 20
25.17014958121428
 10
22.15438889035415
 20
25.1484614215923
 10
22.16996659030154
 20
25.12982132702763
 10
22.18474763830399
 20
25.11408861721685
 10
22.19898977462807
 20
25.10112261185653
 10
22.2129507395403
 20
25.09078263064324
 10
22.22688827330726
 20
25.08292799327356
 10
22.2410601161955
 20
25.07741801944407
 10
22.25572400847153
 20
25.07411202885135
 10
22.27112597502361
 20
25.07294358922168
 10
22.28746517922653
 20
25.07414326040024
 10
22.30492906907679
 20
25.07801585026196
 10
22.32370509257085
 20
25.08486616668171
 10
22.3439806977052
 20
25.09499901753441
 10
22.36594333247631
 20
25.10871921069495
 10
22.38978044488067
 20
25.12633155403823
 10
22.41567948291476
 20
25.14814085543915
 10
22.44369511900802
 20
25.17427607235398
 10
22.47335092332182
 20
25.20416276056451
 10
22.50403769045048
 20
25.23705062543392
 10
22.53514621498832
 20
25.27218937232532
 10
22.56606729152971
 20
25.30882870660191
 10
22.59619171466892
 20
25.34621833362682
 10
22.62491027900033
 20
25.38360795876322
 10
22.65161377911824
 20
25.42024728737428
 10
22.67583240579819
 20
25.4554997648232
 10
22.69765393454042
 20
25.48918379647343
 10
22.71730553702644
 20
25.52123152768851
 10
22.73501438493769
 20
25.55157510383192
 10
22.75100764995564
 20
25.5801466702672
 10
22.76551250376176
 20
25.60687837235785
 10
22.7787561180375
 20
25.63170235546741
 10
22.79096566446434
 20
25.65455076495935
 10
22.80237170279754
 20
25.67537404263293
 10
22.81321834508755
 20
25.69419581603021
 10
22.82375309145863
 20
25.71105800912897
 10
22.83422344203501
 20
25.726002545907
 10
22.84487689694095
 20
25.73907135034207
 10
22.8559609563007
 20
25.75030634641195
 10
22.86772312023851
 20
25.75974945809445
 10
22.88041088887863
 20
25.76744260936733
 10
22.89420852945689
 20
25.77345877949634
 10
22.9090473776554
 20
25.77799516889913
 10
22.92479553626785
 20
25.78128003328128
 10
22.94132110808794
 20
25.78354162834841
 10
22.95849219590936
 20
25.78500820980611
 10
22.97617690252581
 20
25.78590803335999
 10
22.99424333073098
 20
25.78646935471565
 10
23.01255958331857
 20
25.78692042957868
 10
23.03104768562879
 20
25.78747851489377
 10
23.04984535318805
 20
25.7883168725618
 10
23.06914422406926
 20
25.78959776572277
 10
23.08913593634533
 20
25.79148345751665
 10
23.11001212808921
 20
25.79413621108344
 10
23.13196443737378
 20
25.79771828956309
 10
23.155184502272
 20
25.80239195609559
 10
23.17986396085677
 20
25.80831947382092
 10
23.20615759774414
 20
25.81566802308695
 10
23.23407278372262
 20
25.82462445307328
 10
23.26358003612386
 20
25.83538053016736
 10
23.29464987227952
 20
25.84812802075666
 10
23.32725280952122
 20
25.8630586912287
 10
23.36135936518064
 20
25.88036430797092
 10
23.39694005658937
 20
25.9002366373708
 10
23.4339654010791
 20
25.92286744581584
 10
23.47234695049902
 20
25.94833540690153
 10
23.51176039476861
 20
25.97626682305569
 10
23.55182245832493
 20
26.00617490391408
 10
23.592149865605
 20
26.03757285911253
 10
23.63235934104586
 20
26.06997389828687
 10
23.67206760908459
 20
26.10289123107289
 10
23.7108913941582
 20
26.13583806710641
 10
23.74844742070376
 20
26.16832761602324
 10
23.78444823214618
 20
26.19993946795624
 10
23.81898964786194
 20
26.23051873502652
 10
23.85226330621541
 20
26.25997690985219
 10
23.88446084557095
 20
26.28822548505139
 10
23.91577390429294
 20
26.31517595324226
 10
23.94639412074571
 20
26.34073980704295
 10
23.97651313329366
 20
26.36482853907156
 10
24.00632258030113
 20
26.38735364194628
 10
24.03600181542019
 20
26.40826102787504
 10
24.06568105345369
 20
26.42763428742526
 10
24.09547822449214
 20
26.44559143075419
 10
24.1255112586261
 20
26.46225046801902
 10
24.15589808594612
 20
26.47772940937703
 10
24.18675663654271
 20
26.49214626498544
 10
24.21820484050641
 20
26.50561904500147
 10
24.25036062792777
 20
26.51826575958239
 10
24.28326576545885
 20
26.53019704307353
 10
24.31665736599774
 20
26.54149402657277
 10
24.35019637900409
 20
26.55223046536609
 10
24.38354375393751
 20
26.56248011473947
 10
24.41636044025764
 20
26.57231672997891
 10
24.4483073874241
 20
26.5818140663704
 10
24.47904554489654
 20
26.59104587919991
 10
24.50823586213456
 20
26.60008592375343
 10
24.53559088319457
 20
26.6090325408844
 10
24.56102953051999
 20
26.61808241371608
 10
24.58452232115106
 20
26.62745681093922
 10
24.60603977212793
 20
26.63737700124452
 10
24.62555240049084
 20
26.64806425332272
 10
24.64303072327997
 20
26.65973983586454
 10
24.65844525753553
 20
26.67262501756069
 10
24.67176652029773
 20
26.6869410671019
 10
24.68300679579312
 20
26.70282320432231
 10
24.69234543699371
 20
26.72006245362965
 10
24.70000356405793
 20
26.73836379057512
 10
24.70620229714416
 20
26.75743219070986
 10
24.71116275641077
 20
26.77697262958503
 10
24.71510606201618
 20
26.79669008275181
 10
24.71825333411874
 20
26.81628952576135
 10
24.72082569287688
 20
26.83547593416481
 10
24.72302951716337
 20
26.85399116162848
 10
24.72501222070859
 20
26.87172457427914
 10
24.72690647595728
 20
26.88860241635866
 10
24.72884495535424
 20
26.90455093210891
 10
24.73096033134421
 20
26.91949636577181
 10
24.73338527637199
 20
26.93336496158923
 10
24.73625246288231
 20
26.94608296380306
 10
24.73969456331995
 20
26.95757661665517
 10
24.74383933625446
 20
26.96781641792103
 10
24.7487948847546
 20
26.9769498795103
 10
24.75466439801386
 20
26.98516876686618
 10
24.76155106522578
 20
26.99266484543191
 10
24.7695580755839
 20
26.99962988065072
 10
24.7787886182817
 20
27.00625563796581
 10
24.78934588251274
 20
27.01273388282043
 10
24.80133305747055
 20
27.01925638065779
 10
24.81484350479251
 20
27.02602964815144
 10
24.82993127589157
 20
27.03331920689612
 10
24.84664059462453
 20
27.04140532971695
 10
24.86501568484821
 20
27.05056828943901
 10
24.88510077041941
 20
27.06108835888736
 10
24.90694007519496
 20
27.07324581088711
 10
24.93057782303165
 20
27.08732091826335
 10
24.95605823778632
 20
27.10359395384116
 10
24.98333463839737
 20
27.12228372723519
 10
25.01199672412973
 20
27.14336319521824
 10
25.04154328932985
 20
27.16674385135275
 10
25.0714731283443
 20
27.19233718920108
 10
25.10128503551953
 20
27.22005470232563
 10
25.13047780520208
 20
27.24980788428879
 10
25.15855023173845
 20
27.28150822865297
 10
25.18500110947514
 20
27.31506722898053
 10
25.20942505155224
 20
27.35034966638162
 10
25.23179994628423
 20
27.38703347215729
 10
25.25219950077917
 20
27.42474986515632
 10
25.2706974221451
 20
27.46313006422754
 10
25.28736741749007
 20
27.50180528821971
 10
25.30228319392215
 20
27.54040675598165
 10
25.31551845854938
 20
27.57856568636215
 10
25.32714691847982
 20
27.61591329820999
 10
25.33725456514523
 20
27.65211768864646
 10
25.34597652727225
 20
27.68699446788285
 10
25.35346021791121
 20
27.72039612440294
 10
25.35985305011245
 20
27.75217514669048
 10
25.36530243692629
 20
27.78218402322926
 10
25.36995579140309
 20
27.81027524250305
 10
25.37396052659315
 20
27.83630129299561
 10
25.37746405554685
 20
27.86011466319072
 10
25.38061133449833
 20
27.88161209502703
 10
25.3835374924171
 20
27.90086734426264
 10
25.38637520145647
 20
27.91799842011054
 10
25.38925713376976
 20
27.93312333178371
 10
25.3923159615103
 20
27.94636008849514
 10
25.39568435683142
 20
27.95782669945778
 10
25.39949499188643
 20
27.96764117388465
 10
25.40388053882866
 20
27.97592152098872
 10
25.40896384225531
 20
27.98279804284539
 10
25.41482843653912
 20
27.9884502129797
 10
25.42154802849669
 20
27.99306979777915
 10
25.42919632494463
 20
27.99684856363121
 10
25.43784703269957
 20
27.99997827692337
 10
25.4475738585781
 20
28.00265070404309
 10
25.45845050939684
 20
28.00505761137787
 10
25.47055069197241
 20
28.00739076531515
 10
25.48389897529222
 20
28.00982472225081
 10
25.49832337702709
 20
28.01246519861407
 10
25.51360277701861
 20
28.01540070084256
 10
25.5295160551084
 20
28.01871973537386
 10
25.54584209113804
 20
28.02251080864561
 10
25.56235976494917
 20
28.0268624270954
 10
25.57884795638338
 20
28.03186309716084
 10
25.5950855452823
 20
28.03760132527955
 10
25.61086860973501
 20
28.04413611574327
 10
25.62606202082059
 20
28.05140846426025
 10
25.64054784786565
 20
28.05932986439288
 10
25.65420816019673
 20
28.06781180970355
 10
25.66692502714043
 20
28.07676579375467
 10
25.67858051802331
 20
28.08610331010861
 10
25.68905670217195
 20
28.09573585232777
 10
25.69823564891293
 20
28.10557491397453
 10
25.70606822046566
 20
28.11553690542579
 10
25.71278045062087
 20
28.1255579043163
 10
25.71866716606211
 20
28.13557890509531
 10
25.72402319347295
 20
28.1455409022121
 10
25.72914335953694
 20
28.15538489011589
 10
25.73432249093763
 20
28.16505186325596
 10
25.7398554143586
 20
28.17448281608156
 10
25.7460369564834
 20
28.18361874304195
 10
25.75311034930168
 20
28.19240063874373
 10
25.76111244602744
 20
28.20076949842306
 10
25.77002850518081
 20
28.20866631747346
 10
25.77984378528186
 20
28.21603209128841
 10
25.79054354485071
 20
28.22280781526144
 10
25.80211304240743
 20
28.22893448478602
 10
25.81453753647216
 20
28.23435309525573
 10
25.82780228556499
 20
28.23900464206401
 10
25.84193431544095
 20
28.24293829610974
 10
25.85712772079482
 20
28.24663593031313
 10
25.87361836355635
 20
28.25068759309973
 10
25.89164210565528
 20
28.25568333289505
 10
25.91143480902135
 20
28.26221319812469
 10
25.93323233558426
 20
28.27086723721415
 10
25.95727054727376
 20
28.282235498589
 10
25.98378530601961
 20
28.29690803067479
 10
26.01285523261075
 20
28.31532491130474
 10
26.04392998327307
 20
28.33732633594284
 10
26.0763019730917
 20
28.36260252946075
 10
26.1092636171518
 20
28.39084371673014
 10
26.14210733053846
 20
28.42174012262268
 10
26.17412552833683
 20
28.45498197201004
 10
26.20461062563203
 20
28.49025948976389
 10
26.23285503750919
 20
28.52726290075588
 10
26.2583022779838
 20
28.56570209805987
 10
26.28100025679263
 20
28.60536564755833
 10
26.30114798260285
 20
28.6460617833359
 10
26.31894446408162
 20
28.68759873947724
 10
26.33458870989608
 20
28.729784750067
 10
26.34827972871337
 20
28.77242804918984
 10
26.36021652920066
 20
28.81533687093039
 10
26.37059812002508
 20
28.85831944937331
 10
26.37961122504434
 20
28.90133644779952
 10
26.38739342887831
 20
28.94495824627504
 10
26.39407003133746
 20
28.98990765406212
 10
26.39976633223219
 20
29.03690748042306
 10
26.40460763137296
 20
29.08668053462012
 10
26.4087192285702
 20
29.13994962591561
 10
26.40980144342945
 20
29.15768867356534
  0
DIMENSION
  5
8F0D
330
18
100
AcDbEntity
  8
DIM
100
AcDbDimension
  2
*D1
 10
8.568941661666002
 20
29.15786063068285
 30
0.0
 11
8.568941661665997
 21
20.03286199438802
 31
0.0
 70
    32
 71
     5
 42
18.24999727258966
  3
STANDARD
100
AcDbAlignedDimension
 13
13.1430369702874
 23
10.90786335809318
 33
0.0
 14
13.1430369702874
 24
29.15786063068285
 34
0.0
 50
90.0
100
AcDbRotatedDimension
  0
LINE
  5
8F1B
330
18
100
AcDbEntity
  8
0
100
AcDbLine
 10
30.35206734639352
 20
29.15785329420586
 30
0.0
 11
31.72706734639353
 21
29.15785329420586
 31
0.0
  0
LINE
  5
8F1C
330
18
100
AcDbEntity
  8
0
100
AcDbLine
 10
31.72706734639353
 20
29.15785329420586
 30
0.0
 11
31.72706734639353
 21
10.90785329420586
 31
0.0
  0
LINE
  5
8F1D
330
18
100
AcDbEntity
  8
0
100
AcDbLine
 10
31.72706734639353
 20
10.90785329420586
 30
0.0
 11
30.35206734639352
 21
10.90785329420586
 31
0.0
  0
LINE
  5
8F1E
330
18
100
AcDbEntity
  8
0
100
AcDbLine
 10
30.35206734639352
 20
10.90785329420586
 30
0.0
 11
30.35206734639352
 21
29.15785329420586
 31
0.0
  0
DIMENSION
  5
8F1F
330
18
100
AcDbEntity
  8
DIM
100
AcDbDimension
  2
*D2
 10
31.72706734639353
 20
31.93336938810633
 30
0.0
 11
32.66373401306019
 21
31.93336938810633
 31
0.0
 70
    32
 71
     5
 42
1.375
  3
STANDARD
100
AcDbAlignedDimension
 13
30.35206734639352
 23
20.03285329420586
 33
0.0
 14
31.72706734639353
 24
20.03285329420586
 34
0.0
100
AcDbRotatedDimension
  0
DIMENSION
  5
8F2D
330
18
100
AcDbEntity
  8
DIM
100
AcDbDimension
  2
*D3
 10
13.15460797784412
 20
31.73069723622901
 30
0.0
 11
19.78220471063679
 21
31.73069723622901
 31
0.0
 70
    32
 71
     5
 42
13.25519346558533
  3
STANDARD
100
AcDbAlignedDimension
 13
26.40980144342945
 23
29.15768867356535
 33
0.0
 14
13.15460797784412
 24
29.15768867356535
 34
0.0
100
AcDbRotatedDimension
  0
ENDSEC
  0
SECTION
  2
OBJECTS
  0
DICTIONARY
  5
C
330
0
100
AcDbDictionary
281
     1
  3
ACAD_COLOR
350
8E64
  3
ACAD_GROUP
350
D
  3
ACAD_IMAGE_DICT
350
21
  3
ACAD_IMAGE_VARS
350
20
  3
ACAD_LAYOUT
350
8E65
  3
ACAD_MATERIAL
350
8E63
  3
ACAD_MLINESTYLE
350
1B
  3
ACAD_PLOTSETTINGS
350
8E66
  3
ACAD_PLOTSTYLENAME
350
8E61
  0
DICTIONARY
  5
8E64
102
{ACAD_REACTORS
330
C
102
}
330
C
100
AcDbDictionary
281
     1
  0
DICTIONARY
  5
D
102
{ACAD_REACTORS
330
C
102
}
330
C
100
AcDbDictionary
281
     1
  0
DICTIONARY
  5
21
102
{ACAD_REACTORS
330
C
102
}
330
C
100
AcDbDictionary
281
     1
  3
3311-1
350
7200
  3
3311-2
350
7203
  3
3311-3
350
7206
  0
RASTERVARIABLES
  5
20
102
{ACAD_REACTORS
330
C
102
}
330
C
100
AcDbRasterVariables
 90
        0
 70
     1
 71
     1
 72
     0
  0
DICTIONARY
  5
8E65
102
{ACAD_REACTORS
330
C
102
}
330
C
100
AcDbDictionary
281
     1
  3
Layout1
350
8E68
  3
Model
350
8E67
  0
DICTIONARY
  5
8E63
102
{ACAD_REACTORS
330
C
102
}
330
C
100
AcDbDictionary
281
     1
  0
DICTIONARY
  5
1B
102
{ACAD_REACTORS
330
C
102
}
330
C
100
AcDbDictionary
281
     1
  3
STANDARD
350
1C
  0
DICTIONARY
  5
8E66
102
{ACAD_REACTORS
330
C
102
}
330
C
100
AcDbDictionary
281
     1
  0
ACDBDICTIONARYWDFLT
  5
8E61
102
{ACAD_REACTORS
330
C
102
}
330
C
100
AcDbDictionary
281
     1
  3
Normal
350
8E62
100
AcDbDictionaryWithDefault
340
8E62
  0
IMAGEDEF
  5
7200
102
{ACAD_REACTORS
330
21
102
}
330
21
100
AcDbRasterImageDef
 90
        0
  1
U:\TPDWG\MichelQ\3311-1.tif
 10
2555.0
 20
3706.0
 11
0.0705555555555556
 21
0.0705555555555556
280
     1
281
     5
  0
IMAGEDEF
  5
7203
102
{ACAD_REACTORS
330
21
102
}
330
21
100
AcDbRasterImageDef
 90
        0
  1
U:\TPDWG\MichelQ\3311-2.tif
 10
2555.0
 20
3706.0
 11
0.0705555555555556
 21
0.0705555555555556
280
     1
281
     5
  0
IMAGEDEF
  5
7206
102
{ACAD_REACTORS
330
21
102
}
330
21
100
AcDbRasterImageDef
 90
        0
  1
U:\TPDWG\MichelQ\3311-3.tif
 10
2555.0
 20
3706.0
 11
0.0705555555555556
 21
0.0705555555555556
280
     1
281
     5
  0
LAYOUT
  5
8E68
102
{ACAD_REACTORS
330
8E65
102
}
330
8E65
100
AcDbPlotSettings
  1

  2
None
  4

  6

 40
0.0
 41
0.0
 42
0.0
 43
0.0
 44
0.0
 45
0.0
 46
0.0
 47
0.0
 48
0.0
 49
0.0
140
0.0
141
0.0
142
1.0
143
1.0
 70
   688
 72
     0
 73
     0
 74
     5
  7

 75
    16
147
1.0
 76
     0
 77
     2
 78
   300
148
0.0
149
0.0
100
AcDbLayout
  1
Layout1
 70
     1
 71
     1
 10
0.0
 20
0.0
 11
12.0
 21
9.0
 12
0.0
 22
0.0
 32
0.0
 14
1.000000000000000E+20
 24
1.000000000000000E+20
 34
1.000000000000000E+20
 15
-1.000000000000000E+20
 25
-1.000000000000000E+20
 35
-1.000000000000000E+20
146
0.0
 13
0.0
 23
0.0
 33
0.0
 16
1.0
 26
0.0
 36
0.0
 17
0.0
 27
1.0
 37
0.0
 76
     0
330
15
  0
LAYOUT
  5
8E67
102
{ACAD_REACTORS
330
8E65
102
}
330
8E65
100
AcDbPlotSettings
  1

  2
None
  4

  6

 40
0.0
 41
0.0
 42
0.0
 43
0.0
 44
0.0
 45
0.0
 46
0.0
 47
0.0
 48
0.0
 49
0.0
140
0.0
141
0.0
142
1.0
143
1.0
 70
  1712
 72
     0
 73
     0
 74
     0
  7

 75
     0
147
1.0
 76
     0
 77
     2
 78
   300
148
0.0
149
0.0
100
AcDbLayout
  1
Model
 70
     1
 71
     0
 10
0.0
 20
0.0
 11
12.0
 21
9.0
 12
0.0
 22
0.0
 32
0.0
 14
0.0
 24
0.0
 34
0.0
 15
0.0
 25
0.0
 35
0.0
146
0.0
 13
0.0
 23
0.0
 33
0.0
 16
1.0
 26
0.0
 36
0.0
 17
0.0
 27
1.0
 37
0.0
 76
     0
330
18
  0
MLINESTYLE
  5
1C
102
{ACAD_REACTORS
330
1B
102
}
330
1B
100
AcDbMlineStyle
  2
STANDARD
 70
     0
  3

 62
   256
 51
90.0
 52
90.0
 71
     2
 49
0.5
 62
   256
  6
BYLAYER
 49
-0.5
 62
   256
  6
BYLAYER
  0
ACDBPLACEHOLDER
  5
8E62
102
{ACAD_REACTORS
330
8E61
102
}
330
8E61
  0
ENDSEC
  0
EOF
