  0
SECTION
  2
HEADER
  9
$ACADVER
  1
AC1018
  9
$ACADMAINTVER
 70
     0
  9
$DWGCODEPAGE
  3
ANSI_1252
  9
$INSBASE
 10
0.0
 20
0.0
 30
0.0
  9
$EXTMIN
 10
1.409606938278759
 20
11.09585311962908
 30
0.0
  9
$EXTMAX
 10
25.16249256993741
 20
40.98046377968458
 30
0.0
  9
$LIMMIN
 10
0.0
 20
0.0
  9
$LIMMAX
 10
12.0
 20
9.0
  9
$ORTHOMODE
 70
     0
  9
$REGENMODE
 70
     1
  9
$FILLMODE
 70
     1
  9
$QTEXTMODE
 70
     0
  9
$MIRRTEXT
 70
     1
  9
$LTSCALE
 40
1.0
  9
$ATTMODE
 70
     1
  9
$TEXTSIZE
 40
0.2
  9
$TRACEWID
 40
0.05
  9
$TEXTSTYLE
  7
STANDARD
  9
$CLAYER
  8
0
  9
$CELTYPE
  6
BYLAYER
  9
$CECOLOR
 62
   256
  9
$CELTSCALE
 40
1.0
  9
$DISPSILH
 70
     0
  9
$DIMSCALE
 40
1.0
  9
$DIMASZ
 40
0.18
  9
$DIMEXO
 40
0.0625
  9
$DIMDLI
 40
0.38
  9
$DIMRND
 40
0.0
  9
$DIMDLE
 40
0.0
  9
$DIMEXE
 40
0.18
  9
$DIMTP
 40
0.0
  9
$DIMTM
 40
0.0
  9
$DIMTXT
 40
1.0
  9
$DIMCEN
 40
0.09
  9
$DIMTSZ
 40
0.0
  9
$DIMTOL
 70
     0
  9
$DIMLIM
 70
     0
  9
$DIMTIH
 70
     1
  9
$DIMTOH
 70
     1
  9
$DIMSE1
 70
     0
  9
$DIMSE2
 70
     0
  9
$DIMTAD
 70
     0
  9
$DIMZIN
 70
     0
  9
$DIMBLK
  1

  9
$DIMASO
 70
     1
  9
$DIMSHO
 70
     1
  9
$DIMPOST
  1

  9
$DIMAPOST
  1

  9
$DIMALT
 70
     0
  9
$DIMALTD
 70
     2
  9
$DIMALTF
 40
25.4
  9
$DIMLFAC
 40
1.0
  9
$DIMTOFL
 70
     0
  9
$DIMTVP
 40
0.0
  9
$DIMTIX
 70
     0
  9
$DIMSOXD
 70
     0
  9
$DIMSAH
 70
     0
  9
$DIMBLK1
  1

  9
$DIMBLK2
  1

  9
$DIMSTYLE
  2
STANDARD
  9
$DIMCLRD
 70
     0
  9
$DIMCLRE
 70
     0
  9
$DIMCLRT
 70
     0
  9
$DIMTFAC
 40
1.0
  9
$DIMGAP
 40
0.09
  9
$DIMJUST
 70
     0
  9
$DIMSD1
 70
     0
  9
$DIMSD2
 70
     0
  9
$DIMTOLJ
 70
     1
  9
$DIMTZIN
 70
     0
  9
$DIMALTZ
 70
     0
  9
$DIMALTTZ
 70
     0
  9
$DIMUPT
 70
     0
  9
$DIMDEC
 70
     4
  9
$DIMTDEC
 70
     4
  9
$DIMALTU
 70
     2
  9
$DIMALTTD
 70
     2
  9
$DIMTXSTY
  7
STANDARD
  9
$DIMAUNIT
 70
     0
  9
$DIMADEC
 70
     0
  9
$DIMALTRND
 40
0.0
  9
$DIMAZIN
 70
     0
  9
$DIMDSEP
 70
    46
  9
$DIMATFIT
 70
     3
  9
$DIMFRAC
 70
     0
  9
$DIMLDRBLK
  1

  9
$DIMLUNIT
 70
     5
  9
$DIMLWD
 70
    -2
  9
$DIMLWE
 70
    -2
  9
$DIMTMOVE
 70
     0
  9
$LUNITS
 70
     4
  9
$LUPREC
 70
     4
  9
$SKETCHINC
 40
0.1
  9
$FILLETRAD
 40
0.0
  9
$AUNITS
 70
     0
  9
$AUPREC
 70
     0
  9
$MENU
  1
.
  9
$ELEVATION
 40
0.0
  9
$PELEVATION
 40
0.0
  9
$THICKNESS
 40
0.0
  9
$LIMCHECK
 70
     0
  9
$CHAMFERA
 40
0.5
  9
$CHAMFERB
 40
0.5
  9
$CHAMFERC
 40
1.0
  9
$CHAMFERD
 40
0.0
  9
$SKPOLY
 70
     0
  9
$TDCREATE
 40
2451160.318790972
  9
$TDUCREATE
 40
2451160.485457639
  9
$TDUPDATE
 40
2453488.684908750
  9
$TDUUPDATE
 40
2453488.851575417
  9
$TDINDWG
 40
0.2469939699
  9
$TDUSRTIMER
 40
0.2469939699
  9
$USRTIMER
 70
     1
  9
$ANGBASE
 50
0.0
  9
$ANGDIR
 70
     0
  9
$PDMODE
 70
     3
  9
$PDSIZE
 40
1.0
  9
$PLINEWID
 40
0.0
  9
$SPLFRAME
 70
     0
  9
$SPLINETYPE
 70
     6
  9
$SPLINESEGS
 70
     8
  9
$HANDSEED
  5
C003
  9
$SURFTAB1
 70
     6
  9
$SURFTAB2
 70
     6
  9
$SURFTYPE
 70
     6
  9
$SURFU
 70
     6
  9
$SURFV
 70
     6
  9
$UCSBASE
  2

  9
$UCSNAME
  2

  9
$UCSORG
 10
0.0
 20
0.0
 30
0.0
  9
$UCSXDIR
 10
1.0
 20
0.0
 30
0.0
  9
$UCSYDIR
 10
0.0
 20
1.0
 30
0.0
  9
$UCSORTHOREF
  2

  9
$UCSORTHOVIEW
 70
     0
  9
$UCSORGTOP
 10
0.0
 20
0.0
 30
0.0
  9
$UCSORGBOTTOM
 10
0.0
 20
0.0
 30
0.0
  9
$UCSORGLEFT
 10
0.0
 20
0.0
 30
0.0
  9
$UCSORGRIGHT
 10
0.0
 20
0.0
 30
0.0
  9
$UCSORGFRONT
 10
0.0
 20
0.0
 30
0.0
  9
$UCSORGBACK
 10
0.0
 20
0.0
 30
0.0
  9
$PUCSBASE
  2

  9
$PUCSNAME
  2

  9
$PUCSORG
 10
0.0
 20
0.0
 30
0.0
  9
$PUCSXDIR
 10
1.0
 20
0.0
 30
0.0
  9
$PUCSYDIR
 10
0.0
 20
1.0
 30
0.0
  9
$PUCSORTHOREF
  2

  9
$PUCSORTHOVIEW
 70
     0
  9
$PUCSORGTOP
 10
0.0
 20
0.0
 30
0.0
  9
$PUCSORGBOTTOM
 10
0.0
 20
0.0
 30
0.0
  9
$PUCSORGLEFT
 10
0.0
 20
0.0
 30
0.0
  9
$PUCSORGRIGHT
 10
0.0
 20
0.0
 30
0.0
  9
$PUCSORGFRONT
 10
0.0
 20
0.0
 30
0.0
  9
$PUCSORGBACK
 10
0.0
 20
0.0
 30
0.0
  9
$USERI1
 70
     0
  9
$USERI2
 70
     0
  9
$USERI3
 70
     0
  9
$USERI4
 70
     0
  9
$USERI5
 70
     0
  9
$USERR1
 40
0.0
  9
$USERR2
 40
0.0
  9
$USERR3
 40
0.0
  9
$USERR4
 40
0.0
  9
$USERR5
 40
0.0
  9
$WORLDVIEW
 70
     1
  9
$SHADEDGE
 70
     3
  9
$SHADEDIF
 70
    70
  9
$TILEMODE
 70
     1
  9
$MAXACTVP
 70
    48
  9
$PINSBASE
 10
0.0
 20
0.0
 30
0.0
  9
$PLIMCHECK
 70
     0
  9
$PEXTMIN
 10
1.049999952316284
 20
0.7999999523162842
 30
0.0
  9
$PEXTMAX
 10
9.449999570846555
 20
7.199999570846556
 30
0.0
  9
$PLIMMIN
 10
-0.2500002402958907
 20
-0.2499999962453767
  9
$PLIMMAX
 10
10.74999951940821
 20
8.249999763458731
  9
$UNITMODE
 70
     0
  9
$VISRETAIN
 70
     1
  9
$PLINEGEN
 70
     0
  9
$PSLTSCALE
 70
     1
  9
$TREEDEPTH
 70
  3020
  9
$CMLSTYLE
  2
STANDARD
  9
$CMLJUST
 70
     0
  9
$CMLSCALE
 40
1.0
  9
$PROXYGRAPHICS
 70
     1
  9
$MEASUREMENT
 70
     0
  9
$CELWEIGHT
370
    -1
  9
$ENDCAPS
280
     0
  9
$JOINSTYLE
280
     0
  9
$LWDISPLAY
290
     0
  9
$INSUNITS
 70
     0
  9
$HYPERLINKBASE
  1

  9
$STYLESHEET
  1

  9
$XEDIT
290
     1
  9
$CEPSNTYPE
380
     0
  9
$PSTYLEMODE
290
     1
  9
$FINGERPRINTGUID
  2
{A9BC0D13-FC2A-4367-9D27-8575432CD22F}
  9
$VERSIONGUID
  2
{C9472827-500B-4162-B0F8-352686BE71FD}
  9
$EXTNAMES
290
     1
  9
$PSVPSCALE
 40
0.0
  9
$OLESTARTUP
290
     0
  9
$SORTENTS
280
   127
  9
$INDEXCTL
280
     0
  9
$HIDETEXT
280
     0
  9
$XCLIPFRAME
290
     0
  9
$HALOGAP
280
     0
  9
$OBSCOLOR
 70
   257
  9
$OBSLTYPE
280
     0
  9
$INTERSECTIONDISPLAY
280
     0
  9
$INTERSECTIONCOLOR
 70
   257
  9
$DIMASSOC
280
     1
  9
$PROJECTNAME
  1

  0
ENDSEC
  0
SECTION
  2
CLASSES
  0
CLASS
  1
RASTERVARIABLES
  2
AcDbRasterVariables
  3
ISM
 90
        0
 91
        1
280
     0
281
     0
  0
CLASS
  1
IMAGEDEF
  2
AcDbRasterImageDef
  3
ISM
 90
        0
 91
        2
280
     0
281
     0
  0
CLASS
  1
IMAGEDEF_REACTOR
  2
AcDbRasterImageDefReactor
  3
ISM
 90
        1
 91
        0
280
     0
281
     0
  0
CLASS
  1
IMAGE
  2
AcDbRasterImage
  3
ISM
 90
      127
 91
        0
280
     0
281
     1
  0
CLASS
  1
ACDBDICTIONARYWDFLT
  2
AcDbDictionaryWithDefault
  3
ObjectDBX Classes
 90
        0
 91
        1
280
     0
281
     0
  0
ENDSEC
  0
SECTION
  2
TABLES
  0
TABLE
  2
VPORT
  5
8
330
0
100
AcDbSymbolTable
 70
     2
  0
VPORT
  5
C002
330
8
100
AcDbSymbolTableRecord
100
AcDbViewportTableRecord
  2
*Active
 70
     0
 10
0.0
 20
0.0
 11
1.0
 21
1.0
 12
16.5044922120178
 22
24.99874882405882
 13
0.0
 23
0.0
 14
0.5
 24
0.5
 15
0.5
 25
0.5
 16
0.0
 26
0.0
 36
1.0
 17
0.0
 27
0.0
 37
0.0
 40
37.56344198826873
 41
1.977142857142856
 42
50.0
 43
0.0
 44
0.0
 50
0.0
 51
0.0
 71
     0
 72
   100
 73
     1
 74
     1
 75
     0
 76
     0
 77
     0
 78
     0
281
     0
 65
     1
110
0.0
120
0.0
130
0.0
111
1.0
121
0.0
131
0.0
112
0.0
122
1.0
132
0.0
 79
     0
146
0.0
  0
ENDTAB
  0
TABLE
  2
LTYPE
  5
5
330
0
100
AcDbSymbolTable
 70
     1
  0
LTYPE
  5
12
330
5
100
AcDbSymbolTableRecord
100
AcDbLinetypeTableRecord
  2
BYBLOCK
 70
     0
  3

 72
    65
 73
     0
 40
0.0
  0
LTYPE
  5
13
330
5
100
AcDbSymbolTableRecord
100
AcDbLinetypeTableRecord
  2
BYLAYER
 70
     0
  3

 72
    65
 73
     0
 40
0.0
  0
LTYPE
  5
14
330
5
100
AcDbSymbolTableRecord
100
AcDbLinetypeTableRecord
  2
CONTINUOUS
 70
     0
  3
Solid line
 72
    65
 73
     0
 40
0.0
  0
ENDTAB
  0
TABLE
  2
LAYER
  5
2
330
0
100
AcDbSymbolTable
 70
     3
  0
LAYER
  5
E
330
2
100
AcDbSymbolTableRecord
100
AcDbLayerTableRecord
  2
0
 70
     0
 62
     7
  6
CONTINUOUS
370
    -3
390
B09E
  0
LAYER
  5
B0A8
330
2
100
AcDbSymbolTableRecord
100
AcDbLayerTableRecord
  2
Defpoints
 70
     0
 62
     7
  6
CONTINUOUS
290
     0
370
    -3
390
B09E
  0
LAYER
  5
BFBD
330
2
100
AcDbSymbolTableRecord
100
AcDbLayerTableRecord
  2
DIM
 70
     0
 62
    -3
  6
CONTINUOUS
370
    -3
390
B09E
  0
ENDTAB
  0
TABLE
  2
STYLE
  5
3
330
0
100
AcDbSymbolTable
 70
     1
  0
STYLE
  5
F
330
3
100
AcDbSymbolTableRecord
100
AcDbTextStyleTableRecord
  2
STANDARD
 70
     0
 40
0.0
 41
1.0
 50
0.0
 71
     0
 42
0.2
  3
txt
  4

  0
ENDTAB
  0
TABLE
  2
VIEW
  5
6
330
0
100
AcDbSymbolTable
 70
     0
  0
ENDTAB
  0
TABLE
  2
UCS
  5
7
330
0
100
AcDbSymbolTable
 70
     0
  0
ENDTAB
  0
TABLE
  2
APPID
  5
9
330
0
100
AcDbSymbolTable
 70
     1
  0
APPID
  5
10
330
9
100
AcDbSymbolTableRecord
100
AcDbRegAppTableRecord
  2
ACAD
 70
     0
  0
ENDTAB
  0
TABLE
  2
DIMSTYLE
  5
A
330
0
100
AcDbSymbolTable
 70
     1
100
AcDbDimStyleTable
 71
     1
340
1D
  0
DIMSTYLE
105
1D
102
{ACAD_REACTORS
330
BA04
330
BA05
330
BA0A
102
}
330
A
100
AcDbSymbolTableRecord
100
AcDbDimStyleTableRecord
  2
STANDARD
 70
     0
140
1.0
277
     5
340
F
  0
ENDTAB
  0
TABLE
  2
BLOCK_RECORD
  5
1
330
0
100
AcDbSymbolTable
 70
     5
  0
BLOCK_RECORD
  5
18
330
1
100
AcDbSymbolTableRecord
100
AcDbBlockTableRecord
  2
*MODEL_SPACE
340
B0A3
  0
BLOCK_RECORD
  5
15
330
1
100
AcDbSymbolTableRecord
100
AcDbBlockTableRecord
  2
*PAPER_SPACE
340
B0A4
  0
BLOCK_RECORD
  5
ADBE
330
1
100
AcDbSymbolTableRecord
100
AcDbBlockTableRecord
  2
3315_E
340
0
  0
BLOCK_RECORD
  5
B086
330
1
100
AcDbSymbolTableRecord
100
AcDbBlockTableRecord
  2
3315_C
340
0
  0
BLOCK_RECORD
  5
BF6E
330
1
100
AcDbSymbolTableRecord
100
AcDbBlockTableRecord
  2
*D2
340
0
  0
BLOCK_RECORD
  5
BF7B
330
1
100
AcDbSymbolTableRecord
100
AcDbBlockTableRecord
  2
*D3
340
0
  0
BLOCK_RECORD
  5
BF88
330
1
100
AcDbSymbolTableRecord
100
AcDbBlockTableRecord
  2
*D4
340
0
  0
ENDTAB
  0
ENDSEC
  0
SECTION
  2
BLOCKS
  0
BLOCK
  5
19
330
18
100
AcDbEntity
  8
0
100
AcDbBlockBegin
  2
*MODEL_SPACE
 70
     0
 10
0.0
 20
0.0
 30
0.0
  3
*MODEL_SPACE
  1

  0
ENDBLK
  5
1A
330
18
100
AcDbEntity
  8
0
100
AcDbBlockEnd
  0
BLOCK
  5
16
330
15
100
AcDbEntity
 67
     1
  8
0
100
AcDbBlockBegin
  2
*PAPER_SPACE
 70
     0
 10
0.0
 20
0.0
 30
0.0
  3
*PAPER_SPACE
  1

  0
ENDBLK
  5
17
330
15
100
AcDbEntity
 67
     1
  8
0
100
AcDbBlockEnd
  0
BLOCK
  5
ADBF
330
ADBE
100
AcDbEntity
  8
0
100
AcDbBlockBegin
  2
3315_E
 70
     0
 10
0.0
 20
0.0
 30
0.0
  3
3315_E
  1

  0
LINE
  5
ADC0
330
ADBE
100
AcDbEntity
  8
0
100
AcDbLine
 10
0.0
 20
0.0
 30
0.0
 11
0.0
 21
-15.40652481028379
 31
0.0
  0
LWPOLYLINE
  5
ADC1
330
ADBE
100
AcDbEntity
  8
0
100
AcDbPolyline
 90
      459
 70
     0
 43
0.0
 10
0.0
 20
-15.40652481028379
 10
0.0819462986120883
 20
-15.39171563853522
 10
0.1576286004948457
 20
-15.37093631368398
 10
0.2295731637006284
 20
-15.34456112189481
 10
0.2974230110417792
 20
-15.31348540185814
 10
0.3608211653306697
 20
-15.27860449226441
 10
0.4194106493796426
 20
-15.24081373180401
 10
0.4728344860010552
 20
-15.20100845916739
 10
0.520735698007286
 20
-15.16008401304497
 10
0.5629089649431194
 20
-15.11878184573261
 10
0.5997555932833052
 20
-15.07722786394801
 10
0.6318285462350346
 20
-15.03539408801435
 10
0.6596807870055131
 20
-14.99325253825477
 10
0.6838652788019317
 20
-14.95077523499244
 10
0.7049349848315032
 20
-14.90793419855051
 10
0.7234428683014116
 20
-14.86470144925216
 10
0.7399418924188624
 20
-14.82104900742052
 10
0.7548975261019209
 20
-14.77676003302935
 10
0.7684252611121068
 20
-14.73086224465482
 10
0.7805530949218067
 20
-14.68219450052367
 10
0.7913090250034216
 20
-14.62959565886263
 10
0.8007210488293168
 20
-14.57190457789846
 10
0.8088171638719003
 20
-14.50796011585789
 10
0.8156253676035518
 20
-14.43660113096769
 10
0.8211736574966508
 20
-14.35666648145459
 10
0.8255250287038933
 20
-14.26759424944073
 10
0.8288824670991274
 20
-14.17121941262975
 10
0.8314839562365037
 20
-14.06997617262069
 10
0.8335674796701724
 20
-13.9662987310126
 10
0.8353710209542839
 20
-13.86262128940451
 10
0.8371325636429887
 20
-13.76137804939545
 10
0.8390900912904371
 20
-13.66500321258447
 10
0.8414815874507723
 20
-13.5759309805706
 10
0.8445077050077642
 20
-13.49597767815789
 10
0.8482197741635886
 20
-13.42448812297037
 10
0.8526317944500689
 20
-13.36018925583711
 10
0.8577577653990005
 20
-13.30180801758716
 10
0.8636116865421783
 20
-13.24807134904956
 10
0.8702075574114189
 20
-13.19770619105338
 10
0.8775593775385104
 20
-13.14943948442767
 10
0.885681146455262
 20
-13.10199817000147
 10
0.8946451928659655
 20
-13.05435867087699
 10
0.9047571621648486
 20
-13.00649533924906
 10
0.9163810289186358
 20
-12.95863200958564
 10
0.9298807676940512
 20
-12.91099251635469
 10
0.9456203530578051
 20
-12.86380069402419
 10
0.9639637595766217
 20
-12.8172803770621
 10
0.9852749618172254
 20
-12.7716553999364
 10
1.009917934346333
 20
-12.72714959711506
 10
1.038146992709584
 20
-12.68399146631822
 10
1.069777816368329
 20
-12.64242815827482
 10
1.104516425762838
 20
-12.60271148696594
 10
1.14206884133334
 20
-12.56509326637269
 10
1.182141083520136
 20
-12.52982531047618
 10
1.224439172763467
 20
-12.49715943325749
 10
1.268669129503592
 20
-12.46734744869774
 10
1.314536974180796
 20
-12.44064117077802
 10
1.361676398796248
 20
-12.41720148063474
 10
1.409431781594776
 20
-12.39682552802551
 10
1.457075172382133
 20
-12.37921952986323
 10
1.503878620964059
 20
-12.36408970306082
 10
1.549114177146307
 20
-12.35114226453118
 10
1.592053890734618
 20
-12.34008343118722
 10
1.631969811534759
 20
-12.33061941994184
 10
1.668133989352455
 20
-12.32245644770796
 10
1.699995795296644
 20
-12.31528441015226
 10
1.727713885688871
 20
-12.30872791795645
 10
1.75162423815388
 20
-12.30239526055603
 10
1.772062830316428
 20
-12.29589472738649
 10
1.789365639801246
 20
-12.28883460788331
 10
1.803868644233062
 20
-12.28082319148199
 10
1.815907821236635
 20
-12.27146876761803
 10
1.825819148436679
 20
-12.26037962572689
 10
1.833914225475027
 20
-12.24681911062434
 10
1.840407140061813
 20
-12.22867078864712
 10
1.845487601924261
 20
-12.20347328151221
 10
1.849345320789609
 20
-12.1687652109366
 10
1.852170006385051
 20
-12.12208519863732
 10
1.85415136843784
 20
-12.06097186633132
 10
1.855479116675155
 20
-11.98296383573562
 10
1.856342960824264
 20
-11.88559972856721
 10
1.856907750667332
 20
-11.76776950985209
 10
1.857238896206453
 20
-11.63376851785237
 10
1.857376947498664
 20
-11.48924343413913
 10
1.857362454601016
 20
-11.33984094028352
 10
1.857235967570588
 20
-11.19120771785661
 10
1.857038036464416
 20
-11.04899044842952
 10
1.856809211339538
 20
-10.91883581357337
 10
1.856590042253031
 20
-10.80639049485926
 10
1.856428695359426
 20
-10.71589196900561
 10
1.856403801203214
 20
-10.64594089332012
 10
1.856601606426409
 20
-10.59372872025781
 10
1.857108357670995
 20
-10.55644690227368
 10
1.858010301578957
 20
-10.53128689182275
 10
1.859393684792294
 20
-10.51544014136003
 10
1.861344753953005
 20
-10.50609810334052
 10
1.863949755703075
 20
-10.50045223021926
 10
1.867413177583699
 20
-10.49614665572162
 10
1.872412470732882
 20
-10.49263623865455
 10
1.879743327187867
 20
-10.48982851909534
 10
1.890201438985855
 20
-10.48763103712134
 10
1.904582498164074
 20
-10.48595133280984
 10
1.923682196759727
 20
-10.48469694623817
 10
1.948296226810029
 20
-10.48377541748362
 10
1.979220280352222
 20
-10.48309428662355
 10
2.017034164079561
 20
-10.48252410946057
 10
2.061454143309561
 20
-10.48178750469869
 10
2.11198059801579
 20
-10.48057010676726
 10
2.168113908171818
 20
-10.47855755009559
 10
2.229354453751199
 20
-10.47543546911301
 10
2.295202614727514
 20
-10.47088949824887
 10
2.365158771074334
 20
-10.46460527193249
 10
2.438723302765211
 20
-10.45626842459321
 10
2.515359580529263
 20
-10.44558924671613
 10
2.594382938117817
 20
-10.43237665300949
 10
2.675071700037719
 20
-10.4164642142373
 10
2.756704190795844
 20
-10.39768550116358
 10
2.838558734899052
 20
-10.37587408455233
 10
2.919913656854191
 20
-10.35086353516757
 10
3.00004728116815
 20
-10.3224874237733
 10
3.078237932347775
 20
-10.29057932113355
 10
3.153908886948954
 20
-10.2550005362729
 10
3.227063229723668
 20
-10.21572333125819
 10
3.297848997472911
 20
-10.17274770641683
 10
3.36641422699769
 20
-10.12607366207626
 10
3.432906955099014
 20
-10.07570119856388
 10
3.497475218577861
 20
-10.02163031620711
 10
3.560267054235254
 20
-9.963861015333385
 10
3.621430498872186
 20
-9.902393296270112
 10
3.681042655199135
 20
-9.837310373689845
 10
3.738896889564458
 20
-9.769028319645741
 10
3.794715634225994
 20
-9.698046420536087
 10
3.848221321441585
 20
-9.624863962759178
 10
3.89913638346907
 20
-9.549980232713295
 10
3.947183252566262
 20
-9.473894516796733
 10
3.992084360991029
 20
-9.3971061014078
 10
4.033562141001183
 20
-9.320114272944763
 10
4.071397622500825
 20
-9.243298119186121
 10
4.105606225978988
 20
-9.166555933431098
 10
4.136261969570995
 20
-9.08966581035915
 10
4.163438871412111
 20
-9.012405844649705
 10
4.187210949637673
 20
-8.934554130982178
 10
4.207652222382947
 20
-8.855888764036038
 10
4.224836707783239
 20
-8.776187838490699
 10
4.238838423973845
 20
-8.695229449025589
 10
4.249719508618014
 20
-8.61284314674738
 10
4.257494577490717
 20
-8.529064308471589
 10
4.262166365894913
 20
-8.443979767440993
 10
4.263737609133485
 20
-8.357676356898338
 10
4.262211042509406
 20
-8.270240910086386
 10
4.257589401325589
 20
-8.181760260247884
 10
4.249875420884947
 20
-8.092321240625608
 10
4.239071836490438
 20
-8.002010684462291
 10
4.22513026823394
 20
-7.910880182535734
 10
4.207797875363269
 20
-7.818840355763782
 10
4.186770701915193
 20
-7.72576658259932
 10
4.161744791926494
 20
-7.631534241495245
 10
4.132416189433925
 20
-7.536018710904414
 10
4.098480938474295
 20
-7.439095369279726
 10
4.059635083084344
 20
-7.340639595074065
 10
4.015574667300882
 20
-7.240526766740302
 10
3.96620746389081
 20
-7.138797646521339
 10
3.91228816054172
 20
-7.036154531820145
 10
3.854783173671307
 20
-6.933465103829703
 10
3.794658919697283
 20
-6.831597043743002
 10
3.732881815037387
 20
-6.731418032753026
 10
3.670418276109344
 20
-6.633795752052748
 10
3.608234719330837
 20
-6.539597882835167
 10
3.54729756111962
 20
-6.449692106293255
 10
3.488396781660782
 20
-6.364704232507833
 10
3.431616616208955
 20
-6.284292587111067
 10
3.376864863786153
 20
-6.207873624622962
 10
3.324049323414428
 20
-6.134863799563504
 10
3.273077794115778
 20
-6.064679566452696
 10
3.223858074912229
 20
-5.996737379810539
 10
3.176297964825792
 20
-5.930453694157037
 10
3.130305262878508
 20
-5.865244964012191
 10
3.085823623969346
 20
-5.800599307312793
 10
3.04294012650503
 20
-5.736291495662925
 10
3.001777704769295
 20
-5.672167964083485
 10
2.962459293045824
 20
-5.608075147595343
 10
2.925107825618326
 20
-5.543859481219371
 10
2.889846236770495
 20
-5.479367399976482
 10
2.85679746078604
 20
-5.414445338887531
 10
2.826084431948657
 20
-5.34893973297342
 10
2.79782496223602
 20
-5.28266630429195
 10
2.772116374401733
 20
-5.215317923048587
 10
2.749050868893363
 20
-5.146556746485742
 10
2.728720646158492
 20
-5.0760449318458
 10
2.711217906644677
 20
-5.003444636371156
 10
2.696634850799497
 20
-4.92841801730421
 10
2.685063679070538
 20
-4.850627231887358
 10
2.676596591905351
 20
-4.769734437362998
 10
2.671382134587361
 20
-4.685483692208407
 10
2.669794231743267
 20
-4.597946659840388
 10
2.67226315283564
 20
-4.507276904910654
 10
2.679219167326991
 20
-4.413627992070885
 10
2.691092544679904
 20
-4.317153485972809
 10
2.708313554356905
 20
-4.218006951268094
 10
2.73131246582055
 20
-4.116341952608451
 10
2.760519548533395
 20
-4.012312054645576
 10
2.7962267711098
 20
-3.906219268046683
 10
2.838172898771532
 20
-3.798959387541032
 10
2.88595839589216
 20
-3.691576653873383
 10
2.939183726845271
 20
-3.585115307788484
 10
2.997449356004437
 20
-3.480619590031139
 10
3.060355747743258
 20
-3.379133741346095
 10
3.127503366435277
 20
-3.281702002478127
 10
3.198492676454108
 20
-3.189368614171996
 10
3.273031709362157
 20
-3.103003777102912
 10
3.351258765477183
 20
-3.022781531667845
 10
3.433419712305763
 20
-2.948701878194228
 10
3.51976041735449
 20
-2.880764817009477
 10
3.61052674812997
 20
-2.818970348440998
 10
3.705964572138768
 20
-2.763318472816209
 10
3.806319756887504
 20
-2.713809190462555
 10
3.911838169882756
 20
-2.670442501707412
 10
4.022596644477218
 20
-2.633274713786221
 10
4.137995877408073
 20
-2.602587361566335
 10
4.257267531258619
 20
-2.578718286823104
 10
4.379643268612142
 20
-2.562005331331874
 10
4.504354752051909
 20
-2.552786336867995
 10
4.630633644161235
 20
-2.551399145206815
 10
4.757711607523404
 20
-2.558181598123681
 10
4.884820304721699
 20
-2.573471537393956
 10
5.011114564456306
 20
-2.597391814324268
 10
5.135441879894926
 20
-2.62920531834635
 10
5.256572910322205
 20
-2.667959948423231
 10
5.373278315022744
 20
-2.712703603517923
 10
5.484328753281147
 20
-2.762484182593468
 10
5.588494884382029
 20
-2.816349584612865
 10
5.684547367610008
 20
-2.873347708539142
 10
5.7712568622497
 20
-2.932526453335341
 10
5.847751945006123
 20
-2.993055929714415
 10
5.914592862265891
 20
-3.05459509538916
 10
5.972697777836017
 20
-3.116925119822312
 10
6.022984855523546
 20
-3.179827172476649
 10
6.066372259135491
 20
-3.243082422814879
 10
6.103778152478895
 20
-3.306472040299766
 10
6.136120699360745
 20
-3.36977719439406
 10
6.164318063588098
 20
-3.432779054560498
 10
6.189182762555489
 20
-3.495166011815911
 10
6.211104728007541
 20
-3.556255343393431
 10
6.230368245276437
 20
-3.615271548080315
 10
6.247257599694307
 20
-3.671439124663777
 10
6.262057076593322
 20
-3.723982571931045
 10
6.275050961305637
 20
-3.772126388669363
 10
6.286523539163397
 20
-3.815095073665958
 10
6.296759095498785
 20
-3.852113125708058
 10
6.306048958549496
 20
-3.882664183980395
 10
6.314712628175598
 20
-3.907268449257614
 10
6.323076647142698
 20
-3.926705262711905
 10
6.331467558216417
 20
-3.941753965515417
 10
6.340211904162359
 20
-3.953193898840325
 10
6.349636227746131
 20
-3.961804403858792
 10
6.360067071733368
 20
-3.968364821742966
 10
6.37183097888969
 20
-3.973654493665009
 10
6.385120673327094
 20
-3.978327989292509
 10
6.399593604543255
 20
-3.982540792274576
 10
6.414773403382255
 20
-3.986323614755761
 10
6.430183700688161
 20
-3.989707168880599
 10
6.445348127305038
 20
-3.992722166793612
 10
6.459790314076954
 20
-3.995399320639364
 10
6.47303389184799
 20
-3.997769342562364
 10
6.484602491462226
 20
-3.99986294470716
 10
6.494140116717602
 20
-4.001718517718273
 10
6.50177226322765
 20
-4.003405166240099
 10
6.507744799559759
 20
-4.004999673417046
 10
6.512303594281334
 20
-4.006578822393521
 10
6.515694515959779
 20
-4.00821939631389
 10
6.518163433162499
 20
-4.009998178322575
 10
6.519956214456897
 20
-4.011991951563942
 10
6.521318728410363
 20
-4.014277499182412
 10
6.522446901460199
 20
-4.016935443299502
 10
6.5233368915233
 20
-4.020061761945314
 10
6.523934914386416
 20
-4.023756272127073
 10
6.524187185836353
 20
-4.028118790852019
 10
6.524039921659863
 20
-4.033249135127377
 10
6.523439337643722
 20
-4.0392471219604
 10
6.522331649574724
 20
-4.046212568358285
 10
6.520663073239617
 20
-4.0542452913283
 10
6.518399033072796
 20
-4.063441268736795
 10
6.515581788098899
 20
-4.073881121886799
 10
6.512272805990207
 20
-4.085641632940408
 10
6.50853355441896
 20
-4.098799584059804
 10
6.504425501057426
 20
-4.113431757407099
 10
6.500010113577857
 20
-4.129614935144431
 10
6.495348859652509
 20
-4.147425899433955
 10
6.490503206953647
 20
-4.166941432437809
 10
6.485552550870977
 20
-4.188198645414303
 10
6.480647997664135
 20
-4.211075966006461
 10
6.47595858131018
 20
-4.23541215095345
 10
6.471653335786214
 20
-4.261045956994465
 10
6.467901295069296
 20
-4.287816140868685
 10
6.464871493136527
 20
-4.315561459315304
 10
6.462732963964981
 20
-4.344120669073518
 10
6.461654741531745
 20
-4.373332526882506
 10
6.461793054225637
 20
-4.403058824326535
 10
6.46325290808248
 20
-4.433253492370269
 10
6.466126503549872
 20
-4.463893496823445
 10
6.470506041075353
 20
-4.494955803495813
 10
6.476483721106518
 20
-4.526417378197109
 10
6.484151744090937
 20
-4.558255186737071
 10
6.493602310476177
 20
-4.590446194925462
 10
6.504927620709821
 20
-4.622967368572005
 10
6.518136638650588
 20
-4.655736806878394
 10
6.532905381801882
 20
-4.688437142614006
 10
6.548826631078242
 20
-4.720692141940176
 10
6.565493167394208
 20
-4.752125571018225
 10
6.582497771664336
 20
-4.782361196009475
 10
6.599433224803178
 20
-4.811022783075259
 10
6.615892307725289
 20
-4.837734098376913
 10
6.631467801345195
 20
-4.862118908075743
 10
6.645829320372172
 20
-4.883891837508713
 10
6.658953814694328
 20
-4.903130948715286
 10
6.670895067994479
 20
-4.920005162910555
 10
6.681706863955426
 20
-4.934683401309612
 10
6.691442986260028
 20
-4.947334585127549
 10
6.700157218591058
 20
-4.958127635579458
 10
6.707903344631375
 20
-4.967231473880445
 10
6.714735148063766
 20
-4.974815021245589
 10
6.720711534788691
 20
-4.981048478549041
 10
6.725911899577056
 20
-4.986107165301106
 10
6.730420759417413
 20
-4.990167680671177
 10
6.734322631298297
 20
-4.993406623828619
 10
6.737702032208247
 20
-4.99600059394281
 10
6.740643479135798
 20
-4.998126190183114
 10
6.743231489069515
 20
-4.999960011718911
 10
6.745550578997907
 20
-5.00167865771958
 10
6.747689107727453
 20
-5.003468965172544
 10
6.749750801336276
 20
-5.005558722337539
 10
6.751843227720414
 20
-5.008185955292347
 10
6.754073954775904
 20
-5.011588690114763
 10
6.756550550398813
 20
-5.016004952882582
 10
6.75938058248515
 20
-5.021672769673571
 10
6.76267161893098
 20
-5.028830166565541
 10
6.766531227632341
 20
-5.037715169636271
 10
6.771082343138132
 20
-5.048473665856036
 10
6.776509366608706
 20
-5.060882985765019
 10
6.783012065857263
 20
-5.074628320795852
 10
6.790790208697032
 20
-5.089394862381183
 10
6.800043562941212
 20
-5.104867801953702
 10
6.810971896403017
 20
-5.120732330946012
 10
6.823774976895649
 20
-5.136673640790803
 10
6.838652572232334
 20
-5.152376922920709
 10
6.85566230756018
 20
-5.167561921090609
 10
6.87429323736201
 20
-5.182086588344162
 10
6.893892273454596
 20
-5.195843430047318
 10
6.91380632765464
 20
-5.208724951565955
 10
6.933382311778899
 20
-5.220623658265992
 10
6.951967137644103
 20
-5.231432055513323
 10
6.968907717067011
 20
-5.241042648673868
 10
6.983550961864366
 20
-5.249347943113519
 10
6.995449954813821
 20
-5.256364575491289
 10
7.00498246253683
 20
-5.262605707638542
 10
7.012732422615783
 20
-5.268708632679746
 10
7.019283772633031
 20
-5.275310643739373
 10
7.025220450170962
 20
-5.283049033941878
 10
7.031126392811955
 20
-5.292561096411731
 10
7.037585538138387
 20
-5.3044841242734
 10
7.045181823732619
 20
-5.319455410651372
 10
7.054326311028461
 20
-5.337852468497629
 10
7.064738556865236
 20
-5.359013690074462
 10
7.075965241933729
 20
-5.382017687471673
 10
7.08755304692471
 20
-5.405943072779066
 10
7.099048652528921
 20
-5.42986845808646
 10
7.109998739437131
 20
-5.452872455483671
 10
7.11994998834011
 20
-5.474033677060504
 10
7.128449079928614
 20
-5.492430734906761
 10
7.135106064866207
 20
-5.50741208442524
 10
7.13978447370772
 20
-5.519405554270534
 10
7.142411206980753
 20
-5.529108816410214
 10
7.142913165212931
 20
-5.537219542811854
 10
7.141217248931894
 20
-5.544435405442996
 10
7.137250358665255
 20
-5.551454076271241
 10
7.130939394940611
 20
-5.558973227264146
 10
7.122211258285616
 20
-5.56769053038927
 10
7.111081624314522
 20
-5.578217009198951
 10
7.097921268988159
 20
-5.590817093584533
 10
7.083189743354026
 20
-5.605668565022114
 10
7.067346598459579
 20
-5.622949204987818
 10
7.050851385352302
 20
-5.64283679495773
 10
7.03416365507968
 20
-5.665509116407974
 10
7.017742958689211
 20
-5.691143950814648
 10
7.002048847228337
 20
-5.719919079653863
 10
6.987488767591841
 20
-5.751896649717266
 10
6.974261750063618
 20
-5.786676269058787
 10
6.962514720774819
 20
-5.823741911047846
 10
6.952394605856611
 20
-5.862577549053909
 10
6.944048331440157
 20
-5.90266715644644
 10
6.937622823656653
 20
-5.943494706594862
 10
6.933265008637235
 20
-5.984544172868666
 10
6.931121812513069
 20
-6.025299528637276
 10
6.931300252972562
 20
-6.065316075465403
 10
6.933747713932945
 20
-6.104434427698805
 10
6.938371670868676
 20
-6.142566527878457
 10
6.945079599254199
 20
-6.179624318545364
 10
6.953778974563988
 20
-6.215519742240502
 10
6.9643772722725
 20
-6.250164741504889
 10
6.976781967854194
 20
-6.283471258879501
 10
6.990900536783513
 20
-6.315351236905328
 10
7.006601536625055
 20
-6.345714416454981
 10
7.023597853303911
 20
-6.374461731727464
 10
7.041563454835269
 20
-6.401491915253387
 10
7.06017230923436
 20
-6.42670369956339
 10
7.079098384516385
 20
-6.449995817188053
 10
7.098015648696545
 20
-6.471267000658016
 10
7.116598069790072
 20
-6.49041598250389
 10
7.13451961581218
 20
-6.507341495256284
 10
7.151499781544728
 20
-6.521992905016801
 10
7.167440168836279
 20
-6.534522112170975
 10
7.182287906302079
 20
-6.54513165067533
 10
7.195990122557347
 20
-6.554024054486347
 10
7.208493946217316
 20
-6.561401857560582
 10
7.219746505897219
 20
-6.567467593854516
 10
7.229694930212275
 20
-6.572423797324688
 10
7.23828634777773
 20
-6.576473001927595
 10
7.245497259935149
 20
-6.579809669563246
 10
7.251421658931434
 20
-6.582595973905512
 10
7.256182909739834
 20
-6.584986016571789
 10
7.259904377333583
 20
-6.587133899179434
 10
7.262709426685944
 20
-6.589193723345815
 10
7.264721422770151
 20
-6.5913195906883
 10
7.266063730559451
 20
-6.593665602824259
 10
7.266859715027095
 20
-6.596385861371089
 10
7.267248895628654
 20
-6.599717532552062
 10
7.267435409749083
 20
-6.604230041014261
 10
7.267639549255648
 20
-6.61057587601067
 10
7.268081606015627
 20
-6.61940752679429
 10
7.268981871896301
 20
-6.631377482618106
 10
7.270560638764962
 20
-6.64713823273513
 10
7.273038198488876
 20
-6.66734226639835
 10
7.276634842935337
 20
-6.692642072860763
 10
7.281515504453025
 20
-6.723416373683718
 10
7.287623677316346
 20
-6.758948819661952
 10
7.294847496281136
 20
-6.79824929389855
 10
7.303075096103199
 20
-6.840327679496581
 10
7.312194611538373
 20
-6.884193859559161
 10
7.322094177342464
 20
-6.928857717189359
 10
7.332661928271321
 20
-6.973329135490274
 10
7.343785999080736
 20
-7.016617997564978
 10
7.355379705897533
 20
-7.057900620008993
 10
7.367457090332337
 20
-7.097019053387498
 10
7.380057375366817
 20
-7.133981781758151
 10
7.393219783982601
 20
-7.168797289178542
 10
7.406983539161316
 20
-7.201474059706328
 10
7.421387863884589
 20
-7.232020577399111
 10
7.436471981134076
 20
-7.26044532631451
 10
7.452275113891388
 20
-7.286756790510182
 10
7.468827315216785
 20
-7.310968617427036
 10
7.486121958484844
 20
-7.333115108039365
 10
7.504143247148789
 20
-7.35323572670471
 10
7.522875384661816
 20
-7.371369937780684
 10
7.542302574477119
 20
-7.387557205624844
 10
7.562409020047923
 20
-7.401836994594773
 10
7.583178924827421
 20
-7.414248769048043
 10
7.604596492268825
 20
-7.424831993342252
 10
7.626819687928474
 20
-7.433564741706504
 10
7.650701525775403
 20
-7.440179527856138
  0
LINE
  5
AF8E
330
ADBE
100
AcDbEntity
  8
0
100
AcDbLine
 10
0.0
 20
0.0
 30
0.0
 11
9.534677656905188
 21
0.0
 31
0.0
  0
LINE
  5
AF8F
330
ADBE
100
AcDbEntity
  8
0
100
AcDbLine
 10
8.355513320401001
 20
-5.277619906959699
 30
0.0
 11
7.021055375089176
 21
-5.277619906959699
 31
0.0
  0
LINE
  5
AF90
330
ADBE
100
AcDbEntity
  8
0
100
AcDbLine
 10
6.522767346922918
 20
-4.018061090277569
 30
0.0
 11
8.855879262658177
 21
-4.018061090277569
 31
0.0
  0
LINE
  5
AF91
330
ADBE
100
AcDbEntity
  8
0
100
AcDbLine
 10
8.646596484749267
 20
-5.002388716677558
 30
0.0
 11
6.746398746992056
 21
-5.00238871667755
 31
0.0
  0
LINE
  5
AF92
330
ADBE
100
AcDbEntity
  8
0
100
AcDbLine
 10
8.207567375766188
 20
-5.544510768302274
 30
0.0
 11
7.141174654514784
 21
-5.544510768302266
 31
0.0
  0
LINE
  5
AF93
330
ADBE
100
AcDbEntity
  8
0
100
AcDbLine
 10
8.444450016881177
 20
-5.228309868059895
 30
0.0
 11
8.424575998372006
 21
-5.239703803458354
 31
0.0
  0
LINE
  5
AF94
330
ADBE
100
AcDbEntity
  8
0
100
AcDbLine
 10
8.054196654647739
 20
-6.629466038576254
 30
0.0
 11
8.05299041730008
 21
-6.641409041236443
 31
0.0
  0
LINE
  5
AF95
330
ADBE
100
AcDbEntity
  8
0
100
AcDbLine
 10
7.817966589012897
 20
-7.337361131737495
 30
0.0
 11
7.799436389148745
 21
-7.357014066215079
 31
0.0
  0
LINE
  5
AF96
330
ADBE
100
AcDbEntity
  8
0
100
AcDbLine
 10
7.674744792675632
 20
-7.434177953769534
 30
0.0
 11
7.650701525775389
 21
-7.440179527856138
 31
0.0
  0
LINE
  5
AF97
330
ADBE
100
AcDbEntity
  8
0
100
AcDbLine
 10
7.780246397861382
 20
-7.374663055465056
 30
0.0
 11
7.760411396781485
 21
-7.390347955099379
 31
0.0
  0
LINE
  5
AF98
330
ADBE
100
AcDbEntity
  8
0
100
AcDbLine
 10
7.760411396781485
 20
-7.390347955099379
 30
0.0
 11
7.739946167539685
 21
-7.404108620730013
 31
0.0
  0
LINE
  5
AF99
330
ADBE
100
AcDbEntity
  8
0
100
AcDbLine
 10
7.697184151093054
 20
-7.426016672428048
 30
0.0
 11
7.674744792675632
 21
-7.434177953769534
 31
0.0
  0
LINE
  5
AF9A
330
ADBE
100
AcDbEntity
  8
0
100
AcDbLine
 10
7.718865491766663
 20
-7.415984907968912
 30
0.0
 11
7.697184151093054
 21
-7.426016672428048
 31
0.0
  0
LINE
  5
AF9B
330
ADBE
100
AcDbEntity
  8
0
100
AcDbLine
 10
7.739946167539685
 20
-7.404108620730013
 30
0.0
 11
7.718865491766663
 21
-7.415984907968912
 31
0.0
  0
LINE
  5
AF9C
330
ADBE
100
AcDbEntity
  8
0
100
AcDbLine
 10
7.799436389148745
 20
-7.357014066215079
 30
0.0
 11
7.780246397861382
 21
-7.374663055465056
 31
0.0
  0
LINE
  5
AF9D
330
ADBE
100
AcDbEntity
  8
0
100
AcDbLine
 10
7.980581950542102
 20
-6.981619412071452
 30
0.0
 11
7.968353922207157
 21
-7.024609478995515
 31
0.0
  0
LINE
  5
AF9E
330
ADBE
100
AcDbEntity
  8
0
100
AcDbLine
 10
7.900447299721996
 20
-7.207788035069356
 30
0.0
 11
7.885266120086306
 21
-7.237955999845887
 31
0.0
  0
LINE
  5
AF9F
330
ADBE
100
AcDbEntity
  8
0
100
AcDbLine
 10
7.835822215823164
 20
-7.315664396420324
 30
0.0
 11
7.817966589012897
 21
-7.337361131737495
 31
0.0
  0
LINE
  5
AFA0
330
ADBE
100
AcDbEntity
  8
0
100
AcDbLine
 10
7.852988487948927
 20
-7.29188400465162
 30
0.0
 11
7.835822215823164
 21
-7.315664396420324
 31
0.0
  0
LINE
  5
AFA1
330
ADBE
100
AcDbEntity
  8
0
100
AcDbLine
 10
7.869459658567251
 20
-7.265985497136185
 30
0.0
 11
7.852988487948927
 21
-7.29188400465162
 31
0.0
  0
LINE
  5
AFA2
330
ADBE
100
AcDbEntity
  8
0
100
AcDbLine
 10
7.885266120086306
 20
-7.237955999845887
 30
0.0
 11
7.869459658567251
 21
-7.265985497136185
 31
0.0
  0
LINE
  5
AFA3
330
ADBE
100
AcDbEntity
  8
0
100
AcDbLine
 10
7.929091522206981
 20
-7.141006792212159
 30
0.0
 11
7.915042624690251
 21
-7.175474125095234
 31
0.0
  0
LINE
  5
AFA4
330
ADBE
100
AcDbEntity
  8
0
100
AcDbLine
 10
7.915042624690251
 20
-7.175474125095234
 30
0.0
 11
7.900447299721996
 21
-7.207788035069356
 31
0.0
  0
LINE
  5
AFA5
330
ADBE
100
AcDbEntity
  8
0
100
AcDbLine
 10
7.942633419488096
 20
-7.104378558708752
 30
0.0
 11
7.929091522206981
 21
-7.141006792212159
 31
0.0
  0
LINE
  5
AFA6
330
ADBE
100
AcDbEntity
  8
0
100
AcDbLine
 10
7.955707743749506
 20
-7.065581946873663
 30
0.0
 11
7.942633419488096
 21
-7.104378558708752
 31
0.0
  0
LINE
  5
AFA7
330
ADBE
100
AcDbEntity
  8
0
100
AcDbLine
 10
7.968353922207157
 20
-7.024609478995515
 30
0.0
 11
7.955707743749506
 21
-7.065581946873663
 31
0.0
  0
LINE
  5
AFA8
330
ADBE
100
AcDbEntity
  8
0
100
AcDbLine
 10
8.022863638143164
 20
-6.807564417623915
 30
0.0
 11
8.013562104089722
 21
-6.849418514169201
 31
0.0
  0
LINE
  5
AFA9
330
ADBE
100
AcDbEntity
  8
0
100
AcDbLine
 10
8.013562104089722
 20
-6.849418514169201
 30
0.0
 11
8.003323203476391
 21
-6.893036999118649
 31
0.0
  0
LINE
  5
AFAA
330
ADBE
100
AcDbEntity
  8
0
100
AcDbLine
 10
7.992284098296188
 20
-6.937432941932613
 30
0.0
 11
7.980581950542102
 21
-6.981619412071452
 31
0.0
  0
LINE
  5
AFAB
330
ADBE
100
AcDbEntity
  8
0
100
AcDbLine
 10
8.003323203476391
 20
-6.893036999118649
 30
0.0
 11
7.992284098296188
 21
-6.937432941932613
 31
0.0
  0
LINE
  5
AFAC
330
ADBE
100
AcDbEntity
  8
0
100
AcDbLine
 10
8.051008908909466
 20
-6.657124236862799
 30
0.0
 11
8.048015214979614
 21
-6.677258264654199
 31
0.0
  0
LINE
  5
AFAD
330
ADBE
100
AcDbEntity
  8
0
100
AcDbLine
 10
8.05299041730008
 20
-6.641409041236443
 30
0.0
 11
8.051008908909466
 21
-6.657124236862799
 31
0.0
  0
LINE
  5
AFAE
330
ADBE
100
AcDbEntity
  8
0
100
AcDbLine
 10
8.031090643643736
 20
-6.768461640022437
 30
0.0
 11
8.022863638143164
 21
-6.807564417623915
 31
0.0
  0
LINE
  5
AFAF
330
ADBE
100
AcDbEntity
  8
0
100
AcDbLine
 10
8.038105958598393
 20
-6.733097111904399
 30
0.0
 11
8.031090643643736
 21
-6.768461640022437
 31
0.0
  0
LINE
  5
AFB0
330
ADBE
100
AcDbEntity
  8
0
100
AcDbLine
 10
8.043772421014182
 20
-6.702457763809476
 30
0.0
 11
8.038105958598393
 21
-6.733097111904399
 31
0.0
  0
LINE
  5
AFB1
330
ADBE
100
AcDbEntity
  8
0
100
AcDbLine
 10
8.048015214979614
 20
-6.677258264654199
 30
0.0
 11
8.043772421014182
 21
-6.702457763809476
 31
0.0
  0
LINE
  5
AFB2
330
ADBE
100
AcDbEntity
  8
0
100
AcDbLine
 10
8.141862707700042
 20
-6.557409617446651
 30
0.0
 11
8.127937454092915
 21
-6.565948521815577
 31
0.0
  0
LINE
  5
AFB3
330
ADBE
100
AcDbEntity
  8
0
100
AcDbLine
 10
8.066911186999547
 20
-6.595393388155279
 30
0.0
 11
7.266569303931703
 21
-6.595393388155279
 31
0.0
  0
LINE
  5
AFB4
330
ADBE
100
AcDbEntity
  8
0
100
AcDbLine
 10
8.0548645354488
 20
-6.620648589683383
 30
0.0
 11
8.054196654647739
 21
-6.629466038576254
 31
0.0
  0
LINE
  5
AFB5
330
ADBE
100
AcDbEntity
  8
0
100
AcDbLine
 10
8.055230974199588
 20
-6.61431005535897
 30
0.0
 11
8.0548645354488
 21
-6.620648589683383
 31
0.0
  0
LINE
  5
AFB6
330
ADBE
100
AcDbEntity
  8
0
100
AcDbLine
 10
8.055532885396402
 20
-6.609803796404172
 30
0.0
 11
8.055230974199588
 21
-6.61431005535897
 31
0.0
  0
LINE
  5
AFB7
330
ADBE
100
AcDbEntity
  8
0
100
AcDbLine
 10
8.056007183535584
 20
-6.606483173620119
 30
0.0
 11
8.055532885396402
 21
-6.609803796404172
 31
0.0
  0
LINE
  5
AFB8
330
ADBE
100
AcDbEntity
  8
0
100
AcDbLine
 10
8.056872508608606
 20
-6.603784171887575
 30
0.0
 11
8.056007183535584
 21
-6.606483173620119
 31
0.0
  0
LINE
  5
AFB9
330
ADBE
100
AcDbEntity
  8
0
100
AcDbLine
 10
8.058274402587557
 20
-6.601473272405748
 30
0.0
 11
8.056872508608606
 21
-6.603784171887575
 31
0.0
  0
LINE
  5
AFBA
330
ADBE
100
AcDbEntity
  8
0
100
AcDbLine
 10
8.060340132939685
 20
-6.599399580453464
 30
0.0
 11
8.058274402587557
 21
-6.601473272405748
 31
0.0
  0
LINE
  5
AFBB
330
ADBE
100
AcDbEntity
  8
0
100
AcDbLine
 10
8.06319696713227
 20
-6.597412201309531
 30
0.0
 11
8.060340132939685
 21
-6.599399580453464
 31
0.0
  0
LINE
  5
AFBC
330
ADBE
100
AcDbEntity
  8
0
100
AcDbLine
 10
8.066972172632503
 20
-6.595360240252773
 30
0.0
 11
8.06319696713227
 21
-6.597412201309531
 31
0.0
  0
LINE
  5
AFBD
330
ADBE
100
AcDbEntity
  8
0
100
AcDbLine
 10
8.071793016907705
 20
-6.593092802562026
 30
0.0
 11
8.066972172632503
 21
-6.595360240252773
 31
0.0
  0
LINE
  5
AFBE
330
ADBE
100
AcDbEntity
  8
0
100
AcDbLine
 10
8.077786767425081
 20
-6.590458993516094
 30
0.0
 11
8.071793016907705
 21
-6.593092802562026
 31
0.0
  0
LINE
  5
AFBF
330
ADBE
100
AcDbEntity
  8
0
100
AcDbLine
 10
8.085080691651896
 20
-6.587307918393818
 30
0.0
 11
8.077786767425081
 21
-6.590458993516094
 31
0.0
  0
LINE
  5
AFC0
330
ADBE
100
AcDbEntity
  8
0
100
AcDbLine
 10
8.093772900478739
 20
-6.583479861522405
 30
0.0
 11
8.085080691651896
 21
-6.587307918393818
 31
0.0
  0
LINE
  5
AFC1
330
ADBE
100
AcDbEntity
  8
0
100
AcDbLine
 10
8.10384487848961
 20
-6.578779823422721
 30
0.0
 11
8.093772900478739
 21
-6.583479861522405
 31
0.0
  0
LINE
  5
AFC2
330
ADBE
100
AcDbEntity
  8
0
100
AcDbLine
 10
8.115248953691903
 20
-6.573003983664023
 30
0.0
 11
8.10384487848961
 21
-6.578779823422721
 31
0.0
  0
LINE
  5
AFC3
330
ADBE
100
AcDbEntity
  8
0
100
AcDbLine
 10
8.127937454092915
 20
-6.565948521815577
 30
0.0
 11
8.115248953691903
 21
-6.573003983664023
 31
0.0
  0
LINE
  5
AFC4
330
ADBE
100
AcDbEntity
  8
0
100
AcDbLine
 10
8.396462539945432
 20
-5.921251109843552
 30
0.0
 11
8.40184132052083
 21
-5.962229698410268
 31
0.0
  0
LINE
  5
AFC5
330
ADBE
100
AcDbEntity
  8
0
100
AcDbLine
 10
8.367249096808677
 20
-6.268114789402133
 30
0.0
 11
8.353996273650679
 21
-6.301093013284599
 31
0.0
  0
LINE
  5
AFC6
330
ADBE
100
AcDbEntity
  8
0
100
AcDbLine
 10
8.266968452705157
 20
-6.442144916785551
 30
0.0
 11
8.247452615690548
 21
-6.464945161842159
 31
0.0
  0
LINE
  5
AFC7
330
ADBE
100
AcDbEntity
  8
0
100
AcDbLine
 10
8.247452615690548
 20
-6.464945161842159
 30
0.0
 11
8.227997295005422
 21
-6.485725359803524
 31
0.0
  0
LINE
  5
AFC8
330
ADBE
100
AcDbEntity
  8
0
100
AcDbLine
 10
8.156977042520637
 20
-6.547183450126496
 30
0.0
 11
8.141862707700042
 21
-6.557409617446651
 31
0.0
  0
LINE
  5
AFC9
330
ADBE
100
AcDbEntity
  8
0
100
AcDbLine
 10
8.173232786562024
 20
-6.535066199424377
 30
0.0
 11
8.156977042520637
 21
-6.547183450126496
 31
0.0
  0
LINE
  5
AFCA
330
ADBE
100
AcDbEntity
  8
0
100
AcDbLine
 10
8.190582267831572
 20
-6.520854044909569
 30
0.0
 11
8.173232786562024
 21
-6.535066199424377
 31
0.0
  0
LINE
  5
AFCB
330
ADBE
100
AcDbEntity
  8
0
100
AcDbLine
 10
8.208931006951758
 20
-6.5043926182869
 30
0.0
 11
8.190582267831572
 21
-6.520854044909569
 31
0.0
  0
LINE
  5
AFCC
330
ADBE
100
AcDbEntity
  8
0
100
AcDbLine
 10
8.227997295005422
 20
-6.485725359803524
 30
0.0
 11
8.208931006951758
 21
-6.5043926182869
 31
0.0
  0
LINE
  5
AFCD
330
ADBE
100
AcDbEntity
  8
0
100
AcDbLine
 10
8.286216289747201
 20
-6.417417517016403
 30
0.0
 11
8.266968452705157
 21
-6.442144916785551
 31
0.0
  0
LINE
  5
AFCE
330
ADBE
100
AcDbEntity
  8
0
100
AcDbLine
 10
8.304867610514662
 20
-6.390855854917461
 30
0.0
 11
8.286216289747201
 21
-6.417417517016403
 31
0.0
  0
LINE
  5
AFCF
330
ADBE
100
AcDbEntity
  8
0
100
AcDbLine
 10
8.322593898705534
 20
-6.36255282287145
 30
0.0
 11
8.304867610514662
 21
-6.390855854917461
 31
0.0
  0
LINE
  5
AFD0
330
ADBE
100
AcDbEntity
  8
0
100
AcDbLine
 10
8.339066638017783
 20
-6.332601313261093
 30
0.0
 11
8.322593898705534
 21
-6.36255282287145
 31
0.0
  0
LINE
  5
AFD1
330
ADBE
100
AcDbEntity
  8
0
100
AcDbLine
 10
8.353996273650679
 20
-6.301093013284599
 30
0.0
 11
8.339066638017783
 21
-6.332601313261093
 31
0.0
  0
LINE
  5
AFD2
330
ADBE
100
AcDbEntity
  8
0
100
AcDbLine
 10
8.405044870176098
 20
-6.084172956047396
 30
0.0
 11
8.401597318806494
 21
-6.123215880325204
 31
0.0
  0
LINE
  5
AFD3
330
ADBE
100
AcDbEntity
  8
0
100
AcDbLine
 10
8.378730360197522
 20
-6.233752302889321
 30
0.0
 11
8.367249096808677
 21
-6.268114789402133
 31
0.0
  0
LINE
  5
AFD4
330
ADBE
100
AcDbEntity
  8
0
100
AcDbLine
 10
8.388345316522944
 20
-6.198091215021804
 30
0.0
 11
8.378730360197522
 21
-6.233752302889321
 31
0.0
  0
LINE
  5
AFD5
330
ADBE
100
AcDbEntity
  8
0
100
AcDbLine
 10
8.395999218490686
 20
-6.161217187075223
 30
0.0
 11
8.388345316522944
 21
-6.198091215021804
 31
0.0
  0
LINE
  5
AFD6
330
ADBE
100
AcDbEntity
  8
0
100
AcDbLine
 10
8.401597318806494
 20
-6.123215880325204
 30
0.0
 11
8.395999218490686
 21
-6.161217187075223
 31
0.0
  0
LINE
  5
AFD7
330
ADBE
100
AcDbEntity
  8
0
100
AcDbLine
 10
8.40514740725662
 20
-6.003377225961784
 30
0.0
 11
8.406247125305242
 21
-6.044174075517432
 31
0.0
  0
LINE
  5
AFD8
330
ADBE
100
AcDbEntity
  8
0
100
AcDbLine
 10
8.406247125305242
 20
-6.044174075517432
 30
0.0
 11
8.405044870176098
 21
-6.084172956047396
 31
0.0
  0
LINE
  5
AFD9
330
ADBE
100
AcDbEntity
  8
0
100
AcDbLine
 10
8.40184132052083
 20
-5.962229698410268
 30
0.0
 11
8.40514740725662
 21
-6.003377225961784
 31
0.0
  0
LINE
  5
AFDA
330
ADBE
100
AcDbEntity
  8
0
100
AcDbLine
 10
8.226928733671726
 20
-5.581825629012882
 30
0.0
 11
8.23778539096267
 21
-5.592633427166447
 31
0.0
  0
LINE
  5
AFDB
330
ADBE
100
AcDbEntity
  8
0
100
AcDbLine
 10
8.356893976198549
 20
-5.769418485037725
 30
0.0
 11
8.369226783656955
 21
-5.804525147858711
 31
0.0
  0
LINE
  5
AFDC
330
ADBE
100
AcDbEntity
  8
0
100
AcDbLine
 10
8.343156849138267
 20
-5.737078846104807
 30
0.0
 11
8.356893976198549
 21
-5.769418485037725
 31
0.0
  0
LINE
  5
AFDD
330
ADBE
100
AcDbEntity
  8
0
100
AcDbLine
 10
8.23778539096267
 20
-5.592633427166447
 30
0.0
 11
8.250619049012286
 21
-5.605566110565703
 31
0.0
  0
LINE
  5
AFDE
330
ADBE
100
AcDbEntity
  8
0
100
AcDbLine
 10
8.250619049012286
 20
-5.605566110565703
 30
0.0
 11
8.264965758461585
 21
-5.62078964429962
 31
0.0
  0
LINE
  5
AFDF
330
ADBE
100
AcDbEntity
  8
0
100
AcDbLine
 10
8.328204123075579
 20
-5.707911584362349
 30
0.0
 11
8.343156849138267
 21
-5.737078846104807
 31
0.0
  0
LINE
  5
AFE0
330
ADBE
100
AcDbEntity
  8
0
100
AcDbLine
 10
8.312444701617579
 20
-5.681864998399603
 30
0.0
 11
8.328204123075579
 21
-5.707911584362349
 31
0.0
  0
LINE
  5
AFE1
330
ADBE
100
AcDbEntity
  8
0
100
AcDbLine
 10
8.296342534123226
 20
-5.658773123127573
 30
0.0
 11
8.312444701617579
 21
-5.681864998399603
 31
0.0
  0
LINE
  5
AFE2
330
ADBE
100
AcDbEntity
  8
0
100
AcDbLine
 10
8.280361569951566
 20
-5.638469993457249
 30
0.0
 11
8.296342534123226
 21
-5.658773123127573
 31
0.0
  0
LINE
  5
AFE3
330
ADBE
100
AcDbEntity
  8
0
100
AcDbLine
 10
8.264965758461585
 20
-5.62078964429962
 30
0.0
 11
8.280361569951566
 21
-5.638469993457249
 31
0.0
  0
LINE
  5
AFE4
330
ADBE
100
AcDbEntity
  8
0
100
AcDbLine
 10
8.369226783656955
 20
-5.804525147858711
 30
0.0
 11
8.380021596665926
 21
-5.84187921758712
 31
0.0
  0
LINE
  5
AFE5
330
ADBE
100
AcDbEntity
  8
0
100
AcDbLine
 10
8.389144740377929
 20
-5.88096107724229
 30
0.0
 11
8.396462539945432
 21
-5.921251109843552
 31
0.0
  0
LINE
  5
AFE6
330
ADBE
100
AcDbEntity
  8
0
100
AcDbLine
 10
8.380021596665926
 20
-5.84187921758712
 30
0.0
 11
8.389144740377929
 21
-5.88096107724229
 31
0.0
  0
LINE
  5
AFE7
330
ADBE
100
AcDbEntity
  8
0
100
AcDbLine
 10
8.373688826044926
 20
-5.267135057238554
 30
0.0
 11
8.361614199345211
 21
-5.273844941976626
 31
0.0
  0
LINE
  5
AFE8
330
ADBE
100
AcDbEntity
  8
0
100
AcDbLine
 10
8.277910280394848
 20
-5.397396833757809
 30
0.0
 11
8.265714108316572
 21
-5.421017897943258
 31
0.0
  0
LINE
  5
AFE9
330
ADBE
100
AcDbEntity
  8
0
100
AcDbLine
 10
8.253610105440699
 20
-5.444641321164624
 30
0.0
 11
8.242075017522978
 21
-5.467357615895025
 31
0.0
  0
LINE
  5
AFEA
330
ADBE
100
AcDbEntity
  8
0
100
AcDbLine
 10
8.218426497482539
 20
-5.572887859546909
 30
0.0
 11
8.226928733671726
 21
-5.581825629012882
 31
0.0
  0
LINE
  5
AFEB
330
ADBE
100
AcDbEntity
  8
0
100
AcDbLine
 10
8.212309986674497
 20
-5.565209696334065
 30
0.0
 11
8.218426497482539
 21
-5.572887859546909
 31
0.0
  0
LINE
  5
AFEC
330
ADBE
100
AcDbEntity
  8
0
100
AcDbLine
 10
8.208523976511116
 20
-5.558091825470846
 30
0.0
 11
8.212309986674497
 21
-5.565209696334065
 31
0.0
  0
LINE
  5
AFED
330
ADBE
100
AcDbEntity
  8
0
100
AcDbLine
 10
8.207013242255811
 20
-5.550834933053721
 30
0.0
 11
8.208523976511116
 21
-5.558091825470846
 31
0.0
  0
LINE
  5
AFEE
330
ADBE
100
AcDbEntity
  8
0
100
AcDbLine
 10
8.207722559172083
 20
-5.542739705179144
 30
0.0
 11
8.207013242255811
 21
-5.550834933053721
 31
0.0
  0
LINE
  5
AFEF
330
ADBE
100
AcDbEntity
  8
0
100
AcDbLine
 10
8.210596702523403
 20
-5.533106827943598
 30
0.0
 11
8.207722559172083
 21
-5.542739705179144
 31
0.0
  0
LINE
  5
AFF0
330
ADBE
100
AcDbEntity
  8
0
100
AcDbLine
 10
8.215580447573245
 20
-5.521236987443558
 30
0.0
 11
8.210596702523403
 21
-5.533106827943598
 31
0.0
  0
LINE
  5
AFF1
330
ADBE
100
AcDbEntity
  8
0
100
AcDbLine
 10
8.22261856958508
 20
-5.506430869775485
 30
0.0
 11
8.215580447573245
 21
-5.521236987443558
 31
0.0
  0
LINE
  5
AFF2
330
ADBE
100
AcDbEntity
  8
0
100
AcDbLine
 10
8.231585590319184
 20
-5.488257294607606
 30
0.0
 11
8.22261856958508
 21
-5.506430869775485
 31
0.0
  0
LINE
  5
AFF3
330
ADBE
100
AcDbEntity
  8
0
100
AcDbLine
 10
8.242075017522978
 20
-5.467357615895025
 30
0.0
 11
8.231585590319184
 21
-5.488257294607606
 31
0.0
  0
LINE
  5
AFF4
330
ADBE
100
AcDbEntity
  8
0
100
AcDbLine
 10
8.265714108316572
 20
-5.421017897943258
 30
0.0
 11
8.253610105440699
 21
-5.444641321164624
 31
0.0
  0
LINE
  5
AFF5
330
ADBE
100
AcDbEntity
  8
0
100
AcDbLine
 10
8.300672149135451
 20
-5.35379973260207
 30
0.0
 11
8.289721875919738
 21
-5.374687616135119
 31
0.0
  0
LINE
  5
AFF6
330
ADBE
100
AcDbEntity
  8
0
100
AcDbLine
 10
8.289721875919738
 20
-5.374687616135119
 30
0.0
 11
8.277910280394848
 21
-5.397396833757809
 31
0.0
  0
LINE
  5
AFF7
330
ADBE
100
AcDbEntity
  8
0
100
AcDbLine
 10
8.310284354286281
 20
-5.33564267068553
 30
0.0
 11
8.300672149135451
 21
-5.35379973260207
 31
0.0
  0
LINE
  5
AFF8
330
ADBE
100
AcDbEntity
  8
0
100
AcDbLine
 10
8.31826121196714
 20
-5.320870646038258
 30
0.0
 11
8.310284354286281
 21
-5.33564267068553
 31
0.0
  0
LINE
  5
AFF9
330
ADBE
100
AcDbEntity
  8
0
100
AcDbLine
 10
8.325023308176014
 20
-5.309116786816701
 30
0.0
 11
8.31826121196714
 21
-5.320870646038258
 31
0.0
  0
LINE
  5
AFFA
330
ADBE
100
AcDbEntity
  8
0
100
AcDbLine
 10
8.331170695261604
 20
-5.29975894930321
 30
0.0
 11
8.325023308176014
 21
-5.309116786816701
 31
0.0
  0
LINE
  5
AFFB
330
ADBE
100
AcDbEntity
  8
0
100
AcDbLine
 10
8.337303425572613
 20
-5.292174989780107
 30
0.0
 11
8.331170695261604
 21
-5.29975894930321
 31
0.0
  0
LINE
  5
AFFC
330
ADBE
100
AcDbEntity
  8
0
100
AcDbLine
 10
8.344021551457743
 20
-5.285742764529743
 30
0.0
 11
8.337303425572613
 21
-5.292174989780107
 31
0.0
  0
LINE
  5
AFFD
330
ADBE
100
AcDbEntity
  8
0
100
AcDbLine
 10
8.351925125265722
 20
-5.279840129834468
 30
0.0
 11
8.344021551457743
 21
-5.285742764529743
 31
0.0
  0
LINE
  5
AFFE
330
ADBE
100
AcDbEntity
  8
0
100
AcDbLine
 10
8.361614199345211
 20
-5.273844941976626
 30
0.0
 11
8.351925125265722
 21
-5.279840129834468
 31
0.0
  0
LINE
  5
AFFF
330
ADBE
100
AcDbEntity
  8
0
100
AcDbLine
 10
8.38853977819582
 20
-5.259207147417114
 30
0.0
 11
8.373688826044926
 21
-5.267135057238554
 31
0.0
  0
LINE
  5
B000
330
ADBE
100
AcDbEntity
  8
0
100
AcDbLine
 10
8.405720710557531
 20
-5.250033146367236
 30
0.0
 11
8.38853977819582
 21
-5.259207147417114
 31
0.0
  0
LINE
  5
B001
330
ADBE
100
AcDbEntity
  8
0
100
AcDbLine
 10
8.424575998372006
 20
-5.239703803458354
 30
0.0
 11
8.405720710557531
 21
-5.250033146367236
 31
0.0
  0
LINE
  5
B002
330
ADBE
100
AcDbEntity
  8
0
100
AcDbLine
 10
9.06950126437151
 20
-2.406741100771355
 30
0.0
 11
9.059989252679457
 21
-2.44505038712645
 31
0.0
  0
LINE
  5
B003
330
ADBE
100
AcDbEntity
  8
0
100
AcDbLine
 10
8.982785179527638
 20
-3.823630594074913
 30
0.0
 11
8.978089996601369
 21
-3.87323797189876
 31
0.0
  0
LINE
  5
B004
330
ADBE
100
AcDbEntity
  8
0
100
AcDbLine
 10
8.905867845954134
 20
-4.526116783622526
 30
0.0
 11
8.899087139412046
 21
-4.557415112012876
 31
0.0
  0
LINE
  5
B005
330
ADBE
100
AcDbEntity
  8
0
100
AcDbLine
 10
8.600138078564924
 20
-5.052340946654744
 30
0.0
 11
8.596052399581182
 21
-5.061124288054038
 31
0.0
  0
LINE
  5
B006
330
ADBE
100
AcDbEntity
  8
0
100
AcDbLine
 10
8.48463174695118
 20
-5.202691217272018
 30
0.0
 11
8.464687141326919
 21
-5.2159420895413
 31
0.0
  0
LINE
  5
B007
330
ADBE
100
AcDbEntity
  8
0
100
AcDbLine
 10
8.464687141326919
 20
-5.2159420895413
 30
0.0
 11
8.444450016881177
 21
-5.228309868059895
 31
0.0
  0
LINE
  5
B008
330
ADBE
100
AcDbEntity
  8
0
100
AcDbLine
 10
8.591227504528745
 20
-5.071762816194279
 30
0.0
 11
8.585484749891676
 21
-5.084029216380635
 31
0.0
  0
LINE
  5
B009
330
ADBE
100
AcDbEntity
  8
0
100
AcDbLine
 10
8.596052399581182
 20
-5.061124288054038
 30
0.0
 11
8.591227504528745
 21
-5.071762816194279
 31
0.0
  0
LINE
  5
B00A
330
ADBE
100
AcDbEntity
  8
0
100
AcDbLine
 10
8.570479071285845
 20
-5.112166365641101
 30
0.0
 11
8.56083285202817
 21
-5.127397481089936
 31
0.0
  0
LINE
  5
B00B
330
ADBE
100
AcDbEntity
  8
0
100
AcDbLine
 10
8.578632488025533
 20
-5.097603671800456
 30
0.0
 11
8.570479071285845
 21
-5.112166365641101
 31
0.0
  0
LINE
  5
B00C
330
ADBE
100
AcDbEntity
  8
0
100
AcDbLine
 10
8.50362820899582
 20
-5.188648000621483
 30
0.0
 11
8.48463174695118
 21
-5.202691217272018
 31
0.0
  0
LINE
  5
B00D
330
ADBE
100
AcDbEntity
  8
0
100
AcDbLine
 10
8.521020902702801
 20
-5.173903188959123
 30
0.0
 11
8.50362820899582
 21
-5.188648000621483
 31
0.0
  0
LINE
  5
B00E
330
ADBE
100
AcDbEntity
  8
0
100
AcDbLine
 10
8.53629541538109
 20
-5.158585709561585
 30
0.0
 11
8.521020902702801
 21
-5.173903188959123
 31
0.0
  0
LINE
  5
B00F
330
ADBE
100
AcDbEntity
  8
0
100
AcDbLine
 10
8.549502182608065
 20
-5.142977201334304
 30
0.0
 11
8.53629541538109
 21
-5.158585709561585
 31
0.0
  0
LINE
  5
B010
330
ADBE
100
AcDbEntity
  8
0
100
AcDbLine
 10
8.56083285202817
 20
-5.127397481089936
 30
0.0
 11
8.549502182608065
 21
-5.142977201334304
 31
0.0
  0
LINE
  5
B011
330
ADBE
100
AcDbEntity
  8
0
100
AcDbLine
 10
8.585484749891676
 20
-5.084029216380635
 30
0.0
 11
8.578632488025533
 21
-5.097603671800456
 31
0.0
  0
LINE
  5
B012
330
ADBE
100
AcDbEntity
  8
0
100
AcDbLine
 10
8.751758767359888
 20
-4.865062970895422
 30
0.0
 11
8.735564457204105
 21
-4.889041279095337
 31
0.0
  0
LINE
  5
B013
330
ADBE
100
AcDbEntity
  8
0
100
AcDbLine
 10
8.72065055241137
 20
-4.910439623159504
 30
0.0
 11
8.707038098233084
 21
-4.929336629337086
 31
0.0
  0
LINE
  5
B014
330
ADBE
100
AcDbEntity
  8
0
100
AcDbLine
 10
8.683485189182817
 20
-4.960296587196623
 30
0.0
 11
8.673428558042232
 21
-4.972694518460663
 31
0.0
  0
LINE
  5
B015
330
ADBE
100
AcDbEntity
  8
0
100
AcDbLine
 10
8.694669006534994
 20
-4.945899787419108
 30
0.0
 11
8.683485189182817
 21
-4.960296587196623
 31
0.0
  0
LINE
  5
B016
330
ADBE
100
AcDbEntity
  8
0
100
AcDbLine
 10
8.707038098233084
 20
-4.929336629337086
 30
0.0
 11
8.694669006534994
 21
-4.945899787419108
 31
0.0
  0
LINE
  5
B017
330
ADBE
100
AcDbEntity
  8
0
100
AcDbLine
 10
8.603611168481805
 20
-5.045270098220072
 30
0.0
 11
8.600138078564924
 21
-5.052340946654744
 31
0.0
  0
LINE
  5
B018
330
ADBE
100
AcDbEntity
  8
0
100
AcDbLine
 10
8.606585292205195
 20
-5.039676546855872
 30
0.0
 11
8.603611168481805
 21
-5.045270098220072
 31
0.0
  0
LINE
  5
B019
330
ADBE
100
AcDbEntity
  8
0
100
AcDbLine
 10
8.609174072608468
 20
-5.035325096668003
 30
0.0
 11
8.606585292205195
 21
-5.039676546855872
 31
0.0
  0
LINE
  5
B01A
330
ADBE
100
AcDbEntity
  8
0
100
AcDbLine
 10
8.611491132564921
 20
-5.031980551762352
 30
0.0
 11
8.609174072608468
 21
-5.035325096668003
 31
0.0
  0
LINE
  5
B01B
330
ADBE
100
AcDbEntity
  8
0
100
AcDbLine
 10
8.613650094947942
 20
-5.029407716244762
 30
0.0
 11
8.611491132564921
 21
-5.031980551762352
 31
0.0
  0
LINE
  5
B01C
330
ADBE
100
AcDbEntity
  8
0
100
AcDbLine
 10
8.615764582630873
 20
-5.027371394221098
 30
0.0
 11
8.613650094947942
 21
-5.029407716244762
 31
0.0
  0
LINE
  5
B01D
330
ADBE
100
AcDbEntity
  8
0
100
AcDbLine
 10
8.617948218487043
 20
-5.025636389797227
 30
0.0
 11
8.615764582630873
 21
-5.027371394221098
 31
0.0
  0
LINE
  5
B01E
330
ADBE
100
AcDbEntity
  8
0
100
AcDbLine
 10
8.620310522882363
 20
-5.023977643247725
 30
0.0
 11
8.617948218487043
 21
-5.025636389797227
 31
0.0
  0
LINE
  5
B01F
330
ADBE
100
AcDbEntity
  8
0
100
AcDbLine
 10
8.622944606152771
 20
-5.022210639522008
 30
0.0
 11
8.620310522882363
 21
-5.023977643247725
 31
0.0
  0
LINE
  5
B020
330
ADBE
100
AcDbEntity
  8
0
100
AcDbLine
 10
8.625939476126745
 20
-5.020160999738195
 30
0.0
 11
8.622944606152771
 21
-5.022210639522008
 31
0.0
  0
LINE
  5
B021
330
ADBE
100
AcDbEntity
  8
0
100
AcDbLine
 10
8.629384140632808
 20
-5.017654345014435
 30
0.0
 11
8.625939476126745
 21
-5.020160999738195
 31
0.0
  0
LINE
  5
B022
330
ADBE
100
AcDbEntity
  8
0
100
AcDbLine
 10
8.633367607499423
 20
-5.014516296468826
 30
0.0
 11
8.629384140632808
 21
-5.017654345014435
 31
0.0
  0
LINE
  5
B023
330
ADBE
100
AcDbEntity
  8
0
100
AcDbLine
 10
8.637978884555096
 20
-5.010572475219532
 30
0.0
 11
8.633367607499423
 21
-5.014516296468826
 31
0.0
  0
LINE
  5
B024
330
ADBE
100
AcDbEntity
  8
0
100
AcDbLine
 10
8.643306979628277
 20
-5.005648502384644
 30
0.0
 11
8.637978884555096
 21
-5.010572475219532
 31
0.0
  0
LINE
  5
B025
330
ADBE
100
AcDbEntity
  8
0
100
AcDbLine
 10
8.649440900547503
 20
-4.999569999082318
 30
0.0
 11
8.643306979628277
 21
-5.005648502384644
 31
0.0
  0
LINE
  5
B026
330
ADBE
100
AcDbEntity
  8
0
100
AcDbLine
 10
8.656464501858863
 20
-4.992163734612475
 30
0.0
 11
8.649440900547503
 21
-4.999569999082318
 31
0.0
  0
LINE
  5
B027
330
ADBE
100
AcDbEntity
  8
0
100
AcDbLine
 10
8.664441024979026
 20
-4.98326107100226
 30
0.0
 11
8.656464501858863
 21
-4.992163734612475
 31
0.0
  0
LINE
  5
B028
330
ADBE
100
AcDbEntity
  8
0
100
AcDbLine
 10
8.673428558042232
 20
-4.972694518460663
 30
0.0
 11
8.664441024979026
 21
-4.98326107100226
 31
0.0
  0
LINE
  5
B029
330
ADBE
100
AcDbEntity
  8
0
100
AcDbLine
 10
8.735564457204105
 20
-4.889041279095337
 30
0.0
 11
8.72065055241137
 21
-4.910439623159504
 31
0.0
  0
LINE
  5
B02A
330
ADBE
100
AcDbEntity
  8
0
100
AcDbLine
 10
8.838538473075388
 20
-4.717938215839652
 30
0.0
 11
8.821797151873553
 21
-4.749775290524183
 31
0.0
  0
LINE
  5
B02B
330
ADBE
100
AcDbEntity
  8
0
100
AcDbLine
 10
8.768895904084587
 20
-4.838781526478115
 30
0.0
 11
8.751758767359888
 21
-4.865062970895422
 31
0.0
  0
LINE
  5
B02C
330
ADBE
100
AcDbEntity
  8
0
100
AcDbLine
 10
8.786559155198318
 20
-4.810562637303647
 30
0.0
 11
8.768895904084587
 21
-4.838781526478115
 31
0.0
  0
LINE
  5
B02D
330
ADBE
100
AcDbEntity
  8
0
100
AcDbLine
 10
8.804331808521254
 20
-4.780771994832264
 30
0.0
 11
8.786559155198318
 21
-4.810562637303647
 31
0.0
  0
LINE
  5
B02E
330
ADBE
100
AcDbEntity
  8
0
100
AcDbLine
 10
8.821797151873553
 20
-4.749775290524183
 30
0.0
 11
8.804331808521254
 21
-4.780771994832264
 31
0.0
  0
LINE
  5
B02F
330
ADBE
100
AcDbEntity
  8
0
100
AcDbLine
 10
8.854139059946874
 20
-4.6856264622389
 30
0.0
 11
8.838538473075388
 21
-4.717938215839652
 31
0.0
  0
LINE
  5
B030
330
ADBE
100
AcDbEntity
  8
0
100
AcDbLine
 10
8.868182200308183
 20
-4.653205721182168
 30
0.0
 11
8.854139059946874
 21
-4.6856264622389
 31
0.0
  0
LINE
  5
B031
330
ADBE
100
AcDbEntity
  8
0
100
AcDbLine
 10
8.880335897493552
 20
-4.620984966505034
 30
0.0
 11
8.868182200308183
 21
-4.653205721182168
 31
0.0
  0
LINE
  5
B032
330
ADBE
100
AcDbEntity
  8
0
100
AcDbLine
 10
8.890607016893341
 20
-4.589046301544492
 30
0.0
 11
8.880335897493552
 21
-4.620984966505034
 31
0.0
  0
LINE
  5
B033
330
ADBE
100
AcDbEntity
  8
0
100
AcDbLine
 10
8.899087139412046
 20
-4.557415112012876
 30
0.0
 11
8.890607016893341
 21
-4.589046301544492
 31
0.0
  0
LINE
  5
B034
330
ADBE
100
AcDbEntity
  8
0
100
AcDbLine
 10
8.888143402627449
 20
-4.166941432437809
 30
0.0
 11
8.893094058710119
 21
-4.188198645414303
 31
0.0
  0
LINE
  5
B035
330
ADBE
100
AcDbEntity
  8
0
100
AcDbLine
 10
8.88572113274354
 20
-4.160140622747555
 30
0.0
 11
8.889925145001711
 21
-4.17806502003205
 31
0.0
  0
LINE
  5
B036
330
ADBE
100
AcDbEntity
  8
0
100
AcDbLine
 10
8.916090576513923
 20
-4.346925336744249
 30
0.0
 11
8.917497682692243
 21
-4.375529913672323
 31
0.0
  0
LINE
  5
B037
330
ADBE
100
AcDbEntity
  8
0
100
AcDbLine
 10
8.917828130445514
 20
-4.404759795720494
 30
0.0
 11
8.91692927876528
 21
-4.434472822422421
 31
0.0
  0
LINE
  5
B038
330
ADBE
100
AcDbEntity
  8
0
100
AcDbLine
 10
8.911040717424043
 20
-4.495176702085771
 30
0.0
 11
8.905867845954134
 21
-4.526116783622526
 31
0.0
  0
LINE
  5
B039
330
ADBE
100
AcDbEntity
  8
0
100
AcDbLine
 10
8.914697334726284
 20
-4.464620253114958
 30
0.0
 11
8.911040717424043
 21
-4.495176702085771
 31
0.0
  0
LINE
  5
B03A
330
ADBE
100
AcDbEntity
  8
0
100
AcDbLine
 10
8.91692927876528
 20
-4.434472822422421
 30
0.0
 11
8.914697334726284
 21
-4.464620253114958
 31
0.0
  0
LINE
  5
B03B
330
ADBE
100
AcDbEntity
  8
0
100
AcDbLine
 10
8.917497682692243
 20
-4.375529913672323
 30
0.0
 11
8.917828130445514
 21
-4.404759795720494
 31
0.0
  0
LINE
  5
B03C
330
ADBE
100
AcDbEntity
  8
0
100
AcDbLine
 10
8.889925145001711
 20
-4.17806502003205
 30
0.0
 11
8.894269882155469
 21
-4.197698146058421
 31
0.0
  0
LINE
  5
B03D
330
ADBE
100
AcDbEntity
  8
0
100
AcDbLine
 10
8.893094058710119
 20
-4.188198645414303
 30
0.0
 11
8.89799861191696
 21
-4.211075966006454
 31
0.0
  0
LINE
  5
B03E
330
ADBE
100
AcDbEntity
  8
0
100
AcDbLine
 10
8.913771664939787
 20
-4.319111580353435
 30
0.0
 11
8.916090576513923
 21
-4.346925336744249
 31
0.0
  0
LINE
  5
B03F
330
ADBE
100
AcDbEntity
  8
0
100
AcDbLine
 10
8.910705800999082
 20
-4.292254159917021
 30
0.0
 11
8.913771664939787
 21
-4.319111580353435
 31
0.0
  0
LINE
  5
B040
330
ADBE
100
AcDbEntity
  8
0
100
AcDbLine
 10
8.907057837721055
 20
-4.266518590852165
 30
0.0
 11
8.910705800999082
 21
-4.292254159917021
 31
0.0
  0
LINE
  5
B041
330
ADBE
100
AcDbEntity
  8
0
100
AcDbLine
 10
8.902992628134938
 20
-4.24207038857601
 30
0.0
 11
8.907057837721055
 21
-4.266518590852165
 31
0.0
  0
LINE
  5
B042
330
ADBE
100
AcDbEntity
  8
0
100
AcDbLine
 10
8.898675025270009
 20
-4.219075068505709
 30
0.0
 11
8.902992628134938
 21
-4.24207038857601
 31
0.0
  0
LINE
  5
B043
330
ADBE
100
AcDbEntity
  8
0
100
AcDbLine
 10
8.894269882155469
 20
-4.197698146058421
 30
0.0
 11
8.898675025270009
 21
-4.219075068505709
 31
0.0
  0
LWPOLYLINE
  5
B044
330
ADBE
100
AcDbEntity
  8
0
100
AcDbPolyline
 90
       17
 70
     0
 43
0.0
 10
8.911218921462847
 20
-3.996766076981558
 10
8.905612717733106
 20
-3.997769342562364
 10
8.89404411811887
 20
-3.99986294470716
 10
8.884506492863494
 20
-4.001718517718266
 10
8.876874346353446
 20
-4.003405166240099
 10
8.870901810021337
 20
-4.004999673417046
 10
8.866343015299761
 20
-4.006578822393514
 10
8.862952093621316
 20
-4.00821939631389
 10
8.860483176418597
 20
-4.009998178322568
 10
8.858690395124199
 20
-4.011991951563942
 10
8.857327881170732
 20
-4.014277499182412
 10
8.856199708120897
 20
-4.016935443299502
 10
8.855309718057796
 20
-4.020061761945314
 10
8.85471169519468
 20
-4.023756272127073
 10
8.854459423744742
 20
-4.028118790852019
 10
8.854606687921233
 20
-4.033249135127377
 10
8.855207271937374
 20
-4.039247121960393
  0
ARC
  5
B045
330
ADBE
100
AcDbEntity
  8
0
100
AcDbCircle
 10
8.891443186564799
 20
-3.919034150362591
 30
0.0
 40
0.0802080551232581
100
AcDbArc
 50
284.2737759431314
 51
353.0095072737018
  0
LINE
  5
B046
330
ADBE
100
AcDbEntity
  8
0
100
AcDbLine
 10
8.883297749928587
 20
-4.147425899433955
 30
0.0
 11
8.888143402627449
 21
-4.166941432437809
 31
0.0
  0
LINE
  5
B047
330
ADBE
100
AcDbEntity
  8
0
100
AcDbLine
 10
8.878636496003238
 20
-4.129614935144431
 30
0.0
 11
8.883297749928587
 21
-4.147425899433955
 31
0.0
  0
LINE
  5
B048
330
ADBE
100
AcDbEntity
  8
0
100
AcDbLine
 10
8.87422110852367
 20
-4.113431757407091
 30
0.0
 11
8.878636496003238
 21
-4.129614935144431
 31
0.0
  0
LINE
  5
B049
330
ADBE
100
AcDbEntity
  8
0
100
AcDbLine
 10
8.870113055162136
 20
-4.098799584059797
 30
0.0
 11
8.87422110852367
 21
-4.113431757407091
 31
0.0
  0
LINE
  5
B04A
330
ADBE
100
AcDbEntity
  8
0
100
AcDbLine
 10
8.866373803590889
 20
-4.085641632940408
 30
0.0
 11
8.870113055162136
 21
-4.098799584059797
 31
0.0
  0
LINE
  5
B04B
330
ADBE
100
AcDbEntity
  8
0
100
AcDbLine
 10
8.863064821482197
 20
-4.073881121886792
 30
0.0
 11
8.866373803590889
 21
-4.085641632940408
 31
0.0
  0
LINE
  5
B04C
330
ADBE
100
AcDbEntity
  8
0
100
AcDbLine
 10
8.860247576508299
 20
-4.063441268736795
 30
0.0
 11
8.863064821482197
 21
-4.073881121886792
 31
0.0
  0
LINE
  5
B04D
330
ADBE
100
AcDbEntity
  8
0
100
AcDbLine
 10
8.857983536341478
 20
-4.054245291328292
 30
0.0
 11
8.860247576508299
 21
-4.063441268736795
 31
0.0
  0
LINE
  5
B04E
330
ADBE
100
AcDbEntity
  8
0
100
AcDbLine
 10
8.856314960006372
 20
-4.046212568358285
 30
0.0
 11
8.857983536341478
 21
-4.054245291328292
 31
0.0
  0
LINE
  5
B04F
330
ADBE
100
AcDbEntity
  8
0
100
AcDbLine
 10
8.881721257496877
 20
-4.143849769906651
 30
0.0
 11
8.88572113274354
 21
-4.160140622747555
 31
0.0
  0
LINE
  5
B050
330
ADBE
100
AcDbEntity
  8
0
100
AcDbLine
 10
8.877988931377657
 20
-4.129117277211037
 30
0.0
 11
8.881721257496877
 21
-4.143849769906651
 31
0.0
  0
LINE
  5
B051
330
ADBE
100
AcDbEntity
  8
0
100
AcDbLine
 10
8.874587566501816
 20
-4.115867960362436
 30
0.0
 11
8.877988931377657
 21
-4.129117277211037
 31
0.0
  0
LINE
  5
B052
330
ADBE
100
AcDbEntity
  8
0
100
AcDbLine
 10
8.871580574985273
 20
-4.104026635062567
 30
0.0
 11
8.874587566501816
 21
-4.115867960362436
 31
0.0
  0
LINE
  5
B053
330
ADBE
100
AcDbEntity
  8
0
100
AcDbLine
 10
8.855207271937374
 20
-4.039247121960393
 30
0.0
 11
8.856314960006372
 21
-4.046212568358285
 31
0.0
  0
LINE
  5
B054
330
ADBE
100
AcDbEntity
  8
0
100
AcDbLine
 10
8.978089996601369
 20
-3.87323797189876
 30
0.0
 11
8.971055003893255
 21
-3.928795843264794
 31
0.0
  0
LINE
  5
B055
330
ADBE
100
AcDbEntity
  8
0
100
AcDbLine
 10
9.012925455273858
 20
-3.058907044717066
 30
0.0
 11
9.009467729863573
 21
-3.165122535611864
 31
0.0
  0
LINE
  5
B056
330
ADBE
100
AcDbEntity
  8
0
100
AcDbLine
 10
9.002517621264473
 20
-3.384213158520154
 30
0.0
 11
8.998932716202119
 21
-3.490744936274992
 31
0.0
  0
LINE
  5
B057
330
ADBE
100
AcDbEntity
  8
0
100
AcDbLine
 10
8.995212896048911
 20
-3.59103878872451
 30
0.0
 11
8.99131189986808
 21
-3.681923038739398
 31
0.0
  0
LINE
  5
B058
330
ADBE
100
AcDbEntity
  8
0
100
AcDbLine
 10
8.987183466722854
 20
-3.760226009190311
 30
0.0
 11
8.982785179527638
 21
-3.823630594074913
 31
0.0
  0
LINE
  5
B059
330
ADBE
100
AcDbEntity
  8
0
100
AcDbLine
 10
8.99131189986808
 20
-3.681923038739398
 30
0.0
 11
8.987183466722854
 21
-3.760226009190311
 31
0.0
  0
LINE
  5
B05A
330
ADBE
100
AcDbEntity
  8
0
100
AcDbLine
 10
8.998932716202119
 20
-3.490744936274992
 30
0.0
 11
8.995212896048911
 21
-3.59103878872451
 31
0.0
  0
LINE
  5
B05B
330
ADBE
100
AcDbEntity
  8
0
100
AcDbLine
 10
9.006013872172701
 20
-3.274615132589332
 30
0.0
 11
9.002517621264473
 21
-3.384213158520154
 31
0.0
  0
LINE
  5
B05C
330
ADBE
100
AcDbEntity
  8
0
100
AcDbLine
 10
9.009467729863573
 20
-3.165122535611864
 30
0.0
 11
9.006013872172701
 21
-3.274615132589332
 31
0.0
  0
LINE
  5
B05D
330
ADBE
100
AcDbEntity
  8
0
100
AcDbLine
 10
9.028149361248281
 20
-2.712915170939631
 30
0.0
 11
9.02391159041953
 21
-2.7865038276408
 31
0.0
  0
LINE
  5
B05E
330
ADBE
100
AcDbEntity
  8
0
100
AcDbLine
 10
9.020053445903499
 20
-2.868352070670155
 30
0.0
 11
9.0164333093403
 21
-2.95914033703427
 31
0.0
  0
LINE
  5
B05F
330
ADBE
100
AcDbEntity
  8
0
100
AcDbLine
 10
9.0164333093403
 20
-2.95914033703427
 30
0.0
 11
9.012925455273858
 21
-3.058907044717066
 31
0.0
  0
LINE
  5
B060
330
ADBE
100
AcDbEntity
  8
0
100
AcDbLine
 10
9.02391159041953
 20
-2.7865038276408
 30
0.0
 11
9.020053445903499
 21
-2.868352070670155
 31
0.0
  0
LINE
  5
B061
330
ADBE
100
AcDbEntity
  8
0
100
AcDbLine
 10
9.038330255283554
 20
-2.587794868495542
 30
0.0
 11
9.032908376749645
 21
-2.646905663560069
 31
0.0
  0
LINE
  5
B062
330
ADBE
100
AcDbEntity
  8
0
100
AcDbLine
 10
9.032908376749645
 20
-2.646905663560069
 30
0.0
 11
9.028149361248281
 21
-2.712915170939631
 31
0.0
  0
LINE
  5
B063
330
ADBE
100
AcDbEntity
  8
0
100
AcDbLine
 10
9.044556615209884
 20
-2.534902348739478
 30
0.0
 11
9.038330255283554
 21
-2.587794868495542
 31
0.0
  0
LINE
  5
B064
330
ADBE
100
AcDbEntity
  8
0
100
AcDbLine
 10
9.051729074888555
 20
-2.487547667285312
 30
0.0
 11
9.044556615209884
 21
-2.534902348739478
 31
0.0
  0
LINE
  5
B065
330
ADBE
100
AcDbEntity
  8
0
100
AcDbLine
 10
9.059989252679457
 20
-2.44505038712645
 30
0.0
 11
9.051729074888555
 21
-2.487547667285312
 31
0.0
  0
LINE
  5
B066
330
ADBE
100
AcDbEntity
  8
0
100
AcDbLine
 10
9.534555683618222
 20
-1.00350715291605
 30
0.0
 11
9.534263715534237
 21
-1.333865916672834
 31
0.0
  0
LINE
  5
B067
330
ADBE
100
AcDbEntity
  8
0
100
AcDbLine
 10
9.532757774890541
 20
-1.712884241427666
 30
0.0
 11
9.531359401435693
 21
-1.800733529238591
 31
0.0
  0
LINE
  5
B068
330
ADBE
100
AcDbEntity
  8
0
100
AcDbLine
 10
9.385518610040847
 20
-2.045822919621897
 30
0.0
 11
9.353965520098725
 21
-2.070357462253056
 31
0.0
  0
LINE
  5
B069
330
ADBE
100
AcDbEntity
  8
0
100
AcDbLine
 10
9.320937221404221
 20
-2.096151236534254
 30
0.0
 11
9.287417187696533
 21
-2.122804973126903
 31
0.0
  0
LINE
  5
B06A
330
ADBE
100
AcDbEntity
  8
0
100
AcDbLine
 10
9.167879164739176
 20
-2.230203077382363
 30
0.0
 11
9.145182472601632
 21
-2.256350036250751
 31
0.0
  0
LINE
  5
B06B
330
ADBE
100
AcDbEntity
  8
0
100
AcDbLine
 10
9.145182472601632
 20
-2.256350036250751
 30
0.0
 11
9.125374734539832
 21
-2.2829883999091
 31
0.0
  0
LINE
  5
B06C
330
ADBE
100
AcDbEntity
  8
0
100
AcDbLine
 10
9.080519215469635
 20
-2.371994518788532
 30
0.0
 11
9.06950126437151
 21
-2.406741100771355
 31
0.0
  0
LINE
  5
B06D
330
ADBE
100
AcDbEntity
  8
0
100
AcDbLine
 10
9.09331970890777
 20
-2.340196381261527
 30
0.0
 11
9.080519215469635
 21
-2.371994518788532
 31
0.0
  0
LINE
  5
B06E
330
ADBE
100
AcDbEntity
  8
0
100
AcDbLine
 10
9.108179347619852
 20
-2.310732428273873
 30
0.0
 11
9.09331970890777
 21
-2.340196381261527
 31
0.0
  0
LINE
  5
B06F
330
ADBE
100
AcDbEntity
  8
0
100
AcDbLine
 10
9.125374734539832
 20
-2.2829883999091
 30
0.0
 11
9.108179347619852
 21
-2.310732428273873
 31
0.0
  0
LINE
  5
B070
330
ADBE
100
AcDbEntity
  8
0
100
AcDbLine
 10
9.193741413886414
 20
-2.203933263387469
 30
0.0
 11
9.167879164739176
 21
-2.230203077382363
 31
0.0
  0
LINE
  5
B071
330
ADBE
100
AcDbEntity
  8
0
100
AcDbLine
 10
9.222835810198432
 20
-2.177095255892112
 30
0.0
 11
9.193741413886414
 21
-2.203933263387469
 31
0.0
  0
LINE
  5
B072
330
ADBE
100
AcDbEntity
  8
0
100
AcDbLine
 10
9.254388892714871
 20
-2.14991940269239
 30
0.0
 11
9.222835810198432
 21
-2.177095255892112
 31
0.0
  0
LINE
  5
B073
330
ADBE
100
AcDbEntity
  8
0
100
AcDbLine
 10
9.287417187696533
 20
-2.122804973126903
 30
0.0
 11
9.254388892714871
 21
-2.14991940269239
 31
0.0
  0
LINE
  5
B074
330
ADBE
100
AcDbEntity
  8
0
100
AcDbLine
 10
9.353965520098725
 20
-2.070357462253056
 30
0.0
 11
9.320937221404221
 21
-2.096151236534254
 31
0.0
  0
LINE
  5
B075
330
ADBE
100
AcDbEntity
  8
0
100
AcDbLine
 10
9.523414796026358
 20
-1.889616821340467
 30
0.0
 11
9.518820139151372
 21
-1.906304191317815
 31
0.0
  0
LINE
  5
B076
330
ADBE
100
AcDbEntity
  8
0
100
AcDbLine
 10
9.440265268711129
 20
-2.002128606664136
 30
0.0
 11
9.414613017491376
 21
-2.022946877979393
 31
0.0
  0
LINE
  5
B077
330
ADBE
100
AcDbEntity
  8
0
100
AcDbLine
 10
9.414613017491376
 20
-2.022946877979393
 30
0.0
 11
9.385518610040847
 21
-2.045822919621897
 31
0.0
  0
LINE
  5
B078
330
ADBE
100
AcDbEntity
  8
0
100
AcDbLine
 10
9.518820139151372
 20
-1.906304191317815
 30
0.0
 11
9.512565872098434
 21
-1.921763042444482
 31
0.0
  0
LINE
  5
B079
330
ADBE
100
AcDbEntity
  8
0
100
AcDbLine
 10
9.461732636133874
 20
-1.98359845349951
 30
0.0
 11
9.440265268711129
 21
-2.002128606664136
 31
0.0
  0
LINE
  5
B07A
330
ADBE
100
AcDbEntity
  8
0
100
AcDbLine
 10
9.479235376885299
 20
-1.966911080247989
 30
0.0
 11
9.461732636133874
 21
-1.98359845349951
 31
0.0
  0
LINE
  5
B07B
330
ADBE
100
AcDbEntity
  8
0
100
AcDbLine
 10
9.493234494264072
 20
-1.951452227156813
 30
0.0
 11
9.479235376885299
 21
-1.966911080247989
 31
0.0
  0
LINE
  5
B07C
330
ADBE
100
AcDbEntity
  8
0
100
AcDbLine
 10
9.504190991568904
 20
-1.936607634473226
 30
0.0
 11
9.493234494264072
 21
-1.951452227156813
 31
0.0
  0
LINE
  5
B07D
330
ADBE
100
AcDbEntity
  8
0
100
AcDbLine
 10
9.512565872098434
 20
-1.921763042444482
 30
0.0
 11
9.504190991568904
 21
-1.936607634473226
 31
0.0
  0
LINE
  5
B07E
330
ADBE
100
AcDbEntity
  8
0
100
AcDbLine
 10
9.526810846022101
 20
-1.871086672759702
 30
0.0
 11
9.523414796026358
 21
-1.889616821340467
 31
0.0
  0
LINE
  5
B07F
330
ADBE
100
AcDbEntity
  8
0
100
AcDbLine
 10
9.529407825295407
 20
-1.846936051880454
 30
0.0
 11
9.526810846022101
 21
-1.871086672759702
 31
0.0
  0
LINE
  5
B080
330
ADBE
100
AcDbEntity
  8
0
100
AcDbLine
 10
9.531359401435693
 20
-1.800733529238591
 30
0.0
 11
9.529407825295407
 21
-1.846936051880454
 31
0.0
  0
LINE
  5
B081
330
ADBE
100
AcDbEntity
  8
0
100
AcDbLine
 10
9.534263715534237
 20
-1.333865916672834
 30
0.0
 11
9.533695146107532
 21
-1.563793325041231
 31
0.0
  0
LINE
  5
B082
330
ADBE
100
AcDbEntity
  8
0
100
AcDbLine
 10
9.533695146107532
 20
-1.563793325041231
 30
0.0
 11
9.532757774890541
 21
-1.712884241427666
 31
0.0
  0
LINE
  5
B083
330
ADBE
100
AcDbEntity
  8
0
100
AcDbLine
 10
9.534677656905188
 20
0.0
 30
0.0
 11
9.534663250807057
 21
-0.553122170364432
 31
0.0
  0
LINE
  5
B084
330
ADBE
100
AcDbEntity
  8
0
100
AcDbLine
 10
9.534663250807057
 20
-0.553122170364432
 30
0.0
 11
9.534555683618222
 21
-1.00350715291605
 31
0.0
  0
ENDBLK
  5
B085
330
ADBE
100
AcDbEntity
  8
0
100
AcDbBlockEnd
  0
BLOCK
  5
B087
330
B086
100
AcDbEntity
  8
0
100
AcDbBlockBegin
  2
3315_C
 70
     0
 10
0.0
 20
0.0
 30
0.0
  3
3315_C
  1

  0
LINE
  5
B088
330
B086
100
AcDbEntity
  8
0
100
AcDbLine
 10
0.0
 20
0.0
 30
0.0
 11
0.0000000000000036
 21
-15.40652481028379
 31
0.0
  0
LINE
  5
B089
330
B086
100
AcDbEntity
  8
0
100
AcDbLine
 10
-2.249999999999996
 20
0.0
 30
0.0
 11
-2.249999999999996
 21
-15.40652481028379
 31
0.0
  0
LINE
  5
B08A
330
B086
100
AcDbEntity
  8
0
100
AcDbLine
 10
-2.249999999999992
 20
-12.25663940484462
 30
0.0
 11
0.0000000000000071
 21
-12.25663940484462
 31
0.0
  0
LINE
  5
B08B
330
B086
100
AcDbEntity
  8
0
100
AcDbLine
 10
-2.249999999999996
 20
-15.40652481028379
 30
0.0
 11
0.0000000000000036
 21
-15.40652481028379
 31
0.0
  0
LINE
  5
B08C
330
B086
100
AcDbEntity
  8
0
100
AcDbLine
 10
-2.249999999999992
 20
-10.46246886925372
 30
0.0
 11
0.0000000000000071
 21
-10.46246886925371
 31
0.0
  0
LINE
  5
B08D
330
B086
100
AcDbEntity
  8
0
100
AcDbLine
 10
-2.249999999999992
 20
-7.43480608305731
 30
0.0
 11
0.0
 21
-7.43480608305731
 31
0.0
  0
LINE
  5
B08E
330
B086
100
AcDbEntity
  8
0
100
AcDbLine
 10
-2.249999999999992
 20
-6.595199159852093
 30
0.0
 11
0.0
 21
-6.595199159852093
 31
0.0
  0
LINE
  5
B08F
330
B086
100
AcDbEntity
  8
0
100
AcDbLine
 10
-2.249999999999992
 20
-5.545114894255526
 30
0.0
 11
0.0
 21
-5.545114894255526
 31
0.0
  0
LINE
  5
B090
330
B086
100
AcDbEntity
  8
0
100
AcDbLine
 10
-2.249999999999992
 20
-5.276625977942934
 30
0.0
 11
0.0
 21
-5.276625977942934
 31
0.0
  0
LINE
  5
B091
330
B086
100
AcDbEntity
  8
0
100
AcDbLine
 10
-2.249999999999992
 20
-5.003091634519769
 30
0.0
 11
0.0
 21
-5.003091634519769
 31
0.0
  0
LINE
  5
B092
330
B086
100
AcDbEntity
  8
0
100
AcDbLine
 10
-2.249999999999992
 20
-4.016935443299502
 30
0.0
 11
0.0
 21
-4.016935443299502
 31
0.0
  0
LINE
  5
B093
330
B086
100
AcDbEntity
  8
0
100
AcDbLine
 10
-2.249999999999992
 20
-2.487547667285312
 30
0.0
 11
0.0
 21
-2.487547667285312
 31
0.0
  0
LINE
  5
B094
330
B086
100
AcDbEntity
  8
0
100
AcDbLine
 10
-2.249999999999992
 20
-1.800733529238591
 30
0.0
 11
0.0
 21
-1.800733529238591
 31
0.0
  0
LINE
  5
B095
330
B086
100
AcDbEntity
  8
0
100
AcDbLine
 10
-2.249999999999996
 20
0.0
 30
0.0
 11
0.0
 21
0.0
 31
0.0
  0
ENDBLK
  5
B096
330
B086
100
AcDbEntity
  8
0
100
AcDbBlockEnd
  0
BLOCK
  5
BF79
330
BF6E
100
AcDbEntity
  8
0
100
AcDbBlockBegin
  2
*D2
 70
     1
 10
0.0
 20
0.0
 30
0.0
  3
*D2
  1

  0
LINE
  5
BFE6
330
BF6E
100
AcDbEntity
  8
DIM
 62
     0
370
    -2
100
AcDbLine
 10
17.12362998151553
 20
36.58388040337656
 30
0.0
 11
17.12362998151553
 21
39.28868503100926
 31
0.0
  0
LINE
  5
BFE7
330
BF6E
100
AcDbEntity
  8
DIM
 62
     0
370
    -2
100
AcDbLine
 10
7.873444172865877
 20
36.58388040337656
 30
0.0
 11
7.873444172865877
 21
39.28868503100926
 31
0.0
  0
LINE
  5
BFE8
330
BF6E
100
AcDbEntity
  8
DIM
 62
     0
370
    -2
100
AcDbLine
 10
16.94362998151553
 20
39.10868503100926
 30
0.0
 11
13.42187041052404
 21
39.10868503100926
 31
0.0
  0
LINE
  5
BFE9
330
BF6E
100
AcDbEntity
  8
DIM
 62
     0
370
    -2
100
AcDbLine
 10
8.053444172865876
 20
39.10868503100926
 30
0.0
 11
11.57520374385737
 21
39.10868503100926
 31
0.0
  0
SOLID
  5
BFEA
330
BF6E
100
AcDbEntity
  8
DIM
 62
     0
100
AcDbTrace
 10
16.94362998151553
 20
39.13868503100926
 30
0.0
 11
16.94362998151553
 21
39.07868503100926
 31
0.0
 12
17.12362998151553
 22
39.10868503100926
 32
0.0
 13
17.12362998151553
 23
39.10868503100926
 33
0.0
  0
SOLID
  5
BFEB
330
BF6E
100
AcDbEntity
  8
DIM
 62
     0
100
AcDbTrace
 10
8.053444172865876
 20
39.13868503100926
 30
0.0
 11
8.053444172865876
 21
39.07868503100926
 31
0.0
 12
7.873444172865877
 22
39.10868503100926
 32
0.0
 13
7.873444172865877
 23
39.10868503100926
 33
0.0
  0
MTEXT
  5
BFEC
330
BF6E
100
AcDbEntity
  8
DIM
 62
     0
100
AcDbMText
 10
12.49853707719071
 20
39.10868503100926
 30
0.0
 40
1.0
 41
0.0
 71
     5
 72
     1
  1
\A1;9{\H1.000000x;\S1/4;}
 73
     1
 44
1.0
  0
POINT
  5
BFED
330
BF6E
100
AcDbEntity
  8
Defpoints
 62
     0
100
AcDbPoint
 10
17.12362998151553
 20
36.52138040337656
 30
0.0
  0
POINT
  5
BFEE
330
BF6E
100
AcDbEntity
  8
Defpoints
 62
     0
100
AcDbPoint
 10
7.873444172865877
 20
36.52138040337656
 30
0.0
  0
POINT
  5
BFEF
330
BF6E
100
AcDbEntity
  8
Defpoints
 62
     0
100
AcDbPoint
 10
7.873444172865877
 20
39.10868503100926
 30
0.0
  0
ENDBLK
  5
BF7A
330
BF6E
100
AcDbEntity
  8
0
100
AcDbBlockEnd
  0
BLOCK
  5
BF86
330
BF7B
100
AcDbEntity
  8
0
100
AcDbBlockBegin
  2
*D3
 70
     1
 10
0.0
 20
0.0
 30
0.0
  3
*D3
  1

  0
LINE
  5
BFF0
330
BF7B
100
AcDbEntity
  8
DIM
 62
     0
370
    -2
100
AcDbLine
 10
22.43415923660407
 20
23.97197748236971
 30
0.0
 11
22.43415923660407
 21
39.99379711301791
 31
0.0
  0
LINE
  5
BFF1
330
BF7B
100
AcDbEntity
  8
DIM
 62
     0
370
    -2
100
AcDbLine
 10
23.55915923660408
 20
23.97197748236971
 30
0.0
 11
23.55915923660408
 21
39.99379711301791
 31
0.0
  0
LINE
  5
BFF2
330
BF7B
100
AcDbEntity
  8
DIM
 62
     0
370
    -2
100
AcDbLine
 10
22.61415923660408
 20
39.81379711301791
 30
0.0
 11
23.37915923660407
 21
39.81379711301791
 31
0.0
  0
LINE
  5
BFF3
330
BF7B
100
AcDbEntity
  8
DIM
 62
     0
370
    -2
100
AcDbLine
 10
23.55915923660408
 20
39.81379711301791
 30
0.0
 11
23.73915923660407
 21
39.81379711301791
 31
0.0
  0
SOLID
  5
BFF4
330
BF7B
100
AcDbEntity
  8
DIM
 62
     0
100
AcDbTrace
 10
22.61415923660408
 20
39.84379711301791
 30
0.0
 11
22.61415923660408
 21
39.78379711301791
 31
0.0
 12
22.43415923660407
 22
39.81379711301791
 32
0.0
 13
22.43415923660407
 23
39.81379711301791
 33
0.0
  0
SOLID
  5
BFF5
330
BF7B
100
AcDbEntity
  8
DIM
 62
     0
100
AcDbTrace
 10
23.37915923660407
 20
39.84379711301791
 30
0.0
 11
23.37915923660407
 21
39.78379711301791
 31
0.0
 12
23.55915923660408
 22
39.81379711301791
 32
0.0
 13
23.55915923660408
 23
39.81379711301791
 33
0.0
  0
MTEXT
  5
BFF6
330
BF7B
100
AcDbEntity
  8
DIM
 62
     0
100
AcDbMText
 10
24.49582590327074
 20
39.81379711301791
 30
0.0
 40
1.0
 41
0.0
 71
     5
 72
     1
  1
\A1;1{\H1.000000x;\S1/8;}
 73
     1
 44
1.0
  0
POINT
  5
BFF7
330
BF7B
100
AcDbEntity
  8
Defpoints
 62
     0
100
AcDbPoint
 10
22.43415923660407
 20
23.90947748236971
 30
0.0
  0
POINT
  5
BFF8
330
BF7B
100
AcDbEntity
  8
Defpoints
 62
     0
100
AcDbPoint
 10
23.55915923660408
 20
23.90947748236971
 30
0.0
  0
POINT
  5
BFF9
330
BF7B
100
AcDbEntity
  8
Defpoints
 62
     0
100
AcDbPoint
 10
23.55915923660408
 20
39.81379711301791
 30
0.0
  0
ENDBLK
  5
BF87
330
BF7B
100
AcDbEntity
  8
0
100
AcDbBlockEnd
  0
BLOCK
  5
BF93
330
BF88
100
AcDbEntity
  8
0
100
AcDbBlockBegin
  2
*D4
 70
     1
 10
0.0
 20
0.0
 30
0.0
  3
*D4
  1

  0
LINE
  5
BFDC
330
BF88
100
AcDbEntity
  8
DIM
 62
     0
370
    -2
100
AcDbLine
 10
7.810014261046942
 20
11.09585311962908
 30
0.0
 11
2.562940271612093
 21
11.09585311962908
 31
0.0
  0
LINE
  5
BFDD
330
BF88
100
AcDbEntity
  8
DIM
 62
     0
370
    -2
100
AcDbLine
 10
7.801581538572918
 20
36.72197748236971
 30
0.0
 11
2.562940271612099
 21
36.72197748236971
 31
0.0
  0
LINE
  5
BFDE
330
BF88
100
AcDbEntity
  8
DIM
 62
     0
370
    -2
100
AcDbLine
 10
2.742940271612093
 20
11.27585311962908
 30
0.0
 11
2.742940271612095
 21
22.65224863433273
 31
0.0
  0
LINE
  5
BFDF
330
BF88
100
AcDbEntity
  8
DIM
 62
     0
370
    -2
100
AcDbLine
 10
2.742940271612098
 20
36.54197748236971
 30
0.0
 11
2.742940271612096
 21
25.16558196766606
 31
0.0
  0
SOLID
  5
BFE0
330
BF88
100
AcDbEntity
  8
DIM
 62
     0
100
AcDbTrace
 10
2.712940271612093
 20
11.27585311962908
 30
0.0
 11
2.772940271612093
 21
11.27585311962908
 31
0.0
 12
2.742940271612093
 22
11.09585311962908
 32
0.0
 13
2.742940271612093
 23
11.09585311962908
 33
0.0
  0
SOLID
  5
BFE1
330
BF88
100
AcDbEntity
  8
DIM
 62
     0
100
AcDbTrace
 10
2.712940271612099
 20
36.54197748236971
 30
0.0
 11
2.772940271612098
 21
36.54197748236971
 31
0.0
 12
2.742940271612098
 22
36.72197748236971
 32
0.0
 13
2.742940271612098
 23
36.72197748236971
 33
0.0
  0
MTEXT
  5
BFE2
330
BF88
100
AcDbEntity
  8
DIM
 62
     0
100
AcDbMText
 10
2.742940271612092
 20
23.9089153009994
 30
0.0
 40
1.0
 41
0.0
 71
     5
 72
     1
  1
\A1;25{\H1.000000x;\S5/8;}
 73
     1
 44
1.0
  0
POINT
  5
BFE3
330
BF88
100
AcDbEntity
  8
Defpoints
 62
     0
100
AcDbPoint
 10
7.872514261046942
 20
11.09585311962908
 30
0.0
  0
POINT
  5
BFE4
330
BF88
100
AcDbEntity
  8
Defpoints
 62
     0
100
AcDbPoint
 10
7.864081538572918
 20
36.72197748236971
 30
0.0
  0
POINT
  5
BFE5
330
BF88
100
AcDbEntity
  8
Defpoints
 62
     0
100
AcDbPoint
 10
2.742940271612098
 20
36.72197748236971
 30
0.0
  0
ENDBLK
  5
BF94
330
BF88
100
AcDbEntity
  8
0
100
AcDbBlockEnd
  0
ENDSEC
  0
SECTION
  2
ENTITIES
  0
DIMENSION
  5
BA04
330
18
100
AcDbEntity
  8
DIM
100
AcDbDimension
  2
*D2
 10
7.873444172865877
 20
39.10868503100926
 30
0.0
 11
12.49853707719071
 21
39.10868503100926
 31
0.0
 70
    32
 71
     5
 42
9.250185808649657
  3
STANDARD
100
AcDbAlignedDimension
 13
17.12362998151553
 23
36.52138040337656
 33
0.0
 14
7.873444172865877
 24
36.52138040337656
 34
0.0
100
AcDbRotatedDimension
  0
DIMENSION
  5
BA05
330
18
100
AcDbEntity
  8
DIM
100
AcDbDimension
  2
*D3
 10
23.55915923660408
 20
39.81379711301791
 30
0.0
 11
24.49582590327074
 21
39.81379711301791
 31
0.0
 70
    32
 71
     5
 42
1.125
  3
STANDARD
100
AcDbAlignedDimension
 13
22.43415923660407
 23
23.90947748236971
 33
0.0
 14
23.55915923660408
 24
23.90947748236971
 34
0.0
100
AcDbRotatedDimension
  0
LINE
  5
BA06
330
18
100
AcDbEntity
  8
0
100
AcDbLine
 10
22.43415923660407
 20
11.09697748236971
 30
0.0
 11
22.43415923660407
 21
36.72197748236971
 31
0.0
  0
LINE
  5
BA07
330
18
100
AcDbEntity
  8
0
100
AcDbLine
 10
23.55915923660408
 20
11.09697748236971
 30
0.0
 11
22.43415923660407
 21
11.09697748236971
 31
0.0
  0
LINE
  5
BA08
330
18
100
AcDbEntity
  8
0
100
AcDbLine
 10
23.55915923660408
 20
36.72197748236971
 30
0.0
 11
23.55915923660408
 21
11.09697748236971
 31
0.0
  0
LINE
  5
BA09
330
18
100
AcDbEntity
  8
0
100
AcDbLine
 10
22.43415923660407
 20
36.72197748236971
 30
0.0
 11
23.55915923660408
 21
36.72197748236971
 31
0.0
  0
DIMENSION
  5
BA0A
330
18
100
AcDbEntity
  8
DIM
100
AcDbDimension
  2
*D4
 10
2.742940271612098
 20
36.72197748236971
 30
0.0
 11
2.742940271612092
 21
23.9089153009994
 31
0.0
 70
    32
 71
     5
 42
25.62612436274062
  3
STANDARD
100
AcDbAlignedDimension
 13
7.872514261046942
 23
11.09585311962908
 33
0.0
 14
7.864081538572918
 24
36.72197748236971
 34
0.0
 50
90.0
100
AcDbRotatedDimension
  0
LWPOLYLINE
  5
BA0B
330
18
100
AcDbEntity
  8
0
100
AcDbPolyline
 90
      727
 70
     0
 43
0.0
 10
17.02694308268678
 20
36.72499268152256
 10
17.02820997727937
 20
36.7243279572544
 10
17.05590359505883
 20
36.70818571409668
 10
17.07677220848864
 20
36.69411402357698
 10
17.09200748546156
 20
36.68158892427399
 10
17.10280109387033
 20
36.67008645476644
 10
17.11034470160771
 20
36.65908265363299
 10
17.11582997656639
 20
36.64805355945239
 10
17.12024034562542
 20
36.63649930084485
 10
17.12372627160869
 20
36.62401636659684
 10
17.12622997632639
 20
36.61022533553631
 10
17.12769368158863
 20
36.59474678649123
 10
17.12805960920563
 20
36.57720129828956
 10
17.12726998098751
 20
36.55720944975928
 10
17.12526701874445
 20
36.53439181972836
 10
17.12199294428661
 20
36.50836898702476
 10
17.11740322028059
 20
36.47892835529428
 10
17.11150627281872
 20
36.44652462745391
 10
17.10432376884978
 20
36.41177933123847
 10
17.09587737532257
 20
36.37531399438282
 10
17.08618875918586
 20
36.33775014462173
 10
17.07527958738843
 20
36.29970930969004
 10
17.06317152687906
 20
36.26181301732258
 10
17.04988624460653
 20
36.22468279525415
 10
17.03542253706695
 20
36.18882092456867
 10
17.01968771894575
 20
36.15425269974637
 10
17.00256623447568
 20
36.12088416861656
 10
16.98394252788951
 20
36.08862137900859
 10
16.96370104342001
 20
36.05737037875175
 10
16.9417262252999
 20
36.02703721567535
 10
16.91790251776198
 20
35.99752793760873
 10
16.89211436503897
 20
35.9687485923812
 10
16.86436537811892
 20
35.94066545333933
 10
16.83513583501082
 20
35.91348569589866
 10
16.80502518047892
 20
35.88747672099198
 10
16.7746328592875
 20
35.86290592955207
 10
16.74455831620082
 20
35.84004072251174
 10
16.71540099598311
 20
35.81914850080376
 10
16.68776034339868
 20
35.80049666536093
 10
16.66223580321173
 20
35.78435261711605
 10
16.63929441267695
 20
35.77086932871205
 10
16.61887357901054
 20
35.75974205963244
 10
16.60077830191904
 20
35.75055164107091
 10
16.58481358110904
 20
35.74287890422112
 10
16.57078441628713
 20
35.73630468027675
 10
16.55849580715986
 20
35.73040980043148
 10
16.54775275343382
 20
35.72477509587898
 10
16.5383602548156
 20
35.71898139781291
 10
16.53013173700202
 20
35.7126769897968
 10
16.52291432965101
 20
35.7057799648737
 10
16.51656358841079
 20
35.69827586845643
 10
16.51093506892958
 20
35.6901502459579
 10
16.50588432685553
 20
35.68138864279094
 10
16.50126691783688
 20
35.67197660436843
 10
16.49693839752184
 20
35.66189967610327
 10
16.49275432155858
 20
35.6511434034083
 10
16.48858709740575
 20
35.63972344459284
 10
16.48437653976365
 20
35.6277759095518
 10
16.48007931514301
 20
35.61546702107658
 10
16.47565209005455
 20
35.60296300195857
 10
16.47105153100901
 20
35.59043007498913
 10
16.46623430451714
 20
35.57803446295962
 10
16.46115707708964
 20
35.56594238866144
 10
16.45577651523726
 20
35.55432007488597
 10
16.45004808186475
 20
35.54330483602197
 10
16.44392242545303
 20
35.53291835284777
 10
16.43734899087706
 20
35.52315339773909
 10
16.4302772230118
 20
35.51400274307165
 10
16.42265656673218
 20
35.50545916122122
 10
16.41443646691319
 20
35.49751542456349
 10
16.40556636842976
 20
35.4901643054742
 10
16.39599571615685
 20
35.48339857632906
 10
16.38563904740236
 20
35.47720980517537
 10
16.374271269206
 20
35.47158474274655
 10
16.36163238104048
 20
35.46650893544762
 10
16.34746238237843
 20
35.46196792968355
 10
16.33150127269253
 20
35.45794727185936
 10
16.31348905145546
 20
35.45443250838001
 10
16.2931657181399
 20
35.45140918565053
 10
16.27027127221851
 20
35.44886285007589
 10
16.24141768341927
 20
35.44569470224515
 10
16.22695604507865
 20
35.44179432396694
 10
16.24141768341927
 20
35.44569470224515
 10
16.24141768341927
 20
35.44569470224515
 10
16.24141768341927
 20
35.44569470224515
 10
16.22695604507865
 20
35.44179432396694
 10
16.24141768341927
 20
35.44569470224515
 10
16.24141768341927
 20
35.44569470224515
 10
16.24141768341927
 20
35.44569470224515
 10
16.22695604507865
 20
35.44179432396694
 10
16.24141768341927
 20
35.44569470224515
 10
16.24141768341927
 20
35.44569470224515
 10
16.24141768341927
 20
35.44569470224515
 10
16.24141768341927
 20
35.44569470224515
 10
16.22695604507865
 20
35.44179432396694
 10
16.21565029530261
 20
35.4357433366592
 10
16.20885899498211
 20
35.43110596653998
 10
16.20187991784126
 20
35.42547126397173
 10
16.19469861938366
 20
35.41876695833372
 10
16.18730065511285
 20
35.41092077900528
 10
16.17967158053244
 20
35.40186045536571
 10
16.17179695114599
 20
35.39151371679431
 10
16.1636623224571
 20
35.37980829267039
 10
16.15525324996931
 20
35.36667191237326
 10
16.14647670172956
 20
35.3517393470114
 10
16.13692529595809
 20
35.33347353461014
 10
16.12611306341849
 20
35.31004445492398
 10
16.11355403487435
 20
35.27962208770738
 10
16.09876224108923
 20
35.24037641271488
 10
16.08125171282676
 20
35.19047740970095
 10
16.06053648085049
 20
35.1280950584201
 10
16.03613057592404
 20
35.05139933862681
 10
16.00779814922191
 20
34.95950158754276
 10
15.97630383356236
 20
34.85527857225822
 10
15.94266238217459
 20
34.74254841733066
 10
15.90788854828777
 20
34.62512924731752
 10
15.87299708513113
 20
34.50683918677625
 10
15.83900274593382
 20
34.39149636026428
 10
15.80692028392505
 20
34.2829188923391
 10
15.77776445233401
 20
34.18492490755814
 10
15.75227361750316
 20
34.10041375904818
 10
15.73008059822799
 20
34.02860971421329
 10
15.71054182641727
 20
33.96781826902688
 10
15.69301373397976
 20
33.91634491946233
 10
15.67685275282423
 20
33.87249516149306
 10
15.66141531485946
 20
33.83457449109247
 10
15.64605785199418
 20
33.80088840423395
 10
15.63013679613718
 20
33.7697423968909
 10
15.61315607922811
 20
33.7397495484849
 10
15.59520963333017
 20
33.71075327223016
 10
15.57653889053749
 20
33.68290456478904
 10
15.55738528294417
 20
33.65635442282397
 10
15.53799024264429
 20
33.6312538429973
 10
15.51859520173199
 20
33.60775382197142
 10
15.49944159230135
 20
33.58600535640868
 10
15.48077084644649
 20
33.56615944297153
 10
15.46279924710632
 20
33.54828906352337
 10
15.44564248059889
 20
33.53215514073197
 10
15.42939108408711
 20
33.5174405824662
 10
15.41413559473385
 20
33.50382829659486
 10
15.399966549702
 20
33.49100119098681
 10
15.38697448615442
 20
33.47864217351092
 10
15.37524994125401
 20
33.46643415203596
 10
15.36488345216364
 20
33.45406003443083
 10
15.35594292175547
 20
33.44127822667504
 10
15.34840571573879
 20
33.42814912719106
 10
15.34222656553214
 20
33.41480863251202
 10
15.33736020255411
 20
33.40139263917108
 10
15.33376135822324
 20
33.38803704370139
 10
15.33138476395808
 20
33.37487774263612
 10
15.33018515117721
 20
33.3620506325084
 10
15.33011725129917
 20
33.3496916098514
 10
15.3311785493234
 20
33.33777550872007
 10
15.33353754457275
 20
33.32563291325655
 10
15.33740548995093
 20
33.31243334512489
 10
15.34299363836166
 20
33.29734632598903
 10
15.35051324270865
 20
33.27954137751293
 10
15.36017555589562
 20
33.25818802136062
 10
15.37219183082627
 20
33.23245577919603
 10
15.38677332040435
 20
33.20151417268318
 10
15.40401559138558
 20
33.1647063689643
 10
15.42355146593387
 20
33.12207011709476
 10
15.44489808006513
 20
33.0738168116082
 10
15.46757256979535
 20
33.02015784703822
 10
15.49109207114041
 20
32.96130461791851
 10
15.51497372011627
 20
32.89746851878267
 10
15.53873465273887
 20
32.82886094416435
 10
15.56189200502412
 20
32.75569328859718
 10
15.58400818150136
 20
32.67823231188128
 10
15.60482666075349
 20
32.59696623488279
 10
15.62413618987678
 20
32.51243864373428
 10
15.64172551596753
 20
32.42519312456842
 10
15.65738338612201
 20
32.33577326351776
 10
15.67089854743652
 20
32.24472264671494
 10
15.68205974700734
 20
32.15258486029255
 10
15.69065573193075
 20
32.05990349038325
 10
15.69649285369465
 20
31.96708874310929
 10
15.69944788135352
 20
31.8740173045518
 10
15.69941518835339
 20
31.78043248078156
 10
15.69628914814036
 20
31.68607757786941
 10
15.68996413416046
 20
31.59069590188611
 10
15.68033451985981
 20
31.49403075890248
 10
15.66729467868445
 20
31.39582545498932
 10
15.65073898408046
 20
31.29582329621742
 10
15.63061713763534
 20
31.19392361809009
 10
15.60710015350242
 20
31.09064987384059
 10
15.58041437397648
 20
30.98668154613467
 10
15.55078614135227
 20
30.88269811763813
 10
15.51844179792454
 20
30.77937907101668
 10
15.48360768598807
 20
30.67740388893613
 10
15.44651014783765
 20
30.5774520540622
 10
15.407375525768
 20
30.48020304906069
 10
15.36637734889901
 20
30.38614006164176
 10
15.32347789365099
 20
30.29496109969323
 10
15.27858662326936
 20
30.20616787614736
 10
15.2316130009995
 20
30.11926210393641
 10
15.18246649008684
 20
30.03374549599261
 10
15.1310565537768
 20
29.9491197652482
 10
15.07729265531476
 20
29.86488662463542
 10
15.02108425794616
 20
29.78054778708655
 10
14.96232275572021
 20
29.69556056946727
 10
14.90082726590139
 20
29.60920470437709
 10
14.83639883655804
 20
29.520715528349
 10
14.76883851575844
 20
29.42932837791596
 10
14.69794735157092
 20
29.33427858961094
 10
14.62352639206376
 20
29.23480149996693
 10
14.5453766853053
 20
29.13013244551688
 10
14.46329927936384
 20
29.01950676279379
 10
14.37733098484779
 20
28.90244523093045
 10
14.28845166252604
 20
28.77961039945891
 10
14.1978769357076
 20
28.65195026051114
 10
14.10682242770146
 20
28.52041280621899
 10
14.01650376181666
 20
28.38594602871443
 10
13.92813656136216
 20
28.24949792012933
 10
13.842936449647
 20
28.11201647259563
 10
13.76211904998014
 20
27.97444967824522
 10
13.68669281672528
 20
27.83767563891558
 10
13.61683752846468
 20
27.70229289526643
 10
13.55252579483525
 20
27.56883009766304
 10
13.49373022547393
 20
27.4378158964707
 10
13.44042343001766
 20
27.30977894205467
 10
13.39257801810334
 20
27.18524788478025
 10
13.35016659936791
 20
27.0647513750127
 10
13.3131617834483
 20
26.94881806311729
 10
13.28147713945986
 20
26.83776422569918
 10
13.25479007443172
 20
26.73105664432287
 10
13.23271895487138
 20
26.62794972679275
 10
13.21488214728641
 20
26.52769788091319
 10
13.20089801818433
 20
26.42955551448857
 10
13.19038493407268
 20
26.33277703532328
 10
13.182961261459
 20
26.2366168512217
 10
13.17824536685083
 20
26.1403293699882
 10
13.17594345304382
 20
26.04328720313513
 10
13.17611306798606
 20
25.94533577700684
 10
13.17889959591377
 20
25.84643872165559
 10
13.18444842106317
 20
25.74655966713369
 10
13.19290492767045
 20
25.64566224349345
 10
13.20441449997182
 20
25.54371008078714
 10
13.21912252220351
 20
25.44066680906708
 10
13.23717437860173
 20
25.33649605838555
 10
13.25855189626453
 20
25.23144029798183
 10
13.28258267373739
 20
25.12685735384313
 10
13.30843075242764
 20
25.02438389114362
 10
13.33526017374264
 20
24.92565657505749
 10
13.36223497908969
 20
24.83231207075891
 10
13.38851920987615
 20
24.74598704342206
 10
13.41327690750933
 20
24.66831815822113
 10
13.43567211339658
 20
24.6009420803303
 10
13.45508997396343
 20
24.54500144450943
 10
13.4718000557082
 20
24.49966276386122
 10
13.48629303014737
 20
24.46359852107404
 10
13.49905956879749
 20
24.43548119883628
 10
13.51059034317504
 20
24.41398327983631
 10
13.52137602479656
 20
24.3977772467625
 10
13.53190728517855
 20
24.38553558230325
 10
13.5426747958375
 20
24.37593076914693
 10
13.55407415842357
 20
24.36784928812487
 10
13.56612069512135
 20
24.3610336126401
 10
13.57873465824906
 20
24.35544021423866
 10
13.59183630012492
 20
24.35102556446654
 10
13.60534587306717
 20
24.34774613486974
 10
13.61918362939402
 20
24.34555839699428
 10
13.63326982142372
 20
24.34441882238616
 10
13.64752470147446
 20
24.34428388259137
 10
13.66193564861067
 20
24.34509809417042
 10
13.67675854888162
 20
24.34675815374178
 10
13.69231641508278
 20
24.3491488029384
 10
13.70893226000959
 20
24.35215478339324
 10
13.72692909645753
 20
24.35566083673927
 10
13.74662993722205
 20
24.35955170460945
 10
13.76835779509862
 20
24.36371212863672
 10
13.79243568288269
 20
24.36802685045406
 10
13.81909664937848
 20
24.37234518250086
 10
13.84821388742513
 20
24.37637472044232
 10
13.87957062587055
 20
24.37978763075
 10
13.91295009356263
 20
24.38225607989557
 10
13.94813551934927
 20
24.38345223435059
 10
13.98491013207839
 20
24.38304826058671
 10
14.02305716059786
 20
24.38071632507551
 10
14.06235983375559
 20
24.37612859428862
 10
14.10257002737431
 20
24.36900991621329
 10
14.14331420517599
 20
24.35929586489913
 10
14.18418747785745
 20
24.34697469591146
 10
14.22478495611553
 20
24.33203466481554
 10
14.26470175064701
 20
24.31446402717668
 10
14.30353297214872
 20
24.29425103856014
 10
14.3408737313175
 20
24.27138395453118
 10
14.3763191388501
 20
24.24585103065512
 10
14.40952885305343
 20
24.21767183944649
 10
14.4404207226743
 20
24.186991221217
 10
14.46897714406967
 20
24.15398533322762
 10
14.4951805135964
 20
24.11883033273934
 10
14.51901322761143
 20
24.08170237701314
 10
14.54045768247163
 20
24.04277762330997
 10
14.55949627453391
 20
24.00223222889084
 10
14.57611140015519
 20
23.96024235101672
 10
14.59025807179386
 20
23.91699197602056
 10
14.60178176631448
 20
23.87269640652314
 10
14.61050057668306
 20
23.82757877421729
 10
14.61623259586567
 20
23.78186221079575
 10
14.61879591682837
 20
23.7357698479513
 10
14.61800863253717
 20
23.68952481737674
 10
14.61368883595814
 20
23.64335025076483
 10
14.60565462005732
 20
23.59746927980836
 10
14.59380622936009
 20
23.55212754507138
 10
14.57837251462914
 20
23.50766072260303
 10
14.55966447818651
 20
23.46442699732375
 10
14.53799312235424
 20
23.42278455415394
 10
14.51366944945432
 20
23.38309157801405
 10
14.48700446180884
 20
23.34570625382446
 10
14.4583091617398
 20
23.31098676650563
 10
14.42789455156924
 20
23.27929130097798
 10
14.39607358943208
 20
23.25089192115768
 10
14.3631670567149
 20
23.22571620694402
 10
14.32949769061714
 20
23.20360561723203
 10
14.29538822833832
 20
23.18440161091674
 10
14.26116140707785
 20
23.16794564689322
 10
14.22713996403523
 20
23.15407918405648
 10
14.19364663640992
 20
23.14264368130158
 10
14.16100416140139
 20
23.13348059752356
 10
14.12949615661661
 20
23.12641181877217
 10
14.09924976129258
 20
23.1211809397161
 10
14.07035299507383
 20
23.11751198217879
 10
14.04289387760483
 20
23.11512896798362
 10
14.01696042853012
 20
23.11375591895405
 10
13.99264066749421
 20
23.11311685691344
 10
13.9700226141416
 20
23.11293580368524
 10
13.94919428811679
 20
23.11293678109287
 10
13.93018991942897
 20
23.11286142645432
 10
13.91282857954609
 20
23.11252183906603
 10
13.89687555030072
 20
23.11174773371903
 10
13.8820961135255
 20
23.11036882520435
 10
13.86825555105301
 20
23.10821482831302
 10
13.85511914471587
 20
23.10511545783604
 10
13.84245217634667
 20
23.10090042856447
 10
13.83001992777803
 20
23.09539945528932
 10
13.81762726996896
 20
23.08845008490508
 10
13.80523743038411
 20
23.07992119272009
 10
13.79285322561456
 20
23.06968948614607
 10
13.78047747225134
 20
23.05763167259482
 10
13.76811298688553
 20
23.04362445947811
 10
13.75576258610819
 20
23.02754455420771
 10
13.74342908651039
 20
23.00926866419538
 10
13.73111530468317
 20
22.98867349685291
 10
13.71878057847903
 20
22.96569096997695
 10
13.70621033079624
 20
22.94047384290376
 10
13.6931465057944
 20
22.91323008535448
 10
13.67933104763323
 20
22.88416766705024
 10
13.66450590047237
 20
22.85349455771223
 10
13.64841300847147
 20
22.82141872706154
 10
13.63079431579023
 20
22.78814814481935
 10
13.61139176658829
 20
22.75389078070681
 10
13.59001112278229
 20
22.71886592562857
 10
13.56671341731674
 20
22.68333815522354
 10
13.54162350089311
 20
22.6475833663141
 10
13.51486622421288
 20
22.61187745572266
 10
13.48656643797751
 20
22.57649632027163
 10
13.45684899288849
 20
22.54171585678342
 10
13.4258387396473
 20
22.50781196208043
 10
13.3936605289554
 20
22.47506053298507
 10
13.36038523420147
 20
22.44363883556726
 10
13.32586781952309
 20
22.41332961288703
 10
13.28990927174497
 20
22.38381697725188
 10
13.2523105776919
 20
22.35478504096937
 10
13.2128727241886
 20
22.32591791634701
 10
13.17139669805986
 20
22.29689971569233
 10
13.1276834861304
 20
22.26741455131288
 10
13.081534075225
 20
22.23714653551618
 10
13.03294732185842
 20
22.20591368947733
 10
12.98271356130565
 20
22.17406966984178
 10
12.93182099853166
 20
22.14210204212252
 10
12.88125783850144
 20
22.11049837183257
 10
12.83201228617998
 20
22.07974622448494
 10
12.78507254653227
 20
22.05033316559263
 10
12.74142682452329
 20
22.02274676066866
 10
12.70206332511806
 20
21.99747457522604
 10
12.66772548950404
 20
21.97487141054584
 10
12.63817770375885
 20
21.95476101098146
 10
12.61293959018256
 20
21.93683435665432
 10
12.59153077107527
 20
21.92078242768591
 10
12.57347086873707
 20
21.90629620419766
 10
12.55827950546804
 20
21.89306666631104
 10
12.54547630356831
 20
21.88078479414748
 10
12.53458088533794
 20
21.86914156782846
 10
12.52518607355065
 20
21.85784742407681
 10
12.51717749287471
 20
21.84669062602095
 10
12.51051396845198
 20
21.83547889339071
 10
12.50515432542433
 20
21.8240199459159
 10
12.50105738893364
 20
21.81212150332632
 10
12.49818198412178
 20
21.79959128535181
 10
12.49648693613062
 20
21.78623701172217
 10
12.49593107010205
 20
21.77186640216723
 10
12.49649804588149
 20
21.75630059147832
 10
12.49827086212873
 20
21.73941437469282
 10
12.50135735220708
 20
21.72109596190967
 10
12.50586534947991
 20
21.70123356322775
 10
12.51190268731052
 20
21.67971538874599
 10
12.51957719906226
 20
21.6564296485633
 10
12.52899671809848
 20
21.63126455277858
 10
12.5402690777825
 20
21.60410831149077
 10
12.55345595738247
 20
21.57473716736256
 10
12.5684344197858
 20
21.54247949331193
 10
12.58503537378471
 20
21.50655169482066
 10
12.6030897281714
 20
21.46617017737053
 10
12.6224283917381
 20
21.4205513464433
 10
12.64288227327702
 20
21.36891160752076
 10
12.66428228158037
 20
21.31046736608469
 10
12.68645932544038
 20
21.24443502761685
 10
12.70918188945534
 20
21.17025151476914
 10
12.7319687614479
 20
21.0882358188739
 10
12.75427630504679
 20
20.99892744843355
 10
12.77556088388072
 20
20.90286591195056
 10
12.79527886157844
 20
20.80059071792735
 10
12.81288660176865
 20
20.69264137486637
 10
12.8278404680801
 20
20.57955739127007
 10
12.8395968241415
 20
20.46187827564091
 10
12.84772212479063
 20
20.34017060752514
 10
12.85222318970139
 20
20.21510925064442
 10
12.85321692975674
 20
20.08739613976425
 10
12.85082025583964
 20
19.9577332096501
 10
12.84515007883303
 20
19.82682239506749
 10
12.83632330961987
 20
19.69536563078187
 10
12.82445685908309
 20
19.56406485155875
 10
12.80966763810569
 20
19.43362199216363
 10
12.79198487442538
 20
19.30451800797226
 10
12.7710870631991
 20
19.17634993680154
 10
12.74656501643863
 20
19.04849383707864
 10
12.71800954615566
 20
18.92032576723076
 10
12.68501146436196
 20
18.79122178568504
 10
12.64716158306925
 20
18.66055795086869
 10
12.60405071428929
 20
18.52771032120887
 10
12.5552696700338
 20
18.39205495513277
 10
12.50060086617654
 20
18.25328638125911
 10
12.44059313403922
 20
18.11237300897297
 10
12.37598690880562
 20
17.97060171785097
 10
12.30752262565946
 20
17.82925938746973
 10
12.23594071978447
 20
17.68963289740588
 10
12.16198162636442
 20
17.55300912723605
 10
12.08638578058303
 20
17.42067495653687
 10
12.00989361762404
 20
17.29391726488495
 10
11.93307020648287
 20
17.17367521439723
 10
11.8557791514016
 20
17.05949709735189
 10
11.77770869043399
 20
16.95058348856741
 10
11.69854706163378
 20
16.84613496286226
 10
11.61798250305472
 20
16.74535209505493
 10
11.53570325275057
 20
16.64743545996391
 10
11.45139754877506
 20
16.55158563240766
 10
11.36475362918195
 20
16.45700318720467
 10
11.27578033682598
 20
16.36316520455375
 10
11.18576893376581
 20
16.27065478617499
 10
11.09633128686103
 20
16.18033153916882
 10
11.00907926297132
 20
16.09305507063565
 10
10.92562472895628
 20
16.0096849876759
 10
10.84757955167554
 20
15.93108089739
 10
10.77655559798873
 20
15.85810240687837
 10
10.7141647347555
 20
15.79160912324142
 10
10.66160473285682
 20
15.73211911446266
 10
10.61841697925905
 20
15.67878429205791
 10
10.5837287649499
 20
15.63041502842608
 10
10.5566673809171
 20
15.58582169596608
 10
10.53636011814836
 20
15.5438146670768
 10
10.52193426763137
 20
15.50320431415715
 10
10.51251712035387
 20
15.46280100960604
 10
10.50723596730356
 20
15.42141512582239
 10
10.50536395119684
 20
15.37817728664528
 10
10.50675762166478
 20
15.3334991216747
 10
10.51141938006717
 20
15.2881125119508
 10
10.51935162776375
 20
15.24274933851378
 10
10.5305567661143
 20
15.19814148240377
 10
10.54503719647857
 20
15.15502082466098
 10
10.56279532021633
 20
15.11411924632556
 10
10.58383353868735
 20
15.07616862843769
 10
10.60809790142392
 20
15.04176642980084
 10
10.63530905064852
 20
15.01097242027168
 10
10.66513127675615
 20
14.9837119474702
 10
10.69722887014182
 20
14.95991035901639
 10
10.73126612120056
 20
14.93949300253023
 10
10.76690732032735
 20
14.92238522563169
 10
10.80381675791721
 20
14.90851237594076
 10
10.84165872436515
 20
14.89779980107742
 10
10.88010165451957
 20
14.8901500382949
 10
10.91883056104244
 20
14.88537438337928
 10
10.9575346010491
 20
14.88326132174994
 10
10.99590293165491
 20
14.8835993388262
 10
11.03362470997525
 20
14.88617692002742
 10
11.07038909312544
 20
14.89078255077295
 10
11.10588523822086
 20
14.89720471648211
 10
11.13980230237683
 20
14.90523190257427
 10
11.1718978281461
 20
14.91468162589476
 10
11.20220289983071
 20
14.92548752899294
 10
11.23081698717009
 20
14.93761228584414
 10
11.25783955990365
 20
14.95101857042371
 10
11.28337008777081
 20
14.965669056707
 10
11.30750804051098
 20
14.98152641866935
 10
11.33035288786361
 20
14.99855333028611
 10
11.35200409956809
 20
15.01671246553261
 10
11.37256943450878
 20
15.03591465659145
 10
11.39218980814989
 20
15.05586336847408
 10
11.41101442510052
 20
15.07621022439924
 10
11.42919248996979
 20
15.09660684758561
 10
11.44687320736686
 20
15.1167048612519
 10
11.46420578190083
 20
15.13615588861684
 10
11.48133941818085
 20
15.15461155289912
 10
11.49842332081602
 20
15.17172347731746
 10
11.51557975463484
 20
15.18717439022134
 10
11.53282322534328
 20
15.20077144048337
 10
11.55014129886664
 20
15.21235288210698
 10
11.56752154113024
 20
15.22175696909552
 10
11.58495151805941
 20
15.22882195545243
 10
11.60241879557946
 20
15.23338609518109
 10
11.6199109396157
 20
15.2352876422849
 10
11.63741551609348
 20
15.23436485076725
 10
11.65489729595109
 20
15.23042279585112
 10
11.67222987017885
 20
15.22313383763765
 10
11.68926403478006
 20
15.21213715744758
 10
11.70585058575804
 20
15.19707193660164
 10
11.72184031911608
 20
15.17757735642054
 10
11.73708403085751
 20
15.15329259822503
 10
11.75143251698564
 20
15.12385684333581
 10
11.76473657350377
 20
15.08890927307362
 10
11.77680969521187
 20
15.04821763630606
 10
11.78731617209669
 20
15.00206395208815
 10
11.79588299294162
 20
14.95085880702182
 10
11.80213714653006
 20
14.89501278770898
 10
11.80570562164541
 20
14.83493648075154
 10
11.80621540707106
 20
14.77104047275141
 10
11.80329349159044
 20
14.7037353503105
 10
11.79656686398691
 20
14.63343170003072
 10
11.78569981417917
 20
14.56064793939886
 10
11.77050583662696
 20
14.48633380944119
 10
11.75083572692531
 20
14.41154688206887
 10
11.72654028066922
 20
14.33734472919304
 10
11.69747029345371
 20
14.26478492272486
 10
11.66347656087381
 20
14.19492503457548
 10
11.62440987852453
 20
14.12882263665604
 10
11.58012104200089
 20
14.0675353008777
 10
11.530703304039
 20
14.01192360050442
 10
11.47721974593927
 20
13.96206011421144
 10
11.42097590614324
 20
13.91782042202682
 10
11.36327732309243
 20
13.8790801039786
 10
11.30542953522833
 20
13.84571474009485
 10
11.24873808099249
 20
13.8175999104036
 10
11.19450849882641
 20
13.79461119493293
 10
11.14404632717161
 20
13.77662417371086
 10
11.09835247886046
 20
13.76342525883782
 10
11.05720936428883
 20
13.7544441907035
 10
11.02009476824341
 20
13.74902154177
 10
10.98648647551092
 20
13.7464978844994
 10
10.95586227087807
 20
13.74621379135374
 10
10.92769993913155
 20
13.74750983479511
 10
10.90147726505809
 20
13.74972658728558
 10
10.87667203344439
 20
13.75220462128722
 10
10.85286357089016
 20
13.75434257216921
 10
10.83003737124714
 20
13.75577132692922
 10
10.80828047018008
 20
13.75617983547203
 10
10.78767990335368
 20
13.75525704770242
 10
10.76832270643271
 20
13.75269191352515
 10
10.75029591508189
 20
13.74817338284502
 10
10.73368656496596
 20
13.74139040556681
 10
10.71858169174966
 20
13.73203193159527
 10
10.70497300615194
 20
13.71984497341163
 10
10.6924709191086
 20
13.70480879380269
 10
10.68059051660968
 20
13.6869607181317
 10
10.66884688464521
 20
13.6663380717619
 10
10.65675510920523
 20
13.64297818005652
 10
10.64383027627972
 20
13.61691836837881
 10
10.62958747185876
 20
13.588195962092
 10
10.61354178193234
 20
13.55684828655932
 10
10.59530361743629
 20
13.52302257189904
 10
10.57486468908956
 20
13.48730566724943
 10
10.55231203255689
 20
13.45039432650379
 10
10.52773268350301
 20
13.4129853035554
 10
10.50121367759265
 20
13.37577535229756
 10
10.47284205049056
 20
13.33946122662355
 10
10.44270483786147
 20
13.30473968042669
 10
10.41088907537012
 20
13.27230746760024
 10
10.3774714373266
 20
13.24272862697085
 10
10.3424871526225
 20
13.21603633709849
 10
10.30596108879471
 20
13.19213106147646
 10
10.26791811338019
 20
13.17091326359808
 10
10.22838309391585
 20
13.15228340695665
 10
10.18738089793861
 20
13.13614195504549
 10
10.14493639298542
 20
13.1223893713579
 10
10.10107444659319
 20
13.11092611938721
 10
10.05590488985598
 20
13.10167132574926
 10
10.00987740809634
 20
13.09461876955021
 10
9.963526650193955
 20
13.08978089301872
 10
9.917387265028501
 20
13.0871701383835
 10
9.871993901479674
 20
13.08679894787324
 10
9.82788120842714
 20
13.08867976371662
 10
9.7855838347506
 20
13.09282502814235
 10
9.745636429329703
 20
13.09924718337909
 10
9.708478316098375
 20
13.10788816679533
 10
9.674167519207369
 20
13.11840789631867
 10
9.642666737861659
 20
13.13039578501649
 10
9.6139386712662
 20
13.14344124595617
 10
9.587946018625979
 20
13.15713369220509
 10
9.564651479145968
 20
13.17106253683062
 10
9.544017752031122
 20
13.18481719290016
 10
9.526007536486448
 20
13.19798707348108
 10
9.510577314781617
 20
13.21029223294752
 10
9.497658701445276
 20
13.22197529090068
 10
9.487177094070784
 20
13.23340950824854
 10
9.479057890251507
 20
13.24496814589905
 10
9.47322648758082
 20
13.25702446476018
 10
9.469608283652066
 20
13.2699517257399
 10
9.468128676058627
 20
13.28412318974615
 10
9.468713062393845
 20
13.29991211768693
 10
9.471274406584726
 20
13.31763578132297
 10
9.475675937892649
 20
13.33738749582614
 10
9.481768451912655
 20
13.3592045872211
 10
9.48940274423975
 20
13.3831243815325
 10
9.498429610468942
 20
13.40918420478499
 10
9.508699846195273
 20
13.43742138300324
 10
9.520064247013742
 20
13.4678732422119
 10
9.532373608519378
 20
13.50057710843562
 10
9.545449714350908
 20
13.53551639220149
 10
9.558998300321867
 20
13.57245884204642
 10
9.572696090289522
 20
13.61111829100972
 10
9.586219808111113
 20
13.6512085721307
 10
9.599246177643919
 20
13.69244351844873
 10
9.611451922745175
 20
13.7345369630031
 10
9.622513767272142
 20
13.77720273883315
 10
9.632108435082066
 20
13.82015467897822
 10
9.63996031255615
 20
13.86317297409362
 10
9.645984436171271
 20
13.90630324529874
 10
9.650143504928268
 20
13.94965747132897
 10
9.652400217827974
 20
13.99334763091966
 10
9.652717273871189
 20
14.03748570280622
 10
9.651057372058774
 20
14.08218366572401
 10
9.647383211391542
 20
14.12755349840843
 10
9.641657490870315
 20
14.17370717959484
 10
9.633892644263564
 20
14.22067581474474
 10
9.624300044410295
 20
14.26816701622406
 10
9.613140798917143
 20
14.31580752312484
 10
9.600676015390776
 20
14.3632240745391
 10
9.587166801437824
 20
14.41004340955888
 10
9.572874264664941
 20
14.45589226727622
 10
9.558059512678754
 20
14.50039738678316
 10
9.542983653085936
 20
14.54318550717172
 10
9.527839408157841
 20
14.58391239895994
 10
9.512545958824759
 20
14.62234995836987
 10
9.496954100681728
 20
14.65829911304953
 10
9.480914629323741
 20
14.69156079064696
 10
9.464278340345828
 20
14.7219359188102
 10
9.446896029343008
 20
14.74922542518727
 10
9.428618491910299
 20
14.77323023742622
 10
9.409296523642716
 20
14.79375128317508
 10
9.388849305504585
 20
14.81064755287878
 10
9.367469559937374
 20
14.82401028816975
 10
9.345418394751897
 20
14.83398879347732
 10
9.322956917758947
 20
14.84073237323082
 10
9.300346236769286
 20
14.84439033185958
 10
9.277847459593742
 20
14.84511197379292
 10
9.255721694043078
 20
14.84304660346018
 10
9.234230047928107
 20
14.83834352529068
 10
9.213614497491883
 20
14.83033610771272
 10
9.194040492706712
 20
14.81509397515051
 10
9.175654351977101
 20
14.78787081602726
 10
9.158602393707655
 20
14.74392031876615
 10
9.143030936302917
 20
14.67849617179037
 10
9.129086298167434
 20
14.58685206352311
 10
9.116914797705771
 20
14.46424168238757
 10
9.10666275332249
 20
14.30591871680694
 10
9.098382046609982
 20
14.10958674914845
 10
9.091746811911912
 20
13.88274893755553
 10
9.086336746759808
 20
13.63535833411566
 10
9.081731548685162
 20
13.37736799091631
 10
9.077510915219482
 20
13.11873096004497
 10
9.073254543894279
 20
12.86940029358909
 10
9.068542132241077
 20
12.63932904363617
 10
9.06295337779135
 20
12.43847026227367
 10
9.056137323200474
 20
12.2743428926155
 10
9.048020391619129
 20
12.14472944188123
 10
9.038598351321885
 20
12.04497830831685
 10
9.02786697058327
 20
11.97043789016838
 10
9.01582201767783
 20
11.9164565856818
 10
9.002459260880101
 20
11.87838279310311
 10
8.98777446846466
 20
11.85156491067831
 10
8.971763408706008
 20
11.83135133665341
 10
8.954492775970898
 20
11.81385279215525
 10
8.936312968994677
 20
11.79822928983411
 10
8.917645312604939
 20
11.78440316522112
 10
8.898911131629239
 20
11.77229675384741
 10
8.880531750895114
 20
11.7618323912441
 10
8.862928495230139
 20
11.75293241294235
 10
8.846522689461872
 20
11.74551915447324
 10
8.831735658417848
 20
11.73951495136793
 10
8.818881547813615
 20
11.73480885433006
 10
8.807845786916422
 20
11.7311567747533
 10
8.798406625881503
 20
11.72828133920382
 10
8.790342314864076
 20
11.72590517424781
 10
8.783431104019383
 20
11.72375090645147
 10
8.777451243502639
 20
11.72154116238096
 10
8.772180983469048
 20
11.71899856860247
 10
8.767398574073881
 20
11.71584575168219
 10
8.762885961214621
 20
11.71180348919762
 10
8.758439873757904
 20
11.70658516277162
 10
8.753860736312683
 20
11.69990230503838
 10
8.748948973487836
 20
11.69146644863206
 10
8.743505009892334
 20
11.68098912618686
 10
8.737329270135095
 20
11.66818187033696
 10
8.730222178825018
 20
11.65275621371653
 10
8.72198416057105
 20
11.63442368895978
 10
8.712402704697002
 20
11.61302342016294
 10
8.701213559386131
 20
11.58890489727059
 10
8.688139537536665
 20
11.56254520168936
 10
8.672903452046771
 20
11.5344214148259
 10
8.655228115814601
 20
11.50501061808684
 10
8.634836341738344
 20
11.47478989287882
 10
8.611450942716183
 20
11.4442363206085
 10
8.584794731646292
 20
11.4138269826825
 10
8.559855792115257
 20
11.38397978763391
 10
8.531767931688591
 20
11.35487595250165
 10
8.492779081734218
 20
11.31848311720979
 10
8.456367700050197
 20
11.28814059052805
 10
8.417223590136357
 20
11.25893493458585
 10
8.405176004721871
 20
11.25059407970873
 10
8.365152556539369
 20
11.22489390936109
 10
8.319127554885941
 20
11.19886204194393
 10
8.270198176936432
 20
11.1749354545461
 10
8.22150461088557
 20
11.15463757443976
 10
8.160678501981282
 20
11.13508477133287
 10
8.098969544574167
 20
11.11754226334994
 10
8.030661545195716
 20
11.10485550862516
 10
7.955309522540899
 20
11.09710152073811
 10
7.872514261046942
 20
11.09585311962908
  0
LINE
  5
BA0C
330
18
100
AcDbEntity
  8
0
100
AcDbLine
 10
7.873444172865877
 20
36.72198056330756
 30
0.0
 11
17.02694308268678
 21
36.72499268152256
 31
0.0
  0
POLYLINE
  5
BA0D
330
18
100
AcDbEntity
  8
0
100
AcDb2dPolyline
 66
     1
 10
0.0
 20
0.0
 30
0.0
 70
     5
 75
     6
  0
VERTEX
  5
BA0E
330
BA0D
100
AcDbEntity
  8
0
100
AcDbVertex
100
AcDb2dVertex
 10
12.07442100229498
 20
22.49050861646118
 30
0.0
 70
    16
  0
VERTEX
  5
BA0F
330
BA0D
100
AcDbEntity
  8
0
100
AcDbVertex
100
AcDb2dVertex
 10
11.40899234064639
 20
24.46460198038564
 30
0.0
 70
     8
  0
VERTEX
  5
BA10
330
BA0D
100
AcDbEntity
  8
0
100
AcDbVertex
100
AcDb2dVertex
 10
11.32938209689083
 20
24.75227307707883
 30
0.0
 70
     8
  0
VERTEX
  5
BA11
330
BA0D
100
AcDbEntity
  8
0
100
AcDbVertex
100
AcDb2dVertex
 10
11.25134247348181
 20
25.05113888970968
 30
0.0
 70
     8
  0
VERTEX
  5
BA12
330
BA0D
100
AcDbEntity
  8
0
100
AcDbVertex
100
AcDb2dVertex
 10
11.17534190113497
 20
25.35937958747821
 30
0.0
 70
     8
  0
VERTEX
  5
BA13
330
BA0D
100
AcDbEntity
  8
0
100
AcDbVertex
100
AcDb2dVertex
 10
11.10184881056593
 20
25.67517533958441
 30
0.0
 70
     8
  0
VERTEX
  5
BA14
330
BA0D
100
AcDbEntity
  8
0
100
AcDbVertex
100
AcDb2dVertex
 10
11.03133163249031
 20
25.99670631522829
 30
0.0
 70
     8
  0
VERTEX
  5
BA15
330
BA0D
100
AcDbEntity
  8
0
100
AcDbVertex
100
AcDb2dVertex
 10
10.96425879762375
 20
26.32215268360984
 30
0.0
 70
     8
  0
VERTEX
  5
BA16
330
BA0D
100
AcDbEntity
  8
0
100
AcDbVertex
100
AcDb2dVertex
 10
10.90109873668188
 20
26.64969461392908
 30
0.0
 70
     8
  0
VERTEX
  5
BA17
330
BA0D
100
AcDbEntity
  8
0
100
AcDbVertex
100
AcDb2dVertex
 10
10.84231988038031
 20
26.97751227538599
 30
0.0
 70
     8
  0
VERTEX
  5
BA18
330
BA0D
100
AcDbEntity
  8
0
100
AcDbVertex
100
AcDb2dVertex
 10
10.7883309574487
 20
27.30386396127851
 30
0.0
 70
     8
  0
VERTEX
  5
BA19
330
BA0D
100
AcDbEntity
  8
0
100
AcDbVertex
100
AcDb2dVertex
 10
10.73930188867281
 20
27.6273204612963
 30
0.0
 70
     8
  0
VERTEX
  5
BA1A
330
BA0D
100
AcDbEntity
  8
0
100
AcDbVertex
100
AcDb2dVertex
 10
10.6953428928524
 20
27.94653068922695
 30
0.0
 70
     8
  0
VERTEX
  5
BA1B
330
BA0D
100
AcDbEntity
  8
0
100
AcDbVertex
100
AcDb2dVertex
 10
10.65656418878726
 20
28.26014355885806
 30
0.0
 70
     8
  0
VERTEX
  5
BA1C
330
BA0D
100
AcDbEntity
  8
0
100
AcDbVertex
100
AcDb2dVertex
 10
10.62307599527716
 20
28.56680798397722
 30
0.0
 70
     8
  0
VERTEX
  5
BA1D
330
BA0D
100
AcDbEntity
  8
0
100
AcDbVertex
100
AcDb2dVertex
 10
10.59498853112187
 20
28.86517287837202
 30
0.0
 70
     8
  0
VERTEX
  5
BA1E
330
BA0D
100
AcDbEntity
  8
0
100
AcDbVertex
100
AcDb2dVertex
 10
10.57241201512117
 20
29.15388715583005
 30
0.0
 70
     8
  0
VERTEX
  5
BA1F
330
BA0D
100
AcDbEntity
  8
0
100
AcDbVertex
100
AcDb2dVertex
 10
10.55545666607484
 20
29.43159973013891
 30
0.0
 70
     8
  0
VERTEX
  5
BA20
330
BA0D
100
AcDbEntity
  8
0
100
AcDbVertex
100
AcDb2dVertex
 10
10.54414544613075
 20
29.69718929169567
 30
0.0
 70
     8
  0
VERTEX
  5
BA21
330
BA0D
100
AcDbEntity
  8
0
100
AcDbVertex
100
AcDb2dVertex
 10
10.53815229082922
 20
29.95045363733532
 30
0.0
 70
     8
  0
VERTEX
  5
BA22
330
BA0D
100
AcDbEntity
  8
0
100
AcDbVertex
100
AcDb2dVertex
 10
10.53706387905863
 20
30.19142034050234
 30
0.0
 70
     8
  0
VERTEX
  5
BA23
330
BA0D
100
AcDbEntity
  8
0
100
AcDbVertex
100
AcDb2dVertex
 10
10.54046688970741
 20
30.42011697464121
 30
0.0
 70
     8
  0
VERTEX
  5
BA24
330
BA0D
100
AcDbEntity
  8
0
100
AcDbVertex
100
AcDb2dVertex
 10
10.54794800166395
 20
30.63657111319639
 30
0.0
 70
     8
  0
VERTEX
  5
BA25
330
BA0D
100
AcDbEntity
  8
0
100
AcDbVertex
100
AcDb2dVertex
 10
10.55909389381666
 20
30.84081032961237
 30
0.0
 70
     8
  0
VERTEX
  5
BA26
330
BA0D
100
AcDbEntity
  8
0
100
AcDbVertex
100
AcDb2dVertex
 10
10.57349124505395
 20
31.03286219733363
 30
0.0
 70
     8
  0
VERTEX
  5
BA27
330
BA0D
100
AcDbEntity
  8
0
100
AcDbVertex
100
AcDb2dVertex
 10
10.59072673426421
 20
31.21275428980464
 30
0.0
 70
     8
  0
VERTEX
  5
BA28
330
BA0D
100
AcDbEntity
  8
0
100
AcDbVertex
100
AcDb2dVertex
 10
10.61052022162377
 20
31.38070259713311
 30
0.0
 70
     8
  0
VERTEX
  5
BA29
330
BA0D
100
AcDbEntity
  8
0
100
AcDbVertex
100
AcDb2dVertex
 10
10.63312429246051
 20
31.53767677607971
 30
0.0
 70
     8
  0
VERTEX
  5
BA2A
330
BA0D
100
AcDbEntity
  8
0
100
AcDbVertex
100
AcDb2dVertex
 10
10.65892471339022
 20
31.68483490006837
 30
0.0
 70
     8
  0
VERTEX
  5
BA2B
330
BA0D
100
AcDbEntity
  8
0
100
AcDbVertex
100
AcDb2dVertex
 10
10.68830725102872
 20
31.82333504252297
 30
0.0
 70
     8
  0
VERTEX
  5
BA2C
330
BA0D
100
AcDbEntity
  8
0
100
AcDbVertex
100
AcDb2dVertex
 10
10.72165767199178
 20
31.95433527686743
 30
0.0
 70
     8
  0
VERTEX
  5
BA2D
330
BA0D
100
AcDbEntity
  8
0
100
AcDbVertex
100
AcDb2dVertex
 10
10.75936174289521
 20
32.07899367652566
 30
0.0
 70
     8
  0
VERTEX
  5
BA2E
330
BA0D
100
AcDbEntity
  8
0
100
AcDbVertex
100
AcDb2dVertex
 10
10.80180523035479
 20
32.19846831492157
 30
0.0
 70
     8
  0
VERTEX
  5
BA2F
330
BA0D
100
AcDbEntity
  8
0
100
AcDbVertex
100
AcDb2dVertex
 10
10.84937390098634
 20
32.31391726547907
 30
0.0
 70
     8
  0
VERTEX
  5
BA30
330
BA0D
100
AcDbEntity
  8
0
100
AcDbVertex
100
AcDb2dVertex
 10
10.90236167216766
 20
32.42625503862106
 30
0.0
 70
     8
  0
VERTEX
  5
BA31
330
BA0D
100
AcDbEntity
  8
0
100
AcDbVertex
100
AcDb2dVertex
 10
10.96069506432463
 20
32.53542189276639
 30
0.0
 70
     8
  0
VERTEX
  5
BA32
330
BA0D
100
AcDbEntity
  8
0
100
AcDbVertex
100
AcDb2dVertex
 10
11.02420874864515
 20
32.64111452333291
 30
0.0
 70
     8
  0
VERTEX
  5
BA33
330
BA0D
100
AcDbEntity
  8
0
100
AcDbVertex
100
AcDb2dVertex
 10
11.09273739631713
 20
32.74302962573847
 30
0.0
 70
     8
  0
VERTEX
  5
BA34
330
BA0D
100
AcDbEntity
  8
0
100
AcDbVertex
100
AcDb2dVertex
 10
11.16611567852846
 20
32.84086389540092
 30
0.0
 70
     8
  0
VERTEX
  5
BA35
330
BA0D
100
AcDbEntity
  8
0
100
AcDbVertex
100
AcDb2dVertex
 10
11.24417826646705
 20
32.9343140277381
 30
0.0
 70
     8
  0
VERTEX
  5
BA36
330
BA0D
100
AcDbEntity
  8
0
100
AcDbVertex
100
AcDb2dVertex
 10
11.3267598313208
 20
33.02307671816786
 30
0.0
 70
     8
  0
VERTEX
  5
BA37
330
BA0D
100
AcDbEntity
  8
0
100
AcDbVertex
100
AcDb2dVertex
 10
11.41369504427761
 20
33.10684866210805
 30
0.0
 70
     8
  0
VERTEX
  5
BA38
330
BA0D
100
AcDbEntity
  8
0
100
AcDbVertex
100
AcDb2dVertex
 10
11.5047726520595
 20
33.18532195929218
 30
0.0
 70
     8
  0
VERTEX
  5
BA39
330
BA0D
100
AcDbEntity
  8
0
100
AcDbVertex
100
AcDb2dVertex
 10
11.59959770352495
 20
33.25817032671656
 30
0.0
 70
     8
  0
VERTEX
  5
BA3A
330
BA0D
100
AcDbEntity
  8
0
100
AcDbVertex
100
AcDb2dVertex
 10
11.69772932306657
 20
33.32506288569311
 30
0.0
 70
     8
  0
VERTEX
  5
BA3B
330
BA0D
100
AcDbEntity
  8
0
100
AcDbVertex
100
AcDb2dVertex
 10
11.79872663507698
 20
33.3856687575338
 30
0.0
 70
     8
  0
VERTEX
  5
BA3C
330
BA0D
100
AcDbEntity
  8
0
100
AcDbVertex
100
AcDb2dVertex
 10
11.90214876394877
 20
33.43965706355059
 30
0.0
 70
     8
  0
VERTEX
  5
BA3D
330
BA0D
100
AcDbEntity
  8
0
100
AcDbVertex
100
AcDb2dVertex
 10
12.00755483407456
 20
33.48669692505543
 30
0.0
 70
     8
  0
VERTEX
  5
BA3E
330
BA0D
100
AcDbEntity
  8
0
100
AcDbVertex
100
AcDb2dVertex
 10
12.11450396984695
 20
33.52645746336027
 30
0.0
 70
     8
  0
VERTEX
  5
BA3F
330
BA0D
100
AcDbEntity
  8
0
100
AcDbVertex
100
AcDb2dVertex
 10
12.22255529565855
 20
33.55860779977707
 30
0.0
 70
     8
  0
VERTEX
  5
BA40
330
BA0D
100
AcDbEntity
  8
0
100
AcDbVertex
100
AcDb2dVertex
 10
12.33132304533587
 20
33.58287679769498
 30
0.0
 70
     8
  0
VERTEX
  5
BA41
330
BA0D
100
AcDbEntity
  8
0
100
AcDbVertex
100
AcDb2dVertex
 10
12.44064189044109
 20
33.599232288812
 30
0.0
 70
     8
  0
VERTEX
  5
BA42
330
BA0D
100
AcDbEntity
  8
0
100
AcDbVertex
100
AcDb2dVertex
 10
12.55040161197028
 20
33.60770184690329
 30
0.0
 70
     8
  0
VERTEX
  5
BA43
330
BA0D
100
AcDbEntity
  8
0
100
AcDbVertex
100
AcDb2dVertex
 10
12.66049199091953
 20
33.60831304574405
 30
0.0
 70
     8
  0
VERTEX
  5
BA44
330
BA0D
100
AcDbEntity
  8
0
100
AcDbVertex
100
AcDb2dVertex
 10
12.77080280828491
 20
33.60109345910946
 30
0.0
 70
     8
  0
VERTEX
  5
BA45
330
BA0D
100
AcDbEntity
  8
0
100
AcDbVertex
100
AcDb2dVertex
 10
12.88122384506249
 20
33.5860706607747
 30
0.0
 70
     8
  0
VERTEX
  5
BA46
330
BA0D
100
AcDbEntity
  8
0
100
AcDbVertex
100
AcDb2dVertex
 10
12.99164488224837
 20
33.56327222451496
 30
0.0
 70
     8
  0
VERTEX
  5
BA47
330
BA0D
100
AcDbEntity
  8
0
100
AcDbVertex
100
AcDb2dVertex
 10
13.10195570083863
 20
33.53272572410541
 30
0.0
 70
     8
  0
VERTEX
  5
BA48
330
BA0D
100
AcDbEntity
  8
0
100
AcDbVertex
100
AcDb2dVertex
 10
13.21192208547543
 20
33.49460119462952
 30
0.0
 70
     8
  0
VERTEX
  5
BA49
330
BA0D
100
AcDbEntity
  8
0
100
AcDbVertex
100
AcDb2dVertex
 10
13.32081383538541
 20
33.44963851640383
 30
0.0
 70
     8
  0
VERTEX
  5
BA4A
330
BA0D
100
AcDbEntity
  8
0
100
AcDbVertex
100
AcDb2dVertex
 10
13.42777675344128
 20
33.39872003105316
 30
0.0
 70
     8
  0
VERTEX
  5
BA4B
330
BA0D
100
AcDbEntity
  8
0
100
AcDbVertex
100
AcDb2dVertex
 10
13.53195664251577
 20
33.34272808020231
 30
0.0
 70
     8
  0
VERTEX
  5
BA4C
330
BA0D
100
AcDbEntity
  8
0
100
AcDbVertex
100
AcDb2dVertex
 10
13.63249930548159
 20
33.28254500547612
 30
0.0
 70
     8
  0
VERTEX
  5
BA4D
330
BA0D
100
AcDbEntity
  8
0
100
AcDbVertex
100
AcDb2dVertex
 10
13.72855054521147
 20
33.21905314849939
 30
0.0
 70
     8
  0
VERTEX
  5
BA4E
330
BA0D
100
AcDbEntity
  8
0
100
AcDbVertex
100
AcDb2dVertex
 10
13.81925616457814
 20
33.15313485089693
 30
0.0
 70
     8
  0
VERTEX
  5
BA4F
330
BA0D
100
AcDbEntity
  8
0
100
AcDbVertex
100
AcDb2dVertex
 10
13.90376196645431
 20
33.08567245429358
 30
0.0
 70
     8
  0
VERTEX
  5
BA50
330
BA0D
100
AcDbEntity
  8
0
100
AcDbVertex
100
AcDb2dVertex
 10
13.98139285960258
 20
33.01729095059088
 30
0.0
 70
     8
  0
VERTEX
  5
BA51
330
BA0D
100
AcDbEntity
  8
0
100
AcDbVertex
100
AcDb2dVertex
 10
14.05219017634507
 20
32.94758593279742
 30
0.0
 70
     8
  0
VERTEX
  5
BA52
330
BA0D
100
AcDbEntity
  8
0
100
AcDbVertex
100
AcDb2dVertex
 10
14.11637435489376
 20
32.87589564419852
 30
0.0
 70
     8
  0
VERTEX
  5
BA53
330
BA0D
100
AcDbEntity
  8
0
100
AcDbVertex
100
AcDb2dVertex
 10
14.17416583346064
 20
32.80155832807951
 30
0.0
 70
     8
  0
VERTEX
  5
BA54
330
BA0D
100
AcDbEntity
  8
0
100
AcDbVertex
100
AcDb2dVertex
 10
14.22578505025769
 20
32.72391222772571
 30
0.0
 70
     8
  0
VERTEX
  5
BA55
330
BA0D
100
AcDbEntity
  8
0
100
AcDbVertex
100
AcDb2dVertex
 10
14.2714524434969
 20
32.64229558642246
 30
0.0
 70
     8
  0
VERTEX
  5
BA56
330
BA0D
100
AcDbEntity
  8
0
100
AcDbVertex
100
AcDb2dVertex
 10
14.31138845139026
 20
32.55604664745507
 30
0.0
 70
     8
  0
VERTEX
  5
BA57
330
BA0D
100
AcDbEntity
  8
0
100
AcDbVertex
100
AcDb2dVertex
 10
14.34581351214976
 20
32.46450365410888
 30
0.0
 70
     8
  0
VERTEX
  5
BA58
330
BA0D
100
AcDbEntity
  8
0
100
AcDbVertex
100
AcDb2dVertex
 10
14.37487458454935
 20
32.36724841294579
 30
0.0
 70
     8
  0
VERTEX
  5
BA59
330
BA0D
100
AcDbEntity
  8
0
100
AcDbVertex
100
AcDb2dVertex
 10
14.39842470961094
 20
32.26483698363416
 30
0.0
 70
     8
  0
VERTEX
  5
BA5A
330
BA0D
100
AcDbEntity
  8
0
100
AcDbVertex
100
AcDb2dVertex
 10
14.41624344891839
 20
32.15806898911891
 30
0.0
 70
     8
  0
VERTEX
  5
BA5B
330
BA0D
100
AcDbEntity
  8
0
100
AcDbVertex
100
AcDb2dVertex
 10
14.42811036405556
 20
32.04774405234496
 30
0.0
 70
     8
  0
VERTEX
  5
BA5C
330
BA0D
100
AcDbEntity
  8
0
100
AcDbVertex
100
AcDb2dVertex
 10
14.43380501660632
 20
31.93466179625725
 30
0.0
 70
     8
  0
VERTEX
  5
BA5D
330
BA0D
100
AcDbEntity
  8
0
100
AcDbVertex
100
AcDb2dVertex
 10
14.43310696815455
 20
31.8196218438007
 30
0.0
 70
     8
  0
VERTEX
  5
BA5E
330
BA0D
100
AcDbEntity
  8
0
100
AcDbVertex
100
AcDb2dVertex
 10
14.42579578028411
 20
31.70342381792023
 30
0.0
 70
     8
  0
VERTEX
  5
BA5F
330
BA0D
100
AcDbEntity
  8
0
100
AcDbVertex
100
AcDb2dVertex
 10
14.41165101457887
 20
31.58686734156079
 30
0.0
 70
     8
  0
VERTEX
  5
BA60
330
BA0D
100
AcDbEntity
  8
0
100
AcDbVertex
100
AcDb2dVertex
 10
14.39055785927869
 20
31.47071986886921
 30
0.0
 70
     8
  0
VERTEX
  5
BA61
330
BA0D
100
AcDbEntity
  8
0
100
AcDbVertex
100
AcDb2dVertex
 10
14.36282400924746
 20
31.35562017880002
 30
0.0
 70
     8
  0
VERTEX
  5
BA62
330
BA0D
100
AcDbEntity
  8
0
100
AcDbVertex
100
AcDb2dVertex
 10
14.32886278600507
 20
31.24217488150963
 30
0.0
 70
     8
  0
VERTEX
  5
BA63
330
BA0D
100
AcDbEntity
  8
0
100
AcDbVertex
100
AcDb2dVertex
 10
14.2890875110714
 20
31.13099058715447
 30
0.0
 70
     8
  0
VERTEX
  5
BA64
330
BA0D
100
AcDbEntity
  8
0
100
AcDbVertex
100
AcDb2dVertex
 10
14.24391150596633
 20
31.022673905891
 30
0.0
 70
     8
  0
VERTEX
  5
BA65
330
BA0D
100
AcDbEntity
  8
0
100
AcDbVertex
100
AcDb2dVertex
 10
14.19374809220975
 20
30.91783144787561
 30
0.0
 70
     8
  0
VERTEX
  5
BA66
330
BA0D
100
AcDbEntity
  8
0
100
AcDbVertex
100
AcDb2dVertex
 10
14.13901059132155
 20
30.81706982326476
 30
0.0
 70
     8
  0
VERTEX
  5
BA67
330
BA0D
100
AcDbEntity
  8
0
100
AcDbVertex
100
AcDb2dVertex
 10
14.08011232482159
 20
30.72099564221487
 30
0.0
 70
     8
  0
VERTEX
  5
BA68
330
BA0D
100
AcDbEntity
  8
0
100
AcDbVertex
100
AcDb2dVertex
 10
14.01745742926176
 20
30.63013739078444
 30
0.0
 70
     8
  0
VERTEX
  5
BA69
330
BA0D
100
AcDbEntity
  8
0
100
AcDbVertex
100
AcDb2dVertex
 10
13.95141330132177
 20
30.54471105864024
 30
0.0
 70
     8
  0
VERTEX
  5
BA6A
330
BA0D
100
AcDbEntity
  8
0
100
AcDbVertex
100
AcDb2dVertex
 10
13.88233815271335
 20
30.4648545113511
 30
0.0
 70
     8
  0
VERTEX
  5
BA6B
330
BA0D
100
AcDbEntity
  8
0
100
AcDbVertex
100
AcDb2dVertex
 10
13.81059019514818
 20
30.39070561448588
 30
0.0
 70
     8
  0
VERTEX
  5
BA6C
330
BA0D
100
AcDbEntity
  8
0
100
AcDbVertex
100
AcDb2dVertex
 10
13.73652764033798
 20
30.3224022336134
 30
0.0
 70
     8
  0
VERTEX
  5
BA6D
330
BA0D
100
AcDbEntity
  8
0
100
AcDbVertex
100
AcDb2dVertex
 10
13.66050869999446
 20
30.2600822343025
 30
0.0
 70
     8
  0
VERTEX
  5
BA6E
330
BA0D
100
AcDbEntity
  8
0
100
AcDbVertex
100
AcDb2dVertex
 10
13.58289158582932
 20
30.20388348212203
 30
0.0
 70
     8
  0
VERTEX
  5
BA6F
330
BA0D
100
AcDbEntity
  8
0
100
AcDbVertex
100
AcDb2dVertex
 10
13.50403450955427
 20
30.15394384264082
 30
0.0
 70
     8
  0
VERTEX
  5
BA70
330
BA0D
100
AcDbEntity
  8
0
100
AcDbVertex
100
AcDb2dVertex
 10
13.42428190542896
 20
30.11039658601899
 30
0.0
 70
     8
  0
VERTEX
  5
BA71
330
BA0D
100
AcDbEntity
  8
0
100
AcDbVertex
100
AcDb2dVertex
 10
13.34392309790489
 20
30.07335660078173
 30
0.0
 70
     8
  0
VERTEX
  5
BA72
330
BA0D
100
AcDbEntity
  8
0
100
AcDbVertex
100
AcDb2dVertex
 10
13.2632336339815
 20
30.04293418004556
 30
0.0
 70
     8
  0
VERTEX
  5
BA73
330
BA0D
100
AcDbEntity
  8
0
100
AcDbVertex
100
AcDb2dVertex
 10
13.18248906065822
 20
30.01923961692694
 30
0.0
 70
     8
  0
VERTEX
  5
BA74
330
BA0D
100
AcDbEntity
  8
0
100
AcDbVertex
100
AcDb2dVertex
 10
13.10196492493448
 20
30.00238320454239
 30
0.0
 70
     8
  0
VERTEX
  5
BA75
330
BA0D
100
AcDbEntity
  8
0
100
AcDbVertex
100
AcDb2dVertex
 10
13.02193677380974
 20
29.99247523600835
 30
0.0
 70
     8
  0
VERTEX
  5
BA76
330
BA0D
100
AcDbEntity
  8
0
100
AcDbVertex
100
AcDb2dVertex
 10
12.94268015428343
 20
29.98962600444135
 30
0.0
 70
     8
  0
VERTEX
  5
BA77
330
BA0D
100
AcDbEntity
  8
0
100
AcDbVertex
100
AcDb2dVertex
 10
12.86447061335498
 20
29.99394580295785
 30
0.0
 70
     8
  0
VERTEX
  5
BA78
330
BA0D
100
AcDbEntity
  8
0
100
AcDbVertex
100
AcDb2dVertex
 10
12.78765717746187
 20
30.00543463183345
 30
0.0
 70
     8
  0
VERTEX
  5
BA79
330
BA0D
100
AcDbEntity
  8
0
100
AcDbVertex
100
AcDb2dVertex
 10
12.71288279079362
 20
30.02365131998016
 30
0.0
 70
     8
  0
VERTEX
  5
BA7A
330
BA0D
100
AcDbEntity
  8
0
100
AcDbVertex
100
AcDb2dVertex
 10
12.64086387697779
 20
30.04804440346907
 30
0.0
 70
     8
  0
VERTEX
  5
BA7B
330
BA0D
100
AcDbEntity
  8
0
100
AcDbVertex
100
AcDb2dVertex
 10
12.57231685964194
 20
30.0780624183713
 30
0.0
 70
     8
  0
VERTEX
  5
BA7C
330
BA0D
100
AcDbEntity
  8
0
100
AcDbVertex
100
AcDb2dVertex
 10
12.50795816241364
 20
30.11315390075795
 30
0.0
 70
     8
  0
VERTEX
  5
BA7D
330
BA0D
100
AcDbEntity
  8
0
100
AcDbVertex
100
AcDb2dVertex
 10
12.44850420892044
 20
30.15276738670011
 30
0.0
 70
     8
  0
VERTEX
  5
BA7E
330
BA0D
100
AcDbEntity
  8
0
100
AcDbVertex
100
AcDb2dVertex
 10
12.39467142278989
 20
30.1963514122689
 30
0.0
 70
     8
  0
VERTEX
  5
BA7F
330
BA0D
100
AcDbEntity
  8
0
100
AcDbVertex
100
AcDb2dVertex
 10
12.34717622764956
 20
30.24335451353543
 30
0.0
 70
     8
  0
VERTEX
  5
BA80
330
BA0D
100
AcDbEntity
  8
0
100
AcDbVertex
100
AcDb2dVertex
 10
12.30658349597109
 20
30.29326658635168
 30
0.0
 70
     8
  0
VERTEX
  5
BA81
330
BA0D
100
AcDbEntity
  8
0
100
AcDbVertex
100
AcDb2dVertex
 10
12.27285189560249
 20
30.34574296569319
 30
0.0
 70
     8
  0
VERTEX
  5
BA82
330
BA0D
100
AcDbEntity
  8
0
100
AcDbVertex
100
AcDb2dVertex
 10
12.24578854323588
 20
30.40048034631642
 30
0.0
 70
     8
  0
VERTEX
  5
BA83
330
BA0D
100
AcDbEntity
  8
0
100
AcDbVertex
100
AcDb2dVertex
 10
12.22520055556335
 20
30.45717542297776
 30
0.0
 70
     8
  0
VERTEX
  5
BA84
330
BA0D
100
AcDbEntity
  8
0
100
AcDbVertex
100
AcDb2dVertex
 10
12.21089504927699
 20
30.51552489043367
 30
0.0
 70
     8
  0
VERTEX
  5
BA85
330
BA0D
100
AcDbEntity
  8
0
100
AcDbVertex
100
AcDb2dVertex
 10
12.20267914106892
 20
30.57522544344057
 30
0.0
 70
     8
  0
VERTEX
  5
BA86
330
BA0D
100
AcDbEntity
  8
0
100
AcDbVertex
100
AcDb2dVertex
 10
12.20035994763124
 20
30.63597377675489
 30
0.0
 70
     8
  0
VERTEX
  5
BA87
330
BA0D
100
AcDbEntity
  8
0
100
AcDbVertex
100
AcDb2dVertex
 10
12.20374458565604
 20
30.69746658513306
 30
0.0
 70
     8
  0
VERTEX
  5
BA88
330
BA0D
100
AcDbEntity
  8
0
100
AcDbVertex
100
AcDb2dVertex
 10
12.21258309536064
 20
30.75930491688841
 30
0.0
 70
     8
  0
VERTEX
  5
BA89
330
BA0D
100
AcDbEntity
  8
0
100
AcDbVertex
100
AcDb2dVertex
 10
12.2263972110631
 20
30.82070723456187
 30
0.0
 70
     8
  0
VERTEX
  5
BA8A
330
BA0D
100
AcDbEntity
  8
0
100
AcDbVertex
100
AcDb2dVertex
 10
12.24465159060673
 20
30.88079635425124
 30
0.0
 70
     8
  0
VERTEX
  5
BA8B
330
BA0D
100
AcDbEntity
  8
0
100
AcDbVertex
100
AcDb2dVertex
 10
12.2668108918348
 20
30.93869509205437
 30
0.0
 70
     8
  0
VERTEX
  5
BA8C
330
BA0D
100
AcDbEntity
  8
0
100
AcDbVertex
100
AcDb2dVertex
 10
12.29233977259059
 20
30.99352626406903
 30
0.0
 70
     8
  0
VERTEX
  5
BA8D
330
BA0D
100
AcDbEntity
  8
0
100
AcDbVertex
100
AcDb2dVertex
 10
12.32070289071739
 20
31.04441268639308
 30
0.0
 70
     8
  0
VERTEX
  5
BA8E
330
BA0D
100
AcDbEntity
  8
0
100
AcDbVertex
100
AcDb2dVertex
 10
12.35136490405849
 20
31.09047717512432
 30
0.0
 70
     8
  0
VERTEX
  5
BA8F
330
BA0D
100
AcDbEntity
  8
0
100
AcDbVertex
100
AcDb2dVertex
 10
12.38379047045716
 20
31.13084254636057
 30
0.0
 70
     8
  0
VERTEX
  5
BA90
330
BA0D
100
AcDbEntity
  8
0
100
AcDbVertex
100
AcDb2dVertex
 10
12.41751219516653
 20
31.16486320040417
 30
0.0
 70
     8
  0
VERTEX
  5
BA91
330
BA0D
100
AcDbEntity
  8
0
100
AcDbVertex
100
AcDb2dVertex
 10
12.45233447307904
 20
31.19281987437556
 30
0.0
 70
     8
  0
VERTEX
  5
BA92
330
BA0D
100
AcDbEntity
  8
0
100
AcDbVertex
100
AcDb2dVertex
 10
12.48812964649699
 20
31.2152248895997
 30
0.0
 70
     8
  0
VERTEX
  5
BA93
330
BA0D
100
AcDbEntity
  8
0
100
AcDbVertex
100
AcDb2dVertex
 10
12.52477005772267
 20
31.23259056740156
 30
0.0
 70
     8
  0
VERTEX
  5
BA94
330
BA0D
100
AcDbEntity
  8
0
100
AcDbVertex
100
AcDb2dVertex
 10
12.56212804905835
 20
31.24542922910609
 30
0.0
 70
     8
  0
VERTEX
  5
BA95
330
BA0D
100
AcDbEntity
  8
0
100
AcDbVertex
100
AcDb2dVertex
 10
12.60007596280632
 20
31.25425319603825
 30
0.0
 70
     8
  0
VERTEX
  5
BA96
330
BA0D
100
AcDbEntity
  8
0
100
AcDbVertex
100
AcDb2dVertex
 10
12.63848614126888
 20
31.25957478952302
 30
0.0
 70
     8
  0
VERTEX
  5
BA97
330
BA0D
100
AcDbEntity
  8
0
100
AcDbVertex
100
AcDb2dVertex
 10
12.67723092674831
 20
31.26190633088535
 30
0.0
 70
     8
  0
VERTEX
  5
BA98
330
BA0D
100
AcDbEntity
  8
0
100
AcDbVertex
100
AcDb2dVertex
 10
12.71615506666436
 20
31.26174956050149
 30
0.0
 70
     8
  0
VERTEX
  5
BA99
330
BA0D
100
AcDbEntity
  8
0
100
AcDbVertex
100
AcDb2dVertex
 10
12.75499292890675
 20
31.25956389495286
 30
0.0
 70
     8
  0
VERTEX
  5
BA9A
330
BA0D
100
AcDbEntity
  8
0
100
AcDbVertex
100
AcDb2dVertex
 10
12.79345128648261
 20
31.25579816987218
 30
0.0
 70
     8
  0
VERTEX
  5
BA9B
330
BA0D
100
AcDbEntity
  8
0
100
AcDbVertex
100
AcDb2dVertex
 10
12.83123691239913
 20
31.25090122089216
 30
0.0
 70
     8
  0
VERTEX
  5
BA9C
330
BA0D
100
AcDbEntity
  8
0
100
AcDbVertex
100
AcDb2dVertex
 10
12.86805657966345
 20
31.24532188364552
 30
0.0
 70
     8
  0
VERTEX
  5
BA9D
330
BA0D
100
AcDbEntity
  8
0
100
AcDbVertex
100
AcDb2dVertex
 10
12.90361706128276
 20
31.23950899376496
 30
0.0
 70
     8
  0
VERTEX
  5
BA9E
330
BA0D
100
AcDbEntity
  8
0
100
AcDbVertex
100
AcDb2dVertex
 10
12.93762513026421
 20
31.23391138688321
 30
0.0
 70
     8
  0
VERTEX
  5
BA9F
330
BA0D
100
AcDbEntity
  8
0
100
AcDbVertex
100
AcDb2dVertex
 10
12.96978755961497
 20
31.22897789863297
 30
0.0
 70
     8
  0
VERTEX
  5
BAA0
330
BA0D
100
AcDbEntity
  8
0
100
AcDbVertex
100
AcDb2dVertex
 10
12.99986712314203
 20
31.22510396169174
 30
0.0
 70
     8
  0
VERTEX
  5
BAA1
330
BA0D
100
AcDbEntity
  8
0
100
AcDbVertex
100
AcDb2dVertex
 10
13.02785059785164
 20
31.22247139691623
 30
0.0
 70
     8
  0
VERTEX
  5
BAA2
330
BA0D
100
AcDbEntity
  8
0
100
AcDbVertex
100
AcDb2dVertex
 10
13.0537807615499
 20
31.2212086222079
 30
0.0
 70
     8
  0
VERTEX
  5
BAA3
330
BA0D
100
AcDbEntity
  8
0
100
AcDbVertex
100
AcDb2dVertex
 10
13.07770039204289
 20
31.22144405546821
 30
0.0
 70
     8
  0
VERTEX
  5
BAA4
330
BA0D
100
AcDbEntity
  8
0
100
AcDbVertex
100
AcDb2dVertex
 10
13.09965226713671
 20
31.22330611459865
 30
0.0
 70
     8
  0
VERTEX
  5
BAA5
330
BA0D
100
AcDbEntity
  8
0
100
AcDbVertex
100
AcDb2dVertex
 10
13.11967916463744
 20
31.22692321750069
 30
0.0
 70
     8
  0
VERTEX
  5
BAA6
330
BA0D
100
AcDbEntity
  8
0
100
AcDbVertex
100
AcDb2dVertex
 10
13.13782386235116
 20
31.23242378207582
 30
0.0
 70
     8
  0
VERTEX
  5
BAA7
330
BA0D
100
AcDbEntity
  8
0
100
AcDbVertex
100
AcDb2dVertex
 10
13.15412913808397
 20
31.23993622622549
 30
0.0
 70
     8
  0
VERTEX
  5
BAA8
330
BA0D
100
AcDbEntity
  8
0
100
AcDbVertex
100
AcDb2dVertex
 10
13.16862172801571
 20
31.24954794544763
 30
0.0
 70
     8
  0
VERTEX
  5
BAA9
330
BA0D
100
AcDbEntity
  8
0
100
AcDbVertex
100
AcDb2dVertex
 10
13.18126420182122
 20
31.26118224562587
 30
0.0
 70
     8
  0
VERTEX
  5
BAAA
330
BA0D
100
AcDbEntity
  8
0
100
AcDbVertex
100
AcDb2dVertex
 10
13.19200308754913
 20
31.2747214102403
 30
0.0
 70
     8
  0
VERTEX
  5
BAAB
330
BA0D
100
AcDbEntity
  8
0
100
AcDbVertex
100
AcDb2dVertex
 10
13.20078491324803
 20
31.29004772277099
 30
0.0
 70
     8
  0
VERTEX
  5
BAAC
330
BA0D
100
AcDbEntity
  8
0
100
AcDbVertex
100
AcDb2dVertex
 10
13.20755620696653
 20
31.30704346669803
 30
0.0
 70
     8
  0
VERTEX
  5
BAAD
330
BA0D
100
AcDbEntity
  8
0
100
AcDbVertex
100
AcDb2dVertex
 10
13.21226349675325
 20
31.32559092550148
 30
0.0
 70
     8
  0
VERTEX
  5
BAAE
330
BA0D
100
AcDbEntity
  8
0
100
AcDbVertex
100
AcDb2dVertex
 10
13.2148533106568
 20
31.34557238266144
 30
0.0
 70
     8
  0
VERTEX
  5
BAAF
330
BA0D
100
AcDbEntity
  8
0
100
AcDbVertex
100
AcDb2dVertex
 10
13.21527217672577
 20
31.36687012165798
 30
0.0
 70
     8
  0
VERTEX
  5
BAB0
330
BA0D
100
AcDbEntity
  8
0
100
AcDbVertex
100
AcDb2dVertex
 10
13.21341136904009
 20
31.3894359856678
 30
0.0
 70
     8
  0
VERTEX
  5
BAB1
330
BA0D
100
AcDbEntity
  8
0
100
AcDbVertex
100
AcDb2dVertex
 10
13.20894114580485
 20
31.41350005665416
 30
0.0
 70
     8
  0
VERTEX
  5
BAB2
330
BA0D
100
AcDbEntity
  8
0
100
AcDbVertex
100
AcDb2dVertex
 10
13.20147651125647
 20
31.43936197627691
 30
0.0
 70
     8
  0
VERTEX
  5
BAB3
330
BA0D
100
AcDbEntity
  8
0
100
AcDbVertex
100
AcDb2dVertex
 10
13.19063246963135
 20
31.46732138619594
 30
0.0
 70
     8
  0
VERTEX
  5
BAB4
330
BA0D
100
AcDbEntity
  8
0
100
AcDbVertex
100
AcDb2dVertex
 10
13.1760240251659
 20
31.49767792807112
 30
0.0
 70
     8
  0
VERTEX
  5
BAB5
330
BA0D
100
AcDbEntity
  8
0
100
AcDbVertex
100
AcDb2dVertex
 10
13.15726618209654
 20
31.53073124356231
 30
0.0
 70
     8
  0
VERTEX
  5
BAB6
330
BA0D
100
AcDbEntity
  8
0
100
AcDbVertex
100
AcDb2dVertex
 10
13.13397394465965
 20
31.56678097432939
 30
0.0
 70
     8
  0
VERTEX
  5
BAB7
330
BA0D
100
AcDbEntity
  8
0
100
AcDbVertex
100
AcDb2dVertex
 10
13.10576231709166
 20
31.60612676203224
 30
0.0
 70
     8
  0
VERTEX
  5
BAB8
330
BA0D
100
AcDbEntity
  8
0
100
AcDbVertex
100
AcDb2dVertex
 10
13.07243345437007
 20
31.64884886791439
 30
0.0
 70
     8
  0
VERTEX
  5
BAB9
330
BA0D
100
AcDbEntity
  8
0
100
AcDbVertex
100
AcDb2dVertex
 10
13.03453811443677
 20
31.69415003155405
 30
0.0
 70
     8
  0
VERTEX
  5
BABA
330
BA0D
100
AcDbEntity
  8
0
100
AcDbVertex
100
AcDb2dVertex
 10
12.99281420597473
 20
31.7410136121131
 30
0.0
 70
     8
  0
VERTEX
  5
BABB
330
BA0D
100
AcDbEntity
  8
0
100
AcDbVertex
100
AcDb2dVertex
 10
12.94799963766693
 20
31.78842296875342
 30
0.0
 70
     8
  0
VERTEX
  5
BABC
330
BA0D
100
AcDbEntity
  8
0
100
AcDbVertex
100
AcDb2dVertex
 10
12.90083231819637
 20
31.83536146063689
 30
0.0
 70
     8
  0
VERTEX
  5
BABD
330
BA0D
100
AcDbEntity
  8
0
100
AcDbVertex
100
AcDb2dVertex
 10
12.85205015624602
 20
31.88081244692539
 30
0.0
 70
     8
  0
VERTEX
  5
BABE
330
BA0D
100
AcDbEntity
  8
0
100
AcDbVertex
100
AcDb2dVertex
 10
12.80239106049886
 20
31.92375928678077
 30
0.0
 70
     8
  0
VERTEX
  5
BABF
330
BA0D
100
AcDbEntity
  8
0
100
AcDbVertex
100
AcDb2dVertex
 10
12.75259293963788
 20
31.96318533936495
 30
0.0
 70
     8
  0
VERTEX
  5
BAC0
330
BA0D
100
AcDbEntity
  8
0
100
AcDbVertex
100
AcDb2dVertex
 10
12.70319407489796
 20
31.99825945616203
 30
0.0
 70
     8
  0
VERTEX
  5
BAC1
330
BA0D
100
AcDbEntity
  8
0
100
AcDbVertex
100
AcDb2dVertex
 10
12.65393423772161
 20
32.02889245794517
 30
0.0
 70
     8
  0
VERTEX
  5
BAC2
330
BA0D
100
AcDbEntity
  8
0
100
AcDbVertex
100
AcDb2dVertex
 10
12.60435357210323
 20
32.05518065780977
 30
0.0
 70
     8
  0
VERTEX
  5
BAC3
330
BA0D
100
AcDbEntity
  8
0
100
AcDbVertex
100
AcDb2dVertex
 10
12.55399222203724
 20
32.07722036885122
 30
0.0
 70
     8
  0
VERTEX
  5
BAC4
330
BA0D
100
AcDbEntity
  8
0
100
AcDbVertex
100
AcDb2dVertex
 10
12.50239033151803
 20
32.09510790416491
 30
0.0
 70
     8
  0
VERTEX
  5
BAC5
330
BA0D
100
AcDbEntity
  8
0
100
AcDbVertex
100
AcDb2dVertex
 10
12.44908804454002
 20
32.10893957684626
 30
0.0
 70
     8
  0
VERTEX
  5
BAC6
330
BA0D
100
AcDbEntity
  8
0
100
AcDbVertex
100
AcDb2dVertex
 10
12.39362550509762
 20
32.11881169999066
 30
0.0
 70
     8
  0
VERTEX
  5
BAC7
330
BA0D
100
AcDbEntity
  8
0
100
AcDbVertex
100
AcDb2dVertex
 10
12.33554285718524
 20
32.1248205866935
 30
0.0
 70
     8
  0
VERTEX
  5
BAC8
330
BA0D
100
AcDbEntity
  8
0
100
AcDbVertex
100
AcDb2dVertex
 10
12.27454422437985
 20
32.12702866206635
 30
0.0
 70
     8
  0
VERTEX
  5
BAC9
330
BA0D
100
AcDbEntity
  8
0
100
AcDbVertex
100
AcDb2dVertex
 10
12.21098964858874
 20
32.12536279928538
 30
0.0
 70
     8
  0
VERTEX
  5
BACA
330
BA0D
100
AcDbEntity
  8
0
100
AcDbVertex
100
AcDb2dVertex
 10
12.14540315130175
 20
32.11971598354292
 30
0.0
 70
     8
  0
VERTEX
  5
BACB
330
BA0D
100
AcDbEntity
  8
0
100
AcDbVertex
100
AcDb2dVertex
 10
12.07830875400874
 20
32.10998120003135
 30
0.0
 70
     8
  0
VERTEX
  5
BACC
330
BA0D
100
AcDbEntity
  8
0
100
AcDbVertex
100
AcDb2dVertex
 10
12.01023047819957
 20
32.09605143394297
 30
0.0
 70
     8
  0
VERTEX
  5
BACD
330
BA0D
100
AcDbEntity
  8
0
100
AcDbVertex
100
AcDb2dVertex
 10
11.94169234536407
 20
32.07781967047014
 30
0.0
 70
     8
  0
VERTEX
  5
BACE
330
BA0D
100
AcDbEntity
  8
0
100
AcDbVertex
100
AcDb2dVertex
 10
11.87321837699211
 20
32.05517889480519
 30
0.0
 70
     8
  0
VERTEX
  5
BACF
330
BA0D
100
AcDbEntity
  8
0
100
AcDbVertex
100
AcDb2dVertex
 10
11.80533259457353
 20
32.02802209214047
 30
0.0
 70
     8
  0
VERTEX
  5
BAD0
330
BA0D
100
AcDbEntity
  8
0
100
AcDbVertex
100
AcDb2dVertex
 10
11.73850733051472
 20
31.99631002380135
 30
0.0
 70
     8
  0
VERTEX
  5
BAD1
330
BA0D
100
AcDbEntity
  8
0
100
AcDbVertex
100
AcDb2dVertex
 10
11.67300816088812
 20
31.96027455564538
 30
0.0
 70
     8
  0
VERTEX
  5
BAD2
330
BA0D
100
AcDbEntity
  8
0
100
AcDbVertex
100
AcDb2dVertex
 10
11.60904897268274
 20
31.92021532966315
 30
0.0
 70
     8
  0
VERTEX
  5
BAD3
330
BA0D
100
AcDbEntity
  8
0
100
AcDbVertex
100
AcDb2dVertex
 10
11.54684365288755
 20
31.8764319878452
 30
0.0
 70
     8
  0
VERTEX
  5
BAD4
330
BA0D
100
AcDbEntity
  8
0
100
AcDbVertex
100
AcDb2dVertex
 10
11.48660608849153
 20
31.82922417218215
 30
0.0
 70
     8
  0
VERTEX
  5
BAD5
330
BA0D
100
AcDbEntity
  8
0
100
AcDbVertex
100
AcDb2dVertex
 10
11.42855016648368
 20
31.77889152466457
 30
0.0
 70
     8
  0
VERTEX
  5
BAD6
330
BA0D
100
AcDbEntity
  8
0
100
AcDbVertex
100
AcDb2dVertex
 10
11.37288977385297
 20
31.72573368728303
 30
0.0
 70
     8
  0
VERTEX
  5
BAD7
330
BA0D
100
AcDbEntity
  8
0
100
AcDbVertex
100
AcDb2dVertex
 10
11.3198387975884
 20
31.67005030202812
 30
0.0
 70
     8
  0
VERTEX
  5
BAD8
330
BA0D
100
AcDbEntity
  8
0
100
AcDbVertex
100
AcDb2dVertex
 10
11.26959151826955
 20
31.61213387636046
 30
0.0
 70
     8
  0
VERTEX
  5
BAD9
330
BA0D
100
AcDbEntity
  8
0
100
AcDbVertex
100
AcDb2dVertex
 10
11.22226379083842
 20
31.55224837962083
 30
0.0
 70
     8
  0
VERTEX
  5
BADA
330
BA0D
100
AcDbEntity
  8
0
100
AcDbVertex
100
AcDb2dVertex
 10
11.17795186382764
 20
31.49065064662006
 30
0.0
 70
     8
  0
VERTEX
  5
BADB
330
BA0D
100
AcDbEntity
  8
0
100
AcDbVertex
100
AcDb2dVertex
 10
11.13675198576979
 20
31.42759751216898
 30
0.0
 70
     8
  0
VERTEX
  5
BADC
330
BA0D
100
AcDbEntity
  8
0
100
AcDbVertex
100
AcDb2dVertex
 10
11.09876040519749
 20
31.36334581107841
 30
0.0
 70
     8
  0
VERTEX
  5
BADD
330
BA0D
100
AcDbEntity
  8
0
100
AcDbVertex
100
AcDb2dVertex
 10
11.06407337064334
 20
31.29815237815917
 30
0.0
 70
     8
  0
VERTEX
  5
BADE
330
BA0D
100
AcDbEntity
  8
0
100
AcDbVertex
100
AcDb2dVertex
 10
11.03278713063996
 20
31.23227404822209
 30
0.0
 70
     8
  0
VERTEX
  5
BADF
330
BA0D
100
AcDbEntity
  8
0
100
AcDbVertex
100
AcDb2dVertex
 10
11.00499793371995
 20
31.16596765607801
 30
0.0
 70
     8
  0
VERTEX
  5
BAE0
330
BA0D
100
AcDbEntity
  8
0
100
AcDbVertex
100
AcDb2dVertex
 10
10.9807824222447
 20
31.09949895474153
 30
0.0
 70
     8
  0
VERTEX
  5
BAE1
330
BA0D
100
AcDbEntity
  8
0
100
AcDbVertex
100
AcDb2dVertex
 10
10.96013881389067
 20
31.03316937004241
 30
0.0
 70
     8
  0
VERTEX
  5
BAE2
330
BA0D
100
AcDbEntity
  8
0
100
AcDbVertex
100
AcDb2dVertex
 10
10.94304572016311
 20
30.96728924601421
 30
0.0
 70
     8
  0
VERTEX
  5
BAE3
330
BA0D
100
AcDbEntity
  8
0
100
AcDbVertex
100
AcDb2dVertex
 10
10.92948175256728
 20
30.90216892669047
 30
0.0
 70
     8
  0
VERTEX
  5
BAE4
330
BA0D
100
AcDbEntity
  8
0
100
AcDbVertex
100
AcDb2dVertex
 10
10.91942552260841
 20
30.83811875610474
 30
0.0
 70
     8
  0
VERTEX
  5
BAE5
330
BA0D
100
AcDbEntity
  8
0
100
AcDbVertex
100
AcDb2dVertex
 10
10.91285564179175
 20
30.77544907829058
 30
0.0
 70
     8
  0
VERTEX
  5
BAE6
330
BA0D
100
AcDbEntity
  8
0
100
AcDbVertex
100
AcDb2dVertex
 10
10.90975072162255
 20
30.71447023728153
 30
0.0
 70
     8
  0
VERTEX
  5
BAE7
330
BA0D
100
AcDbEntity
  8
0
100
AcDbVertex
100
AcDb2dVertex
 10
10.91008937360606
 20
30.65549257711115
 30
0.0
 70
     8
  0
VERTEX
  5
BAE8
330
BA0D
100
AcDbEntity
  8
0
100
AcDbVertex
100
AcDb2dVertex
 10
10.91377713132905
 20
30.5987979041892
 30
0.0
 70
     8
  0
VERTEX
  5
BAE9
330
BA0D
100
AcDbEntity
  8
0
100
AcDbVertex
100
AcDb2dVertex
 10
10.9204272167044
 20
30.54455387443038
 30
0.0
 70
     8
  0
VERTEX
  5
BAEA
330
BA0D
100
AcDbEntity
  8
0
100
AcDbVertex
100
AcDb2dVertex
 10
10.92957977372652
 20
30.49289960612557
 30
0.0
 70
     8
  0
VERTEX
  5
BAEB
330
BA0D
100
AcDbEntity
  8
0
100
AcDbVertex
100
AcDb2dVertex
 10
10.94077494638981
 20
30.4439742175657
 30
0.0
 70
     8
  0
VERTEX
  5
BAEC
330
BA0D
100
AcDbEntity
  8
0
100
AcDbVertex
100
AcDb2dVertex
 10
10.95355287868869
 20
30.39791682704165
 30
0.0
 70
     8
  0
VERTEX
  5
BAED
330
BA0D
100
AcDbEntity
  8
0
100
AcDbVertex
100
AcDb2dVertex
 10
10.96745371461757
 20
30.35486655284434
 30
0.0
 70
     8
  0
VERTEX
  5
BAEE
330
BA0D
100
AcDbEntity
  8
0
100
AcDbVertex
100
AcDb2dVertex
 10
10.98201759817085
 20
30.31496251326467
 30
0.0
 70
     8
  0
VERTEX
  5
BAEF
330
BA0D
100
AcDbEntity
  8
0
100
AcDbVertex
100
AcDb2dVertex
 10
10.99678467334293
 20
30.27834382659355
 30
0.0
 70
     8
  0
VERTEX
  5
BAF0
330
BA0D
100
AcDbEntity
  8
0
100
AcDbVertex
100
AcDb2dVertex
 10
11.01132360239344
 20
30.24509075324774
 30
0.0
 70
     8
  0
VERTEX
  5
BAF1
330
BA0D
100
AcDbEntity
  8
0
100
AcDbVertex
100
AcDb2dVertex
 10
11.02531712064275
 20
30.21504812214747
 30
0.0
 70
     8
  0
VERTEX
  5
BAF2
330
BA0D
100
AcDbEntity
  8
0
100
AcDbVertex
100
AcDb2dVertex
 10
11.03847648167648
 20
30.18800190433884
 30
0.0
 70
     8
  0
VERTEX
  5
BAF3
330
BA0D
100
AcDbEntity
  8
0
100
AcDbVertex
100
AcDb2dVertex
 10
11.05051293908021
 20
30.16373807086795
 30
0.0
 70
     8
  0
VERTEX
  5
BAF4
330
BA0D
100
AcDbEntity
  8
0
100
AcDbVertex
100
AcDb2dVertex
 10
11.06113774643955
 20
30.1420425927809
 30
0.0
 70
     8
  0
VERTEX
  5
BAF5
330
BA0D
100
AcDbEntity
  8
0
100
AcDbVertex
100
AcDb2dVertex
 10
11.07006215734008
 20
30.12270144112378
 30
0.0
 70
     8
  0
VERTEX
  5
BAF6
330
BA0D
100
AcDbEntity
  8
0
100
AcDbVertex
100
AcDb2dVertex
 10
11.07699742536741
 20
30.10550058694269
 30
0.0
 70
     8
  0
VERTEX
  5
BAF7
330
BA0D
100
AcDbEntity
  8
0
100
AcDbVertex
100
AcDb2dVertex
 10
11.08165480410713
 20
30.09022600128372
 30
0.0
 70
     8
  0
VERTEX
  5
BAF8
330
BA0D
100
AcDbEntity
  8
0
100
AcDbVertex
100
AcDb2dVertex
 10
11.08378654191289
 20
30.07662619980635
 30
0.0
 70
     8
  0
VERTEX
  5
BAF9
330
BA0D
100
AcDbEntity
  8
0
100
AcDbVertex
100
AcDb2dVertex
 10
11.08330886621055
 20
30.06429987662361
 30
0.0
 70
     8
  0
VERTEX
  5
BAFA
330
BA0D
100
AcDbEntity
  8
0
100
AcDbVertex
100
AcDb2dVertex
 10
11.08017899919402
 20
30.05280827046186
 30
0.0
 70
     8
  0
VERTEX
  5
BAFB
330
BA0D
100
AcDbEntity
  8
0
100
AcDbVertex
100
AcDb2dVertex
 10
11.07435416305722
 20
30.04171262004751
 30
0.0
 70
     8
  0
VERTEX
  5
BAFC
330
BA0D
100
AcDbEntity
  8
0
100
AcDbVertex
100
AcDb2dVertex
 10
11.06579157999405
 20
30.03057416410694
 30
0.0
 70
     8
  0
VERTEX
  5
BAFD
330
BA0D
100
AcDbEntity
  8
0
100
AcDbVertex
100
AcDb2dVertex
 10
11.05444847219844
 20
30.01895414136655
 30
0.0
 70
     8
  0
VERTEX
  5
BAFE
330
BA0D
100
AcDbEntity
  8
0
100
AcDbVertex
100
AcDb2dVertex
 10
11.04028206186429
 20
30.00641379055273
 30
0.0
 70
     8
  0
VERTEX
  5
BAFF
330
BA0D
100
AcDbEntity
  8
0
100
AcDbVertex
100
AcDb2dVertex
 10
11.02324957118551
 20
29.99251435039187
 30
0.0
 70
     8
  0
VERTEX
  5
BB00
330
BA0D
100
AcDbEntity
  8
0
100
AcDbVertex
100
AcDb2dVertex
 10
11.00342229531474
 20
29.9768830521798
 30
0.0
 70
     8
  0
VERTEX
  5
BB01
330
BA0D
100
AcDbEntity
  8
0
100
AcDbVertex
100
AcDb2dVertex
 10
10.98132782123949
 20
29.95941109749017
 30
0.0
 70
     8
  0
VERTEX
  5
BB02
330
BA0D
100
AcDbEntity
  8
0
100
AcDbVertex
100
AcDb2dVertex
 10
10.95760780890598
 20
29.94005568046604
 30
0.0
 70
     8
  0
VERTEX
  5
BB03
330
BA0D
100
AcDbEntity
  8
0
100
AcDbVertex
100
AcDb2dVertex
 10
10.93290391826045
 20
29.91877399525049
 30
0.0
 70
     8
  0
VERTEX
  5
BB04
330
BA0D
100
AcDbEntity
  8
0
100
AcDbVertex
100
AcDb2dVertex
 10
10.90785780924913
 20
29.8955232359866
 30
0.0
 70
     8
  0
VERTEX
  5
BB05
330
BA0D
100
AcDbEntity
  8
0
100
AcDbVertex
100
AcDb2dVertex
 10
10.88311114181824
 20
29.87026059681746
 30
0.0
 70
     8
  0
VERTEX
  5
BB06
330
BA0D
100
AcDbEntity
  8
0
100
AcDbVertex
100
AcDb2dVertex
 10
10.85930557591401
 20
29.84294327188612
 30
0.0
 70
     8
  0
VERTEX
  5
BB07
330
BA0D
100
AcDbEntity
  8
0
100
AcDbVertex
100
AcDb2dVertex
 10
10.83708277148268
 20
29.81352845533569
 30
0.0
 70
     8
  0
VERTEX
  5
BB08
330
BA0D
100
AcDbEntity
  8
0
100
AcDbVertex
100
AcDb2dVertex
 10
10.81697922746962
 20
29.78203041595048
 30
0.0
 70
     8
  0
VERTEX
  5
BB09
330
BA0D
100
AcDbEntity
  8
0
100
AcDbVertex
100
AcDb2dVertex
 10
10.79911079881684
 20
29.74869172107981
 30
0.0
 70
     8
  0
VERTEX
  5
BB0A
330
BA0D
100
AcDbEntity
  8
0
100
AcDbVertex
100
AcDb2dVertex
 10
10.7834881794655
 20
29.71381201271429
 30
0.0
 70
     8
  0
VERTEX
  5
BB0B
330
BA0D
100
AcDbEntity
  8
0
100
AcDbVertex
100
AcDb2dVertex
 10
10.77012206335675
 20
29.67769093284447
 30
0.0
 70
     8
  0
VERTEX
  5
BB0C
330
BA0D
100
AcDbEntity
  8
0
100
AcDbVertex
100
AcDb2dVertex
 10
10.75902314443177
 20
29.64062812346094
 30
0.0
 70
     8
  0
VERTEX
  5
BB0D
330
BA0D
100
AcDbEntity
  8
0
100
AcDbVertex
100
AcDb2dVertex
 10
10.75020211663169
 20
29.6029232265543
 30
0.0
 70
     8
  0
VERTEX
  5
BB0E
330
BA0D
100
AcDbEntity
  8
0
100
AcDbVertex
100
AcDb2dVertex
 10
10.7436696738977
 20
29.56487588411511
 30
0.0
 70
     8
  0
VERTEX
  5
BB0F
330
BA0D
100
AcDbEntity
  8
0
100
AcDbVertex
100
AcDb2dVertex
 10
10.73943651017094
 20
29.52678573813395
 30
0.0
 70
     8
  0
VERTEX
  5
BB10
330
BA0D
100
AcDbEntity
  8
0
100
AcDbVertex
100
AcDb2dVertex
 10
10.73751153706904
 20
29.48888465435813
 30
0.0
 70
     8
  0
VERTEX
  5
BB11
330
BA0D
100
AcDbEntity
  8
0
100
AcDbVertex
100
AcDb2dVertex
 10
10.73789653691554
 20
29.45113339356184
 30
0.0
 70
     8
  0
VERTEX
  5
BB12
330
BA0D
100
AcDbEntity
  8
0
100
AcDbVertex
100
AcDb2dVertex
 10
10.74059150971043
 20
29.41342494027601
 30
0.0
 70
     8
  0
VERTEX
  5
BB13
330
BA0D
100
AcDbEntity
  8
0
100
AcDbVertex
100
AcDb2dVertex
 10
10.74559645545371
 20
29.37565227903158
 30
0.0
 70
     8
  0
VERTEX
  5
BB14
330
BA0D
100
AcDbEntity
  8
0
100
AcDbVertex
100
AcDb2dVertex
 10
10.75291137414538
 20
29.33770839435945
 30
0.0
 70
     8
  0
VERTEX
  5
BB15
330
BA0D
100
AcDbEntity
  8
0
100
AcDbVertex
100
AcDb2dVertex
 10
10.76253626578545
 20
29.29948627079057
 30
0.0
 70
     8
  0
VERTEX
  5
BB16
330
BA0D
100
AcDbEntity
  8
0
100
AcDbVertex
100
AcDb2dVertex
 10
10.7744711303739
 20
29.26087889285583
 30
0.0
 70
     8
  0
VERTEX
  5
BB17
330
BA0D
100
AcDbEntity
  8
0
100
AcDbVertex
100
AcDb2dVertex
 10
10.78871596791075
 20
29.22177924508618
 30
0.0
 70
     8
  0
VERTEX
  5
BB18
330
BA0D
100
AcDbEntity
  8
0
100
AcDbVertex
100
AcDb2dVertex
 10
10.80526368901227
 20
29.1821340365262
 30
0.0
 70
     8
  0
VERTEX
  5
BB19
330
BA0D
100
AcDbEntity
  8
0
100
AcDbVertex
100
AcDb2dVertex
 10
10.82407884675984
 20
29.14210487427512
 30
0.0
 70
     8
  0
VERTEX
  5
BB1A
330
BA0D
100
AcDbEntity
  8
0
100
AcDbVertex
100
AcDb2dVertex
 10
10.84511890485113
 20
29.1019070899458
 30
0.0
 70
     8
  0
VERTEX
  5
BB1B
330
BA0D
100
AcDbEntity
  8
0
100
AcDbVertex
100
AcDb2dVertex
 10
10.8683413269838
 20
29.06175601515115
 30
0.0
 70
     8
  0
VERTEX
  5
BB1C
330
BA0D
100
AcDbEntity
  8
0
100
AcDbVertex
100
AcDb2dVertex
 10
10.8937035768555
 20
29.02186698150403
 30
0.0
 70
     8
  0
VERTEX
  5
BB1D
330
BA0D
100
AcDbEntity
  8
0
100
AcDbVertex
100
AcDb2dVertex
 10
10.92116311816391
 20
28.98245532061735
 30
0.0
 70
     8
  0
VERTEX
  5
BB1E
330
BA0D
100
AcDbEntity
  8
0
100
AcDbVertex
100
AcDb2dVertex
 10
10.95067741460668
 20
28.94373636410397
 30
0.0
 70
     8
  0
VERTEX
  5
BB1F
330
BA0D
100
AcDbEntity
  8
0
100
AcDbVertex
100
AcDb2dVertex
 10
10.98220392988147
 20
28.90592544357679
 30
0.0
 70
     8
  0
VERTEX
  5
BB20
330
BA0D
100
AcDbEntity
  8
0
100
AcDbVertex
100
AcDb2dVertex
 10
11.01575386424352
 20
28.86924101583968
 30
0.0
 70
     8
  0
VERTEX
  5
BB21
330
BA0D
100
AcDbEntity
  8
0
100
AcDbVertex
100
AcDb2dVertex
 10
11.05155336417834
 20
28.83391403846056
 30
0.0
 70
     8
  0
VERTEX
  5
BB22
330
BA0D
100
AcDbEntity
  8
0
100
AcDbVertex
100
AcDb2dVertex
 10
11.08988231272901
 20
28.80017859419832
 30
0.0
 70
     8
  0
VERTEX
  5
BB23
330
BA0D
100
AcDbEntity
  8
0
100
AcDbVertex
100
AcDb2dVertex
 10
11.13102059293861
 20
28.76826876581187
 30
0.0
 70
     8
  0
VERTEX
  5
BB24
330
BA0D
100
AcDbEntity
  8
0
100
AcDbVertex
100
AcDb2dVertex
 10
11.17524808785023
 20
28.73841863606012
 30
0.0
 70
     8
  0
VERTEX
  5
BB25
330
BA0D
100
AcDbEntity
  8
0
100
AcDbVertex
100
AcDb2dVertex
 10
11.22284468050695
 20
28.71086228770196
 30
0.0
 70
     8
  0
VERTEX
  5
BB26
330
BA0D
100
AcDbEntity
  8
0
100
AcDbVertex
100
AcDb2dVertex
 10
11.27409025395185
 20
28.68583380349631
 30
0.0
 70
     8
  0
VERTEX
  5
BB27
330
BA0D
100
AcDbEntity
  8
0
100
AcDbVertex
100
AcDb2dVertex
 10
11.32926469122802
 20
28.66356726620205
 30
0.0
 70
     8
  0
VERTEX
  5
BB28
330
BA0D
100
AcDbEntity
  8
0
100
AcDbVertex
100
AcDb2dVertex
 10
11.38857324793008
 20
28.64428264258091
 30
0.0
 70
     8
  0
VERTEX
  5
BB29
330
BA0D
100
AcDbEntity
  8
0
100
AcDbVertex
100
AcDb2dVertex
 10
11.4519226698589
 20
28.62814343540571
 30
0.0
 70
     8
  0
VERTEX
  5
BB2A
330
BA0D
100
AcDbEntity
  8
0
100
AcDbVertex
100
AcDb2dVertex
 10
11.5191450753669
 20
28.61529903145208
 30
0.0
 70
     8
  0
VERTEX
  5
BB2B
330
BA0D
100
AcDbEntity
  8
0
100
AcDbVertex
100
AcDb2dVertex
 10
11.59007258280648
 20
28.60589881749565
 30
0.0
 70
     8
  0
VERTEX
  5
BB2C
330
BA0D
100
AcDbEntity
  8
0
100
AcDbVertex
100
AcDb2dVertex
 10
11.66453731053007
 20
28.60009218031206
 30
0.0
 70
     8
  0
VERTEX
  5
BB2D
330
BA0D
100
AcDbEntity
  8
0
100
AcDbVertex
100
AcDb2dVertex
 10
11.74237137689006
 20
28.59802850667693
 30
0.0
 70
     8
  0
VERTEX
  5
BB2E
330
BA0D
100
AcDbEntity
  8
0
100
AcDbVertex
100
AcDb2dVertex
 10
11.82340690023888
 20
28.59985718336588
 30
0.0
 70
     8
  0
VERTEX
  5
BB2F
330
BA0D
100
AcDbEntity
  8
0
100
AcDbVertex
100
AcDb2dVertex
 10
11.90747599892894
 20
28.60572759715457
 30
0.0
 70
     8
  0
VERTEX
  5
BB30
330
BA0D
100
AcDbEntity
  8
0
100
AcDbVertex
100
AcDb2dVertex
 10
11.99417073903582
 20
28.6156198473558
 30
0.0
 70
     8
  0
VERTEX
  5
BB31
330
BA0D
100
AcDbEntity
  8
0
100
AcDbVertex
100
AcDb2dVertex
 10
12.0821229775278
 20
28.62883688343117
 30
0.0
 70
     8
  0
VERTEX
  5
BB32
330
BA0D
100
AcDbEntity
  8
0
100
AcDbVertex
100
AcDb2dVertex
 10
12.16972451909633
 20
28.64451236737946
 30
0.0
 70
     8
  0
VERTEX
  5
BB33
330
BA0D
100
AcDbEntity
  8
0
100
AcDbVertex
100
AcDb2dVertex
 10
12.25536716843286
 20
28.66177996119947
 30
0.0
 70
     8
  0
VERTEX
  5
BB34
330
BA0D
100
AcDbEntity
  8
0
100
AcDbVertex
100
AcDb2dVertex
 10
12.33744273022884
 20
28.67977332688997
 30
0.0
 70
     8
  0
VERTEX
  5
BB35
330
BA0D
100
AcDbEntity
  8
0
100
AcDbVertex
100
AcDb2dVertex
 10
12.41434300917571
 20
28.69762612644976
 30
0.0
 70
     8
  0
VERTEX
  5
BB36
330
BA0D
100
AcDbEntity
  8
0
100
AcDbVertex
100
AcDb2dVertex
 10
12.48445980996493
 20
28.71447202187762
 30
0.0
 70
     8
  0
VERTEX
  5
BB37
330
BA0D
100
AcDbEntity
  8
0
100
AcDbVertex
100
AcDb2dVertex
 10
12.54618493728794
 20
28.72944467517234
 30
0.0
 70
     8
  0
VERTEX
  5
BB38
330
BA0D
100
AcDbEntity
  8
0
100
AcDbVertex
100
AcDb2dVertex
 10
12.5983659411404
 20
28.74184418376935
 30
0.0
 70
     8
  0
VERTEX
  5
BB39
330
BA0D
100
AcDbEntity
  8
0
100
AcDbVertex
100
AcDb2dVertex
 10
12.64167335273478
 20
28.75163638685068
 30
0.0
 70
     8
  0
VERTEX
  5
BB3A
330
BA0D
100
AcDbEntity
  8
0
100
AcDbVertex
100
AcDb2dVertex
 10
12.67723344858774
 20
28.75895355903498
 30
0.0
 70
     8
  0
VERTEX
  5
BB3B
330
BA0D
100
AcDbEntity
  8
0
100
AcDbVertex
100
AcDb2dVertex
 10
12.70617250521597
 20
28.76392797494093
 30
0.0
 70
     8
  0
VERTEX
  5
BB3C
330
BA0D
100
AcDbEntity
  8
0
100
AcDbVertex
100
AcDb2dVertex
 10
12.72961679913613
 20
28.7666919091872
 30
0.0
 70
     8
  0
VERTEX
  5
BB3D
330
BA0D
100
AcDbEntity
  8
0
100
AcDbVertex
100
AcDb2dVertex
 10
12.7486926068649
 20
28.76737763639247
 30
0.0
 70
     8
  0
VERTEX
  5
BB3E
330
BA0D
100
AcDbEntity
  8
0
100
AcDbVertex
100
AcDb2dVertex
 10
12.76452620491896
 20
28.76611743117539
 30
0.0
 70
     8
  0
VERTEX
  5
BB3F
330
BA0D
100
AcDbEntity
  8
0
100
AcDbVertex
100
AcDb2dVertex
 10
12.77824386981497
 20
28.76304356815463
 30
0.0
 70
     8
  0
VERTEX
  5
BB40
330
BA0D
100
AcDbEntity
  8
0
100
AcDbVertex
100
AcDb2dVertex
 10
12.79076470354429
 20
28.75827868076218
 30
0.0
 70
     8
  0
VERTEX
  5
BB41
330
BA0D
100
AcDbEntity
  8
0
100
AcDbVertex
100
AcDb2dVertex
 10
12.80217910999703
 20
28.75190683768328
 30
0.0
 70
     8
  0
VERTEX
  5
BB42
330
BA0D
100
AcDbEntity
  8
0
100
AcDbVertex
100
AcDb2dVertex
 10
12.81237031853797
 20
28.74400246641646
 30
0.0
 70
     8
  0
VERTEX
  5
BB43
330
BA0D
100
AcDbEntity
  8
0
100
AcDbVertex
100
AcDb2dVertex
 10
12.82122155853191
 20
28.73463999446029
 30
0.0
 70
     8
  0
VERTEX
  5
BB44
330
BA0D
100
AcDbEntity
  8
0
100
AcDbVertex
100
AcDb2dVertex
 10
12.82861605934361
 20
28.72389384931331
 30
0.0
 70
     8
  0
VERTEX
  5
BB45
330
BA0D
100
AcDbEntity
  8
0
100
AcDbVertex
100
AcDb2dVertex
 10
12.83443705033789
 20
28.71183845847406
 30
0.0
 70
     8
  0
VERTEX
  5
BB46
330
BA0D
100
AcDbEntity
  8
0
100
AcDbVertex
100
AcDb2dVertex
 10
12.8385677608795
 20
28.69854824944111
 30
0.0
 70
     8
  0
VERTEX
  5
BB47
330
BA0D
100
AcDbEntity
  8
0
100
AcDbVertex
100
AcDb2dVertex
 10
12.84089142033327
 20
28.68409764971298
 30
0.0
 70
     8
  0
VERTEX
  5
BB48
330
BA0D
100
AcDbEntity
  8
0
100
AcDbVertex
100
AcDb2dVertex
 10
12.84125728031015
 20
28.66847361125899
 30
0.0
 70
     8
  0
VERTEX
  5
BB49
330
BA0D
100
AcDbEntity
  8
0
100
AcDbVertex
100
AcDb2dVertex
 10
12.83937868140597
 20
28.65131318393139
 30
0.0
 70
     8
  0
VERTEX
  5
BB4A
330
BA0D
100
AcDbEntity
  8
0
100
AcDbVertex
100
AcDb2dVertex
 10
12.83493498646274
 20
28.63216594205322
 30
0.0
 70
     8
  0
VERTEX
  5
BB4B
330
BA0D
100
AcDbEntity
  8
0
100
AcDbVertex
100
AcDb2dVertex
 10
12.82760555832245
 20
28.61058145994748
 30
0.0
 70
     8
  0
VERTEX
  5
BB4C
330
BA0D
100
AcDbEntity
  8
0
100
AcDbVertex
100
AcDb2dVertex
 10
12.81706975982712
 20
28.5861093119372
 30
0.0
 70
     8
  0
VERTEX
  5
BB4D
330
BA0D
100
AcDbEntity
  8
0
100
AcDbVertex
100
AcDb2dVertex
 10
12.80300695381876
 20
28.55829907234538
 30
0.0
 70
     8
  0
VERTEX
  5
BB4E
330
BA0D
100
AcDbEntity
  8
0
100
AcDbVertex
100
AcDb2dVertex
 10
12.78509650313938
 20
28.52670031549505
 30
0.0
 70
     8
  0
VERTEX
  5
BB4F
330
BA0D
100
AcDbEntity
  8
0
100
AcDbVertex
100
AcDb2dVertex
 10
12.76301777063098
 20
28.49086261570924
 30
0.0
 70
     8
  0
VERTEX
  5
BB50
330
BA0D
100
AcDbEntity
  8
0
100
AcDbVertex
100
AcDb2dVertex
 10
12.73660838231284
 20
28.45038182378342
 30
0.0
 70
     8
  0
VERTEX
  5
BB51
330
BA0D
100
AcDbEntity
  8
0
100
AcDbVertex
100
AcDb2dVertex
 10
12.7063390169133
 20
28.405038896403
 30
0.0
 70
     8
  0
VERTEX
  5
BB52
330
BA0D
100
AcDbEntity
  8
0
100
AcDbVertex
100
AcDb2dVertex
 10
12.67283861633796
 20
28.35466106672586
 30
0.0
 70
     8
  0
VERTEX
  5
BB53
330
BA0D
100
AcDbEntity
  8
0
100
AcDbVertex
100
AcDb2dVertex
 10
12.63673612249241
 20
28.29907556790986
 30
0.0
 70
     8
  0
VERTEX
  5
BB54
330
BA0D
100
AcDbEntity
  8
0
100
AcDbVertex
100
AcDb2dVertex
 10
12.59866047728226
 20
28.23810963311288
 30
0.0
 70
     8
  0
VERTEX
  5
BB55
330
BA0D
100
AcDbEntity
  8
0
100
AcDbVertex
100
AcDb2dVertex
 10
12.55924062261312
 20
28.17159049549281
 30
0.0
 70
     8
  0
VERTEX
  5
BB56
330
BA0D
100
AcDbEntity
  8
0
100
AcDbVertex
100
AcDb2dVertex
 10
12.51910550039057
 20
28.09934538820752
 30
0.0
 70
     8
  0
VERTEX
  5
BB57
330
BA0D
100
AcDbEntity
  8
0
100
AcDbVertex
100
AcDb2dVertex
 10
12.47888405252023
 20
28.02120154441487
 30
0.0
 70
     8
  0
VERTEX
  5
BB58
330
BA0D
100
AcDbEntity
  8
0
100
AcDbVertex
100
AcDb2dVertex
 10
12.43912907604811
 20
27.93708241446282
 30
0.0
 70
     8
  0
VERTEX
  5
BB59
330
BA0D
100
AcDbEntity
  8
0
100
AcDbVertex
100
AcDb2dVertex
 10
12.40008878858195
 20
27.84729631745956
 30
0.0
 70
     8
  0
VERTEX
  5
BB5A
330
BA0D
100
AcDbEntity
  8
0
100
AcDbVertex
100
AcDb2dVertex
 10
12.36193526286991
 20
27.75224778970337
 30
0.0
 70
     8
  0
VERTEX
  5
BB5B
330
BA0D
100
AcDbEntity
  8
0
100
AcDbVertex
100
AcDb2dVertex
 10
12.32484057166012
 20
27.65234136749252
 30
0.0
 70
     8
  0
VERTEX
  5
BB5C
330
BA0D
100
AcDbEntity
  8
0
100
AcDbVertex
100
AcDb2dVertex
 10
12.28897678770074
 20
27.54798158712528
 30
0.0
 70
     8
  0
VERTEX
  5
BB5D
330
BA0D
100
AcDbEntity
  8
0
100
AcDbVertex
100
AcDb2dVertex
 10
12.25451598373992
 20
27.43957298489991
 30
0.0
 70
     8
  0
VERTEX
  5
BB5E
330
BA0D
100
AcDbEntity
  8
0
100
AcDbVertex
100
AcDb2dVertex
 10
12.22163023252582
 20
27.32752009711469
 30
0.0
 70
     8
  0
VERTEX
  5
BB5F
330
BA0D
100
AcDbEntity
  8
0
100
AcDbVertex
100
AcDb2dVertex
 10
12.19049160680658
 20
27.2122274600679
 30
0.0
 70
     8
  0
VERTEX
  5
BB60
330
BA0D
100
AcDbEntity
  8
0
100
AcDbVertex
100
AcDb2dVertex
 10
12.16127596884333
 20
27.09415375991711
 30
0.0
 70
     8
  0
VERTEX
  5
BB61
330
BA0D
100
AcDbEntity
  8
0
100
AcDbVertex
100
AcDb2dVertex
 10
12.13417433894907
 20
26.9739742822572
 30
0.0
 70
     8
  0
VERTEX
  5
BB62
330
BA0D
100
AcDbEntity
  8
0
100
AcDbVertex
100
AcDb2dVertex
 10
12.10938152694977
 20
26.85241846254238
 30
0.0
 70
     8
  0
VERTEX
  5
BB63
330
BA0D
100
AcDbEntity
  8
0
100
AcDbVertex
100
AcDb2dVertex
 10
12.08709234267139
 20
26.73021573622684
 30
0.0
 70
     8
  0
VERTEX
  5
BB64
330
BA0D
100
AcDbEntity
  8
0
100
AcDbVertex
100
AcDb2dVertex
 10
12.06750159593992
 20
26.60809553876476
 30
0.0
 70
     8
  0
VERTEX
  5
BB65
330
BA0D
100
AcDbEntity
  8
0
100
AcDbVertex
100
AcDb2dVertex
 10
12.05080409658131
 20
26.48678730561035
 30
0.0
 70
     8
  0
VERTEX
  5
BB66
330
BA0D
100
AcDbEntity
  8
0
100
AcDbVertex
100
AcDb2dVertex
 10
12.03719465442155
 20
26.3670204722178
 30
0.0
 70
     8
  0
VERTEX
  5
BB67
330
BA0D
100
AcDbEntity
  8
0
100
AcDbVertex
100
AcDb2dVertex
 10
12.0268680792866
 20
26.24952447404131
 30
0.0
 70
     8
  0
VERTEX
  5
BB68
330
BA0D
100
AcDbEntity
  8
0
100
AcDbVertex
100
AcDb2dVertex
 10
12.019992332917
 20
26.13479411739136
 30
0.0
 70
     8
  0
VERTEX
  5
BB69
330
BA0D
100
AcDbEntity
  8
0
100
AcDbVertex
100
AcDb2dVertex
 10
12.01662798471161
 20
26.0223856920036
 30
0.0
 70
     8
  0
VERTEX
  5
BB6A
330
BA0D
100
AcDbEntity
  8
0
100
AcDbVertex
100
AcDb2dVertex
 10
12.01680875598385
 20
25.91162085846998
 30
0.0
 70
     8
  0
VERTEX
  5
BB6B
330
BA0D
100
AcDbEntity
  8
0
100
AcDbVertex
100
AcDb2dVertex
 10
12.02056836804714
 20
25.80182127738243
 30
0.0
 70
     8
  0
VERTEX
  5
BB6C
330
BA0D
100
AcDbEntity
  8
0
100
AcDbVertex
100
AcDb2dVertex
 10
12.02794054221492
 20
25.6923086093329
 30
0.0
 70
     8
  0
VERTEX
  5
BB6D
330
BA0D
100
AcDbEntity
  8
0
100
AcDbVertex
100
AcDb2dVertex
 10
12.0389589998006
 20
25.58240451491333
 30
0.0
 70
     8
  0
VERTEX
  5
BB6E
330
BA0D
100
AcDbEntity
  8
0
100
AcDbVertex
100
AcDb2dVertex
 10
12.05365746211761
 20
25.47143065471566
 30
0.0
 70
     8
  0
VERTEX
  5
BB6F
330
BA0D
100
AcDbEntity
  8
0
100
AcDbVertex
100
AcDb2dVertex
 10
12.07206965047938
 20
25.35870868933182
 30
0.0
 70
     8
  0
VERTEX
  5
BB70
330
BA0D
100
AcDbEntity
  8
0
100
AcDbVertex
100
AcDb2dVertex
 10
12.09415477902642
 20
25.24382039307973
 30
0.0
 70
     8
  0
VERTEX
  5
BB71
330
BA0D
100
AcDbEntity
  8
0
100
AcDbVertex
100
AcDb2dVertex
 10
12.11957403320761
 20
25.12738799518106
 30
0.0
 70
     8
  0
VERTEX
  5
BB72
330
BA0D
100
AcDbEntity
  8
0
100
AcDbVertex
100
AcDb2dVertex
 10
12.14791409129892
 20
25.01029383858347
 30
0.0
 70
     8
  0
VERTEX
  5
BB73
330
BA0D
100
AcDbEntity
  8
0
100
AcDbVertex
100
AcDb2dVertex
 10
12.17876163157632
 20
24.8934202662346
 30
0.0
 70
     8
  0
VERTEX
  5
BB74
330
BA0D
100
AcDbEntity
  8
0
100
AcDbVertex
100
AcDb2dVertex
 10
12.21170333231578
 20
24.77764962108212
 30
0.0
 70
     8
  0
VERTEX
  5
BB75
330
BA0D
100
AcDbEntity
  8
0
100
AcDbVertex
100
AcDb2dVertex
 10
12.24632587179327
 20
24.66386424607364
 30
0.0
 70
     8
  0
VERTEX
  5
BB76
330
BA0D
100
AcDbEntity
  8
0
100
AcDbVertex
100
AcDb2dVertex
 10
12.28221592828476
 20
24.55294648415685
 30
0.0
 70
     8
  0
VERTEX
  5
BB77
330
BA0D
100
AcDbEntity
  8
0
100
AcDbVertex
100
AcDb2dVertex
 10
12.31896018006622
 20
24.44577867827936
 30
0.0
 70
     8
  0
VERTEX
  5
BB78
330
BA0D
100
AcDbEntity
  8
0
100
AcDbVertex
100
AcDb2dVertex
 10
12.35613152819975
 20
24.3431604516066
 30
0.0
 70
     8
  0
VERTEX
  5
BB79
330
BA0D
100
AcDbEntity
  8
0
100
AcDbVertex
100
AcDb2dVertex
 10
12.39324776489193
 20
24.24556054817496
 30
0.0
 70
     8
  0
VERTEX
  5
BB7A
330
BA0D
100
AcDbEntity
  8
0
100
AcDbVertex
100
AcDb2dVertex
 10
12.4298129051355
 20
24.15336499223862
 30
0.0
 70
     8
  0
VERTEX
  5
BB7B
330
BA0D
100
AcDbEntity
  8
0
100
AcDbVertex
100
AcDb2dVertex
 10
12.46533096392317
 20
24.06695980805173
 30
0.0
 70
     8
  0
VERTEX
  5
BB7C
330
BA0D
100
AcDbEntity
  8
0
100
AcDbVertex
100
AcDb2dVertex
 10
12.49930595624765
 20
23.98673101986847
 30
0.0
 70
     8
  0
VERTEX
  5
BB7D
330
BA0D
100
AcDbEntity
  8
0
100
AcDbVertex
100
AcDb2dVertex
 10
12.53124189710167
 20
23.91306465194301
 30
0.0
 70
     8
  0
VERTEX
  5
BB7E
330
BA0D
100
AcDbEntity
  8
0
100
AcDbVertex
100
AcDb2dVertex
 10
12.56064280147795
 20
23.84634672852948
 30
0.0
 70
     8
  0
VERTEX
  5
BB7F
330
BA0D
100
AcDbEntity
  8
0
100
AcDbVertex
100
AcDb2dVertex
 10
12.5870126843692
 20
23.78696327388208
 30
0.0
 70
     8
  0
VERTEX
  5
BB80
330
BA0D
100
AcDbEntity
  8
0
100
AcDbVertex
100
AcDb2dVertex
 10
12.609974964604
 20
23.73501998488178
 30
0.0
 70
     8
  0
VERTEX
  5
BB81
330
BA0D
100
AcDbEntity
  8
0
100
AcDbVertex
100
AcDb2dVertex
 10
12.62963067635434
 20
23.6895012489169
 30
0.0
 70
     8
  0
VERTEX
  5
BB82
330
BA0D
100
AcDbEntity
  8
0
100
AcDbVertex
100
AcDb2dVertex
 10
12.64620025762805
 20
23.64911112600255
 30
0.0
 70
     8
  0
VERTEX
  5
BB83
330
BA0D
100
AcDbEntity
  8
0
100
AcDbVertex
100
AcDb2dVertex
 10
12.65990414643298
 20
23.61255367615386
 30
0.0
 70
     8
  0
VERTEX
  5
BB84
330
BA0D
100
AcDbEntity
  8
0
100
AcDbVertex
100
AcDb2dVertex
 10
12.67096278077697
 20
23.57853295938597
 30
0.0
 70
     8
  0
VERTEX
  5
BB85
330
BA0D
100
AcDbEntity
  8
0
100
AcDbVertex
100
AcDb2dVertex
 10
12.67959659866787
 20
23.545753035714
 30
0.0
 70
     8
  0
VERTEX
  5
BB86
330
BA0D
100
AcDbEntity
  8
0
100
AcDbVertex
100
AcDb2dVertex
 10
12.68602603811351
 20
23.51291796515308
 30
0.0
 70
     8
  0
VERTEX
  5
BB87
330
BA0D
100
AcDbEntity
  8
0
100
AcDbVertex
100
AcDb2dVertex
 10
12.69047153712173
 20
23.47873180771833
 30
0.0
 70
     8
  0
VERTEX
  5
BB88
330
BA0D
100
AcDbEntity
  8
0
100
AcDbVertex
100
AcDb2dVertex
 10
12.69310301661439
 20
23.4421100179034
 30
0.0
 70
     8
  0
VERTEX
  5
BB89
330
BA0D
100
AcDbEntity
  8
0
100
AcDbVertex
100
AcDb2dVertex
 10
12.69388832916936
 20
23.40281362811601
 30
0.0
 70
     8
  0
VERTEX
  5
BB8A
330
BA0D
100
AcDbEntity
  8
0
100
AcDbVertex
100
AcDb2dVertex
 10
12.69274481027851
 20
23.36081506524239
 30
0.0
 70
     8
  0
VERTEX
  5
BB8B
330
BA0D
100
AcDbEntity
  8
0
100
AcDbVertex
100
AcDb2dVertex
 10
12.68958979543372
 20
23.31608675616877
 30
0.0
 70
     8
  0
VERTEX
  5
BB8C
330
BA0D
100
AcDbEntity
  8
0
100
AcDbVertex
100
AcDb2dVertex
 10
12.68434062012687
 20
23.26860112778138
 30
0.0
 70
     8
  0
VERTEX
  5
BB8D
330
BA0D
100
AcDbEntity
  8
0
100
AcDbVertex
100
AcDb2dVertex
 10
12.67691461984984
 20
23.21833060696647
 30
0.0
 70
     8
  0
VERTEX
  5
BB8E
330
BA0D
100
AcDbEntity
  8
0
100
AcDbVertex
100
AcDb2dVertex
 10
12.6672291300945
 20
23.16524762061024
 30
0.0
 70
     8
  0
VERTEX
  5
BB8F
330
BA0D
100
AcDbEntity
  8
0
100
AcDbVertex
100
AcDb2dVertex
 10
12.65520148635274
 20
23.10932459559895
 30
0.0
 70
     8
  0
VERTEX
  5
BB90
330
BA0D
100
AcDbEntity
  8
0
100
AcDbVertex
100
AcDb2dVertex
 10
12.64081331862044
 20
23.05071318455437
 30
0.0
 70
     8
  0
VERTEX
  5
BB91
330
BA0D
100
AcDbEntity
  8
0
100
AcDbVertex
100
AcDb2dVertex
 10
12.62430343490956
 20
22.9902819430405
 30
0.0
 70
     8
  0
VERTEX
  5
BB92
330
BA0D
100
AcDbEntity
  8
0
100
AcDbVertex
100
AcDb2dVertex
 10
12.60597493773605
 20
22.92907865235689
 30
0.0
 70
     8
  0
VERTEX
  5
BB93
330
BA0D
100
AcDbEntity
  8
0
100
AcDbVertex
100
AcDb2dVertex
 10
12.5861309296159
 20
22.86815109380308
 30
0.0
 70
     8
  0
VERTEX
  5
BB94
330
BA0D
100
AcDbEntity
  8
0
100
AcDbVertex
100
AcDb2dVertex
 10
12.56507451306504
 20
22.80854704867862
 30
0.0
 70
     8
  0
VERTEX
  5
BB95
330
BA0D
100
AcDbEntity
  8
0
100
AcDbVertex
100
AcDb2dVertex
 10
12.54310879059946
 20
22.75131429828305
 30
0.0
 70
     8
  0
VERTEX
  5
BB96
330
BA0D
100
AcDbEntity
  8
0
100
AcDbVertex
100
AcDb2dVertex
 10
12.5205368647351
 20
22.69750062391592
 30
0.0
 70
     8
  0
VERTEX
  5
BB97
330
BA0D
100
AcDbEntity
  8
0
100
AcDbVertex
100
AcDb2dVertex
 10
12.49766183798795
 20
22.64815380687678
 30
0.0
 70
     8
  0
VERTEX
  5
BB98
330
BA0D
100
AcDbEntity
  8
0
100
AcDbVertex
100
AcDb2dVertex
 10
12.47475007310391
 20
22.60407806524369
 30
0.0
 70
     8
  0
VERTEX
  5
BB99
330
BA0D
100
AcDbEntity
  8
0
100
AcDbVertex
100
AcDb2dVertex
 10
12.45192097374872
 20
22.56510336420879
 30
0.0
 70
     8
  0
VERTEX
  5
BB9A
330
BA0D
100
AcDbEntity
  8
0
100
AcDbVertex
100
AcDb2dVertex
 10
12.42925720381806
 20
22.53081610574271
 30
0.0
 70
     8
  0
VERTEX
  5
BB9B
330
BA0D
100
AcDbEntity
  8
0
100
AcDbVertex
100
AcDb2dVertex
 10
12.40684142720763
 20
22.50080269181613
 30
0.0
 70
     8
  0
VERTEX
  5
BB9C
330
BA0D
100
AcDbEntity
  8
0
100
AcDbVertex
100
AcDb2dVertex
 10
12.3847563078131
 20
22.47464952439969
 30
0.0
 70
     8
  0
VERTEX
  5
BB9D
330
BA0D
100
AcDbEntity
  8
0
100
AcDbVertex
100
AcDb2dVertex
 10
12.36308450953016
 20
22.45194300546405
 30
0.0
 70
     8
  0
VERTEX
  5
BB9E
330
BA0D
100
AcDbEntity
  8
0
100
AcDbVertex
100
AcDb2dVertex
 10
12.34190869625451
 20
22.43226953697984
 30
0.0
 70
     8
  0
VERTEX
  5
BB9F
330
BA0D
100
AcDbEntity
  8
0
100
AcDbVertex
100
AcDb2dVertex
 10
12.32131153188182
 20
22.41521552091773
 30
0.0
 70
     8
  0
VERTEX
  5
BBA0
330
BA0D
100
AcDbEntity
  8
0
100
AcDbVertex
100
AcDb2dVertex
 10
12.30136190299184
 20
22.40045926990319
 30
0.0
 70
     8
  0
VERTEX
  5
BBA1
330
BA0D
100
AcDbEntity
  8
0
100
AcDbVertex
100
AcDb2dVertex
 10
12.28207358690051
 20
22.38804673918093
 30
0.0
 70
     8
  0
VERTEX
  5
BBA2
330
BA0D
100
AcDbEntity
  8
0
100
AcDbVertex
100
AcDb2dVertex
 10
12.26344658360784
 20
22.37811579465052
 30
0.0
 70
     8
  0
VERTEX
  5
BBA3
330
BA0D
100
AcDbEntity
  8
0
100
AcDbVertex
100
AcDb2dVertex
 10
12.24548089311382
 20
22.37080430221149
 30
0.0
 70
     8
  0
VERTEX
  5
BBA4
330
BA0D
100
AcDbEntity
  8
0
100
AcDbVertex
100
AcDb2dVertex
 10
12.22817651541846
 20
22.3662501277634
 30
0.0
 70
     8
  0
VERTEX
  5
BBA5
330
BA0D
100
AcDbEntity
  8
0
100
AcDbVertex
100
AcDb2dVertex
 10
12.21153345052175
 20
22.36459113720579
 30
0.0
 70
     8
  0
VERTEX
  5
BBA6
330
BA0D
100
AcDbEntity
  8
0
100
AcDbVertex
100
AcDb2dVertex
 10
12.19555169842369
 20
22.36596519643821
 30
0.0
 70
     8
  0
VERTEX
  5
BBA7
330
BA0D
100
AcDbEntity
  8
0
100
AcDbVertex
100
AcDb2dVertex
 10
12.18023125912429
 20
22.3705101713602
 30
0.0
 70
     8
  0
VERTEX
  5
BBA8
330
BA0D
100
AcDbEntity
  8
0
100
AcDbVertex
100
AcDb2dVertex
 10
12.16537006455176
 20
22.37881888557132
 30
0.0
 70
     8
  0
VERTEX
  5
BBA9
330
BA0D
100
AcDbEntity
  8
0
100
AcDbVertex
100
AcDb2dVertex
 10
12.14995777434719
 20
22.3933039934711
 30
0.0
 70
     8
  0
VERTEX
  5
BBAA
330
BA0D
100
AcDbEntity
  8
0
100
AcDbVertex
100
AcDb2dVertex
 10
12.13278198007989
 20
22.41683310715909
 30
0.0
 70
     8
  0
VERTEX
  5
BBAB
330
BA0D
100
AcDbEntity
  8
0
100
AcDbVertex
100
AcDb2dVertex
 10
12.11263027331916
 20
22.45227383873484
 30
0.0
 70
     8
  0
VERTEX
  5
BBAC
330
BA0D
100
AcDbEntity
  8
0
100
AcDbVertex
100
AcDb2dVertex
 10
12.08829024563431
 20
22.5024938002979
 30
0.0
 70
     8
  0
VERTEX
  5
BBAD
330
BA0D
100
AcDbEntity
  8
0
100
AcDbVertex
100
AcDb2dVertex
 10
12.05854948859464
 20
22.5703606039478
 30
0.0
 70
     8
  0
VERTEX
  5
BBAE
330
BA0D
100
AcDbEntity
  8
0
100
AcDbVertex
100
AcDb2dVertex
 10
12.02219559376946
 20
22.65874186178411
 30
0.0
 70
     8
  0
VERTEX
  5
BBAF
330
BA0D
100
AcDbEntity
  8
0
100
AcDbVertex
100
AcDb2dVertex
 10
11.97801615272808
 20
22.77050518590635
 30
0.0
 70
     8
  0
VERTEX
  5
BBB0
330
BA0D
100
AcDbEntity
  8
0
100
AcDbVertex
100
AcDb2dVertex
 10
11.92521207811738
 20
22.90776452115482
 30
0.0
 70
     8
  0
VERTEX
  5
BBB1
330
BA0D
100
AcDbEntity
  8
0
100
AcDbVertex
100
AcDb2dVertex
 10
11.8646375668945
 20
23.0696191433328
 30
0.0
 70
     8
  0
VERTEX
  5
BBB2
330
BA0D
100
AcDbEntity
  8
0
100
AcDbVertex
100
AcDb2dVertex
 10
11.79756013709418
 20
23.25441466098431
 30
0.0
 70
     8
  0
VERTEX
  5
BBB3
330
BA0D
100
AcDbEntity
  8
0
100
AcDbVertex
100
AcDb2dVertex
 10
11.72524730675115
 20
23.46049668265337
 30
0.0
 70
     8
  0
VERTEX
  5
BBB4
330
BA0D
100
AcDbEntity
  8
0
100
AcDbVertex
100
AcDb2dVertex
 10
11.64896659390012
 20
23.68621081688401
 30
0.0
 70
     8
  0
VERTEX
  5
BBB5
330
BA0D
100
AcDbEntity
  8
0
100
AcDbVertex
100
AcDb2dVertex
 10
11.56998551657584
 20
23.92990267222026
 30
0.0
 70
     8
  0
VERTEX
  5
BBB6
330
BA0D
100
AcDbEntity
  8
0
100
AcDbVertex
100
AcDb2dVertex
 10
11.48957159281302
 20
24.18991785720613
 30
0.0
 70
     8
  0
VERTEX
  5
BBB7
330
BA0D
100
AcDbEntity
  8
0
100
AcDbVertex
100
AcDb2dVertex
 10
11.39723565124993
 20
24.32578014851715
 30
0.0
 70
    16
  0
VERTEX
  5
BBB8
330
BA0D
100
AcDbEntity
  8
0
100
AcDbVertex
100
AcDb2dVertex
 10
10.79059043658365
 20
26.99398267178408
 30
0.0
 70
    16
  0
VERTEX
  5
BBB9
330
BA0D
100
AcDbEntity
  8
0
100
AcDbVertex
100
AcDb2dVertex
 10
10.49432188469732
 20
29.56336281666246
 30
0.0
 70
    16
  0
VERTEX
  5
BBBA
330
BA0D
100
AcDbEntity
  8
0
100
AcDbVertex
100
AcDb2dVertex
 10
10.56486202107608
 20
31.34216444239956
 30
0.0
 70
    16
  0
VERTEX
  5
BBBB
330
BA0D
100
AcDbEntity
  8
0
100
AcDbVertex
100
AcDb2dVertex
 10
10.79059043658365
 20
32.3445051525671
 30
0.0
 70
    16
  0
VERTEX
  5
BBBC
330
BA0D
100
AcDbEntity
  8
0
100
AcDbVertex
100
AcDb2dVertex
 10
11.36901963850737
 20
33.16331854020646
 30
0.0
 70
    16
  0
VERTEX
  5
BBBD
330
BA0D
100
AcDbEntity
  8
0
100
AcDbVertex
100
AcDb2dVertex
 10
12.21550127505252
 20
33.64331265925532
 30
0.0
 70
    16
  0
VERTEX
  5
BBBE
330
BA0D
100
AcDbEntity
  8
0
100
AcDbVertex
100
AcDb2dVertex
 10
13.10430703523384
 20
33.61507762143465
 30
0.0
 70
    16
  0
VERTEX
  5
BBBF
330
BA0D
100
AcDbEntity
  8
0
100
AcDbVertex
100
AcDb2dVertex
 10
13.97900478904389
 20
33.09273119963854
 30
0.0
 70
    16
  0
VERTEX
  5
BBC0
330
BA0D
100
AcDbEntity
  8
0
100
AcDbVertex
100
AcDb2dVertex
 10
14.40224560731645
 20
32.52803230577267
 30
0.0
 70
    16
  0
VERTEX
  5
BBC1
330
BA0D
100
AcDbEntity
  8
0
100
AcDbVertex
100
AcDb2dVertex
 10
14.48689385458884
 20
31.58216150192401
 30
0.0
 70
    16
  0
VERTEX
  5
BBC2
330
BA0D
100
AcDbEntity
  8
0
100
AcDbVertex
100
AcDb2dVertex
 10
14.1200850618014
 20
30.66452573589603
 30
0.0
 70
    16
  0
VERTEX
  5
BBC3
330
BA0D
100
AcDbEntity
  8
0
100
AcDbVertex
100
AcDb2dVertex
 10
13.51343984713512
 20
30.08570940778108
 30
0.0
 70
    16
  0
VERTEX
  5
BBC4
330
BA0D
100
AcDbEntity
  8
0
100
AcDbVertex
100
AcDb2dVertex
 10
12.8503626069837
 20
29.91629968882455
 30
0.0
 70
    16
  0
VERTEX
  5
BBC5
330
BA0D
100
AcDbEntity
  8
0
100
AcDbVertex
100
AcDb2dVertex
 10
12.27193340505998
 20
30.21276665466783
 30
0.0
 70
    16
  0
VERTEX
  5
BBC6
330
BA0D
100
AcDbEntity
  8
0
100
AcDbVertex
100
AcDb2dVertex
 10
12.14496113867374
 20
30.6927607737167
 30
0.0
 70
    16
  0
VERTEX
  5
BBC7
330
BA0D
100
AcDbEntity
  8
0
100
AcDbVertex
100
AcDb2dVertex
 10
12.37068955418131
 20
31.20098976126373
 30
0.0
 70
    16
  0
VERTEX
  5
BBC8
330
BA0D
100
AcDbEntity
  8
0
100
AcDbVertex
100
AcDb2dVertex
 10
12.67502346734398
 20
31.28833545939178
 30
0.0
 70
    16
  0
VERTEX
  5
BBC9
330
BA0D
100
AcDbEntity
  8
0
100
AcDbVertex
100
AcDb2dVertex
 10
12.9926021369326
 20
31.2171063864812
 30
0.0
 70
    16
  0
VERTEX
  5
BBCA
330
BA0D
100
AcDbEntity
  8
0
100
AcDbVertex
100
AcDb2dVertex
 10
13.17329334261547
 20
31.2171063864812
 30
0.0
 70
    16
  0
VERTEX
  5
BBCB
330
BA0D
100
AcDbEntity
  8
0
100
AcDbVertex
100
AcDb2dVertex
 10
13.23899932110935
 20
31.35408542494697
 30
0.0
 70
    16
  0
VERTEX
  5
BBCC
330
BA0D
100
AcDbEntity
  8
0
100
AcDbVertex
100
AcDb2dVertex
 10
13.16234243330178
 20
31.5677726436788
 30
0.0
 70
    16
  0
VERTEX
  5
BBCD
330
BA0D
100
AcDbEntity
  8
0
100
AcDbVertex
100
AcDb2dVertex
 10
12.74620484823353
 20
32.01158457253126
 30
0.0
 70
    16
  0
VERTEX
  5
BBCE
330
BA0D
100
AcDbEntity
  8
0
100
AcDbVertex
100
AcDb2dVertex
 10
12.36839581159139
 20
32.16500110238583
 30
0.0
 70
    16
  0
VERTEX
  5
BBCF
330
BA0D
100
AcDbEntity
  8
0
100
AcDbVertex
100
AcDb2dVertex
 10
11.79346904851233
 20
32.07733453808644
 30
0.0
 70
    16
  0
VERTEX
  5
BBD0
330
BA0D
100
AcDbEntity
  8
0
100
AcDbVertex
100
AcDb2dVertex
 10
11.28972356180048
 20
31.69379329811123
 30
0.0
 70
    16
  0
VERTEX
  5
BBD1
330
BA0D
100
AcDbEntity
  8
0
100
AcDbVertex
100
AcDb2dVertex
 10
10.96666948981617
 20
31.16779408163734
 30
0.0
 70
    16
  0
VERTEX
  5
BBD2
330
BA0D
100
AcDbEntity
  8
0
100
AcDbVertex
100
AcDb2dVertex
 10
10.87358608125456
 20
30.63083631180753
 30
0.0
 70
    16
  0
VERTEX
  5
BBD3
330
BA0D
100
AcDbEntity
  8
0
100
AcDbVertex
100
AcDb2dVertex
 10
10.99952242680195
 20
30.24181613379943
 30
0.0
 70
    16
  0
VERTEX
  5
BBD4
330
BA0D
100
AcDbEntity
  8
0
100
AcDbVertex
100
AcDb2dVertex
 10
11.10903225159527
 20
30.07196211255602
 30
0.0
 70
    16
  0
VERTEX
  5
BBD5
330
BA0D
100
AcDbEntity
  8
0
100
AcDbVertex
100
AcDb2dVertex
 10
11.05427739145977
 20
30.0116914236788
 30
0.0
 70
    16
  0
VERTEX
  5
BBD6
330
BA0D
100
AcDbEntity
  8
0
100
AcDbVertex
100
AcDb2dVertex
 10
10.81335560967872
 20
29.83635829507998
 30
0.0
 70
    16
  0
VERTEX
  5
BBD7
330
BA0D
100
AcDbEntity
  8
0
100
AcDbVertex
100
AcDb2dVertex
 10
10.71479679872142
 20
29.5240461280154
 30
0.0
 70
    16
  0
VERTEX
  5
BBD8
330
BA0D
100
AcDbEntity
  8
0
100
AcDbVertex
100
AcDb2dVertex
 10
10.76407625646123
 20
29.2281716216621
 30
0.0
 70
    16
  0
VERTEX
  5
BBD9
330
BA0D
100
AcDbEntity
  8
0
100
AcDbVertex
100
AcDb2dVertex
 10
10.96119398289815
 20
28.89394285585331
 30
0.0
 70
    16
  0
VERTEX
  5
BBDA
330
BA0D
100
AcDbEntity
  8
0
100
AcDbVertex
100
AcDb2dVertex
 10
11.28437139123499
 20
28.63160961638539
 30
0.0
 70
    16
  0
VERTEX
  5
BBDB
330
BA0D
100
AcDbEntity
  8
0
100
AcDbVertex
100
AcDb2dVertex
 10
11.87690859952999
 20
28.56102227581748
 30
0.0
 70
    16
  0
VERTEX
  5
BBDC
330
BA0D
100
AcDbEntity
  8
0
100
AcDbVertex
100
AcDb2dVertex
 10
12.65285020421869
 20
28.75866686327214
 30
0.0
 70
    16
  0
VERTEX
  5
BBDD
330
BA0D
100
AcDbEntity
  8
0
100
AcDbVertex
100
AcDb2dVertex
 10
12.78880020732293
 20
28.78097832212802
 30
0.0
 70
    16
  0
VERTEX
  5
BBDE
330
BA0D
100
AcDbEntity
  8
0
100
AcDbVertex
100
AcDb2dVertex
 10
12.86141218537941
 20
28.69568125714355
 30
0.0
 70
    16
  0
VERTEX
  5
BBDF
330
BA0D
100
AcDbEntity
  8
0
100
AcDbVertex
100
AcDb2dVertex
 10
12.81089957315904
 20
28.54088254757565
 30
0.0
 70
    16
  0
VERTEX
  5
BBE0
330
BA0D
100
AcDbEntity
  8
0
100
AcDbVertex
100
AcDb2dVertex
 10
12.47309614577032
 20
28.08596424680926
 30
0.0
 70
    16
  0
VERTEX
  5
BBE1
330
BA0D
100
AcDbEntity
  8
0
100
AcDbVertex
100
AcDb2dVertex
 10
12.17002015888106
 20
27.24246973167654
 30
0.0
 70
    16
  0
VERTEX
  5
BBE2
330
BA0D
100
AcDbEntity
  8
0
100
AcDbVertex
100
AcDb2dVertex
 10
11.98977285954493
 20
26.21752158689196
 30
0.0
 70
    16
  0
VERTEX
  5
BBE3
330
BA0D
100
AcDbEntity
  8
0
100
AcDbVertex
100
AcDb2dVertex
 10
12.0320968786588
 20
25.38459076500348
 30
0.0
 70
    16
  0
VERTEX
  5
BBE4
330
BA0D
100
AcDbEntity
  8
0
100
AcDbVertex
100
AcDb2dVertex
 10
12.31425752869618
 20
24.39636748908507
 30
0.0
 70
    16
  0
VERTEX
  5
BBE5
330
BA0D
100
AcDbEntity
  8
0
100
AcDbVertex
100
AcDb2dVertex
 10
12.6246340869538
 20
23.70461134833242
 30
0.0
 70
    16
  0
VERTEX
  5
BBE6
330
BA0D
100
AcDbEntity
  8
0
100
AcDbVertex
100
AcDb2dVertex
 10
12.70928222970384
 20
23.50696676087775
 30
0.0
 70
    16
  0
VERTEX
  5
BBE7
330
BA0D
100
AcDbEntity
  8
0
100
AcDbVertex
100
AcDb2dVertex
 10
12.68106621696126
 20
23.13991245446655
 30
0.0
 70
    16
  0
VERTEX
  5
BBE8
330
BA0D
100
AcDbEntity
  8
0
100
AcDbVertex
100
AcDb2dVertex
 10
12.49766182056756
 20
22.58933099484977
 30
0.0
 70
    16
  0
VERTEX
  5
BBE9
330
BA0D
100
AcDbEntity
  8
0
100
AcDbVertex
100
AcDb2dVertex
 10
12.31425752869618
 20
22.3916864073951
 30
0.0
 70
    16
  0
VERTEX
  5
BBEA
330
BA0D
100
AcDbEntity
  8
0
100
AcDbVertex
100
AcDb2dVertex
 10
12.17317725593864
 20
22.33521650107623
 30
0.0
 70
    16
  0
SEQEND
  5
BBEB
330
BA0D
100
AcDbEntity
  8
0
  0
LINE
  5
BBEC
330
18
100
AcDbEntity
  8
0
100
AcDbLine
 10
7.873444172865877
 20
11.09591260981889
 30
0.0
 11
7.873444172865877
 21
36.72198056330756
 31
0.0
  0
POLYLINE
  5
BBED
330
18
100
AcDbEntity
  8
0
100
AcDb2dPolyline
 66
     1
 10
0.0
 20
0.0
 30
0.0
 70
     5
 75
     6
  0
VERTEX
  5
BBEE
330
BBED
100
AcDbEntity
  8
0
100
AcDbVertex
100
AcDb2dVertex
 10
15.04478682216117
 20
35.41554609520215
 30
0.0
 70
    16
  0
VERTEX
  5
BBEF
330
BBED
100
AcDbEntity
  8
0
100
AcDbVertex
100
AcDb2dVertex
 10
15.18934462260739
 20
35.35568914589731
 30
0.0
 70
     8
  0
VERTEX
  5
BBF0
330
BBED
100
AcDbEntity
  8
0
100
AcDbVertex
100
AcDb2dVertex
 10
15.20152902409181
 20
35.34378398524944
 30
0.0
 70
     8
  0
VERTEX
  5
BBF1
330
BBED
100
AcDbEntity
  8
0
100
AcDbVertex
100
AcDb2dVertex
 10
15.21204859488256
 20
35.33059283033037
 30
0.0
 70
     8
  0
VERTEX
  5
BBF2
330
BBED
100
AcDbEntity
  8
0
100
AcDbVertex
100
AcDb2dVertex
 10
15.22110778821567
 20
35.31623259007099
 30
0.0
 70
     8
  0
VERTEX
  5
BBF3
330
BBED
100
AcDbEntity
  8
0
100
AcDbVertex
100
AcDb2dVertex
 10
15.22891105732718
 20
35.30082017340218
 30
0.0
 70
     8
  0
VERTEX
  5
BBF4
330
BBED
100
AcDbEntity
  8
0
100
AcDbVertex
100
AcDb2dVertex
 10
15.23566285545309
 20
35.28447248925481
 30
0.0
 70
     8
  0
VERTEX
  5
BBF5
330
BBED
100
AcDbEntity
  8
0
100
AcDbVertex
100
AcDb2dVertex
 10
15.24156763582946
 20
35.26730644655977
 30
0.0
 70
     8
  0
VERTEX
  5
BBF6
330
BBED
100
AcDbEntity
  8
0
100
AcDbVertex
100
AcDb2dVertex
 10
15.2468298516923
 20
35.24943895424794
 30
0.0
 70
     8
  0
VERTEX
  5
BBF7
330
BBED
100
AcDbEntity
  8
0
100
AcDbVertex
100
AcDb2dVertex
 10
15.25165395627764
 20
35.23098692125021
 30
0.0
 70
     8
  0
VERTEX
  5
BBF8
330
BBED
100
AcDbEntity
  8
0
100
AcDbVertex
100
AcDb2dVertex
 10
15.2561275725759
 20
35.21195034806263
 30
0.0
 70
     8
  0
VERTEX
  5
BBF9
330
BBED
100
AcDbEntity
  8
0
100
AcDbVertex
100
AcDb2dVertex
 10
15.25987100259509
 20
35.19186160144198
 30
0.0
 70
     8
  0
VERTEX
  5
BBFA
330
BBED
100
AcDbEntity
  8
0
100
AcDbVertex
100
AcDb2dVertex
 10
15.26238771809759
 20
35.17013613971025
 30
0.0
 70
     8
  0
VERTEX
  5
BBFB
330
BBED
100
AcDbEntity
  8
0
100
AcDbVertex
100
AcDb2dVertex
 10
15.26318119084581
 20
35.14618942118937
 30
0.0
 70
     8
  0
VERTEX
  5
BBFC
330
BBED
100
AcDbEntity
  8
0
100
AcDbVertex
100
AcDb2dVertex
 10
15.26175489260212
 20
35.11943690420134
 30
0.0
 70
     8
  0
VERTEX
  5
BBFD
330
BBED
100
AcDbEntity
  8
0
100
AcDbVertex
100
AcDb2dVertex
 10
15.25761229512893
 20
35.08929404706812
 30
0.0
 70
     8
  0
VERTEX
  5
BBFE
330
BBED
100
AcDbEntity
  8
0
100
AcDbVertex
100
AcDb2dVertex
 10
15.25025687018862
 20
35.05517630811166
 30
0.0
 70
     8
  0
VERTEX
  5
BBFF
330
BBED
100
AcDbEntity
  8
0
100
AcDbVertex
100
AcDb2dVertex
 10
15.23919208954359
 20
35.01649914565395
 30
0.0
 70
     8
  0
VERTEX
  5
BC00
330
BBED
100
AcDbEntity
  8
0
100
AcDbVertex
100
AcDb2dVertex
 10
15.22405772680737
 20
34.97297515996496
 30
0.0
 70
     8
  0
VERTEX
  5
BC01
330
BBED
100
AcDbEntity
  8
0
100
AcDbVertex
100
AcDb2dVertex
 10
15.20503876299801
 20
34.92550551910671
 30
0.0
 70
     8
  0
VERTEX
  5
BC02
330
BBED
100
AcDbEntity
  8
0
100
AcDbVertex
100
AcDb2dVertex
 10
15.18245648098473
 20
34.87528853308928
 30
0.0
 70
     8
  0
VERTEX
  5
BC03
330
BBED
100
AcDbEntity
  8
0
100
AcDbVertex
100
AcDb2dVertex
 10
15.15663216363671
 20
34.82352251192268
 30
0.0
 70
     8
  0
VERTEX
  5
BC04
330
BBED
100
AcDbEntity
  8
0
100
AcDbVertex
100
AcDb2dVertex
 10
15.12788709382316
 20
34.77140576561699
 30
0.0
 70
     8
  0
VERTEX
  5
BC05
330
BBED
100
AcDbEntity
  8
0
100
AcDbVertex
100
AcDb2dVertex
 10
15.09654255441327
 20
34.72013660418225
 30
0.0
 70
     8
  0
VERTEX
  5
BC06
330
BBED
100
AcDbEntity
  8
0
100
AcDbVertex
100
AcDb2dVertex
 10
15.06291982827624
 20
34.67091333762848
 30
0.0
 70
     8
  0
VERTEX
  5
BC07
330
BBED
100
AcDbEntity
  8
0
100
AcDbVertex
100
AcDb2dVertex
 10
15.02734019828127
 20
34.62493427596577
 30
0.0
 70
     8
  0
VERTEX
  5
BC08
330
BBED
100
AcDbEntity
  8
0
100
AcDbVertex
100
AcDb2dVertex
 10
14.99007626806259
 20
34.58317365499344
 30
0.0
 70
     8
  0
VERTEX
  5
BC09
330
BBED
100
AcDbEntity
  8
0
100
AcDbVertex
100
AcDb2dVertex
 10
14.95120592431449
 20
34.54570941366804
 30
0.0
 70
     8
  0
VERTEX
  5
BC0A
330
BBED
100
AcDbEntity
  8
0
100
AcDbVertex
100
AcDb2dVertex
 10
14.91075837449631
 20
34.51239541673543
 30
0.0
 70
     8
  0
VERTEX
  5
BC0B
330
BBED
100
AcDbEntity
  8
0
100
AcDbVertex
100
AcDb2dVertex
 10
14.86876282606738
 20
34.48308552894144
 30
0.0
 70
     8
  0
VERTEX
  5
BC0C
330
BBED
100
AcDbEntity
  8
0
100
AcDbVertex
100
AcDb2dVertex
 10
14.82524848648701
 20
34.45763361503193
 30
0.0
 70
     8
  0
VERTEX
  5
BC0D
330
BBED
100
AcDbEntity
  8
0
100
AcDbVertex
100
AcDb2dVertex
 10
14.78024456321456
 20
34.43589353975272
 30
0.0
 70
     8
  0
VERTEX
  5
BC0E
330
BBED
100
AcDbEntity
  8
0
100
AcDbVertex
100
AcDb2dVertex
 10
14.73378026370934
 20
34.41771916784968
 30
0.0
 70
     8
  0
VERTEX
  5
BC0F
330
BBED
100
AcDbEntity
  8
0
100
AcDbVertex
100
AcDb2dVertex
 10
14.68588479543068
 20
34.40296436406864
 30
0.0
 70
     8
  0
VERTEX
  5
BC10
330
BBED
100
AcDbEntity
  8
0
100
AcDbVertex
100
AcDb2dVertex
 10
14.63657763001813
 20
34.39150734903116
 30
0.0
 70
     8
  0
VERTEX
  5
BC11
330
BBED
100
AcDbEntity
  8
0
100
AcDbVertex
100
AcDb2dVertex
 10
14.58583929583214
 20
34.38332376686153
 30
0.0
 70
     8
  0
VERTEX
  5
BC12
330
BBED
100
AcDbEntity
  8
0
100
AcDbVertex
100
AcDb2dVertex
 10
14.53364058541339
 20
34.37841361755975
 30
0.0
 70
     8
  0
VERTEX
  5
BC13
330
BBED
100
AcDbEntity
  8
0
100
AcDbVertex
100
AcDb2dVertex
 10
14.47995229130254
 20
34.37677690112582
 30
0.0
 70
     8
  0
VERTEX
  5
BC14
330
BBED
100
AcDbEntity
  8
0
100
AcDbVertex
100
AcDb2dVertex
 10
14.42474520604026
 20
34.37841361755975
 30
0.0
 70
     8
  0
VERTEX
  5
BC15
330
BBED
100
AcDbEntity
  8
0
100
AcDbVertex
100
AcDb2dVertex
 10
14.36799012216723
 20
34.38332376686152
 30
0.0
 70
     8
  0
VERTEX
  5
BC16
330
BBED
100
AcDbEntity
  8
0
100
AcDbVertex
100
AcDb2dVertex
 10
14.30965783222412
 20
34.39150734903116
 30
0.0
 70
     8
  0
VERTEX
  5
BC17
330
BBED
100
AcDbEntity
  8
0
100
AcDbVertex
100
AcDb2dVertex
 10
14.24971912875159
 20
34.40296436406864
 30
0.0
 70
     8
  0
VERTEX
  5
BC18
330
BBED
100
AcDbEntity
  8
0
100
AcDbVertex
100
AcDb2dVertex
 10
14.18809612505535
 20
34.41763635778414
 30
0.0
 70
     8
  0
VERTEX
  5
BC19
330
BBED
100
AcDbEntity
  8
0
100
AcDbVertex
100
AcDb2dVertex
 10
14.12451621750117
 20
34.43523105922838
 30
0.0
 70
     8
  0
VERTEX
  5
BC1A
330
BBED
100
AcDbEntity
  8
0
100
AcDbVertex
100
AcDb2dVertex
 10
14.05865812321985
 20
34.45539774326226
 30
0.0
 70
     8
  0
VERTEX
  5
BC1B
330
BBED
100
AcDbEntity
  8
0
100
AcDbVertex
100
AcDb2dVertex
 10
13.9902005593422
 20
34.4777856847467
 30
0.0
 70
     8
  0
VERTEX
  5
BC1C
330
BBED
100
AcDbEntity
  8
0
100
AcDbVertex
100
AcDb2dVertex
 10
13.91882224299901
 20
34.50204415854257
 30
0.0
 70
     8
  0
VERTEX
  5
BC1D
330
BBED
100
AcDbEntity
  8
0
100
AcDbVertex
100
AcDb2dVertex
 10
13.84420189132108
 20
34.52782243951078
 30
0.0
 70
     8
  0
VERTEX
  5
BC1E
330
BBED
100
AcDbEntity
  8
0
100
AcDbVertex
100
AcDb2dVertex
 10
13.76601822143923
 20
34.55476980251222
 30
0.0
 70
     8
  0
VERTEX
  5
BC1F
330
BBED
100
AcDbEntity
  8
0
100
AcDbVertex
100
AcDb2dVertex
 10
13.68394995048424
 20
34.58253552240779
 30
0.0
 70
     8
  0
VERTEX
  5
BC20
330
BBED
100
AcDbEntity
  8
0
100
AcDbVertex
100
AcDb2dVertex
 10
13.59783156911164
 20
34.61073964707371
 30
0.0
 70
     8
  0
VERTEX
  5
BC21
330
BBED
100
AcDbEntity
  8
0
100
AcDbVertex
100
AcDb2dVertex
 10
13.50812066207578
 20
34.63888531644741
 30
0.0
 70
     8
  0
VERTEX
  5
BC22
330
BBED
100
AcDbEntity
  8
0
100
AcDbVertex
100
AcDb2dVertex
 10
13.41543058765572
 20
34.66644644348166
 30
0.0
 70
     8
  0
VERTEX
  5
BC23
330
BBED
100
AcDbEntity
  8
0
100
AcDbVertex
100
AcDb2dVertex
 10
13.32037470413054
 20
34.69289694112923
 30
0.0
 70
     8
  0
VERTEX
  5
BC24
330
BBED
100
AcDbEntity
  8
0
100
AcDbVertex
100
AcDb2dVertex
 10
13.2235663697793
 20
34.71771072234286
 30
0.0
 70
     8
  0
VERTEX
  5
BC25
330
BBED
100
AcDbEntity
  8
0
100
AcDbVertex
100
AcDb2dVertex
 10
13.12561894288108
 20
34.74036170007534
 30
0.0
 70
     8
  0
VERTEX
  5
BC26
330
BBED
100
AcDbEntity
  8
0
100
AcDbVertex
100
AcDb2dVertex
 10
13.02714578171493
 20
34.76032378727941
 30
0.0
 70
     8
  0
VERTEX
  5
BC27
330
BBED
100
AcDbEntity
  8
0
100
AcDbVertex
100
AcDb2dVertex
 10
12.92876024455993
 20
34.77707089690784
 30
0.0
 70
     8
  0
VERTEX
  5
BC28
330
BBED
100
AcDbEntity
  8
0
100
AcDbVertex
100
AcDb2dVertex
 10
12.83093938780999
 20
34.79016949425204
 30
0.0
 70
     8
  0
VERTEX
  5
BC29
330
BBED
100
AcDbEntity
  8
0
100
AcDbVertex
100
AcDb2dVertex
 10
12.73361506031839
 20
34.79955625395805
 30
0.0
 70
     8
  0
VERTEX
  5
BC2A
330
BBED
100
AcDbEntity
  8
0
100
AcDbVertex
100
AcDb2dVertex
 10
12.63658280905323
 20
34.80526040301055
 30
0.0
 70
     8
  0
VERTEX
  5
BC2B
330
BBED
100
AcDbEntity
  8
0
100
AcDbVertex
100
AcDb2dVertex
 10
12.53963818098264
 20
34.80731116839424
 30
0.0
 70
     8
  0
VERTEX
  5
BC2C
330
BBED
100
AcDbEntity
  8
0
100
AcDbVertex
100
AcDb2dVertex
 10
12.44257672307474
 20
34.80573777709381
 30
0.0
 70
     8
  0
VERTEX
  5
BC2D
330
BBED
100
AcDbEntity
  8
0
100
AcDbVertex
100
AcDb2dVertex
 10
12.34519398229763
 20
34.80056945609394
 30
0.0
 70
     8
  0
VERTEX
  5
BC2E
330
BBED
100
AcDbEntity
  8
0
100
AcDbVertex
100
AcDb2dVertex
 10
12.24728550561945
 20
34.79183543237932
 30
0.0
 70
     8
  0
VERTEX
  5
BC2F
330
BBED
100
AcDbEntity
  8
0
100
AcDbVertex
100
AcDb2dVertex
 10
12.1486468400083
 20
34.77956493293465
 30
0.0
 70
     8
  0
VERTEX
  5
BC30
330
BBED
100
AcDbEntity
  8
0
100
AcDbVertex
100
AcDb2dVertex
 10
12.04928484811066
 20
34.76386711996514
 30
0.0
 70
     8
  0
VERTEX
  5
BC31
330
BBED
100
AcDbEntity
  8
0
100
AcDbVertex
100
AcDb2dVertex
 10
11.95005165528645
 20
34.74517089655812
 30
0.0
 70
     8
  0
VERTEX
  5
BC32
330
BBED
100
AcDbEntity
  8
0
100
AcDbVertex
100
AcDb2dVertex
 10
11.85201070257392
 20
34.72398510102144
 30
0.0
 70
     8
  0
VERTEX
  5
BC33
330
BBED
100
AcDbEntity
  8
0
100
AcDbVertex
100
AcDb2dVertex
 10
11.75622543101134
 20
34.70081857166296
 30
0.0
 70
     8
  0
VERTEX
  5
BC34
330
BBED
100
AcDbEntity
  8
0
100
AcDbVertex
100
AcDb2dVertex
 10
11.66375928163698
 20
34.67618014679054
 30
0.0
 70
     8
  0
VERTEX
  5
BC35
330
BBED
100
AcDbEntity
  8
0
100
AcDbVertex
100
AcDb2dVertex
 10
11.57567569548912
 20
34.65057866471202
 30
0.0
 70
     8
  0
VERTEX
  5
BC36
330
BBED
100
AcDbEntity
  8
0
100
AcDbVertex
100
AcDb2dVertex
 10
11.493038113606
 20
34.62452296373528
 30
0.0
 70
     8
  0
VERTEX
  5
BC37
330
BBED
100
AcDbEntity
  8
0
100
AcDbVertex
100
AcDb2dVertex
 10
11.41690997702592
 20
34.59852188216816
 30
0.0
 70
     8
  0
VERTEX
  5
BC38
330
BBED
100
AcDbEntity
  8
0
100
AcDbVertex
100
AcDb2dVertex
 10
11.34810121902922
 20
34.57303574907069
 30
0.0
 70
     8
  0
VERTEX
  5
BC39
330
BBED
100
AcDbEntity
  8
0
100
AcDbVertex
100
AcDb2dVertex
 10
11.2864077418647
 20
34.54833085651161
 30
0.0
 70
     8
  0
VERTEX
  5
BC3A
330
BBED
100
AcDbEntity
  8
0
100
AcDbVertex
100
AcDb2dVertex
 10
11.23137194002324
 20
34.52462498731178
 30
0.0
 70
     8
  0
VERTEX
  5
BC3B
330
BBED
100
AcDbEntity
  8
0
100
AcDbVertex
100
AcDb2dVertex
 10
11.18253620799571
 20
34.50213592429213
 30
0.0
 70
     8
  0
VERTEX
  5
BC3C
330
BBED
100
AcDbEntity
  8
0
100
AcDbVertex
100
AcDb2dVertex
 10
11.139442940273
 20
34.48108145027354
 30
0.0
 70
     8
  0
VERTEX
  5
BC3D
330
BBED
100
AcDbEntity
  8
0
100
AcDbVertex
100
AcDb2dVertex
 10
11.101634531346
 20
34.46167934807691
 30
0.0
 70
     8
  0
VERTEX
  5
BC3E
330
BBED
100
AcDbEntity
  8
0
100
AcDbVertex
100
AcDb2dVertex
 10
11.06865337570559
 20
34.44414740052313
 30
0.0
 70
     8
  0
VERTEX
  5
BC3F
330
BBED
100
AcDbEntity
  8
0
100
AcDbVertex
100
AcDb2dVertex
 10
11.04004186784265
 20
34.42870339043311
 30
0.0
 70
     8
  0
VERTEX
  5
BC40
330
BBED
100
AcDbEntity
  8
0
100
AcDbVertex
100
AcDb2dVertex
 10
11.01534475992076
 20
34.41550735393263
 30
0.0
 70
     8
  0
VERTEX
  5
BC41
330
BBED
100
AcDbEntity
  8
0
100
AcDbVertex
100
AcDb2dVertex
 10
10.99411623479427
 20
34.40448834036702
 30
0.0
 70
     8
  0
VERTEX
  5
BC42
330
BBED
100
AcDbEntity
  8
0
100
AcDbVertex
100
AcDb2dVertex
 10
10.97591283299024
 20
34.39551765238652
 30
0.0
 70
     8
  0
VERTEX
  5
BC43
330
BBED
100
AcDbEntity
  8
0
100
AcDbVertex
100
AcDb2dVertex
 10
10.96029109503572
 20
34.38846659264136
 30
0.0
 70
     8
  0
VERTEX
  5
BC44
330
BBED
100
AcDbEntity
  8
0
100
AcDbVertex
100
AcDb2dVertex
 10
10.94680756145776
 20
34.38320646378175
 30
0.0
 70
     8
  0
VERTEX
  5
BC45
330
BBED
100
AcDbEntity
  8
0
100
AcDbVertex
100
AcDb2dVertex
 10
10.93501877278341
 20
34.37960856845795
 30
0.0
 70
     8
  0
VERTEX
  5
BC46
330
BBED
100
AcDbEntity
  8
0
100
AcDbVertex
100
AcDb2dVertex
 10
10.92448126953972
 20
34.37754420932016
 30
0.0
 70
     8
  0
VERTEX
  5
BC47
330
BBED
100
AcDbEntity
  8
0
100
AcDbVertex
100
AcDb2dVertex
 10
10.91475159225375
 20
34.37688468901863
 30
0.0
 70
     8
  0
VERTEX
  5
BC48
330
BBED
100
AcDbEntity
  8
0
100
AcDbVertex
100
AcDb2dVertex
 10
10.90546398693398
 20
34.37754175006491
 30
0.0
 70
     8
  0
VERTEX
  5
BC49
330
BBED
100
AcDbEntity
  8
0
100
AcDbVertex
100
AcDb2dVertex
 10
10.89656352151464
 20
34.37958889441601
 30
0.0
 70
     8
  0
VERTEX
  5
BC4A
330
BBED
100
AcDbEntity
  8
0
100
AcDbVertex
100
AcDb2dVertex
 10
10.88807296941139
 20
34.38314006389023
 30
0.0
 70
     8
  0
VERTEX
  5
BC4B
330
BBED
100
AcDbEntity
  8
0
100
AcDbVertex
100
AcDb2dVertex
 10
10.88001510403989
 20
34.3883092003059
 30
0.0
 70
     8
  0
VERTEX
  5
BC4C
330
BBED
100
AcDbEntity
  8
0
100
AcDbVertex
100
AcDb2dVertex
 10
10.87241269881579
 20
34.39521024548133
 30
0.0
 70
     8
  0
VERTEX
  5
BC4D
330
BBED
100
AcDbEntity
  8
0
100
AcDbVertex
100
AcDb2dVertex
 10
10.86528852715477
 20
34.40395714123486
 30
0.0
 70
     8
  0
VERTEX
  5
BC4E
330
BBED
100
AcDbEntity
  8
0
100
AcDbVertex
100
AcDb2dVertex
 10
10.85866536247248
 20
34.41466382938479
 30
0.0
 70
     8
  0
VERTEX
  5
BC4F
330
BBED
100
AcDbEntity
  8
0
100
AcDbVertex
100
AcDb2dVertex
 10
10.85256597818459
 20
34.42744425174947
 30
0.0
 70
     8
  0
VERTEX
  5
BC50
330
BBED
100
AcDbEntity
  8
0
100
AcDbVertex
100
AcDb2dVertex
 10
10.84697519259239
 20
34.44239335984414
 30
0.0
 70
     8
  0
VERTEX
  5
BC51
330
BBED
100
AcDbEntity
  8
0
100
AcDbVertex
100
AcDb2dVertex
 10
10.84172600353977
 20
34.45953014397187
 30
0.0
 70
     8
  0
VERTEX
  5
BC52
330
BBED
100
AcDbEntity
  8
0
100
AcDbVertex
100
AcDb2dVertex
 10
10.83661345375624
 20
34.47885460413266
 30
0.0
 70
     8
  0
VERTEX
  5
BC53
330
BBED
100
AcDbEntity
  8
0
100
AcDbVertex
100
AcDb2dVertex
 10
10.83143258597132
 20
34.50036674032651
 30
0.0
 70
     8
  0
VERTEX
  5
BC54
330
BBED
100
AcDbEntity
  8
0
100
AcDbVertex
100
AcDb2dVertex
 10
10.82597844291454
 20
34.5240665525534
 30
0.0
 70
     8
  0
VERTEX
  5
BC55
330
BBED
100
AcDbEntity
  8
0
100
AcDbVertex
100
AcDb2dVertex
 10
10.82004606731541
 20
34.54995404081336
 30
0.0
 70
     8
  0
VERTEX
  5
BC56
330
BBED
100
AcDbEntity
  8
0
100
AcDbVertex
100
AcDb2dVertex
 10
10.81343050190346
 20
34.57802920510637
 30
0.0
 70
     8
  0
VERTEX
  5
BC57
330
BBED
100
AcDbEntity
  8
0
100
AcDbVertex
100
AcDb2dVertex
 10
10.8059267894082
 20
34.60829204543245
 30
0.0
 70
     8
  0
VERTEX
  5
BC58
330
BBED
100
AcDbEntity
  8
0
100
AcDbVertex
100
AcDb2dVertex
 10
10.79732238148865
 20
34.64065900471169
 30
0.0
 70
     8
  0
VERTEX
  5
BC59
330
BBED
100
AcDbEntity
  8
0
100
AcDbVertex
100
AcDb2dVertex
 10
10.78737436552181
 20
34.67471229754462
 30
0.0
 70
     8
  0
VERTEX
  5
BC5A
330
BBED
100
AcDbEntity
  8
0
100
AcDbVertex
100
AcDb2dVertex
 10
10.77583223781415
 20
34.70995058145188
 30
0.0
 70
     8
  0
VERTEX
  5
BC5B
330
BBED
100
AcDbEntity
  8
0
100
AcDbVertex
100
AcDb2dVertex
 10
10.76244549467218
 20
34.74587251395413
 30
0.0
 70
     8
  0
VERTEX
  5
BC5C
330
BBED
100
AcDbEntity
  8
0
100
AcDbVertex
100
AcDb2dVertex
 10
10.74696363240238
 20
34.78197675257199
 30
0.0
 70
     8
  0
VERTEX
  5
BC5D
330
BBED
100
AcDbEntity
  8
0
100
AcDbVertex
100
AcDb2dVertex
 10
10.72913614731124
 20
34.8177619548261
 30
0.0
 70
     8
  0
VERTEX
  5
BC5E
330
BBED
100
AcDbEntity
  8
0
100
AcDbVertex
100
AcDb2dVertex
 10
10.70871253570524
 20
34.85272677823712
 30
0.0
 70
     8
  0
VERTEX
  5
BC5F
330
BBED
100
AcDbEntity
  8
0
100
AcDbVertex
100
AcDb2dVertex
 10
10.68544229389088
 20
34.88636988032567
 30
0.0
 70
     8
  0
VERTEX
  5
BC60
330
BBED
100
AcDbEntity
  8
0
100
AcDbVertex
100
AcDb2dVertex
 10
10.65919068114924
 20
34.91826777869507
 30
0.0
 70
     8
  0
VERTEX
  5
BC61
330
BBED
100
AcDbEntity
  8
0
100
AcDbVertex
100
AcDb2dVertex
 10
10.63028600865981
 20
34.94830843127935
 30
0.0
 70
     8
  0
VERTEX
  5
BC62
330
BBED
100
AcDbEntity
  8
0
100
AcDbVertex
100
AcDb2dVertex
 10
10.59917235057669
 20
34.97645765609523
 30
0.0
 70
     8
  0
VERTEX
  5
BC63
330
BBED
100
AcDbEntity
  8
0
100
AcDbVertex
100
AcDb2dVertex
 10
10.56629378105396
 20
35.0026812711594
 30
0.0
 70
     8
  0
VERTEX
  5
BC64
330
BBED
100
AcDbEntity
  8
0
100
AcDbVertex
100
AcDb2dVertex
 10
10.5320943742457
 20
35.02694509448856
 30
0.0
 70
     8
  0
VERTEX
  5
BC65
330
BBED
100
AcDbEntity
  8
0
100
AcDbVertex
100
AcDb2dVertex
 10
10.49701820430601
 20
35.04921494409945
 30
0.0
 70
     8
  0
VERTEX
  5
BC66
330
BBED
100
AcDbEntity
  8
0
100
AcDbVertex
100
AcDb2dVertex
 10
10.46150934538897
 20
35.06945663800875
 30
0.0
 70
     8
  0
VERTEX
  5
BC67
330
BBED
100
AcDbEntity
  8
0
100
AcDbVertex
100
AcDb2dVertex
 10
10.42601187164867
 20
35.08763599423317
 30
0.0
 70
     8
  0
VERTEX
  5
BC68
330
BBED
100
AcDbEntity
  8
0
100
AcDbVertex
100
AcDb2dVertex
 10
10.39086927640562
 20
35.10372642671222
 30
0.0
 70
     8
  0
VERTEX
  5
BC69
330
BBED
100
AcDbEntity
  8
0
100
AcDbVertex
100
AcDb2dVertex
 10
10.35602272964594
 20
35.11773173307659
 30
0.0
 70
     8
  0
VERTEX
  5
BC6A
330
BBED
100
AcDbEntity
  8
0
100
AcDbVertex
100
AcDb2dVertex
 10
10.3213128205222
 20
35.12966330687977
 30
0.0
 70
     8
  0
VERTEX
  5
BC6B
330
BBED
100
AcDbEntity
  8
0
100
AcDbVertex
100
AcDb2dVertex
 10
10.28658013818694
 20
35.13953254167525
 30
0.0
 70
     8
  0
VERTEX
  5
BC6C
330
BBED
100
AcDbEntity
  8
0
100
AcDbVertex
100
AcDb2dVertex
 10
10.25166527179272
 20
35.14735083101649
 30
0.0
 70
     8
  0
VERTEX
  5
BC6D
330
BBED
100
AcDbEntity
  8
0
100
AcDbVertex
100
AcDb2dVertex
 10
10.21640881049208
 20
35.15312956845701
 30
0.0
 70
     8
  0
VERTEX
  5
BC6E
330
BBED
100
AcDbEntity
  8
0
100
AcDbVertex
100
AcDb2dVertex
 10
10.18065134343759
 20
35.15688014755028
 30
0.0
 70
     8
  0
VERTEX
  5
BC6F
330
BBED
100
AcDbEntity
  8
0
100
AcDbVertex
100
AcDb2dVertex
 10
10.14423345978178
 20
35.15861396184979
 30
0.0
 70
     8
  0
VERTEX
  5
BC70
330
BBED
100
AcDbEntity
  8
0
100
AcDbVertex
100
AcDb2dVertex
 10
10.10702231708375
 20
35.15830632361433
 30
0.0
 70
     8
  0
VERTEX
  5
BC71
330
BBED
100
AcDbEntity
  8
0
100
AcDbVertex
100
AcDb2dVertex
 10
10.06899134652866
 20
35.15578821992388
 30
0.0
 70
     8
  0
VERTEX
  5
BC72
330
BBED
100
AcDbEntity
  8
0
100
AcDbVertex
100
AcDb2dVertex
 10
10.03014054770823
 20
35.15085455656373
 30
0.0
 70
     8
  0
VERTEX
  5
BC73
330
BBED
100
AcDbEntity
  8
0
100
AcDbVertex
100
AcDb2dVertex
 10
9.990469920214186
 20
35.14330023931917
 30
0.0
 70
     8
  0
VERTEX
  5
BC74
330
BBED
100
AcDbEntity
  8
0
100
AcDbVertex
100
AcDb2dVertex
 10
9.949979463638213
 20
35.13292017397547
 30
0.0
 70
     8
  0
VERTEX
  5
BC75
330
BBED
100
AcDbEntity
  8
0
100
AcDbVertex
100
AcDb2dVertex
 10
9.908669177572029
 20
35.11950926631794
 30
0.0
 70
     8
  0
VERTEX
  5
BC76
330
BBED
100
AcDbEntity
  8
0
100
AcDbVertex
100
AcDb2dVertex
 10
9.866539061607346
 20
35.10286242213184
 30
0.0
 70
     8
  0
VERTEX
  5
BC77
330
BBED
100
AcDbEntity
  8
0
100
AcDbVertex
100
AcDb2dVertex
 10
9.823589115335872
 20
35.08277454720249
 30
0.0
 70
     8
  0
VERTEX
  5
BC78
330
BBED
100
AcDbEntity
  8
0
100
AcDbVertex
100
AcDb2dVertex
 10
9.779902839614512
 20
35.05912600332061
 30
0.0
 70
     8
  0
VERTEX
  5
BC79
330
BBED
100
AcDbEntity
  8
0
100
AcDbVertex
100
AcDb2dVertex
 10
9.735897740360947
 20
35.03213897629888
 30
0.0
 70
     8
  0
VERTEX
  5
BC7A
330
BBED
100
AcDbEntity
  8
0
100
AcDbVertex
100
AcDb2dVertex
 10
9.692074824758057
 20
35.00212110795544
 30
0.0
 70
     8
  0
VERTEX
  5
BC7B
330
BBED
100
AcDbEntity
  8
0
100
AcDbVertex
100
AcDb2dVertex
 10
9.648935099988719
 20
34.96938004010841
 30
0.0
 70
     8
  0
VERTEX
  5
BC7C
330
BBED
100
AcDbEntity
  8
0
100
AcDbVertex
100
AcDb2dVertex
 10
9.606979573235806
 20
34.93422341457593
 30
0.0
 70
     8
  0
VERTEX
  5
BC7D
330
BBED
100
AcDbEntity
  8
0
100
AcDbVertex
100
AcDb2dVertex
 10
9.566709251682203
 20
34.89695887317612
 30
0.0
 70
     8
  0
VERTEX
  5
BC7E
330
BBED
100
AcDbEntity
  8
0
100
AcDbVertex
100
AcDb2dVertex
 10
9.528625142510781
 20
34.85789405772713
 30
0.0
 70
     8
  0
VERTEX
  5
BC7F
330
BBED
100
AcDbEntity
  8
0
100
AcDbVertex
100
AcDb2dVertex
 10
9.493228252904417
 20
34.81733661004709
 30
0.0
 70
     8
  0
VERTEX
  5
BC80
330
BBED
100
AcDbEntity
  8
0
100
AcDbVertex
100
AcDb2dVertex
 10
9.460937986548428
 20
34.77559037388249
 30
0.0
 70
     8
  0
VERTEX
  5
BC81
330
BBED
100
AcDbEntity
  8
0
100
AcDbVertex
100
AcDb2dVertex
 10
9.431847333137843
 20
34.7329440006933
 30
0.0
 70
     8
  0
VERTEX
  5
BC82
330
BBED
100
AcDbEntity
  8
0
100
AcDbVertex
100
AcDb2dVertex
 10
9.405967678870128
 20
34.68968234386784
 30
0.0
 70
     8
  0
VERTEX
  5
BC83
330
BBED
100
AcDbEntity
  8
0
100
AcDbVertex
100
AcDb2dVertex
 10
9.383310409942758
 20
34.64609025679444
 30
0.0
 70
     8
  0
VERTEX
  5
BC84
330
BBED
100
AcDbEntity
  8
0
100
AcDbVertex
100
AcDb2dVertex
 10
9.363886912553196
 20
34.60245259286143
 30
0.0
 70
     8
  0
VERTEX
  5
BC85
330
BBED
100
AcDbEntity
  8
0
100
AcDbVertex
100
AcDb2dVertex
 10
9.347708572898909
 20
34.55905420545714
 30
0.0
 70
     8
  0
VERTEX
  5
BC86
330
BBED
100
AcDbEntity
  8
0
100
AcDbVertex
100
AcDb2dVertex
 10
9.334786777177365
 20
34.51617994796988
 30
0.0
 70
     8
  0
VERTEX
  5
BC87
330
BBED
100
AcDbEntity
  8
0
100
AcDbVertex
100
AcDb2dVertex
 10
9.325132911586033
 20
34.474114673788
 30
0.0
 70
     8
  0
VERTEX
  5
BC88
330
BBED
100
AcDbEntity
  8
0
100
AcDbVertex
100
AcDb2dVertex
 10
9.318769748894114
 20
34.43305588125852
 30
0.0
 70
     8
  0
VERTEX
  5
BC89
330
BBED
100
AcDbEntity
  8
0
100
AcDbVertex
100
AcDb2dVertex
 10
9.315765608157741
 20
34.39285164856332
 30
0.0
 70
     8
  0
VERTEX
  5
BC8A
330
BBED
100
AcDbEntity
  8
0
100
AcDbVertex
100
AcDb2dVertex
 10
9.316200195004787
 20
34.35326269884298
 30
0.0
 70
     8
  0
VERTEX
  5
BC8B
330
BBED
100
AcDbEntity
  8
0
100
AcDbVertex
100
AcDb2dVertex
 10
9.32015321506312
 20
34.31404975523804
 30
0.0
 70
     8
  0
VERTEX
  5
BC8C
330
BBED
100
AcDbEntity
  8
0
100
AcDbVertex
100
AcDb2dVertex
 10
9.327704373960607
 20
34.27497354088913
 30
0.0
 70
     8
  0
VERTEX
  5
BC8D
330
BBED
100
AcDbEntity
  8
0
100
AcDbVertex
100
AcDb2dVertex
 10
9.338933377325121
 20
34.23579477893679
 30
0.0
 70
     8
  0
VERTEX
  5
BC8E
330
BBED
100
AcDbEntity
  8
0
100
AcDbVertex
100
AcDb2dVertex
 10
9.353919930784529
 20
34.19627419252161
 30
0.0
 70
     8
  0
VERTEX
  5
BC8F
330
BBED
100
AcDbEntity
  8
0
100
AcDbVertex
100
AcDb2dVertex
 10
9.372743739966708
 20
34.15617250478416
 30
0.0
 70
     8
  0
VERTEX
  5
BC90
330
BBED
100
AcDbEntity
  8
0
100
AcDbVertex
100
AcDb2dVertex
 10
9.395383929631902
 20
34.11535868324519
 30
0.0
 70
     8
  0
VERTEX
  5
BC91
330
BBED
100
AcDbEntity
  8
0
100
AcDbVertex
100
AcDb2dVertex
 10
9.421417301069917
 20
34.07413467294607
 30
0.0
 70
     8
  0
VERTEX
  5
BC92
330
BBED
100
AcDbEntity
  8
0
100
AcDbVertex
100
AcDb2dVertex
 10
9.450320074702942
 20
34.03291066330838
 30
0.0
 70
     8
  0
VERTEX
  5
BC93
330
BBED
100
AcDbEntity
  8
0
100
AcDbVertex
100
AcDb2dVertex
 10
9.481568470953162
 20
33.99209684375366
 30
0.0
 70
     8
  0
VERTEX
  5
BC94
330
BBED
100
AcDbEntity
  8
0
100
AcDbVertex
100
AcDb2dVertex
 10
9.514638710242765
 20
33.95210340370346
 30
0.0
 70
     8
  0
VERTEX
  5
BC95
330
BBED
100
AcDbEntity
  8
0
100
AcDbVertex
100
AcDb2dVertex
 10
9.549007012993941
 20
33.91334053257932
 30
0.0
 70
     8
  0
VERTEX
  5
BC96
330
BBED
100
AcDbEntity
  8
0
100
AcDbVertex
100
AcDb2dVertex
 10
9.584149599628878
 20
33.87621841980281
 30
0.0
 70
     8
  0
VERTEX
  5
BC97
330
BBED
100
AcDbEntity
  8
0
100
AcDbVertex
100
AcDb2dVertex
 10
9.619542690569758
 20
33.84114725479547
 30
0.0
 70
     8
  0
VERTEX
  5
BC98
330
BBED
100
AcDbEntity
  8
0
100
AcDbVertex
100
AcDb2dVertex
 10
9.654704256752287
 20
33.8084764580532
 30
0.0
 70
     8
  0
VERTEX
  5
BC99
330
BBED
100
AcDbEntity
  8
0
100
AcDbVertex
100
AcDb2dVertex
 10
9.689319271166212
 20
33.77831237436913
 30
0.0
 70
     8
  0
VERTEX
  5
BC9A
330
BBED
100
AcDbEntity
  8
0
100
AcDbVertex
100
AcDb2dVertex
 10
9.7231144573148
 20
33.75070057961077
 30
0.0
 70
     8
  0
VERTEX
  5
BC9B
330
BBED
100
AcDbEntity
  8
0
100
AcDbVertex
100
AcDb2dVertex
 10
9.755816538701312
 20
33.7256866496456
 30
0.0
 70
     8
  0
VERTEX
  5
BC9C
330
BBED
100
AcDbEntity
  8
0
100
AcDbVertex
100
AcDb2dVertex
 10
9.78715223882901
 20
33.70331616034112
 30
0.0
 70
     8
  0
VERTEX
  5
BC9D
330
BBED
100
AcDbEntity
  8
0
100
AcDbVertex
100
AcDb2dVertex
 10
9.816848281201162
 20
33.6836346875648
 30
0.0
 70
     8
  0
VERTEX
  5
BC9E
330
BBED
100
AcDbEntity
  8
0
100
AcDbVertex
100
AcDb2dVertex
 10
9.844631389321024
 20
33.66668780718414
 30
0.0
 70
     8
  0
VERTEX
  5
BC9F
330
BBED
100
AcDbEntity
  8
0
100
AcDbVertex
100
AcDb2dVertex
 10
9.870228286691869
 20
33.65252109506663
 30
0.0
 70
     8
  0
VERTEX
  5
BCA0
330
BBED
100
AcDbEntity
  8
0
100
AcDbVertex
100
AcDb2dVertex
 10
9.893439709141944
 20
33.64110036829195
 30
0.0
 70
     8
  0
VERTEX
  5
BCA1
330
BBED
100
AcDbEntity
  8
0
100
AcDbVertex
100
AcDb2dVertex
 10
9.914362441799466
 20
33.63207240878868
 30
0.0
 70
     8
  0
VERTEX
  5
BCA2
330
BBED
100
AcDbEntity
  8
0
100
AcDbVertex
100
AcDb2dVertex
 10
9.933167282117643
 20
33.62500423969758
 30
0.0
 70
     8
  0
VERTEX
  5
BCA3
330
BBED
100
AcDbEntity
  8
0
100
AcDbVertex
100
AcDb2dVertex
 10
9.950025027549679
 20
33.6194628841594
 30
0.0
 70
     8
  0
VERTEX
  5
BCA4
330
BBED
100
AcDbEntity
  8
0
100
AcDbVertex
100
AcDb2dVertex
 10
9.965106475548784
 20
33.61501536531492
 30
0.0
 70
     8
  0
VERTEX
  5
BCA5
330
BBED
100
AcDbEntity
  8
0
100
AcDbVertex
100
AcDb2dVertex
 10
9.978582423568161
 20
33.6112287063049
 30
0.0
 70
     8
  0
VERTEX
  5
BCA6
330
BBED
100
AcDbEntity
  8
0
100
AcDbVertex
100
AcDb2dVertex
 10
9.990623669061017
 20
33.60766993027012
 30
0.0
 70
     8
  0
VERTEX
  5
BCA7
330
BBED
100
AcDbEntity
  8
0
100
AcDbVertex
100
AcDb2dVertex
 10
10.00140100948056
 20
33.60390606035132
 30
0.0
 70
     8
  0
VERTEX
  5
BCA8
330
BBED
100
AcDbEntity
  8
0
100
AcDbVertex
100
AcDb2dVertex
 10
10.01104728733575
 20
33.599568686411
 30
0.0
 70
     8
  0
VERTEX
  5
BCA9
330
BBED
100
AcDbEntity
  8
0
100
AcDbVertex
100
AcDb2dVertex
 10
10.01954352535864
 20
33.59454766519854
 30
0.0
 70
     8
  0
VERTEX
  5
BCAA
330
BBED
100
AcDbEntity
  8
0
100
AcDbVertex
100
AcDb2dVertex
 10
10.02683279133699
 20
33.58879742018504
 30
0.0
 70
     8
  0
VERTEX
  5
BCAB
330
BBED
100
AcDbEntity
  8
0
100
AcDbVertex
100
AcDb2dVertex
 10
10.03285815305861
 20
33.58227237484157
 30
0.0
 70
     8
  0
VERTEX
  5
BCAC
330
BBED
100
AcDbEntity
  8
0
100
AcDbVertex
100
AcDb2dVertex
 10
10.03756267831129
 20
33.57492695263926
 30
0.0
 70
     8
  0
VERTEX
  5
BCAD
330
BBED
100
AcDbEntity
  8
0
100
AcDbVertex
100
AcDb2dVertex
 10
10.04088943488282
 20
33.56671557704918
 30
0.0
 70
     8
  0
VERTEX
  5
BCAE
330
BBED
100
AcDbEntity
  8
0
100
AcDbVertex
100
AcDb2dVertex
 10
10.04278149056099
 20
33.55759267154244
 30
0.0
 70
     8
  0
VERTEX
  5
BCAF
330
BBED
100
AcDbEntity
  8
0
100
AcDbVertex
100
AcDb2dVertex
 10
10.04318191313359
 20
33.54751265959013
 30
0.0
 70
     8
  0
VERTEX
  5
BCB0
330
BBED
100
AcDbEntity
  8
0
100
AcDbVertex
100
AcDb2dVertex
 10
10.04199201973881
 20
33.53628184075149
 30
0.0
 70
     8
  0
VERTEX
  5
BCB1
330
BBED
100
AcDbEntity
  8
0
100
AcDbVertex
100
AcDb2dVertex
 10
10.03894612491639
 20
33.52311401893838
 30
0.0
 70
     8
  0
VERTEX
  5
BCB2
330
BBED
100
AcDbEntity
  8
0
100
AcDbVertex
100
AcDb2dVertex
 10
10.03373679255646
 20
33.50707487415077
 30
0.0
 70
     8
  0
VERTEX
  5
BCB3
330
BBED
100
AcDbEntity
  8
0
100
AcDbVertex
100
AcDb2dVertex
 10
10.02605658654915
 20
33.48723008638866
 30
0.0
 70
     8
  0
VERTEX
  5
BCB4
330
BBED
100
AcDbEntity
  8
0
100
AcDbVertex
100
AcDb2dVertex
 10
10.01559807078462
 20
33.46264533565204
 30
0.0
 70
     8
  0
VERTEX
  5
BCB5
330
BBED
100
AcDbEntity
  8
0
100
AcDbVertex
100
AcDb2dVertex
 10
10.00205380915297
 20
33.43238630194089
 30
0.0
 70
     8
  0
VERTEX
  5
BCB6
330
BBED
100
AcDbEntity
  8
0
100
AcDbVertex
100
AcDb2dVertex
 10
9.985116365544371
 20
33.3955186652552
 30
0.0
 70
     8
  0
VERTEX
  5
BCB7
330
BBED
100
AcDbEntity
  8
0
100
AcDbVertex
100
AcDb2dVertex
 10
9.964478303848933
 20
33.35110810559498
 30
0.0
 70
     8
  0
VERTEX
  5
BCB8
330
BBED
100
AcDbEntity
  8
0
100
AcDbVertex
100
AcDb2dVertex
 10
9.939991599212534
 20
33.29849376246434
 30
0.0
 70
     8
  0
VERTEX
  5
BCB9
330
BBED
100
AcDbEntity
  8
0
100
AcDbVertex
100
AcDb2dVertex
 10
9.912145871804012
 20
33.23810861338392
 30
0.0
 70
     8
  0
VERTEX
  5
BCBA
330
BBED
100
AcDbEntity
  8
0
100
AcDbVertex
100
AcDb2dVertex
 10
9.881590153047925
 20
33.17065909537852
 30
0.0
 70
     8
  0
VERTEX
  5
BCBB
330
BBED
100
AcDbEntity
  8
0
100
AcDbVertex
100
AcDb2dVertex
 10
9.848973474368847
 20
33.0968516454729
 30
0.0
 70
     8
  0
VERTEX
  5
BCBC
330
BBED
100
AcDbEntity
  8
0
100
AcDbVertex
100
AcDb2dVertex
 10
9.814944867191345
 20
33.01739270069186
 30
0.0
 70
     8
  0
VERTEX
  5
BCBD
330
BBED
100
AcDbEntity
  8
0
100
AcDbVertex
100
AcDb2dVertex
 10
9.780153362939985
 20
32.93298869806018
 30
0.0
 70
     8
  0
VERTEX
  5
BCBE
330
BBED
100
AcDbEntity
  8
0
100
AcDbVertex
100
AcDb2dVertex
 10
9.745247993039336
 20
32.84434607460263
 30
0.0
 70
     8
  0
VERTEX
  5
BCBF
330
BBED
100
AcDbEntity
  8
0
100
AcDbVertex
100
AcDb2dVertex
 10
9.71087778891397
 20
32.75217126734401
 30
0.0
 70
     8
  0
VERTEX
  5
BCC0
330
BBED
100
AcDbEntity
  8
0
100
AcDbVertex
100
AcDb2dVertex
 10
9.67760448539215
 20
32.65729414975532
 30
0.0
 70
     8
  0
VERTEX
  5
BCC1
330
BBED
100
AcDbEntity
  8
0
100
AcDbVertex
100
AcDb2dVertex
 10
9.645640630916931
 20
32.56103834109248
 30
0.0
 70
     8
  0
VERTEX
  5
BCC2
330
BBED
100
AcDbEntity
  8
0
100
AcDbVertex
100
AcDb2dVertex
 10
9.615111477335071
 20
32.46485089705764
 30
0.0
 70
     8
  0
VERTEX
  5
BCC3
330
BBED
100
AcDbEntity
  8
0
100
AcDbVertex
100
AcDb2dVertex
 10
9.586142276493328
 20
32.37017887335297
 30
0.0
 70
     8
  0
VERTEX
  5
BCC4
330
BBED
100
AcDbEntity
  8
0
100
AcDbVertex
100
AcDb2dVertex
 10
9.558858280238455
 20
32.27846932568058
 30
0.0
 70
     8
  0
VERTEX
  5
BCC5
330
BBED
100
AcDbEntity
  8
0
100
AcDbVertex
100
AcDb2dVertex
 10
9.53338474041721
 20
32.19116930974264
 30
0.0
 70
     8
  0
VERTEX
  5
BCC6
330
BBED
100
AcDbEntity
  8
0
100
AcDbVertex
100
AcDb2dVertex
 10
9.509846908876342
 20
32.10972588124131
 30
0.0
 70
     8
  0
VERTEX
  5
BCC7
330
BBED
100
AcDbEntity
  8
0
100
AcDbVertex
100
AcDb2dVertex
 10
9.488370037462621
 20
32.03558609587871
 30
0.0
 70
     8
  0
VERTEX
  5
BCC8
330
BBED
100
AcDbEntity
  8
0
100
AcDbVertex
100
AcDb2dVertex
 10
9.469035729639577
 20
31.96979251748387
 30
0.0
 70
     8
  0
VERTEX
  5
BCC9
330
BBED
100
AcDbEntity
  8
0
100
AcDbVertex
100
AcDb2dVertex
 10
9.45175099533791
 20
31.91176974239313
 30
0.0
 70
     8
  0
VERTEX
  5
BCCA
330
BBED
100
AcDbEntity
  8
0
100
AcDbVertex
100
AcDb2dVertex
 10
9.436379196105113
 20
31.8605378750697
 30
0.0
 70
     8
  0
VERTEX
  5
BCCB
330
BBED
100
AcDbEntity
  8
0
100
AcDbVertex
100
AcDb2dVertex
 10
9.422783693488666
 20
31.8151170199768
 30
0.0
 70
     8
  0
VERTEX
  5
BCCC
330
BBED
100
AcDbEntity
  8
0
100
AcDbVertex
100
AcDb2dVertex
 10
9.410827849036058
 20
31.77452728157765
 30
0.0
 70
     8
  0
VERTEX
  5
BCCD
330
BBED
100
AcDbEntity
  8
0
100
AcDbVertex
100
AcDb2dVertex
 10
9.400375024294776
 20
31.73778876433544
 30
0.0
 70
     8
  0
VERTEX
  5
BCCE
330
BBED
100
AcDbEntity
  8
0
100
AcDbVertex
100
AcDb2dVertex
 10
9.391288580812307
 20
31.70392157271339
 30
0.0
 70
     8
  0
VERTEX
  5
BCCF
330
BBED
100
AcDbEntity
  8
0
100
AcDbVertex
100
AcDb2dVertex
 10
9.383431880136136
 20
31.67194581117469
 30
0.0
 70
     8
  0
VERTEX
  5
BCD0
330
BBED
100
AcDbEntity
  8
0
100
AcDbVertex
100
AcDb2dVertex
 10
9.376675874918278
 20
31.64094045368662
 30
0.0
 70
     8
  0
VERTEX
  5
BCD1
330
BBED
100
AcDbEntity
  8
0
100
AcDbVertex
100
AcDb2dVertex
 10
9.37092188222887
 20
31.61021995223254
 30
0.0
 70
     8
  0
VERTEX
  5
BCD2
330
BBED
100
AcDbEntity
  8
0
100
AcDbVertex
100
AcDb2dVertex
 10
9.366078810242575
 20
31.57915762829986
 30
0.0
 70
     8
  0
VERTEX
  5
BCD3
330
BBED
100
AcDbEntity
  8
0
100
AcDbVertex
100
AcDb2dVertex
 10
9.362055567134051
 20
31.547126803376
 30
0.0
 70
     8
  0
VERTEX
  5
BCD4
330
BBED
100
AcDbEntity
  8
0
100
AcDbVertex
100
AcDb2dVertex
 10
9.358761061077965
 20
31.51350079894838
 30
0.0
 70
     8
  0
VERTEX
  5
BCD5
330
BBED
100
AcDbEntity
  8
0
100
AcDbVertex
100
AcDb2dVertex
 10
9.35610420024898
 20
31.47765293650441
 30
0.0
 70
     8
  0
VERTEX
  5
BCD6
330
BBED
100
AcDbEntity
  8
0
100
AcDbVertex
100
AcDb2dVertex
 10
9.35399389282176
 20
31.43895653753151
 30
0.0
 70
     8
  0
VERTEX
  5
BCD7
330
BBED
100
AcDbEntity
  8
0
100
AcDbVertex
100
AcDb2dVertex
 10
9.352339046970966
 20
31.39678492351709
 30
0.0
 70
     8
  0
VERTEX
  5
BCD8
330
BBED
100
AcDbEntity
  8
0
100
AcDbVertex
100
AcDb2dVertex
 10
9.351025797761819
 20
31.35084374528743
 30
0.0
 70
     8
  0
VERTEX
  5
BCD9
330
BBED
100
AcDbEntity
  8
0
100
AcDbVertex
100
AcDb2dVertex
 10
9.349849187821765
 20
31.30216797102433
 30
0.0
 70
     8
  0
VERTEX
  5
BCDA
330
BBED
100
AcDbEntity
  8
0
100
AcDbVertex
100
AcDb2dVertex
 10
9.348581486668811
 20
31.25212489824845
 30
0.0
 70
     8
  0
VERTEX
  5
BCDB
330
BBED
100
AcDbEntity
  8
0
100
AcDbVertex
100
AcDb2dVertex
 10
9.346994963820959
 20
31.20208182448044
 30
0.0
 70
     8
  0
VERTEX
  5
BCDC
330
BBED
100
AcDbEntity
  8
0
100
AcDbVertex
100
AcDb2dVertex
 10
9.344861888796215
 20
31.15340604724097
 30
0.0
 70
     8
  0
VERTEX
  5
BCDD
330
BBED
100
AcDbEntity
  8
0
100
AcDbVertex
100
AcDb2dVertex
 10
9.341954531112584
 20
31.1074648640507
 30
0.0
 70
     8
  0
VERTEX
  5
BCDE
330
BBED
100
AcDbEntity
  8
0
100
AcDbVertex
100
AcDb2dVertex
 10
9.338045160288068
 20
31.06562557243027
 30
0.0
 70
     8
  0
VERTEX
  5
BCDF
330
BBED
100
AcDbEntity
  8
0
100
AcDbVertex
100
AcDb2dVertex
 10
9.332906045840672
 20
31.02925546990037
 30
0.0
 70
     8
  0
VERTEX
  5
BCE0
330
BBED
100
AcDbEntity
  8
0
100
AcDbVertex
100
AcDb2dVertex
 10
9.326372083143732
 20
30.99937053444995
 30
0.0
 70
     8
  0
VERTEX
  5
BCE1
330
BBED
100
AcDbEntity
  8
0
100
AcDbVertex
100
AcDb2dVertex
 10
9.318528670991897
 20
30.97558146594122
 30
0.0
 70
     8
  0
VERTEX
  5
BCE2
330
BBED
100
AcDbEntity
  8
0
100
AcDbVertex
100
AcDb2dVertex
 10
9.309523834035152
 20
30.95714764470469
 30
0.0
 70
     8
  0
VERTEX
  5
BCE3
330
BBED
100
AcDbEntity
  8
0
100
AcDbVertex
100
AcDb2dVertex
 10
9.299505596923472
 20
30.94332845107086
 30
0.0
 70
     8
  0
VERTEX
  5
BCE4
330
BBED
100
AcDbEntity
  8
0
100
AcDbVertex
100
AcDb2dVertex
 10
9.288621984306841
 20
30.93338326537024
 30
0.0
 70
     8
  0
VERTEX
  5
BCE5
330
BBED
100
AcDbEntity
  8
0
100
AcDbVertex
100
AcDb2dVertex
 10
9.277021020835242
 20
30.92657146793334
 30
0.0
 70
     8
  0
VERTEX
  5
BCE6
330
BBED
100
AcDbEntity
  8
0
100
AcDbVertex
100
AcDb2dVertex
 10
9.264850731158652
 20
30.92215243909067
 30
0.0
 70
     8
  0
VERTEX
  5
BCE7
330
BBED
100
AcDbEntity
  8
0
100
AcDbVertex
100
AcDb2dVertex
 10
9.252259139927057
 20
30.91938555917274
 30
0.0
 70
     8
  0
VERTEX
  5
BCE8
330
BBED
100
AcDbEntity
  8
0
100
AcDbVertex
100
AcDb2dVertex
 10
9.239403760594541
 20
30.91768023156797
 30
0.0
 70
     8
  0
VERTEX
  5
BCE9
330
BBED
100
AcDbEntity
  8
0
100
AcDbVertex
100
AcDb2dVertex
 10
9.226480061831622
 20
30.91704595189638
 30
0.0
 70
     8
  0
VERTEX
  5
BCEA
330
BBED
100
AcDbEntity
  8
0
100
AcDbVertex
100
AcDb2dVertex
 10
9.213693001112927
 20
30.9176422388359
 30
0.0
 70
     8
  0
VERTEX
  5
BCEB
330
BBED
100
AcDbEntity
  8
0
100
AcDbVertex
100
AcDb2dVertex
 10
9.201247535913081
 20
30.91962861106448
 30
0.0
 70
     8
  0
VERTEX
  5
BCEC
330
BBED
100
AcDbEntity
  8
0
100
AcDbVertex
100
AcDb2dVertex
 10
9.189348623706706
 20
30.92316458726004
 30
0.0
 70
     8
  0
VERTEX
  5
BCED
330
BBED
100
AcDbEntity
  8
0
100
AcDbVertex
100
AcDb2dVertex
 10
9.17820122196843
 20
30.92840968610051
 30
0.0
 70
     8
  0
VERTEX
  5
BCEE
330
BBED
100
AcDbEntity
  8
0
100
AcDbVertex
100
AcDb2dVertex
 10
9.168010288172878
 20
30.93552342626385
 30
0.0
 70
     8
  0
VERTEX
  5
BCEF
330
BBED
100
AcDbEntity
  8
0
100
AcDbVertex
100
AcDb2dVertex
 10
9.158980779794674
 20
30.94466532642796
 30
0.0
 70
     8
  0
VERTEX
  5
BCF0
330
BBED
100
AcDbEntity
  8
0
100
AcDbVertex
100
AcDb2dVertex
 10
9.151253130651463
 20
30.95724826058731
 30
0.0
 70
     8
  0
VERTEX
  5
BCF1
330
BBED
100
AcDbEntity
  8
0
100
AcDbVertex
100
AcDb2dVertex
 10
9.144709679932972
 20
30.97969852400239
 30
0.0
 70
     8
  0
VERTEX
  5
BCF2
330
BBED
100
AcDbEntity
  8
0
100
AcDbVertex
100
AcDb2dVertex
 10
9.139168243171944
 20
31.0196957672502
 30
0.0
 70
     8
  0
VERTEX
  5
BCF3
330
BBED
100
AcDbEntity
  8
0
100
AcDbVertex
100
AcDb2dVertex
 10
9.134446635901127
 20
31.08491964090776
 30
0.0
 70
     8
  0
VERTEX
  5
BCF4
330
BBED
100
AcDbEntity
  8
0
100
AcDbVertex
100
AcDb2dVertex
 10
9.130362673653266
 20
31.18304979555207
 30
0.0
 70
     8
  0
VERTEX
  5
BCF5
330
BBED
100
AcDbEntity
  8
0
100
AcDbVertex
100
AcDb2dVertex
 10
9.126734171961103
 20
31.32176588176014
 30
0.0
 70
     8
  0
VERTEX
  5
BCF6
330
BBED
100
AcDbEntity
  8
0
100
AcDbVertex
100
AcDb2dVertex
 10
9.123378946357389
 20
31.50874755010898
 30
0.0
 70
     8
  0
VERTEX
  5
BCF7
330
BBED
100
AcDbEntity
  8
0
100
AcDbVertex
100
AcDb2dVertex
 10
9.120114812374865
 20
31.75167445117559
 30
0.0
 70
     8
  0
VERTEX
  5
BCF8
330
BBED
100
AcDbEntity
  8
0
100
AcDbVertex
100
AcDb2dVertex
 10
9.116807029430718
 20
32.0542819637746
 30
0.0
 70
     8
  0
VERTEX
  5
BCF9
330
BBED
100
AcDbEntity
  8
0
100
AcDbVertex
100
AcDb2dVertex
 10
9.113510632479895
 20
32.40452837967107
 30
0.0
 70
     8
  0
VERTEX
  5
BCFA
330
BBED
100
AcDbEntity
  8
0
100
AcDbVertex
100
AcDb2dVertex
 10
9.110328100361778
 20
32.78642771886772
 30
0.0
 70
     8
  0
VERTEX
  5
BCFB
330
BBED
100
AcDbEntity
  8
0
100
AcDbVertex
100
AcDb2dVertex
 10
9.107361911915754
 20
33.18399400136722
 30
0.0
 70
     8
  0
VERTEX
  5
BCFC
330
BBED
100
AcDbEntity
  8
0
100
AcDbVertex
100
AcDb2dVertex
 10
9.104714545981209
 20
33.58124124717227
 30
0.0
 70
     8
  0
VERTEX
  5
BCFD
330
BBED
100
AcDbEntity
  8
0
100
AcDbVertex
100
AcDb2dVertex
 10
9.102488481397527
 20
33.96218347628555
 30
0.0
 70
     8
  0
VERTEX
  5
BCFE
330
BBED
100
AcDbEntity
  8
0
100
AcDbVertex
100
AcDb2dVertex
 10
9.100786197004092
 20
34.31083470870978
 30
0.0
 70
     8
  0
VERTEX
  5
BCFF
330
BBED
100
AcDbEntity
  8
0
100
AcDbVertex
100
AcDb2dVertex
 10
9.099710171640291
 20
34.61120896444762
 30
0.0
 70
     8
  0
VERTEX
  5
BD00
330
BBED
100
AcDbEntity
  8
0
100
AcDbVertex
100
AcDb2dVertex
 10
9.099343906571318
 20
34.85129681876281
 30
0.0
 70
     8
  0
VERTEX
  5
BD01
330
BBED
100
AcDbEntity
  8
0
100
AcDbVertex
100
AcDb2dVertex
 10
9.099694992765604
 20
35.03499506796327
 30
0.0
 70
     8
  0
VERTEX
  5
BD02
330
BBED
100
AcDbEntity
  8
0
100
AcDbVertex
100
AcDb2dVertex
 10
9.100752043617392
 20
35.17017706361792
 30
0.0
 70
     8
  0
VERTEX
  5
BD03
330
BBED
100
AcDbEntity
  8
0
100
AcDbVertex
100
AcDb2dVertex
 10
9.102503672520926
 20
35.26471615729572
 30
0.0
 70
     8
  0
VERTEX
  5
BD04
330
BBED
100
AcDbEntity
  8
0
100
AcDbVertex
100
AcDb2dVertex
 10
9.104938492870447
 20
35.32648570056559
 30
0.0
 70
     8
  0
VERTEX
  5
BD05
330
BBED
100
AcDbEntity
  8
0
100
AcDbVertex
100
AcDb2dVertex
 10
9.108045118060196
 20
35.3633590449965
 30
0.0
 70
     8
  0
VERTEX
  5
BD06
330
BBED
100
AcDbEntity
  8
0
100
AcDbVertex
100
AcDb2dVertex
 10
9.111812161484415
 20
35.38320954215738
 30
0.0
 70
     8
  0
VERTEX
  5
BD07
330
BBED
100
AcDbEntity
  8
0
100
AcDbVertex
100
AcDb2dVertex
 10
9.116228236537347
 20
35.39391054361716
 30
0.0
 70
     8
  0
VERTEX
  5
BD08
330
BBED
100
AcDbEntity
  8
0
100
AcDbVertex
100
AcDb2dVertex
 10
9.121293343116922
 20
35.40203836785962
 30
0.0
 70
     8
  0
VERTEX
  5
BD09
330
BBED
100
AcDbEntity
  8
0
100
AcDbVertex
100
AcDb2dVertex
 10
9.127053027135806
 20
35.40898120102774
 30
0.0
 70
     8
  0
VERTEX
  5
BD0A
330
BBED
100
AcDbEntity
  8
0
100
AcDbVertex
100
AcDb2dVertex
 10
9.133564221010352
 20
35.41483019617933
 30
0.0
 70
     8
  0
VERTEX
  5
BD0B
330
BBED
100
AcDbEntity
  8
0
100
AcDbVertex
100
AcDb2dVertex
 10
9.140883857156914
 20
35.41967650637221
 30
0.0
 70
     8
  0
VERTEX
  5
BD0C
330
BBED
100
AcDbEntity
  8
0
100
AcDbVertex
100
AcDb2dVertex
 10
9.149068867991848
 20
35.42361128466417
 30
0.0
 70
     8
  0
VERTEX
  5
BD0D
330
BBED
100
AcDbEntity
  8
0
100
AcDbVertex
100
AcDb2dVertex
 10
9.158176185931504
 20
35.42672568411302
 30
0.0
 70
     8
  0
VERTEX
  5
BD0E
330
BBED
100
AcDbEntity
  8
0
100
AcDbVertex
100
AcDb2dVertex
 10
9.16826274339224
 20
35.42911085777659
 30
0.0
 70
     8
  0
VERTEX
  5
BD0F
330
BBED
100
AcDbEntity
  8
0
100
AcDbVertex
100
AcDb2dVertex
 10
9.179385472790405
 20
35.43085795871266
 30
0.0
 70
     8
  0
VERTEX
  5
BD10
330
BBED
100
AcDbEntity
  8
0
100
AcDbVertex
100
AcDb2dVertex
 10
9.193398649540164
 20
35.43205125667697
 30
0.0
 70
     8
  0
VERTEX
  5
BD11
330
BBED
100
AcDbEntity
  8
0
100
AcDbVertex
100
AcDb2dVertex
 10
9.219345921046903
 20
35.43274748821691
 30
0.0
 70
     8
  0
VERTEX
  5
BD12
330
BBED
100
AcDbEntity
  8
0
100
AcDbVertex
100
AcDb2dVertex
 10
9.268068277713817
 20
35.43299650657779
 30
0.0
 70
     8
  0
VERTEX
  5
BD13
330
BBED
100
AcDbEntity
  8
0
100
AcDbVertex
100
AcDb2dVertex
 10
9.350406709944104
 20
35.43284816500493
 30
0.0
 70
     8
  0
VERTEX
  5
BD14
330
BBED
100
AcDbEntity
  8
0
100
AcDbVertex
100
AcDb2dVertex
 10
9.477202208140957
 20
35.43235231674363
 30
0.0
 70
     8
  0
VERTEX
  5
BD15
330
BBED
100
AcDbEntity
  8
0
100
AcDbVertex
100
AcDb2dVertex
 10
9.659295762707571
 20
35.43155881503922
 30
0.0
 70
     8
  0
VERTEX
  5
BD16
330
BBED
100
AcDbEntity
  8
0
100
AcDbVertex
100
AcDb2dVertex
 10
9.907528364047143
 20
35.430517513137
 30
0.0
 70
     8
  0
VERTEX
  5
BD17
330
BBED
100
AcDbEntity
  8
0
100
AcDbVertex
100
AcDb2dVertex
 10
10.23274100256286
 20
35.42927826428228
 30
0.0
 70
     8
  0
VERTEX
  5
BD18
330
BBED
100
AcDbEntity
  8
0
100
AcDbVertex
100
AcDb2dVertex
 10
10.64032042403892
 20
35.42787606896077
 30
0.0
 70
     8
  0
VERTEX
  5
BD19
330
BBED
100
AcDbEntity
  8
0
100
AcDbVertex
100
AcDb2dVertex
 10
11.11383639578347
 20
35.42628651661971
 30
0.0
 70
     8
  0
VERTEX
  5
BD1A
330
BBED
100
AcDbEntity
  8
0
100
AcDbVertex
100
AcDb2dVertex
 10
11.63140444048565
 20
35.42447034394672
 30
0.0
 70
     8
  0
VERTEX
  5
BD1B
330
BBED
100
AcDbEntity
  8
0
100
AcDbVertex
100
AcDb2dVertex
 10
12.17114008083459
 20
35.42238828762944
 30
0.0
 70
     8
  0
VERTEX
  5
BD1C
330
BBED
100
AcDbEntity
  8
0
100
AcDbVertex
100
AcDb2dVertex
 10
12.71115883951945
 20
35.42000108435551
 30
0.0
 70
     8
  0
VERTEX
  5
BD1D
330
BBED
100
AcDbEntity
  8
0
100
AcDbVertex
100
AcDb2dVertex
 10
13.22957623922936
 20
35.41726947081254
 30
0.0
 70
     8
  0
VERTEX
  5
BD1E
330
BBED
100
AcDbEntity
  8
0
100
AcDbVertex
100
AcDb2dVertex
 10
13.70450780265346
 20
35.41415418368818
 30
0.0
 70
     8
  0
VERTEX
  5
BD1F
330
BBED
100
AcDbEntity
  8
0
100
AcDbVertex
100
AcDb2dVertex
 10
14.11406905248089
 20
35.41061595967005
 30
0.0
 70
     8
  0
VERTEX
  5
BD20
330
BBED
100
AcDbEntity
  8
0
100
AcDbVertex
100
AcDb2dVertex
 10
14.44180178901464
 20
35.4066024813521
 30
0.0
 70
     8
  0
VERTEX
  5
BD21
330
BBED
100
AcDbEntity
  8
0
100
AcDbVertex
100
AcDb2dVertex
 10
14.6929529230131
 20
35.40200921495353
 30
0.0
 70
     8
  0
VERTEX
  5
BD22
330
BBED
100
AcDbEntity
  8
0
100
AcDbVertex
100
AcDb2dVertex
 10
14.87819564284848
 20
35.39671857259983
 30
0.0
 70
     8
  0
VERTEX
  5
BD23
330
BBED
100
AcDbEntity
  8
0
100
AcDbVertex
100
AcDb2dVertex
 10
15.00820313689303
 20
35.39061296641653
 30
0.0
 70
     8
  0
VERTEX
  5
BD24
330
BBED
100
AcDbEntity
  8
0
100
AcDbVertex
100
AcDb2dVertex
 10
15.09364859351897
 20
35.38357480852911
 30
0.0
 70
     8
  0
VERTEX
  5
BD25
330
BBED
100
AcDbEntity
  8
0
100
AcDbVertex
100
AcDb2dVertex
 10
15.14520520109852
 20
35.37548651106309
 30
0.0
 70
     8
  0
VERTEX
  5
BD26
330
BBED
100
AcDbEntity
  8
0
100
AcDbVertex
100
AcDb2dVertex
 10
15.17354614800392
 20
35.366230486144
 30
0.0
 70
     8
  0
VERTEX
  5
BD27
330
BBED
100
AcDbEntity
  8
0
100
AcDbVertex
100
AcDb2dVertex
 10
15.20928365119081
 20
35.37065344671946
 30
0.0
 70
    16
  0
VERTEX
  5
BD28
330
BBED
100
AcDbEntity
  8
0
100
AcDbVertex
100
AcDb2dVertex
 10
15.25414630871998
 20
35.23597499330384
 30
0.0
 70
    16
  0
VERTEX
  5
BD29
330
BBED
100
AcDbEntity
  8
0
100
AcDbVertex
100
AcDb2dVertex
 10
15.2840548515951
 20
35.07136810756643
 30
0.0
 70
    16
  0
VERTEX
  5
BD2A
330
BBED
100
AcDbEntity
  8
0
100
AcDbVertex
100
AcDb2dVertex
 10
15.04478682216117
 20
34.57754745035416
 30
0.0
 70
    16
  0
VERTEX
  5
BD2B
330
BBED
100
AcDbEntity
  8
0
100
AcDbVertex
100
AcDb2dVertex
 10
14.70083904944784
 20
34.36804774681154
 30
0.0
 70
    16
  0
VERTEX
  5
BD2C
330
BBED
100
AcDbEntity
  8
0
100
AcDbVertex
100
AcDb2dVertex
 10
14.2671657526315
 20
34.36804774681154
 30
0.0
 70
    16
  0
VERTEX
  5
BD2D
330
BBED
100
AcDbEntity
  8
0
100
AcDbVertex
100
AcDb2dVertex
 10
13.72881271253575
 20
34.57754745035416
 30
0.0
 70
    16
  0
VERTEX
  5
BD2E
330
BBED
100
AcDbEntity
  8
0
100
AcDbVertex
100
AcDb2dVertex
 10
12.92128310013096
 20
34.81697558621858
 30
0.0
 70
    16
  0
VERTEX
  5
BD2F
330
BBED
100
AcDbEntity
  8
0
100
AcDbVertex
100
AcDb2dVertex
 10
12.15861635430001
 20
34.81697558621858
 30
0.0
 70
    16
  0
VERTEX
  5
BD30
330
BBED
100
AcDbEntity
  8
0
100
AcDbVertex
100
AcDb2dVertex
 10
11.33613252271882
 20
34.59251166651505
 30
0.0
 70
    16
  0
VERTEX
  5
BD31
330
BBED
100
AcDbEntity
  8
0
100
AcDbVertex
100
AcDb2dVertex
 10
10.99831341698022
 20
34.40410904073019
 30
0.0
 70
    16
  0
VERTEX
  5
BD32
330
BBED
100
AcDbEntity
  8
0
100
AcDbVertex
100
AcDb2dVertex
 10
10.91086501641624
 20
34.36327251316284
 30
0.0
 70
    16
  0
VERTEX
  5
BD33
330
BBED
100
AcDbEntity
  8
0
100
AcDbVertex
100
AcDb2dVertex
 10
10.84673607087735
 20
34.40410904073019
 30
0.0
 70
    16
  0
VERTEX
  5
BD34
330
BBED
100
AcDbEntity
  8
0
100
AcDbVertex
100
AcDb2dVertex
 10
10.81758656918191
 20
34.58495683441318
 30
0.0
 70
    16
  0
VERTEX
  5
BD35
330
BBED
100
AcDbEntity
  8
0
100
AcDbVertex
100
AcDb2dVertex
 10
10.71847838884422
 20
34.9058158942118
 30
0.0
 70
    16
  0
VERTEX
  5
BD36
330
BBED
100
AcDbEntity
  8
0
100
AcDbVertex
100
AcDb2dVertex
 10
10.42115363878649
 20
35.10999887069363
 30
0.0
 70
    16
  0
VERTEX
  5
BD37
330
BBED
100
AcDbEntity
  8
0
100
AcDbVertex
100
AcDb2dVertex
 10
10.15297828590187
 20
35.1800045884127
 30
0.0
 70
    16
  0
VERTEX
  5
BD38
330
BBED
100
AcDbEntity
  8
0
100
AcDbVertex
100
AcDb2dVertex
 10
9.832333976296737
 20
35.12166654675432
 30
0.0
 70
    16
  0
VERTEX
  5
BD39
330
BBED
100
AcDbEntity
  8
0
100
AcDbVertex
100
AcDb2dVertex
 10
9.459220500926409
 20
34.82997650778491
 30
0.0
 70
    16
  0
VERTEX
  5
BD3A
330
BBED
100
AcDbEntity
  8
0
100
AcDbVertex
100
AcDb2dVertex
 10
9.29015353742413
 20
34.46244708238857
 30
0.0
 70
    16
  0
VERTEX
  5
BD3B
330
BBED
100
AcDbEntity
  8
0
100
AcDbVertex
100
AcDb2dVertex
 10
9.330962818893279
 20
34.16492320538883
 30
0.0
 70
    16
  0
VERTEX
  5
BD3C
330
BBED
100
AcDbEntity
  8
0
100
AcDbVertex
100
AcDb2dVertex
 10
9.622457626802992
 20
33.81489512476104
 30
0.0
 70
    16
  0
VERTEX
  5
BD3D
330
BBED
100
AcDbEntity
  8
0
100
AcDbVertex
100
AcDb2dVertex
 10
9.896462817313294
 20
33.62237982433987
 30
0.0
 70
    16
  0
VERTEX
  5
BD3E
330
BBED
100
AcDbEntity
  8
0
100
AcDbVertex
100
AcDb2dVertex
 10
10.01306082409504
 20
33.61071214827922
 30
0.0
 70
    16
  0
VERTEX
  5
BD3F
330
BBED
100
AcDbEntity
  8
0
100
AcDbVertex
100
AcDb2dVertex
 10
10.05969994318987
 20
33.55820794465117
 30
0.0
 70
    16
  0
VERTEX
  5
BD40
330
BBED
100
AcDbEntity
  8
0
100
AcDbVertex
100
AcDb2dVertex
 10
10.00723088194703
 20
33.44153203065689
 30
0.0
 70
    16
  0
VERTEX
  5
BD41
330
BBED
100
AcDbEntity
  8
0
100
AcDbVertex
100
AcDb2dVertex
 10
9.698246352115592
 20
32.78231256629118
 30
0.0
 70
    16
  0
VERTEX
  5
BD42
330
BBED
100
AcDbEntity
  8
0
100
AcDbVertex
100
AcDb2dVertex
 10
9.465050443074423
 20
31.94224530824248
 30
0.0
 70
    16
  0
VERTEX
  5
BD43
330
BBED
100
AcDbEntity
  8
0
100
AcDbVertex
100
AcDb2dVertex
 10
9.371772100362429
 20
31.66222277601121
 30
0.0
 70
    16
  0
VERTEX
  5
BD44
330
BBED
100
AcDbEntity
  8
0
100
AcDbVertex
100
AcDb2dVertex
 10
9.348452436292673
 20
31.44053845476087
 30
0.0
 70
    16
  0
VERTEX
  5
BD45
330
BBED
100
AcDbEntity
  8
0
100
AcDbVertex
100
AcDb2dVertex
 10
9.348452436292673
 20
30.95633294604781
 30
0.0
 70
    16
  0
VERTEX
  5
BD46
330
BBED
100
AcDbEntity
  8
0
100
AcDbVertex
100
AcDb2dVertex
 10
9.255174093580677
 20
30.90966258045009
 30
0.0
 70
    16
  0
VERTEX
  5
BD47
330
BBED
100
AcDbEntity
  8
0
100
AcDbVertex
100
AcDb2dVertex
 10
9.144406028946958
 20
30.92133008718828
 30
0.0
 70
    16
  0
VERTEX
  5
BD48
330
BBED
100
AcDbEntity
  8
0
100
AcDbVertex
100
AcDb2dVertex
 10
9.121086469399534
 20
31.07300902936457
 30
0.0
 70
    16
  0
VERTEX
  5
BD49
330
BBED
100
AcDbEntity
  8
0
100
AcDbVertex
100
AcDb2dVertex
 10
9.091936967704096
 20
35.29668050240694
 30
0.0
 70
    16
  0
VERTEX
  5
BD4A
330
BBED
100
AcDbEntity
  8
0
100
AcDbVertex
100
AcDb2dVertex
 10
9.109426689625822
 20
35.40752274769336
 30
0.0
 70
    16
  0
VERTEX
  5
BD4B
330
BBED
100
AcDbEntity
  8
0
100
AcDbVertex
100
AcDb2dVertex
 10
9.167725693016697
 20
35.43669176852258
 30
0.0
 70
    16
  0
VERTEX
  5
BD4C
330
BBED
100
AcDbEntity
  8
0
100
AcDbVertex
100
AcDb2dVertex
 10
9.295983375049829
 20
35.43085793049224
 30
0.0
 70
    16
  0
SEQEND
  5
BD4D
330
BBED
100
AcDbEntity
  8
0
  0
POLYLINE
  5
BD4E
330
18
100
AcDbEntity
  8
0
100
AcDb2dPolyline
 66
     1
 10
0.0
 20
0.0
 30
0.0
 70
     5
 75
     6
  0
VERTEX
  5
BD4F
330
BD4E
100
AcDbEntity
  8
0
100
AcDbVertex
100
AcDb2dVertex
 10
9.05609239251332
 20
21.86696997831649
 30
0.0
 70
    16
  0
VERTEX
  5
BD50
330
BD4E
100
AcDbEntity
  8
0
100
AcDbVertex
100
AcDb2dVertex
 10
9.137627860197161
 20
28.29403960933165
 30
0.0
 70
     8
  0
VERTEX
  5
BD51
330
BD4E
100
AcDbEntity
  8
0
100
AcDbVertex
100
AcDb2dVertex
 10
9.145662696869456
 20
28.72225691025775
 30
0.0
 70
     8
  0
VERTEX
  5
BD52
330
BD4E
100
AcDbEntity
  8
0
100
AcDbVertex
100
AcDb2dVertex
 10
9.153263218752179
 20
29.04608184554687
 30
0.0
 70
     8
  0
VERTEX
  5
BD53
330
BD4E
100
AcDbEntity
  8
0
100
AcDbVertex
100
AcDb2dVertex
 10
9.160690014719079
 20
29.28037794134354
 30
0.0
 70
     8
  0
VERTEX
  5
BD54
330
BD4E
100
AcDbEntity
  8
0
100
AcDbVertex
100
AcDb2dVertex
 10
9.168203673643889
 20
29.44000872379234
 30
0.0
 70
     8
  0
VERTEX
  5
BD55
330
BD4E
100
AcDbEntity
  8
0
100
AcDbVertex
100
AcDb2dVertex
 10
9.176064784400358
 20
29.53983771903782
 30
0.0
 70
     8
  0
VERTEX
  5
BD56
330
BD4E
100
AcDbEntity
  8
0
100
AcDbVertex
100
AcDb2dVertex
 10
9.184533935862218
 20
29.59472845322452
 30
0.0
 70
     8
  0
VERTEX
  5
BD57
330
BD4E
100
AcDbEntity
  8
0
100
AcDbVertex
100
AcDb2dVertex
 10
9.193871716903215
 20
29.619544452497
 30
0.0
 70
     8
  0
VERTEX
  5
BD58
330
BD4E
100
AcDbEntity
  8
0
100
AcDbVertex
100
AcDb2dVertex
 10
9.204338716397083
 20
29.62914924299982
 30
0.0
 70
     8
  0
VERTEX
  5
BD59
330
BD4E
100
AcDbEntity
  8
0
100
AcDbVertex
100
AcDb2dVertex
 10
9.216083325196244
 20
29.63588563586126
 30
0.0
 70
     8
  0
VERTEX
  5
BD5A
330
BD4E
100
AcDbEntity
  8
0
100
AcDbVertex
100
AcDb2dVertex
 10
9.228805142067784
 20
29.6420135821445
 30
0.0
 70
     8
  0
VERTEX
  5
BD5B
330
BD4E
100
AcDbEntity
  8
0
100
AcDbVertex
100
AcDb2dVertex
 10
9.242091567757475
 20
29.64727231789647
 30
0.0
 70
     8
  0
VERTEX
  5
BD5C
330
BD4E
100
AcDbEntity
  8
0
100
AcDbVertex
100
AcDb2dVertex
 10
9.255530003011076
 20
29.65140107916409
 30
0.0
 70
     8
  0
VERTEX
  5
BD5D
330
BD4E
100
AcDbEntity
  8
0
100
AcDbVertex
100
AcDb2dVertex
 10
9.268707848574358
 20
29.65413910199427
 30
0.0
 70
     8
  0
VERTEX
  5
BD5E
330
BD4E
100
AcDbEntity
  8
0
100
AcDbVertex
100
AcDb2dVertex
 10
9.281212505193083
 20
29.65522562243394
 30
0.0
 70
     8
  0
VERTEX
  5
BD5F
330
BD4E
100
AcDbEntity
  8
0
100
AcDbVertex
100
AcDb2dVertex
 10
9.292631373613019
 20
29.65439987653001
 30
0.0
 70
     8
  0
VERTEX
  5
BD60
330
BD4E
100
AcDbEntity
  8
0
100
AcDbVertex
100
AcDb2dVertex
 10
9.302551854579931
 20
29.6514011003294
 30
0.0
 70
     8
  0
VERTEX
  5
BD61
330
BD4E
100
AcDbEntity
  8
0
100
AcDbVertex
100
AcDb2dVertex
 10
9.310688024088612
 20
29.64583814812297
 30
0.0
 70
     8
  0
VERTEX
  5
BD62
330
BD4E
100
AcDbEntity
  8
0
100
AcDbVertex
100
AcDb2dVertex
 10
9.31726065912998
 20
29.63679834717728
 30
0.0
 70
     8
  0
VERTEX
  5
BD63
330
BD4E
100
AcDbEntity
  8
0
100
AcDbVertex
100
AcDb2dVertex
 10
9.322617211943978
 20
29.62323864300286
 30
0.0
 70
     8
  0
VERTEX
  5
BD64
330
BD4E
100
AcDbEntity
  8
0
100
AcDbVertex
100
AcDb2dVertex
 10
9.327105134770549
 20
29.60411598111019
 30
0.0
 70
     8
  0
VERTEX
  5
BD65
330
BD4E
100
AcDbEntity
  8
0
100
AcDbVertex
100
AcDb2dVertex
 10
9.331071879849639
 20
29.5783873070098
 30
0.0
 70
     8
  0
VERTEX
  5
BD66
330
BD4E
100
AcDbEntity
  8
0
100
AcDbVertex
100
AcDb2dVertex
 10
9.334864899421196
 20
29.54500956621219
 30
0.0
 70
     8
  0
VERTEX
  5
BD67
330
BD4E
100
AcDbEntity
  8
0
100
AcDbVertex
100
AcDb2dVertex
 10
9.338831645725157
 20
29.50293970422787
 30
0.0
 70
     8
  0
VERTEX
  5
BD68
330
BD4E
100
AcDbEntity
  8
0
100
AcDbVertex
100
AcDb2dVertex
 10
9.343319571001471
 20
29.45113466656734
 30
0.0
 70
     8
  0
VERTEX
  5
BD69
330
BD4E
100
AcDbEntity
  8
0
100
AcDbVertex
100
AcDb2dVertex
 10
9.348665269552292
 20
29.38848620791821
 30
0.0
 70
     8
  0
VERTEX
  5
BD6A
330
BD4E
100
AcDbEntity
  8
0
100
AcDbVertex
100
AcDb2dVertex
 10
9.355161903928632
 20
29.31362531967638
 30
0.0
 70
     8
  0
VERTEX
  5
BD6B
330
BD4E
100
AcDbEntity
  8
0
100
AcDbVertex
100
AcDb2dVertex
 10
9.363091778743703
 20
29.22511780241488
 30
0.0
 70
     8
  0
VERTEX
  5
BD6C
330
BD4E
100
AcDbEntity
  8
0
100
AcDbVertex
100
AcDb2dVertex
 10
9.37273719861073
 20
29.12152945670672
 30
0.0
 70
     8
  0
VERTEX
  5
BD6D
330
BD4E
100
AcDbEntity
  8
0
100
AcDbVertex
100
AcDb2dVertex
 10
9.384380468142929
 20
29.0014260831249
 30
0.0
 70
     8
  0
VERTEX
  5
BD6E
330
BD4E
100
AcDbEntity
  8
0
100
AcDbVertex
100
AcDb2dVertex
 10
9.398303891953519
 20
28.86337348224244
 30
0.0
 70
     8
  0
VERTEX
  5
BD6F
330
BD4E
100
AcDbEntity
  8
0
100
AcDbVertex
100
AcDb2dVertex
 10
9.414789774655721
 20
28.70593745463235
 30
0.0
 70
     8
  0
VERTEX
  5
BD70
330
BD4E
100
AcDbEntity
  8
0
100
AcDbVertex
100
AcDb2dVertex
 10
9.434120420862754
 20
28.52768380086764
 30
0.0
 70
     8
  0
VERTEX
  5
BD71
330
BD4E
100
AcDbEntity
  8
0
100
AcDbVertex
100
AcDb2dVertex
 10
9.456552800260515
 20
28.32788455615278
 30
0.0
 70
     8
  0
VERTEX
  5
BD72
330
BD4E
100
AcDbEntity
  8
0
100
AcDbVertex
100
AcDb2dVertex
 10
9.48224254282563
 20
28.10863669421808
 30
0.0
 70
     8
  0
VERTEX
  5
BD73
330
BD4E
100
AcDbEntity
  8
0
100
AcDbVertex
100
AcDb2dVertex
 10
9.511319943607405
 20
27.87274342342529
 30
0.0
 70
     8
  0
VERTEX
  5
BD74
330
BD4E
100
AcDbEntity
  8
0
100
AcDbVertex
100
AcDb2dVertex
 10
9.543915297655148
 20
27.62300795213623
 30
0.0
 70
     8
  0
VERTEX
  5
BD75
330
BD4E
100
AcDbEntity
  8
0
100
AcDbVertex
100
AcDb2dVertex
 10
9.580158900018162
 20
27.36223348871262
 30
0.0
 70
     8
  0
VERTEX
  5
BD76
330
BD4E
100
AcDbEntity
  8
0
100
AcDbVertex
100
AcDb2dVertex
 10
9.620181045745754
 20
27.09322324151627
 30
0.0
 70
     8
  0
VERTEX
  5
BD77
330
BD4E
100
AcDbEntity
  8
0
100
AcDbVertex
100
AcDb2dVertex
 10
9.664112029887229
 20
26.81878041890893
 30
0.0
 70
     8
  0
VERTEX
  5
BD78
330
BD4E
100
AcDbEntity
  8
0
100
AcDbVertex
100
AcDb2dVertex
 10
9.712082147491893
 20
26.54170822925236
 30
0.0
 70
     8
  0
VERTEX
  5
BD79
330
BD4E
100
AcDbEntity
  8
0
100
AcDbVertex
100
AcDb2dVertex
 10
9.764113114639469
 20
26.26459982138797
 30
0.0
 70
     8
  0
VERTEX
  5
BD7A
330
BD4E
100
AcDbEntity
  8
0
100
AcDbVertex
100
AcDb2dVertex
 10
9.819792331531331
 20
25.9892081060756
 30
0.0
 70
     8
  0
VERTEX
  5
BD7B
330
BD4E
100
AcDbEntity
  8
0
100
AcDbVertex
100
AcDb2dVertex
 10
9.878598619399276
 20
25.7170759345547
 30
0.0
 70
     8
  0
VERTEX
  5
BD7C
330
BD4E
100
AcDbEntity
  8
0
100
AcDbVertex
100
AcDb2dVertex
 10
9.940010799475095
 20
25.44974615806474
 30
0.0
 70
     8
  0
VERTEX
  5
BD7D
330
BD4E
100
AcDbEntity
  8
0
100
AcDbVertex
100
AcDb2dVertex
 10
10.00350769299058
 20
25.18876162784518
 30
0.0
 70
     8
  0
VERTEX
  5
BD7E
330
BD4E
100
AcDbEntity
  8
0
100
AcDbVertex
100
AcDb2dVertex
 10
10.06856812117752
 20
24.93566519513547
 30
0.0
 70
     8
  0
VERTEX
  5
BD7F
330
BD4E
100
AcDbEntity
  8
0
100
AcDbVertex
100
AcDb2dVertex
 10
10.13467090526772
 20
24.69199971117509
 30
0.0
 70
     8
  0
VERTEX
  5
BD80
330
BD4E
100
AcDbEntity
  8
0
100
AcDbVertex
100
AcDb2dVertex
 10
10.20129486649297
 20
24.45930802720348
 30
0.0
 70
     8
  0
VERTEX
  5
BD81
330
BD4E
100
AcDbEntity
  8
0
100
AcDbVertex
100
AcDb2dVertex
 10
10.26802016640676
 20
24.23860422393758
 30
0.0
 70
     8
  0
VERTEX
  5
BD82
330
BD4E
100
AcDbEntity
  8
0
100
AcDbVertex
100
AcDb2dVertex
 10
10.33483232784945
 20
24.02878730000419
 30
0.0
 70
     8
  0
VERTEX
  5
BD83
330
BD4E
100
AcDbEntity
  8
0
100
AcDbVertex
100
AcDb2dVertex
 10
10.4018182139831
 20
23.82822748350756
 30
0.0
 70
     8
  0
VERTEX
  5
BD84
330
BD4E
100
AcDbEntity
  8
0
100
AcDbVertex
100
AcDb2dVertex
 10
10.46906468796976
 20
23.63529500255195
 30
0.0
 70
     8
  0
VERTEX
  5
BD85
330
BD4E
100
AcDbEntity
  8
0
100
AcDbVertex
100
AcDb2dVertex
 10
10.5366586129715
 20
23.44836008524163
 30
0.0
 70
     8
  0
VERTEX
  5
BD86
330
BD4E
100
AcDbEntity
  8
0
100
AcDbVertex
100
AcDb2dVertex
 10
10.60468685215036
 20
23.26579295968087
 30
0.0
 70
     8
  0
VERTEX
  5
BD87
330
BD4E
100
AcDbEntity
  8
0
100
AcDbVertex
100
AcDb2dVertex
 10
10.67323626866842
 20
23.08596385397391
 30
0.0
 70
     8
  0
VERTEX
  5
BD88
330
BD4E
100
AcDbEntity
  8
0
100
AcDbVertex
100
AcDb2dVertex
 10
10.74239372568773
 20
22.90724299622502
 30
0.0
 70
     8
  0
VERTEX
  5
BD89
330
BD4E
100
AcDbEntity
  8
0
100
AcDbVertex
100
AcDb2dVertex
 10
10.81213026899105
 20
22.72850403292733
 30
0.0
 70
     8
  0
VERTEX
  5
BD8A
330
BD4E
100
AcDbEntity
  8
0
100
AcDbVertex
100
AcDb2dVertex
 10
10.881953674844
 20
22.55063428412941
 30
0.0
 70
     8
  0
VERTEX
  5
BD8B
330
BD4E
100
AcDbEntity
  8
0
100
AcDbVertex
100
AcDb2dVertex
 10
10.95125590213289
 20
22.37502448826869
 30
0.0
 70
     8
  0
VERTEX
  5
BD8C
330
BD4E
100
AcDbEntity
  8
0
100
AcDbVertex
100
AcDb2dVertex
 10
11.01942890974402
 20
22.20306538378261
 30
0.0
 70
     8
  0
VERTEX
  5
BD8D
330
BD4E
100
AcDbEntity
  8
0
100
AcDbVertex
100
AcDb2dVertex
 10
11.08586465656373
 20
22.0361477091086
 30
0.0
 70
     8
  0
VERTEX
  5
BD8E
330
BD4E
100
AcDbEntity
  8
0
100
AcDbVertex
100
AcDb2dVertex
 10
11.14995510147832
 20
21.8756622026841
 30
0.0
 70
     8
  0
VERTEX
  5
BD8F
330
BD4E
100
AcDbEntity
  8
0
100
AcDbVertex
100
AcDb2dVertex
 10
11.21109220337411
 20
21.72299960294655
 30
0.0
 70
     8
  0
VERTEX
  5
BD90
330
BD4E
100
AcDbEntity
  8
0
100
AcDbVertex
100
AcDb2dVertex
 10
11.26866792113741
 20
21.57955064833337
 30
0.0
 70
     8
  0
VERTEX
  5
BD91
330
BD4E
100
AcDbEntity
  8
0
100
AcDbVertex
100
AcDb2dVertex
 10
11.32220450819348
 20
21.44633666239833
 30
0.0
 70
     8
  0
VERTEX
  5
BD92
330
BD4E
100
AcDbEntity
  8
0
100
AcDbVertex
100
AcDb2dVertex
 10
11.37174539612335
 20
21.32290130916057
 30
0.0
 70
     8
  0
VERTEX
  5
BD93
330
BD4E
100
AcDbEntity
  8
0
100
AcDbVertex
100
AcDb2dVertex
 10
11.41746431104699
 20
21.2084188377555
 30
0.0
 70
     8
  0
VERTEX
  5
BD94
330
BD4E
100
AcDbEntity
  8
0
100
AcDbVertex
100
AcDb2dVertex
 10
11.45953497908437
 20
21.10206349731861
 30
0.0
 70
     8
  0
VERTEX
  5
BD95
330
BD4E
100
AcDbEntity
  8
0
100
AcDbVertex
100
AcDb2dVertex
 10
11.49813112635548
 20
21.00300953698534
 30
0.0
 70
     8
  0
VERTEX
  5
BD96
330
BD4E
100
AcDbEntity
  8
0
100
AcDbVertex
100
AcDb2dVertex
 10
11.53342647898027
 20
20.91043120589112
 30
0.0
 70
     8
  0
VERTEX
  5
BD97
330
BD4E
100
AcDbEntity
  8
0
100
AcDbVertex
100
AcDb2dVertex
 10
11.56559476307872
 20
20.82350275317141
 30
0.0
 70
     8
  0
VERTEX
  5
BD98
330
BD4E
100
AcDbEntity
  8
0
100
AcDbVertex
100
AcDb2dVertex
 10
11.5948097047708
 20
20.74139842796166
 30
0.0
 70
     8
  0
VERTEX
  5
BD99
330
BD4E
100
AcDbEntity
  8
0
100
AcDbVertex
100
AcDb2dVertex
 10
11.62122693365888
 20
20.66346269995288
 30
0.0
 70
     8
  0
VERTEX
  5
BD9A
330
BD4E
100
AcDbEntity
  8
0
100
AcDbVertex
100
AcDb2dVertex
 10
11.64492969327485
 20
20.58972092105826
 30
0.0
 70
     8
  0
VERTEX
  5
BD9B
330
BD4E
100
AcDbEntity
  8
0
100
AcDbVertex
100
AcDb2dVertex
 10
11.66598313063301
 20
20.52036866374655
 30
0.0
 70
     8
  0
VERTEX
  5
BD9C
330
BD4E
100
AcDbEntity
  8
0
100
AcDbVertex
100
AcDb2dVertex
 10
11.68445239274765
 20
20.4556015004865
 30
0.0
 70
     8
  0
VERTEX
  5
BD9D
330
BD4E
100
AcDbEntity
  8
0
100
AcDbVertex
100
AcDb2dVertex
 10
11.70040262663304
 20
20.39561500374686
 30
0.0
 70
     8
  0
VERTEX
  5
BD9E
330
BD4E
100
AcDbEntity
  8
0
100
AcDbVertex
100
AcDb2dVertex
 10
11.7138989793035
 20
20.34060474599638
 30
0.0
 70
     8
  0
VERTEX
  5
BD9F
330
BD4E
100
AcDbEntity
  8
0
100
AcDbVertex
100
AcDb2dVertex
 10
11.7250065977733
 20
20.29076629970379
 30
0.0
 70
     8
  0
VERTEX
  5
BDA0
330
BD4E
100
AcDbEntity
  8
0
100
AcDbVertex
100
AcDb2dVertex
 10
11.73379062905674
 20
20.24629523733787
 30
0.0
 70
     8
  0
VERTEX
  5
BDA1
330
BD4E
100
AcDbEntity
  8
0
100
AcDbVertex
100
AcDb2dVertex
 10
11.74032707810588
 20
20.20726761480355
 30
0.0
 70
     8
  0
VERTEX
  5
BDA2
330
BD4E
100
AcDbEntity
  8
0
100
AcDbVertex
100
AcDb2dVertex
 10
11.74473538162397
 20
20.17328142175059
 30
0.0
 70
     8
  0
VERTEX
  5
BDA3
330
BD4E
100
AcDbEntity
  8
0
100
AcDbVertex
100
AcDb2dVertex
 10
11.74714583425202
 20
20.14381513126496
 30
0.0
 70
     8
  0
VERTEX
  5
BDA4
330
BD4E
100
AcDbEntity
  8
0
100
AcDbVertex
100
AcDb2dVertex
 10
11.74768873063103
 20
20.11834721643262
 30
0.0
 70
     8
  0
VERTEX
  5
BDA5
330
BD4E
100
AcDbEntity
  8
0
100
AcDbVertex
100
AcDb2dVertex
 10
11.74649436540204
 20
20.09635615033953
 30
0.0
 70
     8
  0
VERTEX
  5
BDA6
330
BD4E
100
AcDbEntity
  8
0
100
AcDbVertex
100
AcDb2dVertex
 10
11.74369303320604
 20
20.07732040607165
 30
0.0
 70
     8
  0
VERTEX
  5
BDA7
330
BD4E
100
AcDbEntity
  8
0
100
AcDbVertex
100
AcDb2dVertex
 10
11.73941502868407
 20
20.06071845671495
 30
0.0
 70
     8
  0
VERTEX
  5
BDA8
330
BD4E
100
AcDbEntity
  8
0
100
AcDbVertex
100
AcDb2dVertex
 10
11.73379064647713
 20
20.04602877535539
 30
0.0
 70
     8
  0
VERTEX
  5
BDA9
330
BD4E
100
AcDbEntity
  8
0
100
AcDbVertex
100
AcDb2dVertex
 10
11.72693932332247
 20
20.0328276213133
 30
0.0
 70
     8
  0
VERTEX
  5
BDAA
330
BD4E
100
AcDbEntity
  8
0
100
AcDbVertex
100
AcDb2dVertex
 10
11.7189370643423
 20
20.02108239884651
 30
0.0
 70
     8
  0
VERTEX
  5
BDAB
330
BD4E
100
AcDbEntity
  8
0
100
AcDbVertex
100
AcDb2dVertex
 10
11.70984901675504
 20
20.01085829844724
 30
0.0
 70
     8
  0
VERTEX
  5
BDAC
330
BD4E
100
AcDbEntity
  8
0
100
AcDbVertex
100
AcDb2dVertex
 10
11.69974032777915
 20
20.0022205106077
 30
0.0
 70
     8
  0
VERTEX
  5
BDAD
330
BD4E
100
AcDbEntity
  8
0
100
AcDbVertex
100
AcDb2dVertex
 10
11.68867614463304
 20
19.99523422582008
 30
0.0
 70
     8
  0
VERTEX
  5
BDAE
330
BD4E
100
AcDbEntity
  8
0
100
AcDbVertex
100
AcDb2dVertex
 10
11.67672161453515
 20
19.98996463457661
 30
0.0
 70
     8
  0
VERTEX
  5
BDAF
330
BD4E
100
AcDbEntity
  8
0
100
AcDbVertex
100
AcDb2dVertex
 10
11.66394188470393
 20
19.98647692736948
 30
0.0
 70
     8
  0
VERTEX
  5
BDB0
330
BD4E
100
AcDbEntity
  8
0
100
AcDbVertex
100
AcDb2dVertex
 10
11.6504021023578
 20
19.98483629469092
 30
0.0
 70
     8
  0
VERTEX
  5
BDB1
330
BD4E
100
AcDbEntity
  8
0
100
AcDbVertex
100
AcDb2dVertex
 10
11.63616017620342
 20
19.98516949632737
 30
0.0
 70
     8
  0
VERTEX
  5
BDB2
330
BD4E
100
AcDbEntity
  8
0
100
AcDbVertex
100
AcDb2dVertex
 10
11.62124506090035
 20
19.98784956924235
 30
0.0
 70
     8
  0
VERTEX
  5
BDB3
330
BD4E
100
AcDbEntity
  8
0
100
AcDbVertex
100
AcDb2dVertex
 10
11.60567847259634
 20
19.99331111969361
 30
0.0
 70
     8
  0
VERTEX
  5
BDB4
330
BD4E
100
AcDbEntity
  8
0
100
AcDbVertex
100
AcDb2dVertex
 10
11.58948212743916
 20
20.00198875393893
 30
0.0
 70
     8
  0
VERTEX
  5
BDB5
330
BD4E
100
AcDbEntity
  8
0
100
AcDbVertex
100
AcDb2dVertex
 10
11.5726777415766
 20
20.01431707823604
 30
0.0
 70
     8
  0
VERTEX
  5
BDB6
330
BD4E
100
AcDbEntity
  8
0
100
AcDbVertex
100
AcDb2dVertex
 10
11.5552870311564
 20
20.03073069884273
 30
0.0
 70
     8
  0
VERTEX
  5
BDB7
330
BD4E
100
AcDbEntity
  8
0
100
AcDbVertex
100
AcDb2dVertex
 10
11.53733171232635
 20
20.05166422201674
 30
0.0
 70
     8
  0
VERTEX
  5
BDB8
330
BD4E
100
AcDbEntity
  8
0
100
AcDbVertex
100
AcDb2dVertex
 10
11.51883350123421
 20
20.07755225401584
 30
0.0
 70
     8
  0
VERTEX
  5
BDB9
330
BD4E
100
AcDbEntity
  8
0
100
AcDbVertex
100
AcDb2dVertex
 10
11.499756205185
 20
20.10866280207089
 30
0.0
 70
     8
  0
VERTEX
  5
BDBA
330
BD4E
100
AcDbEntity
  8
0
100
AcDbVertex
100
AcDb2dVertex
 10
11.47983199611271
 20
20.1445974773052
 30
0.0
 70
     8
  0
VERTEX
  5
BDBB
330
BD4E
100
AcDbEntity
  8
0
100
AcDbVertex
100
AcDb2dVertex
 10
11.45873513710859
 20
20.18479129181517
 30
0.0
 70
     8
  0
VERTEX
  5
BDBC
330
BD4E
100
AcDbEntity
  8
0
100
AcDbVertex
100
AcDb2dVertex
 10
11.43613989126387
 20
20.22867925769721
 30
0.0
 70
     8
  0
VERTEX
  5
BDBD
330
BD4E
100
AcDbEntity
  8
0
100
AcDbVertex
100
AcDb2dVertex
 10
11.41172052166982
 20
20.27569638704773
 30
0.0
 70
     8
  0
VERTEX
  5
BDBE
330
BD4E
100
AcDbEntity
  8
0
100
AcDbVertex
100
AcDb2dVertex
 10
11.38515129141766
 20
20.32527769196313
 30
0.0
 70
     8
  0
VERTEX
  5
BDBF
330
BD4E
100
AcDbEntity
  8
0
100
AcDbVertex
100
AcDb2dVertex
 10
11.35610646359864
 20
20.37685818453982
 30
0.0
 70
     8
  0
VERTEX
  5
BDC0
330
BD4E
100
AcDbEntity
  8
0
100
AcDbVertex
100
AcDb2dVertex
 10
11.324260301304
 20
20.42987287687421
 30
0.0
 70
     8
  0
VERTEX
  5
BDC1
330
BD4E
100
AcDbEntity
  8
0
100
AcDbVertex
100
AcDb2dVertex
 10
11.28935221504758
 20
20.48382559368987
 30
0.0
 70
     8
  0
VERTEX
  5
BDC2
330
BD4E
100
AcDbEntity
  8
0
100
AcDbVertex
100
AcDb2dVertex
 10
11.25138220503351
 20
20.53849541021902
 30
0.0
 70
     8
  0
VERTEX
  5
BDC3
330
BD4E
100
AcDbEntity
  8
0
100
AcDbVertex
100
AcDb2dVertex
 10
11.21041541888852
 20
20.59373021432105
 30
0.0
 70
     8
  0
VERTEX
  5
BDC4
330
BD4E
100
AcDbEntity
  8
0
100
AcDbVertex
100
AcDb2dVertex
 10
11.16651700423934
 20
20.64937789385536
 30
0.0
 70
     8
  0
VERTEX
  5
BDC5
330
BD4E
100
AcDbEntity
  8
0
100
AcDbVertex
100
AcDb2dVertex
 10
11.11975210871268
 20
20.70528633668134
 30
0.0
 70
     8
  0
VERTEX
  5
BDC6
330
BD4E
100
AcDbEntity
  8
0
100
AcDbVertex
100
AcDb2dVertex
 10
11.07018587993528
 20
20.76130343065837
 30
0.0
 70
     8
  0
VERTEX
  5
BDC7
330
BD4E
100
AcDbEntity
  8
0
100
AcDbVertex
100
AcDb2dVertex
 10
11.01788346553386
 20
20.81727706364585
 30
0.0
 70
     8
  0
VERTEX
  5
BDC8
330
BD4E
100
AcDbEntity
  8
0
100
AcDbVertex
100
AcDb2dVertex
 10
10.96291001313515
 20
20.87305512350316
 30
0.0
 70
     8
  0
VERTEX
  5
BDC9
330
BD4E
100
AcDbEntity
  8
0
100
AcDbVertex
100
AcDb2dVertex
 10
10.90543562980738
 20
20.92852533699941
 30
0.0
 70
     8
  0
VERTEX
  5
BDCA
330
BD4E
100
AcDbEntity
  8
0
100
AcDbVertex
100
AcDb2dVertex
 10
10.84605026038478
 20
20.98373478654258
 30
0.0
 70
     8
  0
VERTEX
  5
BDCB
330
BD4E
100
AcDbEntity
  8
0
100
AcDbVertex
100
AcDb2dVertex
 10
10.7854488091431
 20
21.03877039345037
 30
0.0
 70
     8
  0
VERTEX
  5
BDCC
330
BD4E
100
AcDbEntity
  8
0
100
AcDbVertex
100
AcDb2dVertex
 10
10.72432618035808
 20
21.09371907904046
 30
0.0
 70
     8
  0
VERTEX
  5
BDCD
330
BD4E
100
AcDbEntity
  8
0
100
AcDbVertex
100
AcDb2dVertex
 10
10.66337727830547
 20
21.14866776463055
 30
0.0
 70
     8
  0
VERTEX
  5
BDCE
330
BD4E
100
AcDbEntity
  8
0
100
AcDbVertex
100
AcDb2dVertex
 10
10.60329700726102
 20
21.20370337153834
 30
0.0
 70
     8
  0
VERTEX
  5
BDCF
330
BD4E
100
AcDbEntity
  8
0
100
AcDbVertex
100
AcDb2dVertex
 10
10.54478027150046
 20
21.25891282108151
 30
0.0
 70
     8
  0
VERTEX
  5
BDD0
330
BD4E
100
AcDbEntity
  8
0
100
AcDbVertex
100
AcDb2dVertex
 10
10.48852197529954
 20
21.31438303457775
 30
0.0
 70
     8
  0
VERTEX
  5
BDD1
330
BD4E
100
AcDbEntity
  8
0
100
AcDbVertex
100
AcDb2dVertex
 10
10.43510120552069
 20
21.37013936410564
 30
0.0
 70
     8
  0
VERTEX
  5
BDD2
330
BD4E
100
AcDbEntity
  8
0
100
AcDbVertex
100
AcDb2dVertex
 10
10.38463377937308
 20
21.42596088478715
 30
0.0
 70
     8
  0
VERTEX
  5
BDD3
330
BD4E
100
AcDbEntity
  8
0
100
AcDbVertex
100
AcDb2dVertex
 10
10.33711969665255
 20
21.48156510250513
 30
0.0
 70
     8
  0
VERTEX
  5
BDD4
330
BD4E
100
AcDbEntity
  8
0
100
AcDbVertex
100
AcDb2dVertex
 10
10.29255895715498
 20
21.53666952314244
 30
0.0
 70
     8
  0
VERTEX
  5
BDD5
330
BD4E
100
AcDbEntity
  8
0
100
AcDbVertex
100
AcDb2dVertex
 10
10.25095156067621
 20
21.59099165258192
 30
0.0
 70
     8
  0
VERTEX
  5
BDD6
330
BD4E
100
AcDbEntity
  8
0
100
AcDbVertex
100
AcDb2dVertex
 10
10.21229750701209
 20
21.64424899670642
 30
0.0
 70
     8
  0
VERTEX
  5
BDD7
330
BD4E
100
AcDbEntity
  8
0
100
AcDbVertex
100
AcDb2dVertex
 10
10.17659679595849
 20
21.69615906139879
 30
0.0
 70
     8
  0
VERTEX
  5
BDD8
330
BD4E
100
AcDbEntity
  8
0
100
AcDbVertex
100
AcDb2dVertex
 10
10.14384942731126
 20
21.7464393525419
 30
0.0
 70
     8
  0
VERTEX
  5
BDD9
330
BD4E
100
AcDbEntity
  8
0
100
AcDbVertex
100
AcDb2dVertex
 10
10.11402282732507
 20
21.79481461951683
 30
0.0
 70
     8
  0
VERTEX
  5
BDDA
330
BD4E
100
AcDbEntity
  8
0
100
AcDbVertex
100
AcDb2dVertex
 10
10.08695412808995
 20
21.84103858569773
 30
0.0
 70
     8
  0
VERTEX
  5
BDDB
330
BD4E
100
AcDbEntity
  8
0
100
AcDbVertex
100
AcDb2dVertex
 10
10.06244788815473
 20
21.88487221795701
 30
0.0
 70
     8
  0
VERTEX
  5
BDDC
330
BD4E
100
AcDbEntity
  8
0
100
AcDbVertex
100
AcDb2dVertex
 10
10.04030866606824
 20
21.92607648316708
 30
0.0
 70
     8
  0
VERTEX
  5
BDDD
330
BD4E
100
AcDbEntity
  8
0
100
AcDbVertex
100
AcDb2dVertex
 10
10.02034102037935
 20
21.96441234820034
 30
0.0
 70
     8
  0
VERTEX
  5
BDDE
330
BD4E
100
AcDbEntity
  8
0
100
AcDbVertex
100
AcDb2dVertex
 10
10.00234950963686
 20
21.99964077992918
 30
0.0
 70
     8
  0
VERTEX
  5
BDDF
330
BD4E
100
AcDbEntity
  8
0
100
AcDbVertex
100
AcDb2dVertex
 10
9.986138692389646
 20
22.03152274522604
 30
0.0
 70
     8
  0
VERTEX
  5
BDE0
330
BD4E
100
AcDbEntity
  8
0
100
AcDbVertex
100
AcDb2dVertex
 10
9.971513127186526
 20
22.05981921096328
 30
0.0
 70
     8
  0
VERTEX
  5
BDE1
330
BD4E
100
AcDbEntity
  8
0
100
AcDbVertex
100
AcDb2dVertex
 10
9.958255656666745
 20
22.08437444352679
 30
0.0
 70
     8
  0
VERTEX
  5
BDE2
330
BD4E
100
AcDbEntity
  8
0
100
AcDbVertex
100
AcDb2dVertex
 10
9.946062259831149
 20
22.10536590735618
 30
0.0
 70
     8
  0
VERTEX
  5
BDE3
330
BD4E
100
AcDbEntity
  8
0
100
AcDbVertex
100
AcDb2dVertex
 10
9.934607199770978
 20
22.12305436640454
 30
0.0
 70
     8
  0
VERTEX
  5
BDE4
330
BD4E
100
AcDbEntity
  8
0
100
AcDbVertex
100
AcDb2dVertex
 10
9.923564739577477
 20
22.13770058462494
 30
0.0
 70
     8
  0
VERTEX
  5
BDE5
330
BD4E
100
AcDbEntity
  8
0
100
AcDbVertex
100
AcDb2dVertex
 10
9.91260914234189
 20
22.14956532597049
 30
0.0
 70
     8
  0
VERTEX
  5
BDE6
330
BD4E
100
AcDbEntity
  8
0
100
AcDbVertex
100
AcDb2dVertex
 10
9.901414671155459
 20
22.15890935439424
 30
0.0
 70
     8
  0
VERTEX
  5
BDE7
330
BD4E
100
AcDbEntity
  8
0
100
AcDbVertex
100
AcDb2dVertex
 10
9.88965558910943
 20
22.16599343384928
 30
0.0
 70
     8
  0
VERTEX
  5
BDE8
330
BD4E
100
AcDbEntity
  8
0
100
AcDbVertex
100
AcDb2dVertex
 10
9.877006159295044
 20
22.17107832828869
 30
0.0
 70
     8
  0
VERTEX
  5
BDE9
330
BD4E
100
AcDbEntity
  8
0
100
AcDbVertex
100
AcDb2dVertex
 10
9.863223888709717
 20
22.17439220603363
 30
0.0
 70
     8
  0
VERTEX
  5
BDEA
330
BD4E
100
AcDbEntity
  8
0
100
AcDbVertex
100
AcDb2dVertex
 10
9.848399259975538
 20
22.17603285287752
 30
0.0
 70
     8
  0
VERTEX
  5
BDEB
330
BD4E
100
AcDbEntity
  8
0
100
AcDbVertex
100
AcDb2dVertex
 10
9.832705999620776
 20
22.17606545898188
 30
0.0
 70
     8
  0
VERTEX
  5
BDEC
330
BD4E
100
AcDbEntity
  8
0
100
AcDbVertex
100
AcDb2dVertex
 10
9.816317834173688
 20
22.17455521450819
 30
0.0
 70
     8
  0
VERTEX
  5
BDED
330
BD4E
100
AcDbEntity
  8
0
100
AcDbVertex
100
AcDb2dVertex
 10
9.799408490162536
 20
22.17156730961794
 30
0.0
 70
     8
  0
VERTEX
  5
BDEE
330
BD4E
100
AcDbEntity
  8
0
100
AcDbVertex
100
AcDb2dVertex
 10
9.782151694115585
 20
22.16716693447266
 30
0.0
 70
     8
  0
VERTEX
  5
BDEF
330
BD4E
100
AcDbEntity
  8
0
100
AcDbVertex
100
AcDb2dVertex
 10
9.764721172561097
 20
22.16141927923383
 30
0.0
 70
     8
  0
VERTEX
  5
BDF0
330
BD4E
100
AcDbEntity
  8
0
100
AcDbVertex
100
AcDb2dVertex
 10
9.747290652027338
 20
22.15438953406296
 30
0.0
 70
     8
  0
VERTEX
  5
BDF1
330
BD4E
100
AcDbEntity
  8
0
100
AcDbVertex
100
AcDb2dVertex
 10
9.730004904587163
 20
22.14612840245573
 30
0.0
 70
     8
  0
VERTEX
  5
BDF2
330
BD4E
100
AcDbEntity
  8
0
100
AcDbVertex
100
AcDb2dVertex
 10
9.712892884491834
 20
22.1366286412446
 30
0.0
 70
     8
  0
VERTEX
  5
BDF3
330
BD4E
100
AcDbEntity
  8
0
100
AcDbVertex
100
AcDb2dVertex
 10
9.695954591537201
 20
22.12586852059621
 30
0.0
 70
     8
  0
VERTEX
  5
BDF4
330
BD4E
100
AcDbEntity
  8
0
100
AcDbVertex
100
AcDb2dVertex
 10
9.679190025519121
 20
22.11382631067718
 30
0.0
 70
     8
  0
VERTEX
  5
BDF5
330
BD4E
100
AcDbEntity
  8
0
100
AcDbVertex
100
AcDb2dVertex
 10
9.66259918623345
 20
22.10048028165417
 30
0.0
 70
     8
  0
VERTEX
  5
BDF6
330
BD4E
100
AcDbEntity
  8
0
100
AcDbVertex
100
AcDb2dVertex
 10
9.64618207347604
 20
22.0858087036938
 30
0.0
 70
     8
  0
VERTEX
  5
BDF7
330
BD4E
100
AcDbEntity
  8
0
100
AcDbVertex
100
AcDb2dVertex
 10
9.629938687042747
 20
22.06978984696273
 30
0.0
 70
     8
  0
VERTEX
  5
BDF8
330
BD4E
100
AcDbEntity
  8
0
100
AcDbVertex
100
AcDb2dVertex
 10
9.613869026729426
 20
22.05240198162758
 30
0.0
 70
     8
  0
VERTEX
  5
BDF9
330
BD4E
100
AcDbEntity
  8
0
100
AcDbVertex
100
AcDb2dVertex
 10
9.597980330945786
 20
22.03365959490535
 30
0.0
 70
     8
  0
VERTEX
  5
BDFA
330
BD4E
100
AcDbEntity
  8
0
100
AcDbVertex
100
AcDb2dVertex
 10
9.582308792556924
 20
22.01372204221444
 30
0.0
 70
     8
  0
VERTEX
  5
BDFB
330
BD4E
100
AcDbEntity
  8
0
100
AcDbVertex
100
AcDb2dVertex
 10
9.566897843041807
 20
21.99278489602358
 30
0.0
 70
     8
  0
VERTEX
  5
BDFC
330
BD4E
100
AcDbEntity
  8
0
100
AcDbVertex
100
AcDb2dVertex
 10
9.551790913879386
 20
21.97104372880154
 30
0.0
 70
     8
  0
VERTEX
  5
BDFD
330
BD4E
100
AcDbEntity
  8
0
100
AcDbVertex
100
AcDb2dVertex
 10
9.537031436548618
 20
21.94869411301706
 30
0.0
 70
     8
  0
VERTEX
  5
BDFE
330
BD4E
100
AcDbEntity
  8
0
100
AcDbVertex
100
AcDb2dVertex
 10
9.522662842528463
 20
21.92593162113888
 30
0.0
 70
     8
  0
VERTEX
  5
BDFF
330
BD4E
100
AcDbEntity
  8
0
100
AcDbVertex
100
AcDb2dVertex
 10
9.508728563297877
 20
21.90295182563577
 30
0.0
 70
     8
  0
VERTEX
  5
BE00
330
BD4E
100
AcDbEntity
  8
0
100
AcDbVertex
100
AcDb2dVertex
 10
9.495272030335817
 20
21.87995029897646
 30
0.0
 70
     8
  0
VERTEX
  5
BE01
330
BD4E
100
AcDbEntity
  8
0
100
AcDbVertex
100
AcDb2dVertex
 10
9.482304101477993
 20
21.85714072232024
 30
0.0
 70
     8
  0
VERTEX
  5
BE02
330
BD4E
100
AcDbEntity
  8
0
100
AcDbVertex
100
AcDb2dVertex
 10
9.469705339987157
 20
21.83480921158849
 30
0.0
 70
     8
  0
VERTEX
  5
BE03
330
BD4E
100
AcDbEntity
  8
0
100
AcDbVertex
100
AcDb2dVertex
 10
9.457323735482814
 20
21.81325999139317
 30
0.0
 70
     8
  0
VERTEX
  5
BE04
330
BD4E
100
AcDbEntity
  8
0
100
AcDbVertex
100
AcDb2dVertex
 10
9.445007277584473
 20
21.79279728634618
 30
0.0
 70
     8
  0
VERTEX
  5
BE05
330
BD4E
100
AcDbEntity
  8
0
100
AcDbVertex
100
AcDb2dVertex
 10
9.432603955911636
 20
21.77372532105945
 30
0.0
 70
     8
  0
VERTEX
  5
BE06
330
BD4E
100
AcDbEntity
  8
0
100
AcDbVertex
100
AcDb2dVertex
 10
9.419961760083809
 20
21.75634832014492
 30
0.0
 70
     8
  0
VERTEX
  5
BE07
330
BD4E
100
AcDbEntity
  8
0
100
AcDbVertex
100
AcDb2dVertex
 10
9.406928679720502
 20
21.74097050821451
 30
0.0
 70
     8
  0
VERTEX
  5
BE08
330
BD4E
100
AcDbEntity
  8
0
100
AcDbVertex
100
AcDb2dVertex
 10
9.393352704441221
 20
21.72789610988015
 30
0.0
 70
     8
  0
VERTEX
  5
BE09
330
BD4E
100
AcDbEntity
  8
0
100
AcDbVertex
100
AcDb2dVertex
 10
9.379107158996932
 20
21.71733880668694
 30
0.0
 70
     8
  0
VERTEX
  5
BE0A
330
BD4E
100
AcDbEntity
  8
0
100
AcDbVertex
100
AcDb2dVertex
 10
9.364166708664464
 20
21.70915010791271
 30
0.0
 70
     8
  0
VERTEX
  5
BE0B
330
BD4E
100
AcDbEntity
  8
0
100
AcDbVertex
100
AcDb2dVertex
 10
9.348531353852107
 20
21.70309097976843
 30
0.0
 70
     8
  0
VERTEX
  5
BE0C
330
BD4E
100
AcDbEntity
  8
0
100
AcDbVertex
100
AcDb2dVertex
 10
9.332201094968153
 20
21.69892238846509
 30
0.0
 70
     8
  0
VERTEX
  5
BE0D
330
BD4E
100
AcDbEntity
  8
0
100
AcDbVertex
100
AcDb2dVertex
 10
9.315175932420887
 20
21.69640530021369
 30
0.0
 70
     8
  0
VERTEX
  5
BE0E
330
BD4E
100
AcDbEntity
  8
0
100
AcDbVertex
100
AcDb2dVertex
 10
9.297455866618605
 20
21.6953006812252
 30
0.0
 70
     8
  0
VERTEX
  5
BE0F
330
BD4E
100
AcDbEntity
  8
0
100
AcDbVertex
100
AcDb2dVertex
 10
9.279040897969593
 20
21.69536949771063
 30
0.0
 70
     8
  0
VERTEX
  5
BE10
330
BD4E
100
AcDbEntity
  8
0
100
AcDbVertex
100
AcDb2dVertex
 10
9.259931026882147
 20
21.69637271588095
 30
0.0
 70
     8
  0
VERTEX
  5
BE11
330
BD4E
100
AcDbEntity
  8
0
100
AcDbVertex
100
AcDb2dVertex
 10
9.240187781591002
 20
21.69813287124142
 30
0.0
 70
     8
  0
VERTEX
  5
BE12
330
BD4E
100
AcDbEntity
  8
0
100
AcDbVertex
100
AcDb2dVertex
 10
9.220118801636695
 20
21.70071877647431
 30
0.0
 70
     8
  0
VERTEX
  5
BE13
330
BD4E
100
AcDbEntity
  8
0
100
AcDbVertex
100
AcDb2dVertex
 10
9.200093254386219
 20
21.70426081355616
 30
0.0
 70
     8
  0
VERTEX
  5
BE14
330
BD4E
100
AcDbEntity
  8
0
100
AcDbVertex
100
AcDb2dVertex
 10
9.180480307206558
 20
21.70888936446353
 30
0.0
 70
     8
  0
VERTEX
  5
BE15
330
BD4E
100
AcDbEntity
  8
0
100
AcDbVertex
100
AcDb2dVertex
 10
9.161649127464698
 20
21.71473481117295
 30
0.0
 70
     8
  0
VERTEX
  5
BE16
330
BD4E
100
AcDbEntity
  8
0
100
AcDbVertex
100
AcDb2dVertex
 10
9.143968882527628
 20
21.72192753566094
 30
0.0
 70
     8
  0
VERTEX
  5
BE17
330
BD4E
100
AcDbEntity
  8
0
100
AcDbVertex
100
AcDb2dVertex
 10
9.127808739762336
 20
21.73059791990407
 30
0.0
 70
     8
  0
VERTEX
  5
BE18
330
BD4E
100
AcDbEntity
  8
0
100
AcDbVertex
100
AcDb2dVertex
 10
9.113537866535807
 20
21.74087634587887
 30
0.0
 70
     8
  0
VERTEX
  5
BE19
330
BD4E
100
AcDbEntity
  8
0
100
AcDbVertex
100
AcDb2dVertex
 10
9.101456663808756
 20
21.75529439379388
 30
0.0
 70
     8
  0
VERTEX
  5
BE1A
330
BD4E
100
AcDbEntity
  8
0
100
AcDbVertex
100
AcDb2dVertex
 10
9.091590466916791
 20
21.78598843678566
 30
0.0
 70
     8
  0
VERTEX
  5
BE1B
330
BD4E
100
AcDbEntity
  8
0
100
AcDbVertex
100
AcDb2dVertex
 10
9.083895844789244
 20
21.84749604622275
 30
0.0
 70
     8
  0
VERTEX
  5
BE1C
330
BD4E
100
AcDbEntity
  8
0
100
AcDbVertex
100
AcDb2dVertex
 10
9.078329366355449
 20
21.95435479347373
 30
0.0
 70
     8
  0
VERTEX
  5
BE1D
330
BD4E
100
AcDbEntity
  8
0
100
AcDbVertex
100
AcDb2dVertex
 10
9.074847600544742
 20
22.12110224990714
 30
0.0
 70
     8
  0
VERTEX
  5
BE1E
330
BD4E
100
AcDbEntity
  8
0
100
AcDbVertex
100
AcDb2dVertex
 10
9.073407116286455
 20
22.36227598689155
 30
0.0
 70
     8
  0
VERTEX
  5
BE1F
330
BD4E
100
AcDbEntity
  8
0
100
AcDbVertex
100
AcDb2dVertex
 10
9.073964482509921
 20
22.6924135757955
 30
0.0
 70
     8
  0
VERTEX
  5
BE20
330
BD4E
100
AcDbEntity
  8
0
100
AcDbVertex
100
AcDb2dVertex
 10
9.076476268144475
 20
23.12605258798756
 30
0.0
 70
     8
  0
VERTEX
  5
BE21
330
BD4E
100
AcDbEntity
  8
0
100
AcDbVertex
100
AcDb2dVertex
 10
9.080851991214482
 20
23.67036402280739
 30
0.0
 70
     8
  0
VERTEX
  5
BE22
330
BD4E
100
AcDbEntity
  8
0
100
AcDbVertex
100
AcDb2dVertex
 10
9.086812966124446
 20
24.30305259147912
 30
0.0
 70
     8
  0
VERTEX
  5
BE23
330
BD4E
100
AcDbEntity
  8
0
100
AcDbVertex
100
AcDb2dVertex
 10
9.094033456373894
 20
24.99445643319795
 30
0.0
 70
     8
  0
VERTEX
  5
BE24
330
BD4E
100
AcDbEntity
  8
0
100
AcDbVertex
100
AcDb2dVertex
 10
9.102187725462366
 20
25.71491368715912
 30
0.0
 70
     8
  0
VERTEX
  5
BE25
330
BD4E
100
AcDbEntity
  8
0
100
AcDbVertex
100
AcDb2dVertex
 10
9.110950036889397
 20
26.43476249255785
 30
0.0
 70
     8
  0
VERTEX
  5
BE26
330
BD4E
100
AcDbEntity
  8
0
100
AcDbVertex
100
AcDb2dVertex
 10
9.119994654154515
 20
27.12434098858937
 30
0.0
 70
     8
  0
VERTEX
  5
BE27
330
BD4E
100
AcDbEntity
  8
0
100
AcDbVertex
100
AcDb2dVertex
 10
9.128995840757257
 20
27.7539873144489
 30
0.0
 70
     8
  0
VERTEX
  5
BE28
330
BD4E
100
AcDbEntity
  8
0
100
AcDbVertex
100
AcDb2dVertex
 10
9.145040165939118
 20
29.56610245500144
 30
0.0
 70
    16
  0
VERTEX
  5
BE29
330
BD4E
100
AcDbEntity
  8
0
100
AcDbVertex
100
AcDb2dVertex
 10
9.189514104913174
 20
29.63285785766767
 30
0.0
 70
    16
  0
VERTEX
  5
BE2A
330
BD4E
100
AcDbEntity
  8
0
100
AcDbVertex
100
AcDb2dVertex
 10
9.322935712790695
 20
29.67736157232682
 30
0.0
 70
    16
  0
VERTEX
  5
BE2B
330
BD4E
100
AcDbEntity
  8
0
100
AcDbVertex
100
AcDb2dVertex
 10
9.334054171403639
 20
29.56610245500144
 30
0.0
 70
    16
  0
VERTEX
  5
BE2C
330
BD4E
100
AcDbEntity
  8
0
100
AcDbVertex
100
AcDb2dVertex
 10
9.400765027603567
 20
28.76503660707149
 30
0.0
 70
    16
  0
VERTEX
  5
BE2D
330
BD4E
100
AcDbEntity
  8
0
100
AcDbVertex
100
AcDb2dVertex
 10
9.667608243358609
 20
26.53985392191845
 30
0.0
 70
    16
  0
VERTEX
  5
BE2E
330
BD4E
100
AcDbEntity
  8
0
100
AcDbVertex
100
AcDb2dVertex
 10
10.20129488391336
 20
24.32579708076891
 30
0.0
 70
    16
  0
VERTEX
  5
BE2F
330
BD4E
100
AcDbEntity
  8
0
100
AcDbVertex
100
AcDb2dVertex
 10
10.73498141994577
 20
22.9128059182268
 30
0.0
 70
    16
  0
VERTEX
  5
BE30
330
BD4E
100
AcDbEntity
  8
0
100
AcDbVertex
100
AcDb2dVertex
 10
11.31314179042991
 20
21.46643722367404
 30
0.0
 70
    16
  0
VERTEX
  5
BE31
330
BD4E
100
AcDbEntity
  8
0
100
AcDbVertex
100
AcDb2dVertex
 10
11.62445894515901
 20
20.69874907707726
 30
0.0
 70
    16
  0
VERTEX
  5
BE32
330
BD4E
100
AcDbEntity
  8
0
100
AcDbVertex
100
AcDb2dVertex
 10
11.75788065755887
 20
20.1869570357869
 30
0.0
 70
    16
  0
VERTEX
  5
BE33
330
BD4E
100
AcDbEntity
  8
0
100
AcDbVertex
100
AcDb2dVertex
 10
11.74676219894594
 20
20.03119420380233
 30
0.0
 70
    16
  0
VERTEX
  5
BE34
330
BD4E
100
AcDbEntity
  8
0
100
AcDbVertex
100
AcDb2dVertex
 10
11.65781442552014
 20
19.96443880113609
 30
0.0
 70
    16
  0
VERTEX
  5
BE35
330
BD4E
100
AcDbEntity
  8
0
100
AcDbVertex
100
AcDb2dVertex
 10
11.52439271312029
 20
20.02006835979879
 30
0.0
 70
    16
  0
VERTEX
  5
BE36
330
BD4E
100
AcDbEntity
  8
0
100
AcDbVertex
100
AcDb2dVertex
 10
11.35761572940397
 20
20.42060128376376
 30
0.0
 70
    16
  0
VERTEX
  5
BE37
330
BD4E
100
AcDbEntity
  8
0
100
AcDbVertex
100
AcDb2dVertex
 10
10.99070617708787
 20
20.87676376639143
 30
0.0
 70
    16
  0
VERTEX
  5
BE38
330
BD4E
100
AcDbEntity
  8
0
100
AcDbVertex
100
AcDb2dVertex
 10
10.45701964105545
 20
21.31067439168949
 30
0.0
 70
    16
  0
VERTEX
  5
BE39
330
BD4E
100
AcDbEntity
  8
0
100
AcDbVertex
100
AcDb2dVertex
 10
10.11234711048756
 20
21.76683687431713
 30
0.0
 70
    16
  0
VERTEX
  5
BE3A
330
BD4E
100
AcDbEntity
  8
0
100
AcDbVertex
100
AcDb2dVertex
 10
9.956688480861837
 20
22.10061422629335
 30
0.0
 70
    16
  0
VERTEX
  5
BE3B
330
BD4E
100
AcDbEntity
  8
0
100
AcDbVertex
100
AcDb2dVertex
 10
9.889977729184241
 20
22.18962148628918
 30
0.0
 70
    16
  0
VERTEX
  5
BE3C
330
BD4E
100
AcDbEntity
  8
0
100
AcDbVertex
100
AcDb2dVertex
 10
9.745437558171461
 20
22.1673697982821
 30
0.0
 70
    16
  0
VERTEX
  5
BE3D
330
BD4E
100
AcDbEntity
  8
0
100
AcDbVertex
100
AcDb2dVertex
 10
9.61201595029394
 20
22.06723652496021
 30
0.0
 70
    16
  0
VERTEX
  5
BE3E
330
BD4E
100
AcDbEntity
  8
0
100
AcDbVertex
100
AcDb2dVertex
 10
9.489712801029346
 20
21.87809599164255
 30
0.0
 70
    16
  0
VERTEX
  5
BE3F
330
BD4E
100
AcDbEntity
  8
0
100
AcDbVertex
100
AcDb2dVertex
 10
9.400765027603567
 20
21.70008130232838
 30
0.0
 70
    16
  0
VERTEX
  5
BE40
330
BD4E
100
AcDbEntity
  8
0
100
AcDbVertex
100
AcDb2dVertex
 10
9.267343315203714
 20
21.68895545832484
 30
0.0
 70
    16
  0
VERTEX
  5
BE41
330
BD4E
100
AcDbEntity
  8
0
100
AcDbVertex
100
AcDb2dVertex
 10
9.089447872874451
 20
21.72233315965797
 30
0.0
 70
    16
  0
SEQEND
  5
BE42
330
BD4E
100
AcDbEntity
  8
0
  0
POLYLINE
  5
BE43
330
18
100
AcDbEntity
  8
0
100
AcDb2dPolyline
 66
     1
 10
0.0
 20
0.0
 30
0.0
 70
     5
 75
     6
  0
VERTEX
  5
BE44
330
BE43
100
AcDbEntity
  8
0
100
AcDbVertex
100
AcDb2dVertex
 10
9.051288964194229
 20
15.8846907909845
 30
0.0
 70
    16
  0
VERTEX
  5
BE45
330
BE43
100
AcDbEntity
  8
0
100
AcDbVertex
100
AcDb2dVertex
 10
9.052347096028769
 20
20.00028725664984
 30
0.0
 70
     8
  0
VERTEX
  5
BE46
330
BE43
100
AcDbEntity
  8
0
100
AcDbVertex
100
AcDb2dVertex
 10
9.054690630274789
 20
20.2820673383724
 30
0.0
 70
     8
  0
VERTEX
  5
BE47
330
BE43
100
AcDbEntity
  8
0
100
AcDbVertex
100
AcDb2dVertex
 10
9.057802941588313
 20
20.49895391594531
 30
0.0
 70
     8
  0
VERTEX
  5
BE48
330
BE43
100
AcDbEntity
  8
0
100
AcDbVertex
100
AcDb2dVertex
 10
9.061758427618357
 20
20.66000478270578
 30
0.0
 70
     8
  0
VERTEX
  5
BE49
330
BE43
100
AcDbEntity
  8
0
100
AcDbVertex
100
AcDb2dVertex
 10
9.066631486013946
 20
20.77427773199102
 30
0.0
 70
     8
  0
VERTEX
  5
BE4A
330
BE43
100
AcDbEntity
  8
0
100
AcDbVertex
100
AcDb2dVertex
 10
9.072496514424095
 20
20.85083055713826
 30
0.0
 70
     8
  0
VERTEX
  5
BE4B
330
BE43
100
AcDbEntity
  8
0
100
AcDbVertex
100
AcDb2dVertex
 10
9.079427910497827
 20
20.89872105148471
 30
0.0
 70
     8
  0
VERTEX
  5
BE4C
330
BE43
100
AcDbEntity
  8
0
100
AcDbVertex
100
AcDb2dVertex
 10
9.087500071884159
 20
20.92700700836761
 30
0.0
 70
     8
  0
VERTEX
  5
BE4D
330
BE43
100
AcDbEntity
  8
0
100
AcDbVertex
100
AcDb2dVertex
 10
9.096787396232111
 20
20.94474622112416
 30
0.0
 70
     8
  0
VERTEX
  5
BE4E
330
BE43
100
AcDbEntity
  8
0
100
AcDbVertex
100
AcDb2dVertex
 10
9.107322949174813
 20
20.95948891878611
 30
0.0
 70
     8
  0
VERTEX
  5
BE4F
330
BE43
100
AcDbEntity
  8
0
100
AcDbVertex
100
AcDb2dVertex
 10
9.118974468281821
 20
20.97275507316329
 30
0.0
 70
     8
  0
VERTEX
  5
BE50
330
BE43
100
AcDbEntity
  8
0
100
AcDbVertex
100
AcDb2dVertex
 10
9.131568359106813
 20
20.98455709176003
 30
0.0
 70
     8
  0
VERTEX
  5
BE51
330
BE43
100
AcDbEntity
  8
0
100
AcDbVertex
100
AcDb2dVertex
 10
9.144931027203449
 20
20.9949073820807
 30
0.0
 70
     8
  0
VERTEX
  5
BE52
330
BE43
100
AcDbEntity
  8
0
100
AcDbVertex
100
AcDb2dVertex
 10
9.158888878125404
 20
21.00381835162961
 30
0.0
 70
     8
  0
VERTEX
  5
BE53
330
BE43
100
AcDbEntity
  8
0
100
AcDbVertex
100
AcDb2dVertex
 10
9.173268317426346
 20
21.01130240791114
 30
0.0
 70
     8
  0
VERTEX
  5
BE54
330
BE43
100
AcDbEntity
  8
0
100
AcDbVertex
100
AcDb2dVertex
 10
9.187895750659945
 20
21.01737195842963
 30
0.0
 70
     8
  0
VERTEX
  5
BE55
330
BE43
100
AcDbEntity
  8
0
100
AcDbVertex
100
AcDb2dVertex
 10
9.202597583379869
 20
21.02203941068941
 30
0.0
 70
     8
  0
VERTEX
  5
BE56
330
BE43
100
AcDbEntity
  8
0
100
AcDbVertex
100
AcDb2dVertex
 10
9.217220887062675
 20
21.02533578427812
 30
0.0
 70
     8
  0
VERTEX
  5
BE57
330
BE43
100
AcDbEntity
  8
0
100
AcDbVertex
100
AcDb2dVertex
 10
9.231695396876455
 20
21.02736654711655
 30
0.0
 70
     8
  0
VERTEX
  5
BE58
330
BE43
100
AcDbEntity
  8
0
100
AcDbVertex
100
AcDb2dVertex
 10
9.245971513912197
 20
21.02825577920879
 30
0.0
 70
     8
  0
VERTEX
  5
BE59
330
BE43
100
AcDbEntity
  8
0
100
AcDbVertex
100
AcDb2dVertex
 10
9.259999639260877
 20
21.02812756055891
 30
0.0
 70
     8
  0
VERTEX
  5
BE5A
330
BE43
100
AcDbEntity
  8
0
100
AcDbVertex
100
AcDb2dVertex
 10
9.273730174013481
 20
21.02710597117099
 30
0.0
 70
     8
  0
VERTEX
  5
BE5B
330
BE43
100
AcDbEntity
  8
0
100
AcDbVertex
100
AcDb2dVertex
 10
9.287113519260985
 20
21.02531509104911
 30
0.0
 70
     8
  0
VERTEX
  5
BE5C
330
BE43
100
AcDbEntity
  8
0
100
AcDbVertex
100
AcDb2dVertex
 10
9.300100076094379
 20
21.02287900019735
 30
0.0
 70
     8
  0
VERTEX
  5
BE5D
330
BE43
100
AcDbEntity
  8
0
100
AcDbVertex
100
AcDb2dVertex
 10
9.312640245604638
 20
21.01992177861978
 30
0.0
 70
     8
  0
VERTEX
  5
BE5E
330
BE43
100
AcDbEntity
  8
0
100
AcDbVertex
100
AcDb2dVertex
 10
9.324680295725386
 20
21.0165240782915
 30
0.0
 70
     8
  0
VERTEX
  5
BE5F
330
BE43
100
AcDbEntity
  8
0
100
AcDbVertex
100
AcDb2dVertex
 10
9.336149961760819
 20
21.01259283907166
 30
0.0
 70
     8
  0
VERTEX
  5
BE60
330
BE43
100
AcDbEntity
  8
0
100
AcDbVertex
100
AcDb2dVertex
 10
9.34697484585777
 20
21.00799157279042
 30
0.0
 70
     8
  0
VERTEX
  5
BE61
330
BE43
100
AcDbEntity
  8
0
100
AcDbVertex
100
AcDb2dVertex
 10
9.357080550163075
 20
21.00258379127793
 30
0.0
 70
     8
  0
VERTEX
  5
BE62
330
BE43
100
AcDbEntity
  8
0
100
AcDbVertex
100
AcDb2dVertex
 10
9.36639267682357
 20
20.99623300636435
 30
0.0
 70
     8
  0
VERTEX
  5
BE63
330
BE43
100
AcDbEntity
  8
0
100
AcDbVertex
100
AcDb2dVertex
 10
9.374836827986086
 20
20.98880272987984
 30
0.0
 70
     8
  0
VERTEX
  5
BE64
330
BE43
100
AcDbEntity
  8
0
100
AcDbVertex
100
AcDb2dVertex
 10
9.382338605797466
 20
20.98015647365457
 30
0.0
 70
     8
  0
VERTEX
  5
BE65
330
BE43
100
AcDbEntity
  8
0
100
AcDbVertex
100
AcDb2dVertex
 10
9.388823612404538
 20
20.97015774951869
 30
0.0
 70
     8
  0
VERTEX
  5
BE66
330
BE43
100
AcDbEntity
  8
0
100
AcDbVertex
100
AcDb2dVertex
 10
9.394271181748324
 20
20.95870108938605
 30
0.0
 70
     8
  0
VERTEX
  5
BE67
330
BE43
100
AcDbEntity
  8
0
100
AcDbVertex
100
AcDb2dVertex
 10
9.39887557494657
 20
20.9458051055053
 30
0.0
 70
     8
  0
VERTEX
  5
BE68
330
BE43
100
AcDbEntity
  8
0
100
AcDbVertex
100
AcDb2dVertex
 10
9.402884784911208
 20
20.93151943020878
 30
0.0
 70
     8
  0
VERTEX
  5
BE69
330
BE43
100
AcDbEntity
  8
0
100
AcDbVertex
100
AcDb2dVertex
 10
9.406546804554169
 20
20.91589369582882
 30
0.0
 70
     8
  0
VERTEX
  5
BE6A
330
BE43
100
AcDbEntity
  8
0
100
AcDbVertex
100
AcDb2dVertex
 10
9.410109626787383
 20
20.89897753469777
 30
0.0
 70
     8
  0
VERTEX
  5
BE6B
330
BE43
100
AcDbEntity
  8
0
100
AcDbVertex
100
AcDb2dVertex
 10
9.413821244522781
 20
20.88082057914798
 30
0.0
 70
     8
  0
VERTEX
  5
BE6C
330
BE43
100
AcDbEntity
  8
0
100
AcDbVertex
100
AcDb2dVertex
 10
9.417929650672293
 20
20.86147246151176
 30
0.0
 70
     8
  0
VERTEX
  5
BE6D
330
BE43
100
AcDbEntity
  8
0
100
AcDbVertex
100
AcDb2dVertex
 10
9.422682838147855
 20
20.84098281412147
 30
0.0
 70
     8
  0
VERTEX
  5
BE6E
330
BE43
100
AcDbEntity
  8
0
100
AcDbVertex
100
AcDb2dVertex
 10
9.428281267888303
 20
20.81943642506258
 30
0.0
 70
     8
  0
VERTEX
  5
BE6F
330
BE43
100
AcDbEntity
  8
0
100
AcDbVertex
100
AcDb2dVertex
 10
9.43473527294015
 20
20.79705870543304
 30
0.0
 70
     8
  0
VERTEX
  5
BE70
330
BE43
100
AcDbEntity
  8
0
100
AcDbVertex
100
AcDb2dVertex
 10
9.442007654376807
 20
20.77411022208394
 30
0.0
 70
     8
  0
VERTEX
  5
BE71
330
BE43
100
AcDbEntity
  8
0
100
AcDbVertex
100
AcDb2dVertex
 10
9.450061213271693
 20
20.75085154186637
 30
0.0
 70
     8
  0
VERTEX
  5
BE72
330
BE43
100
AcDbEntity
  8
0
100
AcDbVertex
100
AcDb2dVertex
 10
9.458858750698226
 20
20.72754323163141
 30
0.0
 70
     8
  0
VERTEX
  5
BE73
330
BE43
100
AcDbEntity
  8
0
100
AcDbVertex
100
AcDb2dVertex
 10
9.468363067729825
 20
20.70444585823016
 30
0.0
 70
     8
  0
VERTEX
  5
BE74
330
BE43
100
AcDbEntity
  8
0
100
AcDbVertex
100
AcDb2dVertex
 10
9.478536965439907
 20
20.6818199885137
 30
0.0
 70
     8
  0
VERTEX
  5
BE75
330
BE43
100
AcDbEntity
  8
0
100
AcDbVertex
100
AcDb2dVertex
 10
9.489343244901888
 20
20.65992618933313
 30
0.0
 70
     8
  0
VERTEX
  5
BE76
330
BE43
100
AcDbEntity
  8
0
100
AcDbVertex
100
AcDb2dVertex
 10
9.500715774713418
 20
20.63897953164826
 30
0.0
 70
     8
  0
VERTEX
  5
BE77
330
BE43
100
AcDbEntity
  8
0
100
AcDbVertex
100
AcDb2dVertex
 10
9.51247269356906
 20
20.61901310285388
 30
0.0
 70
     8
  0
VERTEX
  5
BE78
330
BE43
100
AcDbEntity
  8
0
100
AcDbVertex
100
AcDb2dVertex
 10
9.524403207687617
 20
20.60001449445353
 30
0.0
 70
     8
  0
VERTEX
  5
BE79
330
BE43
100
AcDbEntity
  8
0
100
AcDbVertex
100
AcDb2dVertex
 10
9.536296523287878
 20
20.58197129795074
 30
0.0
 70
     8
  0
VERTEX
  5
BE7A
330
BE43
100
AcDbEntity
  8
0
100
AcDbVertex
100
AcDb2dVertex
 10
9.547941846588647
 20
20.56487110484904
 30
0.0
 70
     8
  0
VERTEX
  5
BE7B
330
BE43
100
AcDbEntity
  8
0
100
AcDbVertex
100
AcDb2dVertex
 10
9.559128383808713
 20
20.54870150665196
 30
0.0
 70
     8
  0
VERTEX
  5
BE7C
330
BE43
100
AcDbEntity
  8
0
100
AcDbVertex
100
AcDb2dVertex
 10
9.569645341166882
 20
20.53345009486302
 30
0.0
 70
     8
  0
VERTEX
  5
BE7D
330
BE43
100
AcDbEntity
  8
0
100
AcDbVertex
100
AcDb2dVertex
 10
9.579281924881945
 20
20.51910446098576
 30
0.0
 70
     8
  0
VERTEX
  5
BE7E
330
BE43
100
AcDbEntity
  8
0
100
AcDbVertex
100
AcDb2dVertex
 10
9.58785834024416
 20
20.50562738079849
 30
0.0
 70
     8
  0
VERTEX
  5
BE7F
330
BE43
100
AcDbEntity
  8
0
100
AcDbVertex
100
AcDb2dVertex
 10
9.595318788829629
 20
20.49288236717859
 30
0.0
 70
     8
  0
VERTEX
  5
BE80
330
BE43
100
AcDbEntity
  8
0
100
AcDbVertex
100
AcDb2dVertex
 10
9.601638471285918
 20
20.48070811727825
 30
0.0
 70
     8
  0
VERTEX
  5
BE81
330
BE43
100
AcDbEntity
  8
0
100
AcDbVertex
100
AcDb2dVertex
 10
9.606792588260589
 20
20.46894332824965
 30
0.0
 70
     8
  0
VERTEX
  5
BE82
330
BE43
100
AcDbEntity
  8
0
100
AcDbVertex
100
AcDb2dVertex
 10
9.610756340401204
 20
20.45742669724496
 30
0.0
 70
     8
  0
VERTEX
  5
BE83
330
BE43
100
AcDbEntity
  8
0
100
AcDbVertex
100
AcDb2dVertex
 10
9.613504928355327
 20
20.44599692141636
 30
0.0
 70
     8
  0
VERTEX
  5
BE84
330
BE43
100
AcDbEntity
  8
0
100
AcDbVertex
100
AcDb2dVertex
 10
9.615013552770525
 20
20.43449269791601
 30
0.0
 70
     8
  0
VERTEX
  5
BE85
330
BE43
100
AcDbEntity
  8
0
100
AcDbVertex
100
AcDb2dVertex
 10
9.615257414294356
 20
20.4227527238961
 30
0.0
 70
     8
  0
VERTEX
  5
BE86
330
BE43
100
AcDbEntity
  8
0
100
AcDbVertex
100
AcDb2dVertex
 10
9.614205513787316
 20
20.41062810434385
 30
0.0
 70
     8
  0
VERTEX
  5
BE87
330
BE43
100
AcDbEntity
  8
0
100
AcDbVertex
100
AcDb2dVertex
 10
9.611802052961598
 20
20.39801957558672
 30
0.0
 70
     8
  0
VERTEX
  5
BE88
330
BE43
100
AcDbEntity
  8
0
100
AcDbVertex
100
AcDb2dVertex
 10
9.60798503374233
 20
20.3848402817872
 30
0.0
 70
     8
  0
VERTEX
  5
BE89
330
BE43
100
AcDbEntity
  8
0
100
AcDbVertex
100
AcDb2dVertex
 10
9.602692458054642
 20
20.37100336710778
 30
0.0
 70
     8
  0
VERTEX
  5
BE8A
330
BE43
100
AcDbEntity
  8
0
100
AcDbVertex
100
AcDb2dVertex
 10
9.595862327823658
 20
20.35642197571097
 30
0.0
 70
     8
  0
VERTEX
  5
BE8B
330
BE43
100
AcDbEntity
  8
0
100
AcDbVertex
100
AcDb2dVertex
 10
9.5874326449745
 20
20.34100925175927
 30
0.0
 70
     8
  0
VERTEX
  5
BE8C
330
BE43
100
AcDbEntity
  8
0
100
AcDbVertex
100
AcDb2dVertex
 10
9.577341411432298
 20
20.32467833941517
 30
0.0
 70
     8
  0
VERTEX
  5
BE8D
330
BE43
100
AcDbEntity
  8
0
100
AcDbVertex
100
AcDb2dVertex
 10
9.56552662912218
 20
20.30734238284117
 30
0.0
 70
     8
  0
VERTEX
  5
BE8E
330
BE43
100
AcDbEntity
  8
0
100
AcDbVertex
100
AcDb2dVertex
 10
9.551994497899263
 20
20.28890832233737
 30
0.0
 70
     8
  0
VERTEX
  5
BE8F
330
BE43
100
AcDbEntity
  8
0
100
AcDbVertex
100
AcDb2dVertex
 10
9.537024009338651
 20
20.26925828275421
 30
0.0
 70
     8
  0
VERTEX
  5
BE90
330
BE43
100
AcDbEntity
  8
0
100
AcDbVertex
100
AcDb2dVertex
 10
9.52096235294544
 20
20.24826818507975
 30
0.0
 70
     8
  0
VERTEX
  5
BE91
330
BE43
100
AcDbEntity
  8
0
100
AcDbVertex
100
AcDb2dVertex
 10
9.504156718224727
 20
20.22581395030202
 30
0.0
 70
     8
  0
VERTEX
  5
BE92
330
BE43
100
AcDbEntity
  8
0
100
AcDbVertex
100
AcDb2dVertex
 10
9.486954294681609
 20
20.20177149940908
 30
0.0
 70
     8
  0
VERTEX
  5
BE93
330
BE43
100
AcDbEntity
  8
0
100
AcDbVertex
100
AcDb2dVertex
 10
9.469702271821184
 20
20.17601675338896
 30
0.0
 70
     8
  0
VERTEX
  5
BE94
330
BE43
100
AcDbEntity
  8
0
100
AcDbVertex
100
AcDb2dVertex
 10
9.452747839148544
 20
20.14842563322972
 30
0.0
 70
     8
  0
VERTEX
  5
BE95
330
BE43
100
AcDbEntity
  8
0
100
AcDbVertex
100
AcDb2dVertex
 10
9.436438186168791
 20
20.11887405991939
 30
0.0
 70
     8
  0
VERTEX
  5
BE96
330
BE43
100
AcDbEntity
  8
0
100
AcDbVertex
100
AcDb2dVertex
 10
9.421077103775436
 20
20.08732274192519
 30
0.0
 70
     8
  0
VERTEX
  5
BE97
330
BE43
100
AcDbEntity
  8
0
100
AcDbVertex
100
AcDb2dVertex
 10
9.406794788415661
 20
20.054071537631
 30
0.0
 70
     8
  0
VERTEX
  5
BE98
330
BE43
100
AcDbEntity
  8
0
100
AcDbVertex
100
AcDb2dVertex
 10
9.39367803792507
 20
20.01950509289986
 30
0.0
 70
     8
  0
VERTEX
  5
BE99
330
BE43
100
AcDbEntity
  8
0
100
AcDbVertex
100
AcDb2dVertex
 10
9.381813650139264
 20
19.98400805359481
 30
0.0
 70
     8
  0
VERTEX
  5
BE9A
330
BE43
100
AcDbEntity
  8
0
100
AcDbVertex
100
AcDb2dVertex
 10
9.37128842289384
 20
19.94796506557889
 30
0.0
 70
     8
  0
VERTEX
  5
BE9B
330
BE43
100
AcDbEntity
  8
0
100
AcDbVertex
100
AcDb2dVertex
 10
9.362189154024404
 20
19.91176077471515
 30
0.0
 70
     8
  0
VERTEX
  5
BE9C
330
BE43
100
AcDbEntity
  8
0
100
AcDbVertex
100
AcDb2dVertex
 10
9.354602641366552
 20
19.87577982686662
 30
0.0
 70
     8
  0
VERTEX
  5
BE9D
330
BE43
100
AcDbEntity
  8
0
100
AcDbVertex
100
AcDb2dVertex
 10
9.348615682755886
 20
19.84040686789636
 30
0.0
 70
     8
  0
VERTEX
  5
BE9E
330
BE43
100
AcDbEntity
  8
0
100
AcDbVertex
100
AcDb2dVertex
 10
9.344350208222804
 20
19.80589212440708
 30
0.0
 70
     8
  0
VERTEX
  5
BE9F
330
BE43
100
AcDbEntity
  8
0
100
AcDbVertex
100
AcDb2dVertex
 10
9.342068676576877
 20
19.77194814596018
 30
0.0
 70
     8
  0
VERTEX
  5
BEA0
330
BE43
100
AcDbEntity
  8
0
100
AcDbVertex
100
AcDb2dVertex
 10
9.342068678822473
 20
19.73815306285676
 30
0.0
 70
     8
  0
VERTEX
  5
BEA1
330
BE43
100
AcDbEntity
  8
0
100
AcDbVertex
100
AcDb2dVertex
 10
9.344647805963964
 20
19.70408500539791
 30
0.0
 70
     8
  0
VERTEX
  5
BEA2
330
BE43
100
AcDbEntity
  8
0
100
AcDbVertex
100
AcDb2dVertex
 10
9.350103649005715
 20
19.66932210388471
 30
0.0
 70
     8
  0
VERTEX
  5
BEA3
330
BE43
100
AcDbEntity
  8
0
100
AcDbVertex
100
AcDb2dVertex
 10
9.358733798952096
 20
19.63344248861826
 30
0.0
 70
     8
  0
VERTEX
  5
BEA4
330
BE43
100
AcDbEntity
  8
0
100
AcDbVertex
100
AcDb2dVertex
 10
9.370835846807475
 20
19.59602428989963
 30
0.0
 70
     8
  0
VERTEX
  5
BEA5
330
BE43
100
AcDbEntity
  8
0
100
AcDbVertex
100
AcDb2dVertex
 10
9.386707383576222
 20
19.55664563802993
 30
0.0
 70
     8
  0
VERTEX
  5
BEA6
330
BE43
100
AcDbEntity
  8
0
100
AcDbVertex
100
AcDb2dVertex
 10
9.406550936418605
 20
19.51509973415982
 30
0.0
 70
     8
  0
VERTEX
  5
BEA7
330
BE43
100
AcDbEntity
  8
0
100
AcDbVertex
100
AcDb2dVertex
 10
9.430188777118507
 20
19.47204006283836
 30
0.0
 70
     8
  0
VERTEX
  5
BEA8
330
BE43
100
AcDbEntity
  8
0
100
AcDbVertex
100
AcDb2dVertex
 10
9.457348113615696
 20
19.42833517946418
 30
0.0
 70
     8
  0
VERTEX
  5
BEA9
330
BE43
100
AcDbEntity
  8
0
100
AcDbVertex
100
AcDb2dVertex
 10
9.487756153849955
 20
19.38485363943593
 30
0.0
 70
     8
  0
VERTEX
  5
BEAA
330
BE43
100
AcDbEntity
  8
0
100
AcDbVertex
100
AcDb2dVertex
 10
9.521140105761061
 20
19.34246399815225
 30
0.0
 70
     8
  0
VERTEX
  5
BEAB
330
BE43
100
AcDbEntity
  8
0
100
AcDbVertex
100
AcDb2dVertex
 10
9.557227177288789
 20
19.30203481101177
 30
0.0
 70
     8
  0
VERTEX
  5
BEAC
330
BE43
100
AcDbEntity
  8
0
100
AcDbVertex
100
AcDb2dVertex
 10
9.59574457637292
 20
19.26443463341314
 30
0.0
 70
     8
  0
VERTEX
  5
BEAD
330
BE43
100
AcDbEntity
  8
0
100
AcDbVertex
100
AcDb2dVertex
 10
9.636419510953233
 20
19.23053202075499
 30
0.0
 70
     8
  0
VERTEX
  5
BEAE
330
BE43
100
AcDbEntity
  8
0
100
AcDbVertex
100
AcDb2dVertex
 10
9.679003988287915
 20
19.20104663320273
 30
0.0
 70
     8
  0
VERTEX
  5
BEAF
330
BE43
100
AcDbEntity
  8
0
100
AcDbVertex
100
AcDb2dVertex
 10
9.723349212908807
 20
19.17610254998878
 30
0.0
 70
     8
  0
VERTEX
  5
BEB0
330
BE43
100
AcDbEntity
  8
0
100
AcDbVertex
100
AcDb2dVertex
 10
9.769331188666162
 20
19.15567495511232
 30
0.0
 70
     8
  0
VERTEX
  5
BEB1
330
BE43
100
AcDbEntity
  8
0
100
AcDbVertex
100
AcDb2dVertex
 10
9.816825919410229
 20
19.13973903257254
 30
0.0
 70
     8
  0
VERTEX
  5
BEB2
330
BE43
100
AcDbEntity
  8
0
100
AcDbVertex
100
AcDb2dVertex
 10
9.865709408991266
 20
19.12826996636862
 30
0.0
 70
     8
  0
VERTEX
  5
BEB3
330
BE43
100
AcDbEntity
  8
0
100
AcDbVertex
100
AcDb2dVertex
 10
9.915857661259522
 20
19.12124294049975
 30
0.0
 70
     8
  0
VERTEX
  5
BEB4
330
BE43
100
AcDbEntity
  8
0
100
AcDbVertex
100
AcDb2dVertex
 10
9.967146680065249
 20
19.11863313896511
 30
0.0
 70
     8
  0
VERTEX
  5
BEB5
330
BE43
100
AcDbEntity
  8
0
100
AcDbVertex
100
AcDb2dVertex
 10
10.0194524692587
 20
19.12041574576389
 30
0.0
 70
     8
  0
VERTEX
  5
BEB6
330
BE43
100
AcDbEntity
  8
0
100
AcDbVertex
100
AcDb2dVertex
 10
10.07257663483697
 20
19.12651424525183
 30
0.0
 70
     8
  0
VERTEX
  5
BEB7
330
BE43
100
AcDbEntity
  8
0
100
AcDbVertex
100
AcDb2dVertex
 10
10.12602319138447
 20
19.13664532321096
 30
0.0
 70
     8
  0
VERTEX
  5
BEB8
330
BE43
100
AcDbEntity
  8
0
100
AcDbVertex
100
AcDb2dVertex
 10
10.17922175563248
 20
19.15047396577987
 30
0.0
 70
     8
  0
VERTEX
  5
BEB9
330
BE43
100
AcDbEntity
  8
0
100
AcDbVertex
100
AcDb2dVertex
 10
10.23160194431226
 20
19.16766515909714
 30
0.0
 70
     8
  0
VERTEX
  5
BEBA
330
BE43
100
AcDbEntity
  8
0
100
AcDbVertex
100
AcDb2dVertex
 10
10.28259337415508
 20
19.18788388930137
 30
0.0
 70
     8
  0
VERTEX
  5
BEBB
330
BE43
100
AcDbEntity
  8
0
100
AcDbVertex
100
AcDb2dVertex
 10
10.33162566189218
 20
19.21079514253115
 30
0.0
 70
     8
  0
VERTEX
  5
BEBC
330
BE43
100
AcDbEntity
  8
0
100
AcDbVertex
100
AcDb2dVertex
 10
10.37812842425486
 20
19.23606390492506
 30
0.0
 70
     8
  0
VERTEX
  5
BEBD
330
BE43
100
AcDbEntity
  8
0
100
AcDbVertex
100
AcDb2dVertex
 10
10.42153127797435
 20
19.2633551626217
 30
0.0
 70
     8
  0
VERTEX
  5
BEBE
330
BE43
100
AcDbEntity
  8
0
100
AcDbVertex
100
AcDb2dVertex
 10
10.46138370291042
 20
19.29230701773121
 30
0.0
 70
     8
  0
VERTEX
  5
BEBF
330
BE43
100
AcDbEntity
  8
0
100
AcDbVertex
100
AcDb2dVertex
 10
10.49771463143676
 20
19.32245003624996
 30
0.0
 70
     8
  0
VERTEX
  5
BEC0
330
BE43
100
AcDbEntity
  8
0
100
AcDbVertex
100
AcDb2dVertex
 10
10.53067285905556
 20
19.35328790014588
 30
0.0
 70
     8
  0
VERTEX
  5
BEC1
330
BE43
100
AcDbEntity
  8
0
100
AcDbVertex
100
AcDb2dVertex
 10
10.56040718126901
 20
19.38432429138692
 30
0.0
 70
     8
  0
VERTEX
  5
BEC2
330
BE43
100
AcDbEntity
  8
0
100
AcDbVertex
100
AcDb2dVertex
 10
10.58706639357928
 20
19.41506289194101
 30
0.0
 70
     8
  0
VERTEX
  5
BEC3
330
BE43
100
AcDbEntity
  8
0
100
AcDbVertex
100
AcDb2dVertex
 10
10.61079929148855
 20
19.44500738377606
 30
0.0
 70
     8
  0
VERTEX
  5
BEC4
330
BE43
100
AcDbEntity
  8
0
100
AcDbVertex
100
AcDb2dVertex
 10
10.63175467049902
 20
19.47366144886003
 30
0.0
 70
     8
  0
VERTEX
  5
BEC5
330
BE43
100
AcDbEntity
  8
0
100
AcDbVertex
100
AcDb2dVertex
 10
10.65008132611288
 20
19.50052876916083
 30
0.0
 70
     8
  0
VERTEX
  5
BEC6
330
BE43
100
AcDbEntity
  8
0
100
AcDbVertex
100
AcDb2dVertex
 10
10.66596731942262
 20
19.52521022229134
 30
0.0
 70
     8
  0
VERTEX
  5
BEC7
330
BE43
100
AcDbEntity
  8
0
100
AcDbVertex
100
AcDb2dVertex
 10
10.67975777388203
 20
19.54769546844412
 30
0.0
 70
     8
  0
VERTEX
  5
BEC8
330
BE43
100
AcDbEntity
  8
0
100
AcDbVertex
100
AcDb2dVertex
 10
10.69183707853524
 20
19.56807136345667
 30
0.0
 70
     8
  0
VERTEX
  5
BEC9
330
BE43
100
AcDbEntity
  8
0
100
AcDbVertex
100
AcDb2dVertex
 10
10.70258962242635
 20
19.5864247631665
 30
0.0
 70
     8
  0
VERTEX
  5
BECA
330
BE43
100
AcDbEntity
  8
0
100
AcDbVertex
100
AcDb2dVertex
 10
10.71239979459948
 20
19.60284252341111
 30
0.0
 70
     8
  0
VERTEX
  5
BECB
330
BE43
100
AcDbEntity
  8
0
100
AcDbVertex
100
AcDb2dVertex
 10
10.72165198409875
 20
19.617411500028
 30
0.0
 70
     8
  0
VERTEX
  5
BECC
330
BE43
100
AcDbEntity
  8
0
100
AcDbVertex
100
AcDb2dVertex
 10
10.73073057996827
 20
19.63021854885466
 30
0.0
 70
     8
  0
VERTEX
  5
BECD
330
BE43
100
AcDbEntity
  8
0
100
AcDbVertex
100
AcDb2dVertex
 10
10.74001997125216
 20
19.64135052572861
 30
0.0
 70
     8
  0
VERTEX
  5
BECE
330
BE43
100
AcDbEntity
  8
0
100
AcDbVertex
100
AcDb2dVertex
 10
10.74983634886038
 20
19.65087981056954
 30
0.0
 70
     8
  0
VERTEX
  5
BECF
330
BE43
100
AcDbEntity
  8
0
100
AcDbVertex
100
AcDb2dVertex
 10
10.76022311116636
 20
19.65882087962597
 30
0.0
 70
     8
  0
VERTEX
  5
BED0
330
BE43
100
AcDbEntity
  8
0
100
AcDbVertex
100
AcDb2dVertex
 10
10.77115545840936
 20
19.66517373322859
 30
0.0
 70
     8
  0
VERTEX
  5
BED1
330
BE43
100
AcDbEntity
  8
0
100
AcDbVertex
100
AcDb2dVertex
 10
10.78260859082866
 20
19.66993837170812
 30
0.0
 70
     8
  0
VERTEX
  5
BED2
330
BE43
100
AcDbEntity
  8
0
100
AcDbVertex
100
AcDb2dVertex
 10
10.79455770866353
 20
19.67311479539526
 30
0.0
 70
     8
  0
VERTEX
  5
BED3
330
BE43
100
AcDbEntity
  8
0
100
AcDbVertex
100
AcDb2dVertex
 10
10.80697801215325
 20
19.67470300462072
 30
0.0
 70
     8
  0
VERTEX
  5
BED4
330
BE43
100
AcDbEntity
  8
0
100
AcDbVertex
100
AcDb2dVertex
 10
10.81984470153708
 20
19.67470299971522
 30
0.0
 70
     8
  0
VERTEX
  5
BED5
330
BE43
100
AcDbEntity
  8
0
100
AcDbVertex
100
AcDb2dVertex
 10
10.8331329770543
 20
19.67311478100945
 30
0.0
 70
     8
  0
VERTEX
  5
BED6
330
BE43
100
AcDbEntity
  8
0
100
AcDbVertex
100
AcDb2dVertex
 10
10.84685523800687
 20
19.66979358949079
 30
0.0
 70
     8
  0
VERTEX
  5
BED7
330
BE43
100
AcDbEntity
  8
0
100
AcDbVertex
100
AcDb2dVertex
 10
10.86117267994744
 20
19.66401562877323
 30
0.0
 70
     8
  0
VERTEX
  5
BED8
330
BE43
100
AcDbEntity
  8
0
100
AcDbVertex
100
AcDb2dVertex
 10
10.87628369749138
 20
19.65491234312742
 30
0.0
 70
     8
  0
VERTEX
  5
BED9
330
BE43
100
AcDbEntity
  8
0
100
AcDbVertex
100
AcDb2dVertex
 10
10.89238668525402
 20
19.64161517682401
 30
0.0
 70
     8
  0
VERTEX
  5
BEDA
330
BE43
100
AcDbEntity
  8
0
100
AcDbVertex
100
AcDb2dVertex
 10
10.90968003785071
 20
19.62325557413366
 30
0.0
 70
     8
  0
VERTEX
  5
BEDB
330
BE43
100
AcDbEntity
  8
0
100
AcDbVertex
100
AcDb2dVertex
 10
10.92836214989681
 20
19.59896497932701
 30
0.0
 70
     8
  0
VERTEX
  5
BEDC
330
BE43
100
AcDbEntity
  8
0
100
AcDbVertex
100
AcDb2dVertex
 10
10.94863141600766
 20
19.56787483667473
 30
0.0
 70
     8
  0
VERTEX
  5
BEDD
330
BE43
100
AcDbEntity
  8
0
100
AcDbVertex
100
AcDb2dVertex
 10
10.97068623079861
 20
19.52911659044745
 30
0.0
 70
     8
  0
VERTEX
  5
BEDE
330
BE43
100
AcDbEntity
  8
0
100
AcDbVertex
100
AcDb2dVertex
 10
10.99458445956144
 20
19.48220839886163
 30
0.0
 70
     8
  0
VERTEX
  5
BEDF
330
BE43
100
AcDbEntity
  8
0
100
AcDbVertex
100
AcDb2dVertex
 10
11.01982185029367
 20
19.42821527591685
 30
0.0
 70
     8
  0
VERTEX
  5
BEE0
330
BE43
100
AcDbEntity
  8
0
100
AcDbVertex
100
AcDb2dVertex
 10
11.04575362166925
 20
19.36858894955848
 30
0.0
 70
     8
  0
VERTEX
  5
BEE1
330
BE43
100
AcDbEntity
  8
0
100
AcDbVertex
100
AcDb2dVertex
 10
11.07173499236214
 20
19.3047811477319
 30
0.0
 70
     8
  0
VERTEX
  5
BEE2
330
BE43
100
AcDbEntity
  8
0
100
AcDbVertex
100
AcDb2dVertex
 10
11.0971211810463
 20
19.2382435983825
 30
0.0
 70
     8
  0
VERTEX
  5
BEE3
330
BE43
100
AcDbEntity
  8
0
100
AcDbVertex
100
AcDb2dVertex
 10
11.12126740639567
 20
19.17042802945564
 30
0.0
 70
     8
  0
VERTEX
  5
BEE4
330
BE43
100
AcDbEntity
  8
0
100
AcDbVertex
100
AcDb2dVertex
 10
11.14352888708422
 20
19.1027861688967
 30
0.0
 70
     8
  0
VERTEX
  5
BEE5
330
BE43
100
AcDbEntity
  8
0
100
AcDbVertex
100
AcDb2dVertex
 10
11.16326084178589
 20
19.03676974465106
 30
0.0
 70
     8
  0
VERTEX
  5
BEE6
330
BE43
100
AcDbEntity
  8
0
100
AcDbVertex
100
AcDb2dVertex
 10
11.17993421917979
 20
18.97350787858262
 30
0.0
 70
     8
  0
VERTEX
  5
BEE7
330
BE43
100
AcDbEntity
  8
0
100
AcDbVertex
100
AcDb2dVertex
 10
11.19348288796565
 20
18.91283926822939
 30
0.0
 70
     8
  0
VERTEX
  5
BEE8
330
BE43
100
AcDbEntity
  8
0
100
AcDbVertex
100
AcDb2dVertex
 10
11.20395644684833
 20
18.85428000504787
 30
0.0
 70
     8
  0
VERTEX
  5
BEE9
330
BE43
100
AcDbEntity
  8
0
100
AcDbVertex
100
AcDb2dVertex
 10
11.21140449453271
 20
18.79734618049462
 30
0.0
 70
     8
  0
VERTEX
  5
BEEA
330
BE43
100
AcDbEntity
  8
0
100
AcDbVertex
100
AcDb2dVertex
 10
11.21587662972366
 20
18.74155388602614
 30
0.0
 70
     8
  0
VERTEX
  5
BEEB
330
BE43
100
AcDbEntity
  8
0
100
AcDbVertex
100
AcDb2dVertex
 10
11.21742245112606
 20
18.68641921309898
 30
0.0
 70
     8
  0
VERTEX
  5
BEEC
330
BE43
100
AcDbEntity
  8
0
100
AcDbVertex
100
AcDb2dVertex
 10
11.21609155744478
 20
18.63145825316965
 30
0.0
 70
     8
  0
VERTEX
  5
BEED
330
BE43
100
AcDbEntity
  8
0
100
AcDbVertex
100
AcDb2dVertex
 10
11.21193354738469
 20
18.57618709769468
 30
0.0
 70
     8
  0
VERTEX
  5
BEEE
330
BE43
100
AcDbEntity
  8
0
100
AcDbVertex
100
AcDb2dVertex
 10
11.20497735352364
 20
18.52021489738956
 30
0.0
 70
     8
  0
VERTEX
  5
BEEF
330
BE43
100
AcDbEntity
  8
0
100
AcDbVertex
100
AcDb2dVertex
 10
11.19516924393134
 20
18.46352304000566
 30
0.0
 70
     8
  0
VERTEX
  5
BEF0
330
BE43
100
AcDbEntity
  8
0
100
AcDbVertex
100
AcDb2dVertex
 10
11.18243482055049
 20
18.40618597255328
 30
0.0
 70
     8
  0
VERTEX
  5
BEF1
330
BE43
100
AcDbEntity
  8
0
100
AcDbVertex
100
AcDb2dVertex
 10
11.16669968532377
 20
18.34827814204277
 30
0.0
 70
     8
  0
VERTEX
  5
BEF2
330
BE43
100
AcDbEntity
  8
0
100
AcDbVertex
100
AcDb2dVertex
 10
11.14788944019388
 20
18.28987399548443
 30
0.0
 70
     8
  0
VERTEX
  5
BEF3
330
BE43
100
AcDbEntity
  8
0
100
AcDbVertex
100
AcDb2dVertex
 10
11.12592968710351
 20
18.23104797988861
 30
0.0
 70
     8
  0
VERTEX
  5
BEF4
330
BE43
100
AcDbEntity
  8
0
100
AcDbVertex
100
AcDb2dVertex
 10
11.10074602799533
 20
18.17187454226561
 30
0.0
 70
     8
  0
VERTEX
  5
BEF5
330
BE43
100
AcDbEntity
  8
0
100
AcDbVertex
100
AcDb2dVertex
 10
11.07226406481206
 20
18.11242812962576
 30
0.0
 70
     8
  0
VERTEX
  5
BEF6
330
BE43
100
AcDbEntity
  8
0
100
AcDbVertex
100
AcDb2dVertex
 10
11.04046106476292
 20
18.05278112111711
 30
0.0
 70
     8
  0
VERTEX
  5
BEF7
330
BE43
100
AcDbEntity
  8
0
100
AcDbVertex
100
AcDb2dVertex
 10
11.00552095612329
 20
17.99299762443862
 30
0.0
 70
     8
  0
VERTEX
  5
BEF8
330
BE43
100
AcDbEntity
  8
0
100
AcDbVertex
100
AcDb2dVertex
 10
10.9676793324351
 20
17.93313967942697
 30
0.0
 70
     8
  0
VERTEX
  5
BEF9
330
BE43
100
AcDbEntity
  8
0
100
AcDbVertex
100
AcDb2dVertex
 10
10.9271717872403
 20
17.87326932591885
 30
0.0
 70
     8
  0
VERTEX
  5
BEFA
330
BE43
100
AcDbEntity
  8
0
100
AcDbVertex
100
AcDb2dVertex
 10
10.8842339140808
 20
17.81344860375095
 30
0.0
 70
     8
  0
VERTEX
  5
BEFB
330
BE43
100
AcDbEntity
  8
0
100
AcDbVertex
100
AcDb2dVertex
 10
10.83910130649854
 20
17.75373955275995
 30
0.0
 70
     8
  0
VERTEX
  5
BEFC
330
BE43
100
AcDbEntity
  8
0
100
AcDbVertex
100
AcDb2dVertex
 10
10.79200955803545
 20
17.69420421278254
 30
0.0
 70
     8
  0
VERTEX
  5
BEFD
330
BE43
100
AcDbEntity
  8
0
100
AcDbVertex
100
AcDb2dVertex
 10
10.74319426223346
 20
17.6349046236554
 30
0.0
 70
     8
  0
VERTEX
  5
BEFE
330
BE43
100
AcDbEntity
  8
0
100
AcDbVertex
100
AcDb2dVertex
 10
10.6928848126773
 20
17.57587594129701
 30
0.0
 70
     8
  0
VERTEX
  5
BEFF
330
BE43
100
AcDbEntity
  8
0
100
AcDbVertex
100
AcDb2dVertex
 10
10.64128580312294
 20
17.51704578595302
 30
0.0
 70
     8
  0
VERTEX
  5
BF00
330
BE43
100
AcDbEntity
  8
0
100
AcDbVertex
100
AcDb2dVertex
 10
10.58859562736913
 20
17.45831489395088
 30
0.0
 70
     8
  0
VERTEX
  5
BF01
330
BE43
100
AcDbEntity
  8
0
100
AcDbVertex
100
AcDb2dVertex
 10
10.53501267921467
 20
17.39958400161803
 30
0.0
 70
     8
  0
VERTEX
  5
BF02
330
BE43
100
AcDbEntity
  8
0
100
AcDbVertex
100
AcDb2dVertex
 10
10.48073535245829
 20
17.34075384528192
 30
0.0
 70
     8
  0
VERTEX
  5
BF03
330
BE43
100
AcDbEntity
  8
0
100
AcDbVertex
100
AcDb2dVertex
 10
10.42596204089878
 20
17.28172516126999
 30
0.0
 70
     8
  0
VERTEX
  5
BF04
330
BE43
100
AcDbEntity
  8
0
100
AcDbVertex
100
AcDb2dVertex
 10
10.37089113833491
 20
17.22239868590968
 30
0.0
 70
     8
  0
VERTEX
  5
BF05
330
BE43
100
AcDbEntity
  8
0
100
AcDbVertex
100
AcDb2dVertex
 10
10.31572103856543
 20
17.16267515552845
 30
0.0
 70
     8
  0
VERTEX
  5
BF06
330
BE43
100
AcDbEntity
  8
0
100
AcDbVertex
100
AcDb2dVertex
 10
10.26068526772001
 20
17.10251941420781
 30
0.0
 70
     8
  0
VERTEX
  5
BF07
330
BE43
100
AcDbEntity
  8
0
100
AcDbVertex
100
AcDb2dVertex
 10
10.20615788125187
 20
17.04215273704559
 30
0.0
 70
     8
  0
VERTEX
  5
BF08
330
BE43
100
AcDbEntity
  8
0
100
AcDbVertex
100
AcDb2dVertex
 10
10.15254806694513
 20
16.98186050689369
 30
0.0
 70
     8
  0
VERTEX
  5
BF09
330
BE43
100
AcDbEntity
  8
0
100
AcDbVertex
100
AcDb2dVertex
 10
10.10026501258389
 20
16.92192810660402
 30
0.0
 70
     8
  0
VERTEX
  5
BF0A
330
BE43
100
AcDbEntity
  8
0
100
AcDbVertex
100
AcDb2dVertex
 10
10.04971790595229
 20
16.86264091902848
 30
0.0
 70
     8
  0
VERTEX
  5
BF0B
330
BE43
100
AcDbEntity
  8
0
100
AcDbVertex
100
AcDb2dVertex
 10
10.00131593483444
 20
16.80428432701898
 30
0.0
 70
     8
  0
VERTEX
  5
BF0C
330
BE43
100
AcDbEntity
  8
0
100
AcDbVertex
100
AcDb2dVertex
 10
9.955468287014438
 20
16.74714371342741
 30
0.0
 70
     8
  0
VERTEX
  5
BF0D
330
BE43
100
AcDbEntity
  8
0
100
AcDbVertex
100
AcDb2dVertex
 10
9.91258415027641
 20
16.69150446110568
 30
0.0
 70
     8
  0
VERTEX
  5
BF0E
330
BE43
100
AcDbEntity
  8
0
100
AcDbVertex
100
AcDb2dVertex
 10
9.872944582961276
 20
16.63756096123341
 30
0.0
 70
     8
  0
VERTEX
  5
BF0F
330
BE43
100
AcDbEntity
  8
0
100
AcDbVertex
100
AcDb2dVertex
 10
9.836318125637133
 20
16.58514363830108
 30
0.0
 70
     8
  0
VERTEX
  5
BF10
330
BE43
100
AcDbEntity
  8
0
100
AcDbVertex
100
AcDb2dVertex
 10
9.802345189428885
 20
16.53399192512691
 30
0.0
 70
     8
  0
VERTEX
  5
BF11
330
BE43
100
AcDbEntity
  8
0
100
AcDbVertex
100
AcDb2dVertex
 10
9.770666185461442
 20
16.4838452545291
 30
0.0
 70
     8
  0
VERTEX
  5
BF12
330
BE43
100
AcDbEntity
  8
0
100
AcDbVertex
100
AcDb2dVertex
 10
9.740921524859695
 20
16.43444305932585
 30
0.0
 70
     8
  0
VERTEX
  5
BF13
330
BE43
100
AcDbEntity
  8
0
100
AcDbVertex
100
AcDb2dVertex
 10
9.712751618748555
 20
16.38552477233536
 30
0.0
 70
     8
  0
VERTEX
  5
BF14
330
BE43
100
AcDbEntity
  8
0
100
AcDbVertex
100
AcDb2dVertex
 10
9.685796878252922
 20
16.33682982637585
 30
0.0
 70
     8
  0
VERTEX
  5
BF15
330
BE43
100
AcDbEntity
  8
0
100
AcDbVertex
100
AcDb2dVertex
 10
9.659697714497701
 20
16.2880976542655
 30
0.0
 70
     8
  0
VERTEX
  5
BF16
330
BE43
100
AcDbEntity
  8
0
100
AcDbVertex
100
AcDb2dVertex
 10
9.634191668877461
 20
16.23922072022127
 30
0.0
 70
     8
  0
VERTEX
  5
BF17
330
BE43
100
AcDbEntity
  8
0
100
AcDbVertex
100
AcDb2dVertex
 10
9.609404803865446
 20
16.19070361405502
 30
0.0
 70
     8
  0
VERTEX
  5
BF18
330
BE43
100
AcDbEntity
  8
0
100
AcDbVertex
100
AcDb2dVertex
 10
9.585560312204576
 20
16.14320395697734
 30
0.0
 70
     8
  0
VERTEX
  5
BF19
330
BE43
100
AcDbEntity
  8
0
100
AcDbVertex
100
AcDb2dVertex
 10
9.562881386637755
 20
16.09737937019884
 30
0.0
 70
     8
  0
VERTEX
  5
BF1A
330
BE43
100
AcDbEntity
  8
0
100
AcDbVertex
100
AcDb2dVertex
 10
9.541591219907902
 20
16.05388747493013
 30
0.0
 70
     8
  0
VERTEX
  5
BF1B
330
BE43
100
AcDbEntity
  8
0
100
AcDbVertex
100
AcDb2dVertex
 10
9.521913004757932
 20
16.01338589238179
 30
0.0
 70
     8
  0
VERTEX
  5
BF1C
330
BE43
100
AcDbEntity
  8
0
100
AcDbVertex
100
AcDb2dVertex
 10
9.504069933930756
 20
15.97653224376443
 30
0.0
 70
     8
  0
VERTEX
  5
BF1D
330
BE43
100
AcDbEntity
  8
0
100
AcDbVertex
100
AcDb2dVertex
 10
9.488285200169286
 20
15.94398415028864
 30
0.0
 70
     8
  0
VERTEX
  5
BF1E
330
BE43
100
AcDbEntity
  8
0
100
AcDbVertex
100
AcDb2dVertex
 10
9.474662133292097
 20
15.91619657009539
 30
0.0
 70
     8
  0
VERTEX
  5
BF1F
330
BE43
100
AcDbEntity
  8
0
100
AcDbVertex
100
AcDb2dVertex
 10
9.462824611420394
 20
15.89281380904697
 30
0.0
 70
     8
  0
VERTEX
  5
BF20
330
BE43
100
AcDbEntity
  8
0
100
AcDbVertex
100
AcDb2dVertex
 10
9.452276649751039
 20
15.87327750993605
 30
0.0
 70
     8
  0
VERTEX
  5
BF21
330
BE43
100
AcDbEntity
  8
0
100
AcDbVertex
100
AcDb2dVertex
 10
9.442522263480897
 20
15.8570293155553
 30
0.0
 70
     8
  0
VERTEX
  5
BF22
330
BE43
100
AcDbEntity
  8
0
100
AcDbVertex
100
AcDb2dVertex
 10
9.433065467806835
 20
15.84351086869738
 30
0.0
 70
     8
  0
VERTEX
  5
BF23
330
BE43
100
AcDbEntity
  8
0
100
AcDbVertex
100
AcDb2dVertex
 10
9.423410277925718
 20
15.83216381215496
 30
0.0
 70
     8
  0
VERTEX
  5
BF24
330
BE43
100
AcDbEntity
  8
0
100
AcDbVertex
100
AcDb2dVertex
 10
9.413060709034404
 20
15.8224297887207
 30
0.0
 70
     8
  0
VERTEX
  5
BF25
330
BE43
100
AcDbEntity
  8
0
100
AcDbVertex
100
AcDb2dVertex
 10
9.401520776329762
 20
15.81375044118725
 30
0.0
 70
     8
  0
VERTEX
  5
BF26
330
BE43
100
AcDbEntity
  8
0
100
AcDbVertex
100
AcDb2dVertex
 10
9.388426757643239
 20
15.80566253979924
 30
0.0
 70
     8
  0
VERTEX
  5
BF27
330
BE43
100
AcDbEntity
  8
0
100
AcDbVertex
100
AcDb2dVertex
 10
9.373943981344622
 20
15.79808336460905
 30
0.0
 70
     8
  0
VERTEX
  5
BF28
330
BE43
100
AcDbEntity
  8
0
100
AcDbVertex
100
AcDb2dVertex
 10
9.358370038438273
 20
15.79102532312105
 30
0.0
 70
     8
  0
VERTEX
  5
BF29
330
BE43
100
AcDbEntity
  8
0
100
AcDbVertex
100
AcDb2dVertex
 10
9.342002519928568
 20
15.78450082283955
 30
0.0
 70
     8
  0
VERTEX
  5
BF2A
330
BE43
100
AcDbEntity
  8
0
100
AcDbVertex
100
AcDb2dVertex
 10
9.32513901681987
 20
15.77852227126894
 30
0.0
 70
     8
  0
VERTEX
  5
BF2B
330
BE43
100
AcDbEntity
  8
0
100
AcDbVertex
100
AcDb2dVertex
 10
9.308077120116552
 20
15.77310207591353
 30
0.0
 70
     8
  0
VERTEX
  5
BF2C
330
BE43
100
AcDbEntity
  8
0
100
AcDbVertex
100
AcDb2dVertex
 10
9.29111442082298
 20
15.76825264427768
 30
0.0
 70
     8
  0
VERTEX
  5
BF2D
330
BE43
100
AcDbEntity
  8
0
100
AcDbVertex
100
AcDb2dVertex
 10
9.274548509943523
 20
15.76398638386574
 30
0.0
 70
     8
  0
VERTEX
  5
BF2E
330
BE43
100
AcDbEntity
  8
0
100
AcDbVertex
100
AcDb2dVertex
 10
9.258617046969343
 20
15.7603177703199
 30
0.0
 70
     8
  0
VERTEX
  5
BF2F
330
BE43
100
AcDbEntity
  8
0
100
AcDbVertex
100
AcDb2dVertex
 10
9.243317965338773
 20
15.75726955183385
 30
0.0
 70
     8
  0
VERTEX
  5
BF30
330
BE43
100
AcDbEntity
  8
0
100
AcDbVertex
100
AcDb2dVertex
 10
9.228589266976939
 20
15.75486654473909
 30
0.0
 70
     8
  0
VERTEX
  5
BF31
330
BE43
100
AcDbEntity
  8
0
100
AcDbVertex
100
AcDb2dVertex
 10
9.214368953808966
 20
15.75313356536715
 30
0.0
 70
     8
  0
VERTEX
  5
BF32
330
BE43
100
AcDbEntity
  8
0
100
AcDbVertex
100
AcDb2dVertex
 10
9.200595027759982
 20
15.75209543004955
 30
0.0
 70
     8
  0
VERTEX
  5
BF33
330
BE43
100
AcDbEntity
  8
0
100
AcDbVertex
100
AcDb2dVertex
 10
9.187205490755113
 20
15.75177695511783
 30
0.0
 70
     8
  0
VERTEX
  5
BF34
330
BE43
100
AcDbEntity
  8
0
100
AcDbVertex
100
AcDb2dVertex
 10
9.174138344719485
 20
15.7522029569035
 30
0.0
 70
     8
  0
VERTEX
  5
BF35
330
BE43
100
AcDbEntity
  8
0
100
AcDbVertex
100
AcDb2dVertex
 10
9.161331591578223
 20
15.75339825173809
 30
0.0
 70
     8
  0
VERTEX
  5
BF36
330
BE43
100
AcDbEntity
  8
0
100
AcDbVertex
100
AcDb2dVertex
 10
9.148756298889582
 20
15.75538765584288
 30
0.0
 70
     8
  0
VERTEX
  5
BF37
330
BE43
100
AcDbEntity
  8
0
100
AcDbVertex
100
AcDb2dVertex
 10
9.136515796744326
 20
15.75819598499822
 30
0.0
 70
     8
  0
VERTEX
  5
BF38
330
BE43
100
AcDbEntity
  8
0
100
AcDbVertex
100
AcDb2dVertex
 10
9.124746480866351
 20
15.76184805487421
 30
0.0
 70
     8
  0
VERTEX
  5
BF39
330
BE43
100
AcDbEntity
  8
0
100
AcDbVertex
100
AcDb2dVertex
 10
9.113584746979549
 20
15.76636868114097
 30
0.0
 70
     8
  0
VERTEX
  5
BF3A
330
BE43
100
AcDbEntity
  8
0
100
AcDbVertex
100
AcDb2dVertex
 10
9.103166990807816
 20
15.77178267946861
 30
0.0
 70
     8
  0
VERTEX
  5
BF3B
330
BE43
100
AcDbEntity
  8
0
100
AcDbVertex
100
AcDb2dVertex
 10
9.09362960807504
 20
15.77811486552722
 30
0.0
 70
     8
  0
VERTEX
  5
BF3C
330
BE43
100
AcDbEntity
  8
0
100
AcDbVertex
100
AcDb2dVertex
 10
9.085108994505118
 20
15.78539005498692
 30
0.0
 70
     8
  0
VERTEX
  5
BF3D
330
BE43
100
AcDbEntity
  8
0
100
AcDbVertex
100
AcDb2dVertex
 10
9.077741545821941
 20
15.79363306351782
 30
0.0
 70
     8
  0
VERTEX
  5
BF3E
330
BE43
100
AcDbEntity
  8
0
100
AcDbVertex
100
AcDb2dVertex
 10
9.071616125912418
 20
15.80440729084848
 30
0.0
 70
     8
  0
VERTEX
  5
BF3F
330
BE43
100
AcDbEntity
  8
0
100
AcDbVertex
100
AcDb2dVertex
 10
9.066631471315494
 20
15.82543047294136
 30
0.0
 70
     8
  0
VERTEX
  5
BF40
330
BE43
100
AcDbEntity
  8
0
100
AcDbVertex
100
AcDb2dVertex
 10
9.062638786733133
 20
15.86595892981738
 30
0.0
 70
     8
  0
VERTEX
  5
BF41
330
BE43
100
AcDbEntity
  8
0
100
AcDbVertex
100
AcDb2dVertex
 10
9.059489276867294
 20
15.93524898149744
 30
0.0
 70
     8
  0
VERTEX
  5
BF42
330
BE43
100
AcDbEntity
  8
0
100
AcDbVertex
100
AcDb2dVertex
 10
9.057034146419939
 20
16.04255694800245
 30
0.0
 70
     8
  0
VERTEX
  5
BF43
330
BE43
100
AcDbEntity
  8
0
100
AcDbVertex
100
AcDb2dVertex
 10
9.055124600093028
 20
16.19713914935335
 30
0.0
 70
     8
  0
VERTEX
  5
BF44
330
BE43
100
AcDbEntity
  8
0
100
AcDbVertex
100
AcDb2dVertex
 10
9.053611842588523
 20
16.40825190557103
 30
0.0
 70
     8
  0
VERTEX
  5
BF45
330
BE43
100
AcDbEntity
  8
0
100
AcDbVertex
100
AcDb2dVertex
 10
9.052347078608384
 20
16.68515153667642
 30
0.0
 70
     8
  0
VERTEX
  5
BF46
330
BE43
100
AcDbEntity
  8
0
100
AcDbVertex
100
AcDb2dVertex
 10
9.051218711679082
 20
17.03244759076203
 30
0.0
 70
     8
  0
VERTEX
  5
BF47
330
BE43
100
AcDbEntity
  8
0
100
AcDbVertex
100
AcDb2dVertex
 10
9.050263940625127
 20
17.43616252820682
 30
0.0
 70
     8
  0
VERTEX
  5
BF48
330
BE43
100
AcDbEntity
  8
0
100
AcDbVertex
100
AcDb2dVertex
 10
9.049557163095537
 20
17.87767203746135
 30
0.0
 70
     8
  0
VERTEX
  5
BF49
330
BE43
100
AcDbEntity
  8
0
100
AcDbVertex
100
AcDb2dVertex
 10
9.049172776739334
 20
18.33835180697619
 30
0.0
 70
     8
  0
VERTEX
  5
BF4A
330
BE43
100
AcDbEntity
  8
0
100
AcDbVertex
100
AcDb2dVertex
 10
9.049185179205537
 20
18.7995775252019
 30
0.0
 70
     8
  0
VERTEX
  5
BF4B
330
BE43
100
AcDbEntity
  8
0
100
AcDbVertex
100
AcDb2dVertex
 10
9.049668768143163
 20
19.24272488058903
 30
0.0
 70
     8
  0
VERTEX
  5
BF4C
330
BE43
100
AcDbEntity
  8
0
100
AcDbVertex
100
AcDb2dVertex
 10
9.050697941201233
 20
19.64916956158815
 30
0.0
 70
     8
  0
VERTEX
  5
BF4D
330
BE43
100
AcDbEntity
  8
0
100
AcDbVertex
100
AcDb2dVertex
 10
9.04494038223161
 20
20.78910109650993
 30
0.0
 70
    16
  0
VERTEX
  5
BF4E
330
BE43
100
AcDbEntity
  8
0
100
AcDbVertex
100
AcDb2dVertex
 10
9.08303208305195
 20
20.9606283628748
 30
0.0
 70
    16
  0
VERTEX
  5
BF4F
330
BE43
100
AcDbEntity
  8
0
100
AcDbVertex
100
AcDb2dVertex
 10
9.203655662953254
 20
21.03686277873586
 30
0.0
 70
    16
  0
VERTEX
  5
BF50
330
BE43
100
AcDbEntity
  8
0
100
AcDbVertex
100
AcDb2dVertex
 10
9.317930765414255
 20
21.02415698631816
 30
0.0
 70
    16
  0
VERTEX
  5
BF51
330
BE43
100
AcDbEntity
  8
0
100
AcDbVertex
100
AcDb2dVertex
 10
9.400462749017551
 20
20.98603994771016
 30
0.0
 70
    16
  0
VERTEX
  5
BF52
330
BE43
100
AcDbEntity
  8
0
100
AcDbVertex
100
AcDb2dVertex
 10
9.41315991294277
 20
20.8526297199533
 30
0.0
 70
    16
  0
VERTEX
  5
BF53
330
BE43
100
AcDbEntity
  8
0
100
AcDbVertex
100
AcDb2dVertex
 10
9.482994628098499
 20
20.64933805720547
 30
0.0
 70
    16
  0
VERTEX
  5
BF54
330
BE43
100
AcDbEntity
  8
0
100
AcDbVertex
100
AcDb2dVertex
 10
9.590921044074566
 20
20.50957518722354
 30
0.0
 70
    16
  0
VERTEX
  5
BF55
330
BE43
100
AcDbEntity
  8
0
100
AcDbVertex
100
AcDb2dVertex
 10
9.629012744894904
 20
20.42698795981491
 30
0.0
 70
    16
  0
VERTEX
  5
BF56
330
BE43
100
AcDbEntity
  8
0
100
AcDbVertex
100
AcDb2dVertex
 10
9.584572462111964
 20
20.31898931689342
 30
0.0
 70
    16
  0
VERTEX
  5
BF57
330
BE43
100
AcDbEntity
  8
0
100
AcDbVertex
100
AcDb2dVertex
 10
9.425857181390322
 20
20.14110906965845
 30
0.0
 70
    16
  0
VERTEX
  5
BF58
330
BE43
100
AcDbEntity
  8
0
100
AcDbVertex
100
AcDb2dVertex
 10
9.33062792933949
 20
19.82981876398913
 30
0.0
 70
    16
  0
VERTEX
  5
BF59
330
BE43
100
AcDbEntity
  8
0
100
AcDbVertex
100
AcDb2dVertex
 10
9.343325197787041
 20
19.58205708176319
 30
0.0
 70
    16
  0
VERTEX
  5
BF5A
330
BE43
100
AcDbEntity
  8
0
100
AcDbVertex
100
AcDb2dVertex
 10
9.616315580969686
 20
19.18182673713765
 30
0.0
 70
    16
  0
VERTEX
  5
BF5B
330
BE43
100
AcDbEntity
  8
0
100
AcDbVertex
100
AcDb2dVertex
 10
10.00992954405361
 20
19.07382809421616
 30
0.0
 70
    16
  0
VERTEX
  5
BF5C
330
BE43
100
AcDbEntity
  8
0
100
AcDbVertex
100
AcDb2dVertex
 10
10.46068105836807
 20
19.24535536058102
 30
0.0
 70
    16
  0
VERTEX
  5
BF5D
330
BE43
100
AcDbEntity
  8
0
100
AcDbVertex
100
AcDb2dVertex
 10
10.6765338903202
 20
19.52488143918992
 30
0.0
 70
    16
  0
VERTEX
  5
BF5E
330
BE43
100
AcDbEntity
  8
0
100
AcDbVertex
100
AcDb2dVertex
 10
10.73367133702838
 20
19.65829149762427
 30
0.0
 70
    16
  0
VERTEX
  5
BF5F
330
BE43
100
AcDbEntity
  8
0
100
AcDbVertex
100
AcDb2dVertex
 10
10.82890058907923
 20
19.69005572468468
 30
0.0
 70
    16
  0
VERTEX
  5
BF60
330
BE43
100
AcDbEntity
  8
0
100
AcDbVertex
100
AcDb2dVertex
 10
10.94952416898052
 20
19.62017428969371
 30
0.0
 70
    16
  0
VERTEX
  5
BF61
330
BE43
100
AcDbEntity
  8
0
100
AcDbVertex
100
AcDb2dVertex
 10
11.19712011979037
 20
19.00394665922519
 30
0.0
 70
    16
  0
VERTEX
  5
BF62
330
BE43
100
AcDbEntity
  8
0
100
AcDbVertex
100
AcDb2dVertex
 10
11.24156040257333
 20
18.58465754131188
 30
0.0
 70
    16
  0
VERTEX
  5
BF63
330
BE43
100
AcDbEntity
  8
0
100
AcDbVertex
100
AcDb2dVertex
 10
11.10823955422447
 20
18.11454576169537
 30
0.0
 70
    16
  0
VERTEX
  5
BF64
330
BE43
100
AcDbEntity
  8
0
100
AcDbVertex
100
AcDb2dVertex
 10
10.75906576940115
 20
17.63172818966119
 30
0.0
 70
    16
  0
VERTEX
  5
BF65
330
BE43
100
AcDbEntity
  8
0
100
AcDbVertex
100
AcDb2dVertex
 10
10.31466294157166
 20
17.16796922159227
 30
0.0
 70
    16
  0
VERTEX
  5
BF66
330
BE43
100
AcDbEntity
  8
0
100
AcDbVertex
100
AcDb2dVertex
 10
9.876608695704778
 20
16.67244585714042
 30
0.0
 70
    16
  0
VERTEX
  5
BF67
330
BE43
100
AcDbEntity
  8
0
100
AcDbVertex
100
AcDb2dVertex
 10
9.654407177267692
 20
16.29127411648013
 30
0.0
 70
    16
  0
VERTEX
  5
BF68
330
BE43
100
AcDbEntity
  8
0
100
AcDbVertex
100
AcDb2dVertex
 10
9.46394888221066
 20
15.89104360253208
 30
0.0
 70
    16
  0
VERTEX
  5
BF69
330
BE43
100
AcDbEntity
  8
0
100
AcDbVertex
100
AcDb2dVertex
 10
9.419508494905388
 20
15.80845637512342
 30
0.0
 70
    16
  0
VERTEX
  5
BF6A
330
BE43
100
AcDbEntity
  8
0
100
AcDbVertex
100
AcDb2dVertex
 10
9.267141796146363
 20
15.75763354409773
 30
0.0
 70
    16
  0
VERTEX
  5
BF6B
330
BE43
100
AcDbEntity
  8
0
100
AcDbVertex
100
AcDb2dVertex
 10
9.159215380170296
 20
15.74492775168005
 30
0.0
 70
    16
  0
VERTEX
  5
BF6C
330
BE43
100
AcDbEntity
  8
0
100
AcDbVertex
100
AcDb2dVertex
 10
9.063986232641781
 20
15.78304495961059
 30
0.0
 70
    16
  0
SEQEND
  5
BF6D
330
BE43
100
AcDbEntity
  8
0
  0
VIEWPORT
  5
B464
330
15
100
AcDbEntity
 67
     1
  8
0
100
AcDbViewport
 10
5.249999639556163
 20
3.999999883606677
 30
0.0
 40
17.58823365488479
 41
8.99512521206965
 68
     2
 69
     1
 12
5.249999639556163
 22
3.999999883606677
 13
0.0
 23
0.0
 14
10.0
 24
10.0
 15
10.0
 25
10.0
 16
0.0
 26
0.0
 36
1.0
 17
0.0
 27
0.0
 37
0.0
 42
50.0
 43
0.0
 44
0.0
 45
8.99512521206965
 50
0.0
 51
0.0
 72
   100
 90
    32800
  1

281
     0
 71
     1
 74
     0
110
0.0
120
0.0
130
0.0
111
1.0
121
0.0
131
0.0
112
0.0
122
1.0
132
0.0
 79
     0
146
0.0
170
     0
  0
VIEWPORT
  5
B466
330
15
100
AcDbEntity
 67
     1
  8
0
100
AcDbViewport
 10
5.24999976158142
 20
3.99999976158142
 30
0.0
 40
8.399999618530271
 41
6.399999618530272
 68
     1
 69
     2
 12
14.94193430466585
 22
24.68363631478236
 13
0.0
 23
0.0
 14
0.5
 24
0.5
 15
0.5
 25
0.5
 16
0.0
 26
0.0
 36
1.0
 17
0.0
 27
0.0
 37
0.0
 42
50.0
 43
0.0
 44
0.0
 45
35.57875022769845
 50
0.0
 51
0.0
 72
   100
 90
    32800
  1

281
     0
 71
     1
 74
     0
110
0.0
120
0.0
130
0.0
111
1.0
121
0.0
131
0.0
112
0.0
122
1.0
132
0.0
 79
     0
146
0.0
170
     0
  0
ENDSEC
  0
SECTION
  2
OBJECTS
  0
DICTIONARY
  5
C
330
0
100
AcDbDictionary
281
     1
  3
ACAD_COLOR
350
B0A0
  3
ACAD_GROUP
350
D
  3
ACAD_IMAGE_DICT
350
21
  3
ACAD_IMAGE_VARS
350
20
  3
ACAD_LAYOUT
350
B0A1
  3
ACAD_MATERIAL
350
B09F
  3
ACAD_MLINESTYLE
350
1B
  3
ACAD_PLOTSETTINGS
350
B0A2
  3
ACAD_PLOTSTYLENAME
350
B09D
  0
DICTIONARY
  5
B0A0
102
{ACAD_REACTORS
330
C
102
}
330
C
100
AcDbDictionary
281
     1
  0
DICTIONARY
  5
D
102
{ACAD_REACTORS
330
C
102
}
330
C
100
AcDbDictionary
281
     1
  0
DICTIONARY
  5
21
102
{ACAD_REACTORS
330
C
102
}
330
C
100
AcDbDictionary
281
     1
  3
3315-1
350
9B49
  3
3315-2
350
9B4C
  0
RASTERVARIABLES
  5
20
102
{ACAD_REACTORS
330
C
102
}
330
C
100
AcDbRasterVariables
 90
        0
 70
     1
 71
     1
 72
     0
  0
DICTIONARY
  5
B0A1
102
{ACAD_REACTORS
330
C
102
}
330
C
100
AcDbDictionary
281
     1
  3
Layout1
350
B0A4
  3
Model
350
B0A3
  0
DICTIONARY
  5
B09F
102
{ACAD_REACTORS
330
C
102
}
330
C
100
AcDbDictionary
281
     1
  0
DICTIONARY
  5
1B
102
{ACAD_REACTORS
330
C
102
}
330
C
100
AcDbDictionary
281
     1
  3
STANDARD
350
1C
  0
DICTIONARY
  5
B0A2
102
{ACAD_REACTORS
330
C
102
}
330
C
100
AcDbDictionary
281
     1
  0
ACDBDICTIONARYWDFLT
  5
B09D
102
{ACAD_REACTORS
330
C
102
}
330
C
100
AcDbDictionary
281
     1
  3
Normal
350
B09E
100
AcDbDictionaryWithDefault
340
B09E
  0
IMAGEDEF
  5
9B49
102
{ACAD_REACTORS
330
21
102
}
330
21
100
AcDbRasterImageDef
 90
        0
  1
U:\TPDWG\MichelQ\3315-1.tif
 10
2940.0
 20
3652.0
 11
0.0705555555555556
 21
0.0705555555555556
280
     1
281
     5
  0
IMAGEDEF
  5
9B4C
102
{ACAD_REACTORS
330
21
102
}
330
21
100
AcDbRasterImageDef
 90
        0
  1
U:\TPDWG\MichelQ\3315-2.tif
 10
2940.0
 20
3652.0
 11
0.0705555555555556
 21
0.0705555555555556
280
     1
281
     5
  0
LAYOUT
  5
B0A4
102
{ACAD_REACTORS
330
B0A1
102
}
330
B0A1
100
AcDbPlotSettings
  1

  2
none_device
  4
Letter_(8.50_x_11.00_Inches)
  6

 40
6.349999904632568
 41
6.349999904632568
 42
6.350006103515625
 43
6.350006103515625
 44
215.8999938964844
 45
279.3999938964844
 46
0.0
 47
0.0
 48
0.0
 49
0.0
140
0.0
141
0.0
142
1.0
143
1.0
 70
   688
 72
     0
 73
     1
 74
     5
  7

 75
    16
147
1.0
 76
     1
 77
     2
 78
   300
148
0.0
149
0.0
100
AcDbLayout
  1
Layout1
 70
     1
 71
     1
 10
-0.2500002402958907
 20
-0.2499999962453767
 11
10.74999951940821
 21
8.249999763458731
 12
0.0
 22
0.0
 32
0.0
 14
1.049999952316284
 24
0.7999999523162842
 34
0.0
 15
9.449999570846555
 25
7.199999570846556
 35
0.0
146
0.0
 13
0.0
 23
0.0
 33
0.0
 16
1.0
 26
0.0
 36
0.0
 17
0.0
 27
1.0
 37
0.0
 76
     0
330
15
331
B466
  0
LAYOUT
  5
B0A3
102
{ACAD_REACTORS
330
B0A1
102
}
330
B0A1
100
AcDbPlotSettings
  1

  2
None
  4

  6

 40
0.0
 41
0.0
 42
0.0
 43
0.0
 44
0.0
 45
0.0
 46
0.0
 47
0.0
 48
0.0
 49
0.0
140
0.0
141
0.0
142
1.0
143
1.0
 70
  1712
 72
     0
 73
     0
 74
     0
  7

 75
     0
147
1.0
 76
     0
 77
     2
 78
   300
148
0.0
149
0.0
100
AcDbLayout
  1
Model
 70
     1
 71
     0
 10
0.0
 20
0.0
 11
12.0
 21
9.0
 12
0.0
 22
0.0
 32
0.0
 14
0.0
 24
0.0
 34
0.0
 15
0.0
 25
0.0
 35
0.0
146
0.0
 13
0.0
 23
0.0
 33
0.0
 16
1.0
 26
0.0
 36
0.0
 17
0.0
 27
1.0
 37
0.0
 76
     0
330
18
  0
MLINESTYLE
  5
1C
102
{ACAD_REACTORS
330
1B
102
}
330
1B
100
AcDbMlineStyle
  2
STANDARD
 70
     0
  3

 62
   256
 51
90.0
 52
90.0
 71
     2
 49
0.5
 62
   256
  6
BYLAYER
 49
-0.5
 62
   256
  6
BYLAYER
  0
ACDBPLACEHOLDER
  5
B09E
102
{ACAD_REACTORS
330
B09D
102
}
330
B09D
  0
ENDSEC
  0
EOF
