  0
SECTION
  2
HEADER
  9
$ACADVER
  1
AC1018
  9
$ACADMAINTVER
 70
     0
  9
$DWGCODEPAGE
  3
ANSI_1252
  9
$INSBASE
 10
0.0
 20
0.0
 30
0.0
  9
$EXTMIN
 10
3.73079813970462
 20
14.53539447787519
 30
0.0
  9
$EXTMAX
 10
24.63261243343172
 20
34.39384981899979
 30
0.0
  9
$LIMMIN
 10
0.0
 20
0.0
  9
$LIMMAX
 10
12.0
 20
9.0
  9
$ORTHOMODE
 70
     0
  9
$REGENMODE
 70
     1
  9
$FILLMODE
 70
     1
  9
$QTEXTMODE
 70
     0
  9
$MIRRTEXT
 70
     1
  9
$LTSCALE
 40
1.0
  9
$ATTMODE
 70
     1
  9
$TEXTSIZE
 40
0.2
  9
$TRACEWID
 40
0.05
  9
$TEXTSTYLE
  7
STANDARD
  9
$CLAYER
  8
0
  9
$CELTYPE
  6
BYLAYER
  9
$CECOLOR
 62
   256
  9
$CELTSCALE
 40
1.0
  9
$DISPSILH
 70
     0
  9
$DIMSCALE
 40
1.0
  9
$DIMASZ
 40
0.18
  9
$DIMEXO
 40
0.0625
  9
$DIMDLI
 40
0.38
  9
$DIMRND
 40
0.0
  9
$DIMDLE
 40
0.0
  9
$DIMEXE
 40
0.18
  9
$DIMTP
 40
0.0
  9
$DIMTM
 40
0.0
  9
$DIMTXT
 40
1.0
  9
$DIMCEN
 40
0.09
  9
$DIMTSZ
 40
0.0
  9
$DIMTOL
 70
     0
  9
$DIMLIM
 70
     0
  9
$DIMTIH
 70
     1
  9
$DIMTOH
 70
     1
  9
$DIMSE1
 70
     0
  9
$DIMSE2
 70
     0
  9
$DIMTAD
 70
     0
  9
$DIMZIN
 70
     0
  9
$DIMBLK
  1

  9
$DIMASO
 70
     1
  9
$DIMSHO
 70
     1
  9
$DIMPOST
  1

  9
$DIMAPOST
  1

  9
$DIMALT
 70
     0
  9
$DIMALTD
 70
     2
  9
$DIMALTF
 40
25.4
  9
$DIMLFAC
 40
1.0
  9
$DIMTOFL
 70
     0
  9
$DIMTVP
 40
0.0
  9
$DIMTIX
 70
     0
  9
$DIMSOXD
 70
     0
  9
$DIMSAH
 70
     0
  9
$DIMBLK1
  1

  9
$DIMBLK2
  1

  9
$DIMSTYLE
  2
STANDARD
  9
$DIMCLRD
 70
     0
  9
$DIMCLRE
 70
     0
  9
$DIMCLRT
 70
     0
  9
$DIMTFAC
 40
1.0
  9
$DIMGAP
 40
0.09
  9
$DIMJUST
 70
     0
  9
$DIMSD1
 70
     0
  9
$DIMSD2
 70
     0
  9
$DIMTOLJ
 70
     1
  9
$DIMTZIN
 70
     0
  9
$DIMALTZ
 70
     0
  9
$DIMALTTZ
 70
     0
  9
$DIMUPT
 70
     0
  9
$DIMDEC
 70
     4
  9
$DIMTDEC
 70
     4
  9
$DIMALTU
 70
     2
  9
$DIMALTTD
 70
     2
  9
$DIMTXSTY
  7
STANDARD
  9
$DIMAUNIT
 70
     0
  9
$DIMADEC
 70
     0
  9
$DIMALTRND
 40
0.0
  9
$DIMAZIN
 70
     0
  9
$DIMDSEP
 70
    46
  9
$DIMATFIT
 70
     3
  9
$DIMFRAC
 70
     0
  9
$DIMLDRBLK
  1

  9
$DIMLUNIT
 70
     5
  9
$DIMLWD
 70
    -2
  9
$DIMLWE
 70
    -2
  9
$DIMTMOVE
 70
     0
  9
$LUNITS
 70
     4
  9
$LUPREC
 70
     4
  9
$SKETCHINC
 40
0.1
  9
$FILLETRAD
 40
0.0
  9
$AUNITS
 70
     0
  9
$AUPREC
 70
     0
  9
$MENU
  1
.
  9
$ELEVATION
 40
0.0
  9
$PELEVATION
 40
0.0
  9
$THICKNESS
 40
0.0
  9
$LIMCHECK
 70
     0
  9
$CHAMFERA
 40
0.5
  9
$CHAMFERB
 40
0.5
  9
$CHAMFERC
 40
1.0
  9
$CHAMFERD
 40
0.0
  9
$SKPOLY
 70
     0
  9
$TDCREATE
 40
2451160.318790972
  9
$TDUCREATE
 40
2451160.485457639
  9
$TDUPDATE
 40
2453488.685013820
  9
$TDUUPDATE
 40
2453488.851680486
  9
$TDINDWG
 40
0.2479591435
  9
$TDUSRTIMER
 40
0.2479591435
  9
$USRTIMER
 70
     1
  9
$ANGBASE
 50
0.0
  9
$ANGDIR
 70
     0
  9
$PDMODE
 70
     3
  9
$PDSIZE
 40
1.0
  9
$PLINEWID
 40
0.0
  9
$SPLFRAME
 70
     0
  9
$SPLINETYPE
 70
     6
  9
$SPLINESEGS
 70
     8
  9
$HANDSEED
  5
C0D6
  9
$SURFTAB1
 70
     6
  9
$SURFTAB2
 70
     6
  9
$SURFTYPE
 70
     6
  9
$SURFU
 70
     6
  9
$SURFV
 70
     6
  9
$UCSBASE
  2

  9
$UCSNAME
  2

  9
$UCSORG
 10
0.0
 20
0.0
 30
0.0
  9
$UCSXDIR
 10
1.0
 20
0.0
 30
0.0
  9
$UCSYDIR
 10
0.0
 20
1.0
 30
0.0
  9
$UCSORTHOREF
  2

  9
$UCSORTHOVIEW
 70
     0
  9
$UCSORGTOP
 10
0.0
 20
0.0
 30
0.0
  9
$UCSORGBOTTOM
 10
0.0
 20
0.0
 30
0.0
  9
$UCSORGLEFT
 10
0.0
 20
0.0
 30
0.0
  9
$UCSORGRIGHT
 10
0.0
 20
0.0
 30
0.0
  9
$UCSORGFRONT
 10
0.0
 20
0.0
 30
0.0
  9
$UCSORGBACK
 10
0.0
 20
0.0
 30
0.0
  9
$PUCSBASE
  2

  9
$PUCSNAME
  2

  9
$PUCSORG
 10
0.0
 20
0.0
 30
0.0
  9
$PUCSXDIR
 10
1.0
 20
0.0
 30
0.0
  9
$PUCSYDIR
 10
0.0
 20
1.0
 30
0.0
  9
$PUCSORTHOREF
  2

  9
$PUCSORTHOVIEW
 70
     0
  9
$PUCSORGTOP
 10
0.0
 20
0.0
 30
0.0
  9
$PUCSORGBOTTOM
 10
0.0
 20
0.0
 30
0.0
  9
$PUCSORGLEFT
 10
0.0
 20
0.0
 30
0.0
  9
$PUCSORGRIGHT
 10
0.0
 20
0.0
 30
0.0
  9
$PUCSORGFRONT
 10
0.0
 20
0.0
 30
0.0
  9
$PUCSORGBACK
 10
0.0
 20
0.0
 30
0.0
  9
$USERI1
 70
     0
  9
$USERI2
 70
     0
  9
$USERI3
 70
     0
  9
$USERI4
 70
     0
  9
$USERI5
 70
     0
  9
$USERR1
 40
0.0
  9
$USERR2
 40
0.0
  9
$USERR3
 40
0.0
  9
$USERR4
 40
0.0
  9
$USERR5
 40
0.0
  9
$WORLDVIEW
 70
     1
  9
$SHADEDGE
 70
     3
  9
$SHADEDIF
 70
    70
  9
$TILEMODE
 70
     1
  9
$MAXACTVP
 70
    48
  9
$PINSBASE
 10
0.0
 20
0.0
 30
0.0
  9
$PLIMCHECK
 70
     0
  9
$PEXTMIN
 10
1.049999952316284
 20
0.7999999523162842
 30
0.0
  9
$PEXTMAX
 10
9.449999570846555
 20
7.199999570846556
 30
0.0
  9
$PLIMMIN
 10
-0.2500002402958907
 20
-0.2499999962453767
  9
$PLIMMAX
 10
10.74999951940821
 20
8.249999763458731
  9
$UNITMODE
 70
     0
  9
$VISRETAIN
 70
     1
  9
$PLINEGEN
 70
     0
  9
$PSLTSCALE
 70
     1
  9
$TREEDEPTH
 70
  3020
  9
$CMLSTYLE
  2
STANDARD
  9
$CMLJUST
 70
     0
  9
$CMLSCALE
 40
1.0
  9
$PROXYGRAPHICS
 70
     1
  9
$MEASUREMENT
 70
     0
  9
$CELWEIGHT
370
    -1
  9
$ENDCAPS
280
     0
  9
$JOINSTYLE
280
     0
  9
$LWDISPLAY
290
     0
  9
$INSUNITS
 70
     0
  9
$HYPERLINKBASE
  1

  9
$STYLESHEET
  1

  9
$XEDIT
290
     1
  9
$CEPSNTYPE
380
     0
  9
$PSTYLEMODE
290
     1
  9
$FINGERPRINTGUID
  2
{A9BC0D13-FC2A-4367-9D27-8575432CD22F}
  9
$VERSIONGUID
  2
{DF4296A0-EC69-46CF-B85E-9C43F3AEE4E3}
  9
$EXTNAMES
290
     1
  9
$PSVPSCALE
 40
0.0
  9
$OLESTARTUP
290
     0
  9
$SORTENTS
280
   127
  9
$INDEXCTL
280
     0
  9
$HIDETEXT
280
     0
  9
$XCLIPFRAME
290
     0
  9
$HALOGAP
280
     0
  9
$OBSCOLOR
 70
   257
  9
$OBSLTYPE
280
     0
  9
$INTERSECTIONDISPLAY
280
     0
  9
$INTERSECTIONCOLOR
 70
   257
  9
$DIMASSOC
280
     1
  9
$PROJECTNAME
  1

  0
ENDSEC
  0
SECTION
  2
CLASSES
  0
CLASS
  1
RASTERVARIABLES
  2
AcDbRasterVariables
  3
ISM
 90
        0
 91
        1
280
     0
281
     0
  0
CLASS
  1
IMAGEDEF
  2
AcDbRasterImageDef
  3
ISM
 90
        0
 91
        2
280
     0
281
     0
  0
CLASS
  1
IMAGEDEF_REACTOR
  2
AcDbRasterImageDefReactor
  3
ISM
 90
        1
 91
        0
280
     0
281
     0
  0
CLASS
  1
IMAGE
  2
AcDbRasterImage
  3
ISM
 90
      127
 91
        0
280
     0
281
     1
  0
CLASS
  1
ACDBDICTIONARYWDFLT
  2
AcDbDictionaryWithDefault
  3
ObjectDBX Classes
 90
        0
 91
        1
280
     0
281
     0
  0
ENDSEC
  0
SECTION
  2
TABLES
  0
TABLE
  2
VPORT
  5
8
330
0
100
AcDbSymbolTable
 70
     2
  0
VPORT
  5
C0D5
330
8
100
AcDbSymbolTableRecord
100
AcDbViewportTableRecord
  2
*Active
 70
     0
 10
0.0
 20
0.0
 11
1.0
 21
1.0
 12
16.37530746280987
 22
24.99874878032923
 13
0.0
 23
0.0
 14
0.5
 24
0.5
 15
0.5
 25
0.5
 16
0.0
 26
0.0
 36
1.0
 17
0.0
 27
0.0
 37
0.0
 40
25.73095780551888
 41
1.977142857142857
 42
50.0
 43
0.0
 44
0.0
 50
0.0
 51
0.0
 71
     0
 72
   100
 73
     1
 74
     1
 75
     0
 76
     0
 77
     0
 78
     0
281
     0
 65
     1
110
0.0
120
0.0
130
0.0
111
1.0
121
0.0
131
0.0
112
0.0
122
1.0
132
0.0
 79
     0
146
0.0
  0
ENDTAB
  0
TABLE
  2
LTYPE
  5
5
330
0
100
AcDbSymbolTable
 70
     1
  0
LTYPE
  5
12
330
5
100
AcDbSymbolTableRecord
100
AcDbLinetypeTableRecord
  2
BYBLOCK
 70
     0
  3

 72
    65
 73
     0
 40
0.0
  0
LTYPE
  5
13
330
5
100
AcDbSymbolTableRecord
100
AcDbLinetypeTableRecord
  2
BYLAYER
 70
     0
  3

 72
    65
 73
     0
 40
0.0
  0
LTYPE
  5
14
330
5
100
AcDbSymbolTableRecord
100
AcDbLinetypeTableRecord
  2
CONTINUOUS
 70
     0
  3
Solid line
 72
    65
 73
     0
 40
0.0
  0
ENDTAB
  0
TABLE
  2
LAYER
  5
2
330
0
100
AcDbSymbolTable
 70
     3
  0
LAYER
  5
E
330
2
100
AcDbSymbolTableRecord
100
AcDbLayerTableRecord
  2
0
 70
     0
 62
     7
  6
CONTINUOUS
370
    -3
390
B09E
  0
LAYER
  5
B0A8
330
2
100
AcDbSymbolTableRecord
100
AcDbLayerTableRecord
  2
Defpoints
 70
     0
 62
     7
  6
CONTINUOUS
290
     0
370
    -3
390
B09E
  0
LAYER
  5
C090
330
2
100
AcDbSymbolTableRecord
100
AcDbLayerTableRecord
  2
DIM
 70
     0
 62
    -3
  6
CONTINUOUS
370
    -3
390
B09E
  0
ENDTAB
  0
TABLE
  2
STYLE
  5
3
330
0
100
AcDbSymbolTable
 70
     1
  0
STYLE
  5
F
330
3
100
AcDbSymbolTableRecord
100
AcDbTextStyleTableRecord
  2
STANDARD
 70
     0
 40
0.0
 41
1.0
 50
0.0
 71
     0
 42
0.2
  3
txt
  4

  0
ENDTAB
  0
TABLE
  2
VIEW
  5
6
330
0
100
AcDbSymbolTable
 70
     0
  0
ENDTAB
  0
TABLE
  2
UCS
  5
7
330
0
100
AcDbSymbolTable
 70
     0
  0
ENDTAB
  0
TABLE
  2
APPID
  5
9
330
0
100
AcDbSymbolTable
 70
     1
  0
APPID
  5
10
330
9
100
AcDbSymbolTableRecord
100
AcDbRegAppTableRecord
  2
ACAD
 70
     0
  0
ENDTAB
  0
TABLE
  2
DIMSTYLE
  5
A
330
0
100
AcDbSymbolTable
 70
     1
100
AcDbDimStyleTable
 71
     1
340
1D
  0
DIMSTYLE
105
1D
102
{ACAD_REACTORS
330
C023
330
C024
330
C03F
102
}
330
A
100
AcDbSymbolTableRecord
100
AcDbDimStyleTableRecord
  2
STANDARD
 70
     0
140
1.0
277
     5
340
F
  0
ENDTAB
  0
TABLE
  2
BLOCK_RECORD
  5
1
330
0
100
AcDbSymbolTable
 70
     5
  0
BLOCK_RECORD
  5
18
330
1
100
AcDbSymbolTableRecord
100
AcDbBlockTableRecord
  2
*MODEL_SPACE
340
B0A3
  0
BLOCK_RECORD
  5
15
330
1
100
AcDbSymbolTableRecord
100
AcDbBlockTableRecord
  2
*PAPER_SPACE
340
B0A4
  0
BLOCK_RECORD
  5
ADBE
330
1
100
AcDbSymbolTableRecord
100
AcDbBlockTableRecord
  2
3315_E
340
0
  0
BLOCK_RECORD
  5
B086
330
1
100
AcDbSymbolTableRecord
100
AcDbBlockTableRecord
  2
3315_C
340
0
  0
BLOCK_RECORD
  5
C042
330
1
100
AcDbSymbolTableRecord
100
AcDbBlockTableRecord
  2
*D2
340
0
  0
BLOCK_RECORD
  5
C04F
330
1
100
AcDbSymbolTableRecord
100
AcDbBlockTableRecord
  2
*D3
340
0
  0
BLOCK_RECORD
  5
C05C
330
1
100
AcDbSymbolTableRecord
100
AcDbBlockTableRecord
  2
*D4
340
0
  0
ENDTAB
  0
ENDSEC
  0
SECTION
  2
BLOCKS
  0
BLOCK
  5
19
330
18
100
AcDbEntity
  8
0
100
AcDbBlockBegin
  2
*MODEL_SPACE
 70
     0
 10
0.0
 20
0.0
 30
0.0
  3
*MODEL_SPACE
  1

  0
ENDBLK
  5
1A
330
18
100
AcDbEntity
  8
0
100
AcDbBlockEnd
  0
BLOCK
  5
16
330
15
100
AcDbEntity
 67
     1
  8
0
100
AcDbBlockBegin
  2
*PAPER_SPACE
 70
     0
 10
0.0
 20
0.0
 30
0.0
  3
*PAPER_SPACE
  1

  0
ENDBLK
  5
17
330
15
100
AcDbEntity
 67
     1
  8
0
100
AcDbBlockEnd
  0
BLOCK
  5
ADBF
330
ADBE
100
AcDbEntity
  8
0
100
AcDbBlockBegin
  2
3315_E
 70
     0
 10
0.0
 20
0.0
 30
0.0
  3
3315_E
  1

  0
LINE
  5
ADC0
330
ADBE
100
AcDbEntity
  8
0
100
AcDbLine
 10
0.0
 20
0.0
 30
0.0
 11
0.0
 21
-15.40652481028379
 31
0.0
  0
LWPOLYLINE
  5
ADC1
330
ADBE
100
AcDbEntity
  8
0
100
AcDbPolyline
 90
      459
 70
     0
 43
0.0
 10
0.0
 20
-15.40652481028379
 10
0.0819462986120883
 20
-15.39171563853522
 10
0.1576286004948457
 20
-15.37093631368398
 10
0.2295731637006284
 20
-15.34456112189481
 10
0.2974230110417792
 20
-15.31348540185814
 10
0.3608211653306697
 20
-15.27860449226441
 10
0.4194106493796426
 20
-15.24081373180401
 10
0.4728344860010552
 20
-15.20100845916739
 10
0.520735698007286
 20
-15.16008401304497
 10
0.5629089649431194
 20
-15.11878184573261
 10
0.5997555932833052
 20
-15.07722786394801
 10
0.6318285462350346
 20
-15.03539408801435
 10
0.6596807870055131
 20
-14.99325253825477
 10
0.6838652788019317
 20
-14.95077523499244
 10
0.7049349848315032
 20
-14.90793419855051
 10
0.7234428683014116
 20
-14.86470144925216
 10
0.7399418924188624
 20
-14.82104900742052
 10
0.7548975261019209
 20
-14.77676003302935
 10
0.7684252611121068
 20
-14.73086224465482
 10
0.7805530949218067
 20
-14.68219450052367
 10
0.7913090250034216
 20
-14.62959565886263
 10
0.8007210488293168
 20
-14.57190457789846
 10
0.8088171638719003
 20
-14.50796011585789
 10
0.8156253676035518
 20
-14.43660113096769
 10
0.8211736574966508
 20
-14.35666648145459
 10
0.8255250287038933
 20
-14.26759424944073
 10
0.8288824670991274
 20
-14.17121941262975
 10
0.8314839562365037
 20
-14.06997617262069
 10
0.8335674796701724
 20
-13.9662987310126
 10
0.8353710209542839
 20
-13.86262128940451
 10
0.8371325636429887
 20
-13.76137804939545
 10
0.8390900912904371
 20
-13.66500321258447
 10
0.8414815874507723
 20
-13.5759309805706
 10
0.8445077050077642
 20
-13.49597767815789
 10
0.8482197741635886
 20
-13.42448812297037
 10
0.8526317944500689
 20
-13.36018925583711
 10
0.8577577653990005
 20
-13.30180801758716
 10
0.8636116865421783
 20
-13.24807134904956
 10
0.8702075574114189
 20
-13.19770619105338
 10
0.8775593775385104
 20
-13.14943948442767
 10
0.885681146455262
 20
-13.10199817000147
 10
0.8946451928659655
 20
-13.05435867087699
 10
0.9047571621648486
 20
-13.00649533924906
 10
0.9163810289186358
 20
-12.95863200958564
 10
0.9298807676940512
 20
-12.91099251635469
 10
0.9456203530578051
 20
-12.86380069402419
 10
0.9639637595766217
 20
-12.8172803770621
 10
0.9852749618172254
 20
-12.7716553999364
 10
1.009917934346333
 20
-12.72714959711506
 10
1.038146992709584
 20
-12.68399146631822
 10
1.069777816368329
 20
-12.64242815827482
 10
1.104516425762838
 20
-12.60271148696594
 10
1.14206884133334
 20
-12.56509326637269
 10
1.182141083520136
 20
-12.52982531047618
 10
1.224439172763467
 20
-12.49715943325749
 10
1.268669129503592
 20
-12.46734744869774
 10
1.314536974180796
 20
-12.44064117077802
 10
1.361676398796248
 20
-12.41720148063474
 10
1.409431781594776
 20
-12.39682552802551
 10
1.457075172382133
 20
-12.37921952986323
 10
1.503878620964059
 20
-12.36408970306082
 10
1.549114177146307
 20
-12.35114226453118
 10
1.592053890734618
 20
-12.34008343118722
 10
1.631969811534759
 20
-12.33061941994184
 10
1.668133989352455
 20
-12.32245644770796
 10
1.699995795296644
 20
-12.31528441015226
 10
1.727713885688871
 20
-12.30872791795645
 10
1.75162423815388
 20
-12.30239526055603
 10
1.772062830316428
 20
-12.29589472738649
 10
1.789365639801246
 20
-12.28883460788331
 10
1.803868644233062
 20
-12.28082319148199
 10
1.815907821236635
 20
-12.27146876761803
 10
1.825819148436679
 20
-12.26037962572689
 10
1.833914225475027
 20
-12.24681911062434
 10
1.840407140061813
 20
-12.22867078864712
 10
1.845487601924261
 20
-12.20347328151221
 10
1.849345320789609
 20
-12.1687652109366
 10
1.852170006385051
 20
-12.12208519863732
 10
1.85415136843784
 20
-12.06097186633132
 10
1.855479116675155
 20
-11.98296383573562
 10
1.856342960824264
 20
-11.88559972856721
 10
1.856907750667332
 20
-11.76776950985209
 10
1.857238896206453
 20
-11.63376851785237
 10
1.857376947498664
 20
-11.48924343413913
 10
1.857362454601016
 20
-11.33984094028352
 10
1.857235967570588
 20
-11.19120771785661
 10
1.857038036464416
 20
-11.04899044842952
 10
1.856809211339538
 20
-10.91883581357337
 10
1.856590042253031
 20
-10.80639049485926
 10
1.856428695359426
 20
-10.71589196900561
 10
1.856403801203214
 20
-10.64594089332012
 10
1.856601606426409
 20
-10.59372872025781
 10
1.857108357670995
 20
-10.55644690227368
 10
1.858010301578957
 20
-10.53128689182275
 10
1.859393684792294
 20
-10.51544014136003
 10
1.861344753953005
 20
-10.50609810334052
 10
1.863949755703075
 20
-10.50045223021926
 10
1.867413177583699
 20
-10.49614665572162
 10
1.872412470732882
 20
-10.49263623865455
 10
1.879743327187867
 20
-10.48982851909534
 10
1.890201438985855
 20
-10.48763103712134
 10
1.904582498164074
 20
-10.48595133280984
 10
1.923682196759727
 20
-10.48469694623817
 10
1.948296226810029
 20
-10.48377541748362
 10
1.979220280352222
 20
-10.48309428662355
 10
2.017034164079561
 20
-10.48252410946057
 10
2.061454143309561
 20
-10.48178750469869
 10
2.11198059801579
 20
-10.48057010676726
 10
2.168113908171818
 20
-10.47855755009559
 10
2.229354453751199
 20
-10.47543546911301
 10
2.295202614727514
 20
-10.47088949824887
 10
2.365158771074334
 20
-10.46460527193249
 10
2.438723302765211
 20
-10.45626842459321
 10
2.515359580529263
 20
-10.44558924671613
 10
2.594382938117817
 20
-10.43237665300949
 10
2.675071700037719
 20
-10.4164642142373
 10
2.756704190795844
 20
-10.39768550116358
 10
2.838558734899052
 20
-10.37587408455233
 10
2.919913656854191
 20
-10.35086353516757
 10
3.00004728116815
 20
-10.3224874237733
 10
3.078237932347775
 20
-10.29057932113355
 10
3.153908886948954
 20
-10.2550005362729
 10
3.227063229723668
 20
-10.21572333125819
 10
3.297848997472911
 20
-10.17274770641683
 10
3.36641422699769
 20
-10.12607366207626
 10
3.432906955099014
 20
-10.07570119856388
 10
3.497475218577861
 20
-10.02163031620711
 10
3.560267054235254
 20
-9.963861015333385
 10
3.621430498872186
 20
-9.902393296270112
 10
3.681042655199135
 20
-9.837310373689845
 10
3.738896889564458
 20
-9.769028319645741
 10
3.794715634225994
 20
-9.698046420536087
 10
3.848221321441585
 20
-9.624863962759178
 10
3.89913638346907
 20
-9.549980232713295
 10
3.947183252566262
 20
-9.473894516796733
 10
3.992084360991029
 20
-9.3971061014078
 10
4.033562141001183
 20
-9.320114272944763
 10
4.071397622500825
 20
-9.243298119186121
 10
4.105606225978988
 20
-9.166555933431098
 10
4.136261969570995
 20
-9.08966581035915
 10
4.163438871412111
 20
-9.012405844649705
 10
4.187210949637673
 20
-8.934554130982178
 10
4.207652222382947
 20
-8.855888764036038
 10
4.224836707783239
 20
-8.776187838490699
 10
4.238838423973845
 20
-8.695229449025589
 10
4.249719508618014
 20
-8.61284314674738
 10
4.257494577490717
 20
-8.529064308471589
 10
4.262166365894913
 20
-8.443979767440993
 10
4.263737609133485
 20
-8.357676356898338
 10
4.262211042509406
 20
-8.270240910086386
 10
4.257589401325589
 20
-8.181760260247884
 10
4.249875420884947
 20
-8.092321240625608
 10
4.239071836490438
 20
-8.002010684462291
 10
4.22513026823394
 20
-7.910880182535734
 10
4.207797875363269
 20
-7.818840355763782
 10
4.186770701915193
 20
-7.72576658259932
 10
4.161744791926494
 20
-7.631534241495245
 10
4.132416189433925
 20
-7.536018710904414
 10
4.098480938474295
 20
-7.439095369279726
 10
4.059635083084344
 20
-7.340639595074065
 10
4.015574667300882
 20
-7.240526766740302
 10
3.96620746389081
 20
-7.138797646521339
 10
3.91228816054172
 20
-7.036154531820145
 10
3.854783173671307
 20
-6.933465103829703
 10
3.794658919697283
 20
-6.831597043743002
 10
3.732881815037387
 20
-6.731418032753026
 10
3.670418276109344
 20
-6.633795752052748
 10
3.608234719330837
 20
-6.539597882835167
 10
3.54729756111962
 20
-6.449692106293255
 10
3.488396781660782
 20
-6.364704232507833
 10
3.431616616208955
 20
-6.284292587111067
 10
3.376864863786153
 20
-6.207873624622962
 10
3.324049323414428
 20
-6.134863799563504
 10
3.273077794115778
 20
-6.064679566452696
 10
3.223858074912229
 20
-5.996737379810539
 10
3.176297964825792
 20
-5.930453694157037
 10
3.130305262878508
 20
-5.865244964012191
 10
3.085823623969346
 20
-5.800599307312793
 10
3.04294012650503
 20
-5.736291495662925
 10
3.001777704769295
 20
-5.672167964083485
 10
2.962459293045824
 20
-5.608075147595343
 10
2.925107825618326
 20
-5.543859481219371
 10
2.889846236770495
 20
-5.479367399976482
 10
2.85679746078604
 20
-5.414445338887531
 10
2.826084431948657
 20
-5.34893973297342
 10
2.79782496223602
 20
-5.28266630429195
 10
2.772116374401733
 20
-5.215317923048587
 10
2.749050868893363
 20
-5.146556746485742
 10
2.728720646158492
 20
-5.0760449318458
 10
2.711217906644677
 20
-5.003444636371156
 10
2.696634850799497
 20
-4.92841801730421
 10
2.685063679070538
 20
-4.850627231887358
 10
2.676596591905351
 20
-4.769734437362998
 10
2.671382134587361
 20
-4.685483692208407
 10
2.669794231743267
 20
-4.597946659840388
 10
2.67226315283564
 20
-4.507276904910654
 10
2.679219167326991
 20
-4.413627992070885
 10
2.691092544679904
 20
-4.317153485972809
 10
2.708313554356905
 20
-4.218006951268094
 10
2.73131246582055
 20
-4.116341952608451
 10
2.760519548533395
 20
-4.012312054645576
 10
2.7962267711098
 20
-3.906219268046683
 10
2.838172898771532
 20
-3.798959387541032
 10
2.88595839589216
 20
-3.691576653873383
 10
2.939183726845271
 20
-3.585115307788484
 10
2.997449356004437
 20
-3.480619590031139
 10
3.060355747743258
 20
-3.379133741346095
 10
3.127503366435277
 20
-3.281702002478127
 10
3.198492676454108
 20
-3.189368614171996
 10
3.273031709362157
 20
-3.103003777102912
 10
3.351258765477183
 20
-3.022781531667845
 10
3.433419712305763
 20
-2.948701878194228
 10
3.51976041735449
 20
-2.880764817009477
 10
3.61052674812997
 20
-2.818970348440998
 10
3.705964572138768
 20
-2.763318472816209
 10
3.806319756887504
 20
-2.713809190462555
 10
3.911838169882756
 20
-2.670442501707412
 10
4.022596644477218
 20
-2.633274713786221
 10
4.137995877408073
 20
-2.602587361566335
 10
4.257267531258619
 20
-2.578718286823104
 10
4.379643268612142
 20
-2.562005331331874
 10
4.504354752051909
 20
-2.552786336867995
 10
4.630633644161235
 20
-2.551399145206815
 10
4.757711607523404
 20
-2.558181598123681
 10
4.884820304721699
 20
-2.573471537393956
 10
5.011114564456306
 20
-2.597391814324268
 10
5.135441879894926
 20
-2.62920531834635
 10
5.256572910322205
 20
-2.667959948423231
 10
5.373278315022744
 20
-2.712703603517923
 10
5.484328753281147
 20
-2.762484182593468
 10
5.588494884382029
 20
-2.816349584612865
 10
5.684547367610008
 20
-2.873347708539142
 10
5.7712568622497
 20
-2.932526453335341
 10
5.847751945006123
 20
-2.993055929714415
 10
5.914592862265891
 20
-3.05459509538916
 10
5.972697777836017
 20
-3.116925119822312
 10
6.022984855523546
 20
-3.179827172476649
 10
6.066372259135491
 20
-3.243082422814879
 10
6.103778152478895
 20
-3.306472040299766
 10
6.136120699360745
 20
-3.36977719439406
 10
6.164318063588098
 20
-3.432779054560498
 10
6.189182762555489
 20
-3.495166011815911
 10
6.211104728007541
 20
-3.556255343393431
 10
6.230368245276437
 20
-3.615271548080315
 10
6.247257599694307
 20
-3.671439124663777
 10
6.262057076593322
 20
-3.723982571931045
 10
6.275050961305637
 20
-3.772126388669363
 10
6.286523539163397
 20
-3.815095073665958
 10
6.296759095498785
 20
-3.852113125708058
 10
6.306048958549496
 20
-3.882664183980395
 10
6.314712628175598
 20
-3.907268449257614
 10
6.323076647142698
 20
-3.926705262711905
 10
6.331467558216417
 20
-3.941753965515417
 10
6.340211904162359
 20
-3.953193898840325
 10
6.349636227746131
 20
-3.961804403858792
 10
6.360067071733368
 20
-3.968364821742966
 10
6.37183097888969
 20
-3.973654493665009
 10
6.385120673327094
 20
-3.978327989292509
 10
6.399593604543255
 20
-3.982540792274576
 10
6.414773403382255
 20
-3.986323614755761
 10
6.430183700688161
 20
-3.989707168880599
 10
6.445348127305038
 20
-3.992722166793612
 10
6.459790314076954
 20
-3.995399320639364
 10
6.47303389184799
 20
-3.997769342562364
 10
6.484602491462226
 20
-3.99986294470716
 10
6.494140116717602
 20
-4.001718517718273
 10
6.50177226322765
 20
-4.003405166240099
 10
6.507744799559759
 20
-4.004999673417046
 10
6.512303594281334
 20
-4.006578822393521
 10
6.515694515959779
 20
-4.00821939631389
 10
6.518163433162499
 20
-4.009998178322575
 10
6.519956214456897
 20
-4.011991951563942
 10
6.521318728410363
 20
-4.014277499182412
 10
6.522446901460199
 20
-4.016935443299502
 10
6.5233368915233
 20
-4.020061761945314
 10
6.523934914386416
 20
-4.023756272127073
 10
6.524187185836353
 20
-4.028118790852019
 10
6.524039921659863
 20
-4.033249135127377
 10
6.523439337643722
 20
-4.0392471219604
 10
6.522331649574724
 20
-4.046212568358285
 10
6.520663073239617
 20
-4.0542452913283
 10
6.518399033072796
 20
-4.063441268736795
 10
6.515581788098899
 20
-4.073881121886799
 10
6.512272805990207
 20
-4.085641632940408
 10
6.50853355441896
 20
-4.098799584059804
 10
6.504425501057426
 20
-4.113431757407099
 10
6.500010113577857
 20
-4.129614935144431
 10
6.495348859652509
 20
-4.147425899433955
 10
6.490503206953647
 20
-4.166941432437809
 10
6.485552550870977
 20
-4.188198645414303
 10
6.480647997664135
 20
-4.211075966006461
 10
6.47595858131018
 20
-4.23541215095345
 10
6.471653335786214
 20
-4.261045956994465
 10
6.467901295069296
 20
-4.287816140868685
 10
6.464871493136527
 20
-4.315561459315304
 10
6.462732963964981
 20
-4.344120669073518
 10
6.461654741531745
 20
-4.373332526882506
 10
6.461793054225637
 20
-4.403058824326535
 10
6.46325290808248
 20
-4.433253492370269
 10
6.466126503549872
 20
-4.463893496823445
 10
6.470506041075353
 20
-4.494955803495813
 10
6.476483721106518
 20
-4.526417378197109
 10
6.484151744090937
 20
-4.558255186737071
 10
6.493602310476177
 20
-4.590446194925462
 10
6.504927620709821
 20
-4.622967368572005
 10
6.518136638650588
 20
-4.655736806878394
 10
6.532905381801882
 20
-4.688437142614006
 10
6.548826631078242
 20
-4.720692141940176
 10
6.565493167394208
 20
-4.752125571018225
 10
6.582497771664336
 20
-4.782361196009475
 10
6.599433224803178
 20
-4.811022783075259
 10
6.615892307725289
 20
-4.837734098376913
 10
6.631467801345195
 20
-4.862118908075743
 10
6.645829320372172
 20
-4.883891837508713
 10
6.658953814694328
 20
-4.903130948715286
 10
6.670895067994479
 20
-4.920005162910555
 10
6.681706863955426
 20
-4.934683401309612
 10
6.691442986260028
 20
-4.947334585127549
 10
6.700157218591058
 20
-4.958127635579458
 10
6.707903344631375
 20
-4.967231473880445
 10
6.714735148063766
 20
-4.974815021245589
 10
6.720711534788691
 20
-4.981048478549041
 10
6.725911899577056
 20
-4.986107165301106
 10
6.730420759417413
 20
-4.990167680671177
 10
6.734322631298297
 20
-4.993406623828619
 10
6.737702032208247
 20
-4.99600059394281
 10
6.740643479135798
 20
-4.998126190183114
 10
6.743231489069515
 20
-4.999960011718911
 10
6.745550578997907
 20
-5.00167865771958
 10
6.747689107727453
 20
-5.003468965172544
 10
6.749750801336276
 20
-5.005558722337539
 10
6.751843227720414
 20
-5.008185955292347
 10
6.754073954775904
 20
-5.011588690114763
 10
6.756550550398813
 20
-5.016004952882582
 10
6.75938058248515
 20
-5.021672769673571
 10
6.76267161893098
 20
-5.028830166565541
 10
6.766531227632341
 20
-5.037715169636271
 10
6.771082343138132
 20
-5.048473665856036
 10
6.776509366608706
 20
-5.060882985765019
 10
6.783012065857263
 20
-5.074628320795852
 10
6.790790208697032
 20
-5.089394862381183
 10
6.800043562941212
 20
-5.104867801953702
 10
6.810971896403017
 20
-5.120732330946012
 10
6.823774976895649
 20
-5.136673640790803
 10
6.838652572232334
 20
-5.152376922920709
 10
6.85566230756018
 20
-5.167561921090609
 10
6.87429323736201
 20
-5.182086588344162
 10
6.893892273454596
 20
-5.195843430047318
 10
6.91380632765464
 20
-5.208724951565955
 10
6.933382311778899
 20
-5.220623658265992
 10
6.951967137644103
 20
-5.231432055513323
 10
6.968907717067011
 20
-5.241042648673868
 10
6.983550961864366
 20
-5.249347943113519
 10
6.995449954813821
 20
-5.256364575491289
 10
7.00498246253683
 20
-5.262605707638542
 10
7.012732422615783
 20
-5.268708632679746
 10
7.019283772633031
 20
-5.275310643739373
 10
7.025220450170962
 20
-5.283049033941878
 10
7.031126392811955
 20
-5.292561096411731
 10
7.037585538138387
 20
-5.3044841242734
 10
7.045181823732619
 20
-5.319455410651372
 10
7.054326311028461
 20
-5.337852468497629
 10
7.064738556865236
 20
-5.359013690074462
 10
7.075965241933729
 20
-5.382017687471673
 10
7.08755304692471
 20
-5.405943072779066
 10
7.099048652528921
 20
-5.42986845808646
 10
7.109998739437131
 20
-5.452872455483671
 10
7.11994998834011
 20
-5.474033677060504
 10
7.128449079928614
 20
-5.492430734906761
 10
7.135106064866207
 20
-5.50741208442524
 10
7.13978447370772
 20
-5.519405554270534
 10
7.142411206980753
 20
-5.529108816410214
 10
7.142913165212931
 20
-5.537219542811854
 10
7.141217248931894
 20
-5.544435405442996
 10
7.137250358665255
 20
-5.551454076271241
 10
7.130939394940611
 20
-5.558973227264146
 10
7.122211258285616
 20
-5.56769053038927
 10
7.111081624314522
 20
-5.578217009198951
 10
7.097921268988159
 20
-5.590817093584533
 10
7.083189743354026
 20
-5.605668565022114
 10
7.067346598459579
 20
-5.622949204987818
 10
7.050851385352302
 20
-5.64283679495773
 10
7.03416365507968
 20
-5.665509116407974
 10
7.017742958689211
 20
-5.691143950814648
 10
7.002048847228337
 20
-5.719919079653863
 10
6.987488767591841
 20
-5.751896649717266
 10
6.974261750063618
 20
-5.786676269058787
 10
6.962514720774819
 20
-5.823741911047846
 10
6.952394605856611
 20
-5.862577549053909
 10
6.944048331440157
 20
-5.90266715644644
 10
6.937622823656653
 20
-5.943494706594862
 10
6.933265008637235
 20
-5.984544172868666
 10
6.931121812513069
 20
-6.025299528637276
 10
6.931300252972562
 20
-6.065316075465403
 10
6.933747713932945
 20
-6.104434427698805
 10
6.938371670868676
 20
-6.142566527878457
 10
6.945079599254199
 20
-6.179624318545364
 10
6.953778974563988
 20
-6.215519742240502
 10
6.9643772722725
 20
-6.250164741504889
 10
6.976781967854194
 20
-6.283471258879501
 10
6.990900536783513
 20
-6.315351236905328
 10
7.006601536625055
 20
-6.345714416454981
 10
7.023597853303911
 20
-6.374461731727464
 10
7.041563454835269
 20
-6.401491915253387
 10
7.06017230923436
 20
-6.42670369956339
 10
7.079098384516385
 20
-6.449995817188053
 10
7.098015648696545
 20
-6.471267000658016
 10
7.116598069790072
 20
-6.49041598250389
 10
7.13451961581218
 20
-6.507341495256284
 10
7.151499781544728
 20
-6.521992905016801
 10
7.167440168836279
 20
-6.534522112170975
 10
7.182287906302079
 20
-6.54513165067533
 10
7.195990122557347
 20
-6.554024054486347
 10
7.208493946217316
 20
-6.561401857560582
 10
7.219746505897219
 20
-6.567467593854516
 10
7.229694930212275
 20
-6.572423797324688
 10
7.23828634777773
 20
-6.576473001927595
 10
7.245497259935149
 20
-6.579809669563246
 10
7.251421658931434
 20
-6.582595973905512
 10
7.256182909739834
 20
-6.584986016571789
 10
7.259904377333583
 20
-6.587133899179434
 10
7.262709426685944
 20
-6.589193723345815
 10
7.264721422770151
 20
-6.5913195906883
 10
7.266063730559451
 20
-6.593665602824259
 10
7.266859715027095
 20
-6.596385861371089
 10
7.267248895628654
 20
-6.599717532552062
 10
7.267435409749083
 20
-6.604230041014261
 10
7.267639549255648
 20
-6.61057587601067
 10
7.268081606015627
 20
-6.61940752679429
 10
7.268981871896301
 20
-6.631377482618106
 10
7.270560638764962
 20
-6.64713823273513
 10
7.273038198488876
 20
-6.66734226639835
 10
7.276634842935337
 20
-6.692642072860763
 10
7.281515504453025
 20
-6.723416373683718
 10
7.287623677316346
 20
-6.758948819661952
 10
7.294847496281136
 20
-6.79824929389855
 10
7.303075096103199
 20
-6.840327679496581
 10
7.312194611538373
 20
-6.884193859559161
 10
7.322094177342464
 20
-6.928857717189359
 10
7.332661928271321
 20
-6.973329135490274
 10
7.343785999080736
 20
-7.016617997564978
 10
7.355379705897533
 20
-7.057900620008993
 10
7.367457090332337
 20
-7.097019053387498
 10
7.380057375366817
 20
-7.133981781758151
 10
7.393219783982601
 20
-7.168797289178542
 10
7.406983539161316
 20
-7.201474059706328
 10
7.421387863884589
 20
-7.232020577399111
 10
7.436471981134076
 20
-7.26044532631451
 10
7.452275113891388
 20
-7.286756790510182
 10
7.468827315216785
 20
-7.310968617427036
 10
7.486121958484844
 20
-7.333115108039365
 10
7.504143247148789
 20
-7.35323572670471
 10
7.522875384661816
 20
-7.371369937780684
 10
7.542302574477119
 20
-7.387557205624844
 10
7.562409020047923
 20
-7.401836994594773
 10
7.583178924827421
 20
-7.414248769048043
 10
7.604596492268825
 20
-7.424831993342252
 10
7.626819687928474
 20
-7.433564741706504
 10
7.650701525775403
 20
-7.440179527856138
  0
LINE
  5
AF8E
330
ADBE
100
AcDbEntity
  8
0
100
AcDbLine
 10
0.0
 20
0.0
 30
0.0
 11
9.534677656905188
 21
0.0
 31
0.0
  0
LINE
  5
AF8F
330
ADBE
100
AcDbEntity
  8
0
100
AcDbLine
 10
8.355513320401001
 20
-5.277619906959699
 30
0.0
 11
7.021055375089176
 21
-5.277619906959699
 31
0.0
  0
LINE
  5
AF90
330
ADBE
100
AcDbEntity
  8
0
100
AcDbLine
 10
6.522767346922918
 20
-4.018061090277569
 30
0.0
 11
8.855879262658177
 21
-4.018061090277569
 31
0.0
  0
LINE
  5
AF91
330
ADBE
100
AcDbEntity
  8
0
100
AcDbLine
 10
8.646596484749267
 20
-5.002388716677558
 30
0.0
 11
6.746398746992056
 21
-5.00238871667755
 31
0.0
  0
LINE
  5
AF92
330
ADBE
100
AcDbEntity
  8
0
100
AcDbLine
 10
8.207567375766188
 20
-5.544510768302274
 30
0.0
 11
7.141174654514784
 21
-5.544510768302266
 31
0.0
  0
LINE
  5
AF93
330
ADBE
100
AcDbEntity
  8
0
100
AcDbLine
 10
8.444450016881177
 20
-5.228309868059895
 30
0.0
 11
8.424575998372006
 21
-5.239703803458354
 31
0.0
  0
LINE
  5
AF94
330
ADBE
100
AcDbEntity
  8
0
100
AcDbLine
 10
8.054196654647739
 20
-6.629466038576254
 30
0.0
 11
8.05299041730008
 21
-6.641409041236443
 31
0.0
  0
LINE
  5
AF95
330
ADBE
100
AcDbEntity
  8
0
100
AcDbLine
 10
7.817966589012897
 20
-7.337361131737495
 30
0.0
 11
7.799436389148745
 21
-7.357014066215079
 31
0.0
  0
LINE
  5
AF96
330
ADBE
100
AcDbEntity
  8
0
100
AcDbLine
 10
7.674744792675632
 20
-7.434177953769534
 30
0.0
 11
7.650701525775389
 21
-7.440179527856138
 31
0.0
  0
LINE
  5
AF97
330
ADBE
100
AcDbEntity
  8
0
100
AcDbLine
 10
7.780246397861382
 20
-7.374663055465056
 30
0.0
 11
7.760411396781485
 21
-7.390347955099379
 31
0.0
  0
LINE
  5
AF98
330
ADBE
100
AcDbEntity
  8
0
100
AcDbLine
 10
7.760411396781485
 20
-7.390347955099379
 30
0.0
 11
7.739946167539685
 21
-7.404108620730013
 31
0.0
  0
LINE
  5
AF99
330
ADBE
100
AcDbEntity
  8
0
100
AcDbLine
 10
7.697184151093054
 20
-7.426016672428048
 30
0.0
 11
7.674744792675632
 21
-7.434177953769534
 31
0.0
  0
LINE
  5
AF9A
330
ADBE
100
AcDbEntity
  8
0
100
AcDbLine
 10
7.718865491766663
 20
-7.415984907968912
 30
0.0
 11
7.697184151093054
 21
-7.426016672428048
 31
0.0
  0
LINE
  5
AF9B
330
ADBE
100
AcDbEntity
  8
0
100
AcDbLine
 10
7.739946167539685
 20
-7.404108620730013
 30
0.0
 11
7.718865491766663
 21
-7.415984907968912
 31
0.0
  0
LINE
  5
AF9C
330
ADBE
100
AcDbEntity
  8
0
100
AcDbLine
 10
7.799436389148745
 20
-7.357014066215079
 30
0.0
 11
7.780246397861382
 21
-7.374663055465056
 31
0.0
  0
LINE
  5
AF9D
330
ADBE
100
AcDbEntity
  8
0
100
AcDbLine
 10
7.980581950542102
 20
-6.981619412071452
 30
0.0
 11
7.968353922207157
 21
-7.024609478995515
 31
0.0
  0
LINE
  5
AF9E
330
ADBE
100
AcDbEntity
  8
0
100
AcDbLine
 10
7.900447299721996
 20
-7.207788035069356
 30
0.0
 11
7.885266120086306
 21
-7.237955999845887
 31
0.0
  0
LINE
  5
AF9F
330
ADBE
100
AcDbEntity
  8
0
100
AcDbLine
 10
7.835822215823164
 20
-7.315664396420324
 30
0.0
 11
7.817966589012897
 21
-7.337361131737495
 31
0.0
  0
LINE
  5
AFA0
330
ADBE
100
AcDbEntity
  8
0
100
AcDbLine
 10
7.852988487948927
 20
-7.29188400465162
 30
0.0
 11
7.835822215823164
 21
-7.315664396420324
 31
0.0
  0
LINE
  5
AFA1
330
ADBE
100
AcDbEntity
  8
0
100
AcDbLine
 10
7.869459658567251
 20
-7.265985497136185
 30
0.0
 11
7.852988487948927
 21
-7.29188400465162
 31
0.0
  0
LINE
  5
AFA2
330
ADBE
100
AcDbEntity
  8
0
100
AcDbLine
 10
7.885266120086306
 20
-7.237955999845887
 30
0.0
 11
7.869459658567251
 21
-7.265985497136185
 31
0.0
  0
LINE
  5
AFA3
330
ADBE
100
AcDbEntity
  8
0
100
AcDbLine
 10
7.929091522206981
 20
-7.141006792212159
 30
0.0
 11
7.915042624690251
 21
-7.175474125095234
 31
0.0
  0
LINE
  5
AFA4
330
ADBE
100
AcDbEntity
  8
0
100
AcDbLine
 10
7.915042624690251
 20
-7.175474125095234
 30
0.0
 11
7.900447299721996
 21
-7.207788035069356
 31
0.0
  0
LINE
  5
AFA5
330
ADBE
100
AcDbEntity
  8
0
100
AcDbLine
 10
7.942633419488096
 20
-7.104378558708752
 30
0.0
 11
7.929091522206981
 21
-7.141006792212159
 31
0.0
  0
LINE
  5
AFA6
330
ADBE
100
AcDbEntity
  8
0
100
AcDbLine
 10
7.955707743749506
 20
-7.065581946873663
 30
0.0
 11
7.942633419488096
 21
-7.104378558708752
 31
0.0
  0
LINE
  5
AFA7
330
ADBE
100
AcDbEntity
  8
0
100
AcDbLine
 10
7.968353922207157
 20
-7.024609478995515
 30
0.0
 11
7.955707743749506
 21
-7.065581946873663
 31
0.0
  0
LINE
  5
AFA8
330
ADBE
100
AcDbEntity
  8
0
100
AcDbLine
 10
8.022863638143164
 20
-6.807564417623915
 30
0.0
 11
8.013562104089722
 21
-6.849418514169201
 31
0.0
  0
LINE
  5
AFA9
330
ADBE
100
AcDbEntity
  8
0
100
AcDbLine
 10
8.013562104089722
 20
-6.849418514169201
 30
0.0
 11
8.003323203476391
 21
-6.893036999118649
 31
0.0
  0
LINE
  5
AFAA
330
ADBE
100
AcDbEntity
  8
0
100
AcDbLine
 10
7.992284098296188
 20
-6.937432941932613
 30
0.0
 11
7.980581950542102
 21
-6.981619412071452
 31
0.0
  0
LINE
  5
AFAB
330
ADBE
100
AcDbEntity
  8
0
100
AcDbLine
 10
8.003323203476391
 20
-6.893036999118649
 30
0.0
 11
7.992284098296188
 21
-6.937432941932613
 31
0.0
  0
LINE
  5
AFAC
330
ADBE
100
AcDbEntity
  8
0
100
AcDbLine
 10
8.051008908909466
 20
-6.657124236862799
 30
0.0
 11
8.048015214979614
 21
-6.677258264654199
 31
0.0
  0
LINE
  5
AFAD
330
ADBE
100
AcDbEntity
  8
0
100
AcDbLine
 10
8.05299041730008
 20
-6.641409041236443
 30
0.0
 11
8.051008908909466
 21
-6.657124236862799
 31
0.0
  0
LINE
  5
AFAE
330
ADBE
100
AcDbEntity
  8
0
100
AcDbLine
 10
8.031090643643736
 20
-6.768461640022437
 30
0.0
 11
8.022863638143164
 21
-6.807564417623915
 31
0.0
  0
LINE
  5
AFAF
330
ADBE
100
AcDbEntity
  8
0
100
AcDbLine
 10
8.038105958598393
 20
-6.733097111904399
 30
0.0
 11
8.031090643643736
 21
-6.768461640022437
 31
0.0
  0
LINE
  5
AFB0
330
ADBE
100
AcDbEntity
  8
0
100
AcDbLine
 10
8.043772421014182
 20
-6.702457763809476
 30
0.0
 11
8.038105958598393
 21
-6.733097111904399
 31
0.0
  0
LINE
  5
AFB1
330
ADBE
100
AcDbEntity
  8
0
100
AcDbLine
 10
8.048015214979614
 20
-6.677258264654199
 30
0.0
 11
8.043772421014182
 21
-6.702457763809476
 31
0.0
  0
LINE
  5
AFB2
330
ADBE
100
AcDbEntity
  8
0
100
AcDbLine
 10
8.141862707700042
 20
-6.557409617446651
 30
0.0
 11
8.127937454092915
 21
-6.565948521815577
 31
0.0
  0
LINE
  5
AFB3
330
ADBE
100
AcDbEntity
  8
0
100
AcDbLine
 10
8.066911186999547
 20
-6.595393388155279
 30
0.0
 11
7.266569303931703
 21
-6.595393388155279
 31
0.0
  0
LINE
  5
AFB4
330
ADBE
100
AcDbEntity
  8
0
100
AcDbLine
 10
8.0548645354488
 20
-6.620648589683383
 30
0.0
 11
8.054196654647739
 21
-6.629466038576254
 31
0.0
  0
LINE
  5
AFB5
330
ADBE
100
AcDbEntity
  8
0
100
AcDbLine
 10
8.055230974199588
 20
-6.61431005535897
 30
0.0
 11
8.0548645354488
 21
-6.620648589683383
 31
0.0
  0
LINE
  5
AFB6
330
ADBE
100
AcDbEntity
  8
0
100
AcDbLine
 10
8.055532885396402
 20
-6.609803796404172
 30
0.0
 11
8.055230974199588
 21
-6.61431005535897
 31
0.0
  0
LINE
  5
AFB7
330
ADBE
100
AcDbEntity
  8
0
100
AcDbLine
 10
8.056007183535584
 20
-6.606483173620119
 30
0.0
 11
8.055532885396402
 21
-6.609803796404172
 31
0.0
  0
LINE
  5
AFB8
330
ADBE
100
AcDbEntity
  8
0
100
AcDbLine
 10
8.056872508608606
 20
-6.603784171887575
 30
0.0
 11
8.056007183535584
 21
-6.606483173620119
 31
0.0
  0
LINE
  5
AFB9
330
ADBE
100
AcDbEntity
  8
0
100
AcDbLine
 10
8.058274402587557
 20
-6.601473272405748
 30
0.0
 11
8.056872508608606
 21
-6.603784171887575
 31
0.0
  0
LINE
  5
AFBA
330
ADBE
100
AcDbEntity
  8
0
100
AcDbLine
 10
8.060340132939685
 20
-6.599399580453464
 30
0.0
 11
8.058274402587557
 21
-6.601473272405748
 31
0.0
  0
LINE
  5
AFBB
330
ADBE
100
AcDbEntity
  8
0
100
AcDbLine
 10
8.06319696713227
 20
-6.597412201309531
 30
0.0
 11
8.060340132939685
 21
-6.599399580453464
 31
0.0
  0
LINE
  5
AFBC
330
ADBE
100
AcDbEntity
  8
0
100
AcDbLine
 10
8.066972172632503
 20
-6.595360240252773
 30
0.0
 11
8.06319696713227
 21
-6.597412201309531
 31
0.0
  0
LINE
  5
AFBD
330
ADBE
100
AcDbEntity
  8
0
100
AcDbLine
 10
8.071793016907705
 20
-6.593092802562026
 30
0.0
 11
8.066972172632503
 21
-6.595360240252773
 31
0.0
  0
LINE
  5
AFBE
330
ADBE
100
AcDbEntity
  8
0
100
AcDbLine
 10
8.077786767425081
 20
-6.590458993516094
 30
0.0
 11
8.071793016907705
 21
-6.593092802562026
 31
0.0
  0
LINE
  5
AFBF
330
ADBE
100
AcDbEntity
  8
0
100
AcDbLine
 10
8.085080691651896
 20
-6.587307918393818
 30
0.0
 11
8.077786767425081
 21
-6.590458993516094
 31
0.0
  0
LINE
  5
AFC0
330
ADBE
100
AcDbEntity
  8
0
100
AcDbLine
 10
8.093772900478739
 20
-6.583479861522405
 30
0.0
 11
8.085080691651896
 21
-6.587307918393818
 31
0.0
  0
LINE
  5
AFC1
330
ADBE
100
AcDbEntity
  8
0
100
AcDbLine
 10
8.10384487848961
 20
-6.578779823422721
 30
0.0
 11
8.093772900478739
 21
-6.583479861522405
 31
0.0
  0
LINE
  5
AFC2
330
ADBE
100
AcDbEntity
  8
0
100
AcDbLine
 10
8.115248953691903
 20
-6.573003983664023
 30
0.0
 11
8.10384487848961
 21
-6.578779823422721
 31
0.0
  0
LINE
  5
AFC3
330
ADBE
100
AcDbEntity
  8
0
100
AcDbLine
 10
8.127937454092915
 20
-6.565948521815577
 30
0.0
 11
8.115248953691903
 21
-6.573003983664023
 31
0.0
  0
LINE
  5
AFC4
330
ADBE
100
AcDbEntity
  8
0
100
AcDbLine
 10
8.396462539945432
 20
-5.921251109843552
 30
0.0
 11
8.40184132052083
 21
-5.962229698410268
 31
0.0
  0
LINE
  5
AFC5
330
ADBE
100
AcDbEntity
  8
0
100
AcDbLine
 10
8.367249096808677
 20
-6.268114789402133
 30
0.0
 11
8.353996273650679
 21
-6.301093013284599
 31
0.0
  0
LINE
  5
AFC6
330
ADBE
100
AcDbEntity
  8
0
100
AcDbLine
 10
8.266968452705157
 20
-6.442144916785551
 30
0.0
 11
8.247452615690548
 21
-6.464945161842159
 31
0.0
  0
LINE
  5
AFC7
330
ADBE
100
AcDbEntity
  8
0
100
AcDbLine
 10
8.247452615690548
 20
-6.464945161842159
 30
0.0
 11
8.227997295005422
 21
-6.485725359803524
 31
0.0
  0
LINE
  5
AFC8
330
ADBE
100
AcDbEntity
  8
0
100
AcDbLine
 10
8.156977042520637
 20
-6.547183450126496
 30
0.0
 11
8.141862707700042
 21
-6.557409617446651
 31
0.0
  0
LINE
  5
AFC9
330
ADBE
100
AcDbEntity
  8
0
100
AcDbLine
 10
8.173232786562024
 20
-6.535066199424377
 30
0.0
 11
8.156977042520637
 21
-6.547183450126496
 31
0.0
  0
LINE
  5
AFCA
330
ADBE
100
AcDbEntity
  8
0
100
AcDbLine
 10
8.190582267831572
 20
-6.520854044909569
 30
0.0
 11
8.173232786562024
 21
-6.535066199424377
 31
0.0
  0
LINE
  5
AFCB
330
ADBE
100
AcDbEntity
  8
0
100
AcDbLine
 10
8.208931006951758
 20
-6.5043926182869
 30
0.0
 11
8.190582267831572
 21
-6.520854044909569
 31
0.0
  0
LINE
  5
AFCC
330
ADBE
100
AcDbEntity
  8
0
100
AcDbLine
 10
8.227997295005422
 20
-6.485725359803524
 30
0.0
 11
8.208931006951758
 21
-6.5043926182869
 31
0.0
  0
LINE
  5
AFCD
330
ADBE
100
AcDbEntity
  8
0
100
AcDbLine
 10
8.286216289747201
 20
-6.417417517016403
 30
0.0
 11
8.266968452705157
 21
-6.442144916785551
 31
0.0
  0
LINE
  5
AFCE
330
ADBE
100
AcDbEntity
  8
0
100
AcDbLine
 10
8.304867610514662
 20
-6.390855854917461
 30
0.0
 11
8.286216289747201
 21
-6.417417517016403
 31
0.0
  0
LINE
  5
AFCF
330
ADBE
100
AcDbEntity
  8
0
100
AcDbLine
 10
8.322593898705534
 20
-6.36255282287145
 30
0.0
 11
8.304867610514662
 21
-6.390855854917461
 31
0.0
  0
LINE
  5
AFD0
330
ADBE
100
AcDbEntity
  8
0
100
AcDbLine
 10
8.339066638017783
 20
-6.332601313261093
 30
0.0
 11
8.322593898705534
 21
-6.36255282287145
 31
0.0
  0
LINE
  5
AFD1
330
ADBE
100
AcDbEntity
  8
0
100
AcDbLine
 10
8.353996273650679
 20
-6.301093013284599
 30
0.0
 11
8.339066638017783
 21
-6.332601313261093
 31
0.0
  0
LINE
  5
AFD2
330
ADBE
100
AcDbEntity
  8
0
100
AcDbLine
 10
8.405044870176098
 20
-6.084172956047396
 30
0.0
 11
8.401597318806494
 21
-6.123215880325204
 31
0.0
  0
LINE
  5
AFD3
330
ADBE
100
AcDbEntity
  8
0
100
AcDbLine
 10
8.378730360197522
 20
-6.233752302889321
 30
0.0
 11
8.367249096808677
 21
-6.268114789402133
 31
0.0
  0
LINE
  5
AFD4
330
ADBE
100
AcDbEntity
  8
0
100
AcDbLine
 10
8.388345316522944
 20
-6.198091215021804
 30
0.0
 11
8.378730360197522
 21
-6.233752302889321
 31
0.0
  0
LINE
  5
AFD5
330
ADBE
100
AcDbEntity
  8
0
100
AcDbLine
 10
8.395999218490686
 20
-6.161217187075223
 30
0.0
 11
8.388345316522944
 21
-6.198091215021804
 31
0.0
  0
LINE
  5
AFD6
330
ADBE
100
AcDbEntity
  8
0
100
AcDbLine
 10
8.401597318806494
 20
-6.123215880325204
 30
0.0
 11
8.395999218490686
 21
-6.161217187075223
 31
0.0
  0
LINE
  5
AFD7
330
ADBE
100
AcDbEntity
  8
0
100
AcDbLine
 10
8.40514740725662
 20
-6.003377225961784
 30
0.0
 11
8.406247125305242
 21
-6.044174075517432
 31
0.0
  0
LINE
  5
AFD8
330
ADBE
100
AcDbEntity
  8
0
100
AcDbLine
 10
8.406247125305242
 20
-6.044174075517432
 30
0.0
 11
8.405044870176098
 21
-6.084172956047396
 31
0.0
  0
LINE
  5
AFD9
330
ADBE
100
AcDbEntity
  8
0
100
AcDbLine
 10
8.40184132052083
 20
-5.962229698410268
 30
0.0
 11
8.40514740725662
 21
-6.003377225961784
 31
0.0
  0
LINE
  5
AFDA
330
ADBE
100
AcDbEntity
  8
0
100
AcDbLine
 10
8.226928733671726
 20
-5.581825629012882
 30
0.0
 11
8.23778539096267
 21
-5.592633427166447
 31
0.0
  0
LINE
  5
AFDB
330
ADBE
100
AcDbEntity
  8
0
100
AcDbLine
 10
8.356893976198549
 20
-5.769418485037725
 30
0.0
 11
8.369226783656955
 21
-5.804525147858711
 31
0.0
  0
LINE
  5
AFDC
330
ADBE
100
AcDbEntity
  8
0
100
AcDbLine
 10
8.343156849138267
 20
-5.737078846104807
 30
0.0
 11
8.356893976198549
 21
-5.769418485037725
 31
0.0
  0
LINE
  5
AFDD
330
ADBE
100
AcDbEntity
  8
0
100
AcDbLine
 10
8.23778539096267
 20
-5.592633427166447
 30
0.0
 11
8.250619049012286
 21
-5.605566110565703
 31
0.0
  0
LINE
  5
AFDE
330
ADBE
100
AcDbEntity
  8
0
100
AcDbLine
 10
8.250619049012286
 20
-5.605566110565703
 30
0.0
 11
8.264965758461585
 21
-5.62078964429962
 31
0.0
  0
LINE
  5
AFDF
330
ADBE
100
AcDbEntity
  8
0
100
AcDbLine
 10
8.328204123075579
 20
-5.707911584362349
 30
0.0
 11
8.343156849138267
 21
-5.737078846104807
 31
0.0
  0
LINE
  5
AFE0
330
ADBE
100
AcDbEntity
  8
0
100
AcDbLine
 10
8.312444701617579
 20
-5.681864998399603
 30
0.0
 11
8.328204123075579
 21
-5.707911584362349
 31
0.0
  0
LINE
  5
AFE1
330
ADBE
100
AcDbEntity
  8
0
100
AcDbLine
 10
8.296342534123226
 20
-5.658773123127573
 30
0.0
 11
8.312444701617579
 21
-5.681864998399603
 31
0.0
  0
LINE
  5
AFE2
330
ADBE
100
AcDbEntity
  8
0
100
AcDbLine
 10
8.280361569951566
 20
-5.638469993457249
 30
0.0
 11
8.296342534123226
 21
-5.658773123127573
 31
0.0
  0
LINE
  5
AFE3
330
ADBE
100
AcDbEntity
  8
0
100
AcDbLine
 10
8.264965758461585
 20
-5.62078964429962
 30
0.0
 11
8.280361569951566
 21
-5.638469993457249
 31
0.0
  0
LINE
  5
AFE4
330
ADBE
100
AcDbEntity
  8
0
100
AcDbLine
 10
8.369226783656955
 20
-5.804525147858711
 30
0.0
 11
8.380021596665926
 21
-5.84187921758712
 31
0.0
  0
LINE
  5
AFE5
330
ADBE
100
AcDbEntity
  8
0
100
AcDbLine
 10
8.389144740377929
 20
-5.88096107724229
 30
0.0
 11
8.396462539945432
 21
-5.921251109843552
 31
0.0
  0
LINE
  5
AFE6
330
ADBE
100
AcDbEntity
  8
0
100
AcDbLine
 10
8.380021596665926
 20
-5.84187921758712
 30
0.0
 11
8.389144740377929
 21
-5.88096107724229
 31
0.0
  0
LINE
  5
AFE7
330
ADBE
100
AcDbEntity
  8
0
100
AcDbLine
 10
8.373688826044926
 20
-5.267135057238554
 30
0.0
 11
8.361614199345211
 21
-5.273844941976626
 31
0.0
  0
LINE
  5
AFE8
330
ADBE
100
AcDbEntity
  8
0
100
AcDbLine
 10
8.277910280394848
 20
-5.397396833757809
 30
0.0
 11
8.265714108316572
 21
-5.421017897943258
 31
0.0
  0
LINE
  5
AFE9
330
ADBE
100
AcDbEntity
  8
0
100
AcDbLine
 10
8.253610105440699
 20
-5.444641321164624
 30
0.0
 11
8.242075017522978
 21
-5.467357615895025
 31
0.0
  0
LINE
  5
AFEA
330
ADBE
100
AcDbEntity
  8
0
100
AcDbLine
 10
8.218426497482539
 20
-5.572887859546909
 30
0.0
 11
8.226928733671726
 21
-5.581825629012882
 31
0.0
  0
LINE
  5
AFEB
330
ADBE
100
AcDbEntity
  8
0
100
AcDbLine
 10
8.212309986674497
 20
-5.565209696334065
 30
0.0
 11
8.218426497482539
 21
-5.572887859546909
 31
0.0
  0
LINE
  5
AFEC
330
ADBE
100
AcDbEntity
  8
0
100
AcDbLine
 10
8.208523976511116
 20
-5.558091825470846
 30
0.0
 11
8.212309986674497
 21
-5.565209696334065
 31
0.0
  0
LINE
  5
AFED
330
ADBE
100
AcDbEntity
  8
0
100
AcDbLine
 10
8.207013242255811
 20
-5.550834933053721
 30
0.0
 11
8.208523976511116
 21
-5.558091825470846
 31
0.0
  0
LINE
  5
AFEE
330
ADBE
100
AcDbEntity
  8
0
100
AcDbLine
 10
8.207722559172083
 20
-5.542739705179144
 30
0.0
 11
8.207013242255811
 21
-5.550834933053721
 31
0.0
  0
LINE
  5
AFEF
330
ADBE
100
AcDbEntity
  8
0
100
AcDbLine
 10
8.210596702523403
 20
-5.533106827943598
 30
0.0
 11
8.207722559172083
 21
-5.542739705179144
 31
0.0
  0
LINE
  5
AFF0
330
ADBE
100
AcDbEntity
  8
0
100
AcDbLine
 10
8.215580447573245
 20
-5.521236987443558
 30
0.0
 11
8.210596702523403
 21
-5.533106827943598
 31
0.0
  0
LINE
  5
AFF1
330
ADBE
100
AcDbEntity
  8
0
100
AcDbLine
 10
8.22261856958508
 20
-5.506430869775485
 30
0.0
 11
8.215580447573245
 21
-5.521236987443558
 31
0.0
  0
LINE
  5
AFF2
330
ADBE
100
AcDbEntity
  8
0
100
AcDbLine
 10
8.231585590319184
 20
-5.488257294607606
 30
0.0
 11
8.22261856958508
 21
-5.506430869775485
 31
0.0
  0
LINE
  5
AFF3
330
ADBE
100
AcDbEntity
  8
0
100
AcDbLine
 10
8.242075017522978
 20
-5.467357615895025
 30
0.0
 11
8.231585590319184
 21
-5.488257294607606
 31
0.0
  0
LINE
  5
AFF4
330
ADBE
100
AcDbEntity
  8
0
100
AcDbLine
 10
8.265714108316572
 20
-5.421017897943258
 30
0.0
 11
8.253610105440699
 21
-5.444641321164624
 31
0.0
  0
LINE
  5
AFF5
330
ADBE
100
AcDbEntity
  8
0
100
AcDbLine
 10
8.300672149135451
 20
-5.35379973260207
 30
0.0
 11
8.289721875919738
 21
-5.374687616135119
 31
0.0
  0
LINE
  5
AFF6
330
ADBE
100
AcDbEntity
  8
0
100
AcDbLine
 10
8.289721875919738
 20
-5.374687616135119
 30
0.0
 11
8.277910280394848
 21
-5.397396833757809
 31
0.0
  0
LINE
  5
AFF7
330
ADBE
100
AcDbEntity
  8
0
100
AcDbLine
 10
8.310284354286281
 20
-5.33564267068553
 30
0.0
 11
8.300672149135451
 21
-5.35379973260207
 31
0.0
  0
LINE
  5
AFF8
330
ADBE
100
AcDbEntity
  8
0
100
AcDbLine
 10
8.31826121196714
 20
-5.320870646038258
 30
0.0
 11
8.310284354286281
 21
-5.33564267068553
 31
0.0
  0
LINE
  5
AFF9
330
ADBE
100
AcDbEntity
  8
0
100
AcDbLine
 10
8.325023308176014
 20
-5.309116786816701
 30
0.0
 11
8.31826121196714
 21
-5.320870646038258
 31
0.0
  0
LINE
  5
AFFA
330
ADBE
100
AcDbEntity
  8
0
100
AcDbLine
 10
8.331170695261604
 20
-5.29975894930321
 30
0.0
 11
8.325023308176014
 21
-5.309116786816701
 31
0.0
  0
LINE
  5
AFFB
330
ADBE
100
AcDbEntity
  8
0
100
AcDbLine
 10
8.337303425572613
 20
-5.292174989780107
 30
0.0
 11
8.331170695261604
 21
-5.29975894930321
 31
0.0
  0
LINE
  5
AFFC
330
ADBE
100
AcDbEntity
  8
0
100
AcDbLine
 10
8.344021551457743
 20
-5.285742764529743
 30
0.0
 11
8.337303425572613
 21
-5.292174989780107
 31
0.0
  0
LINE
  5
AFFD
330
ADBE
100
AcDbEntity
  8
0
100
AcDbLine
 10
8.351925125265722
 20
-5.279840129834468
 30
0.0
 11
8.344021551457743
 21
-5.285742764529743
 31
0.0
  0
LINE
  5
AFFE
330
ADBE
100
AcDbEntity
  8
0
100
AcDbLine
 10
8.361614199345211
 20
-5.273844941976626
 30
0.0
 11
8.351925125265722
 21
-5.279840129834468
 31
0.0
  0
LINE
  5
AFFF
330
ADBE
100
AcDbEntity
  8
0
100
AcDbLine
 10
8.38853977819582
 20
-5.259207147417114
 30
0.0
 11
8.373688826044926
 21
-5.267135057238554
 31
0.0
  0
LINE
  5
B000
330
ADBE
100
AcDbEntity
  8
0
100
AcDbLine
 10
8.405720710557531
 20
-5.250033146367236
 30
0.0
 11
8.38853977819582
 21
-5.259207147417114
 31
0.0
  0
LINE
  5
B001
330
ADBE
100
AcDbEntity
  8
0
100
AcDbLine
 10
8.424575998372006
 20
-5.239703803458354
 30
0.0
 11
8.405720710557531
 21
-5.250033146367236
 31
0.0
  0
LINE
  5
B002
330
ADBE
100
AcDbEntity
  8
0
100
AcDbLine
 10
9.06950126437151
 20
-2.406741100771355
 30
0.0
 11
9.059989252679457
 21
-2.44505038712645
 31
0.0
  0
LINE
  5
B003
330
ADBE
100
AcDbEntity
  8
0
100
AcDbLine
 10
8.982785179527638
 20
-3.823630594074913
 30
0.0
 11
8.978089996601369
 21
-3.87323797189876
 31
0.0
  0
LINE
  5
B004
330
ADBE
100
AcDbEntity
  8
0
100
AcDbLine
 10
8.905867845954134
 20
-4.526116783622526
 30
0.0
 11
8.899087139412046
 21
-4.557415112012876
 31
0.0
  0
LINE
  5
B005
330
ADBE
100
AcDbEntity
  8
0
100
AcDbLine
 10
8.600138078564924
 20
-5.052340946654744
 30
0.0
 11
8.596052399581182
 21
-5.061124288054038
 31
0.0
  0
LINE
  5
B006
330
ADBE
100
AcDbEntity
  8
0
100
AcDbLine
 10
8.48463174695118
 20
-5.202691217272018
 30
0.0
 11
8.464687141326919
 21
-5.2159420895413
 31
0.0
  0
LINE
  5
B007
330
ADBE
100
AcDbEntity
  8
0
100
AcDbLine
 10
8.464687141326919
 20
-5.2159420895413
 30
0.0
 11
8.444450016881177
 21
-5.228309868059895
 31
0.0
  0
LINE
  5
B008
330
ADBE
100
AcDbEntity
  8
0
100
AcDbLine
 10
8.591227504528745
 20
-5.071762816194279
 30
0.0
 11
8.585484749891676
 21
-5.084029216380635
 31
0.0
  0
LINE
  5
B009
330
ADBE
100
AcDbEntity
  8
0
100
AcDbLine
 10
8.596052399581182
 20
-5.061124288054038
 30
0.0
 11
8.591227504528745
 21
-5.071762816194279
 31
0.0
  0
LINE
  5
B00A
330
ADBE
100
AcDbEntity
  8
0
100
AcDbLine
 10
8.570479071285845
 20
-5.112166365641101
 30
0.0
 11
8.56083285202817
 21
-5.127397481089936
 31
0.0
  0
LINE
  5
B00B
330
ADBE
100
AcDbEntity
  8
0
100
AcDbLine
 10
8.578632488025533
 20
-5.097603671800456
 30
0.0
 11
8.570479071285845
 21
-5.112166365641101
 31
0.0
  0
LINE
  5
B00C
330
ADBE
100
AcDbEntity
  8
0
100
AcDbLine
 10
8.50362820899582
 20
-5.188648000621483
 30
0.0
 11
8.48463174695118
 21
-5.202691217272018
 31
0.0
  0
LINE
  5
B00D
330
ADBE
100
AcDbEntity
  8
0
100
AcDbLine
 10
8.521020902702801
 20
-5.173903188959123
 30
0.0
 11
8.50362820899582
 21
-5.188648000621483
 31
0.0
  0
LINE
  5
B00E
330
ADBE
100
AcDbEntity
  8
0
100
AcDbLine
 10
8.53629541538109
 20
-5.158585709561585
 30
0.0
 11
8.521020902702801
 21
-5.173903188959123
 31
0.0
  0
LINE
  5
B00F
330
ADBE
100
AcDbEntity
  8
0
100
AcDbLine
 10
8.549502182608065
 20
-5.142977201334304
 30
0.0
 11
8.53629541538109
 21
-5.158585709561585
 31
0.0
  0
LINE
  5
B010
330
ADBE
100
AcDbEntity
  8
0
100
AcDbLine
 10
8.56083285202817
 20
-5.127397481089936
 30
0.0
 11
8.549502182608065
 21
-5.142977201334304
 31
0.0
  0
LINE
  5
B011
330
ADBE
100
AcDbEntity
  8
0
100
AcDbLine
 10
8.585484749891676
 20
-5.084029216380635
 30
0.0
 11
8.578632488025533
 21
-5.097603671800456
 31
0.0
  0
LINE
  5
B012
330
ADBE
100
AcDbEntity
  8
0
100
AcDbLine
 10
8.751758767359888
 20
-4.865062970895422
 30
0.0
 11
8.735564457204105
 21
-4.889041279095337
 31
0.0
  0
LINE
  5
B013
330
ADBE
100
AcDbEntity
  8
0
100
AcDbLine
 10
8.72065055241137
 20
-4.910439623159504
 30
0.0
 11
8.707038098233084
 21
-4.929336629337086
 31
0.0
  0
LINE
  5
B014
330
ADBE
100
AcDbEntity
  8
0
100
AcDbLine
 10
8.683485189182817
 20
-4.960296587196623
 30
0.0
 11
8.673428558042232
 21
-4.972694518460663
 31
0.0
  0
LINE
  5
B015
330
ADBE
100
AcDbEntity
  8
0
100
AcDbLine
 10
8.694669006534994
 20
-4.945899787419108
 30
0.0
 11
8.683485189182817
 21
-4.960296587196623
 31
0.0
  0
LINE
  5
B016
330
ADBE
100
AcDbEntity
  8
0
100
AcDbLine
 10
8.707038098233084
 20
-4.929336629337086
 30
0.0
 11
8.694669006534994
 21
-4.945899787419108
 31
0.0
  0
LINE
  5
B017
330
ADBE
100
AcDbEntity
  8
0
100
AcDbLine
 10
8.603611168481805
 20
-5.045270098220072
 30
0.0
 11
8.600138078564924
 21
-5.052340946654744
 31
0.0
  0
LINE
  5
B018
330
ADBE
100
AcDbEntity
  8
0
100
AcDbLine
 10
8.606585292205195
 20
-5.039676546855872
 30
0.0
 11
8.603611168481805
 21
-5.045270098220072
 31
0.0
  0
LINE
  5
B019
330
ADBE
100
AcDbEntity
  8
0
100
AcDbLine
 10
8.609174072608468
 20
-5.035325096668003
 30
0.0
 11
8.606585292205195
 21
-5.039676546855872
 31
0.0
  0
LINE
  5
B01A
330
ADBE
100
AcDbEntity
  8
0
100
AcDbLine
 10
8.611491132564921
 20
-5.031980551762352
 30
0.0
 11
8.609174072608468
 21
-5.035325096668003
 31
0.0
  0
LINE
  5
B01B
330
ADBE
100
AcDbEntity
  8
0
100
AcDbLine
 10
8.613650094947942
 20
-5.029407716244762
 30
0.0
 11
8.611491132564921
 21
-5.031980551762352
 31
0.0
  0
LINE
  5
B01C
330
ADBE
100
AcDbEntity
  8
0
100
AcDbLine
 10
8.615764582630873
 20
-5.027371394221098
 30
0.0
 11
8.613650094947942
 21
-5.029407716244762
 31
0.0
  0
LINE
  5
B01D
330
ADBE
100
AcDbEntity
  8
0
100
AcDbLine
 10
8.617948218487043
 20
-5.025636389797227
 30
0.0
 11
8.615764582630873
 21
-5.027371394221098
 31
0.0
  0
LINE
  5
B01E
330
ADBE
100
AcDbEntity
  8
0
100
AcDbLine
 10
8.620310522882363
 20
-5.023977643247725
 30
0.0
 11
8.617948218487043
 21
-5.025636389797227
 31
0.0
  0
LINE
  5
B01F
330
ADBE
100
AcDbEntity
  8
0
100
AcDbLine
 10
8.622944606152771
 20
-5.022210639522008
 30
0.0
 11
8.620310522882363
 21
-5.023977643247725
 31
0.0
  0
LINE
  5
B020
330
ADBE
100
AcDbEntity
  8
0
100
AcDbLine
 10
8.625939476126745
 20
-5.020160999738195
 30
0.0
 11
8.622944606152771
 21
-5.022210639522008
 31
0.0
  0
LINE
  5
B021
330
ADBE
100
AcDbEntity
  8
0
100
AcDbLine
 10
8.629384140632808
 20
-5.017654345014435
 30
0.0
 11
8.625939476126745
 21
-5.020160999738195
 31
0.0
  0
LINE
  5
B022
330
ADBE
100
AcDbEntity
  8
0
100
AcDbLine
 10
8.633367607499423
 20
-5.014516296468826
 30
0.0
 11
8.629384140632808
 21
-5.017654345014435
 31
0.0
  0
LINE
  5
B023
330
ADBE
100
AcDbEntity
  8
0
100
AcDbLine
 10
8.637978884555096
 20
-5.010572475219532
 30
0.0
 11
8.633367607499423
 21
-5.014516296468826
 31
0.0
  0
LINE
  5
B024
330
ADBE
100
AcDbEntity
  8
0
100
AcDbLine
 10
8.643306979628277
 20
-5.005648502384644
 30
0.0
 11
8.637978884555096
 21
-5.010572475219532
 31
0.0
  0
LINE
  5
B025
330
ADBE
100
AcDbEntity
  8
0
100
AcDbLine
 10
8.649440900547503
 20
-4.999569999082318
 30
0.0
 11
8.643306979628277
 21
-5.005648502384644
 31
0.0
  0
LINE
  5
B026
330
ADBE
100
AcDbEntity
  8
0
100
AcDbLine
 10
8.656464501858863
 20
-4.992163734612475
 30
0.0
 11
8.649440900547503
 21
-4.999569999082318
 31
0.0
  0
LINE
  5
B027
330
ADBE
100
AcDbEntity
  8
0
100
AcDbLine
 10
8.664441024979026
 20
-4.98326107100226
 30
0.0
 11
8.656464501858863
 21
-4.992163734612475
 31
0.0
  0
LINE
  5
B028
330
ADBE
100
AcDbEntity
  8
0
100
AcDbLine
 10
8.673428558042232
 20
-4.972694518460663
 30
0.0
 11
8.664441024979026
 21
-4.98326107100226
 31
0.0
  0
LINE
  5
B029
330
ADBE
100
AcDbEntity
  8
0
100
AcDbLine
 10
8.735564457204105
 20
-4.889041279095337
 30
0.0
 11
8.72065055241137
 21
-4.910439623159504
 31
0.0
  0
LINE
  5
B02A
330
ADBE
100
AcDbEntity
  8
0
100
AcDbLine
 10
8.838538473075388
 20
-4.717938215839652
 30
0.0
 11
8.821797151873553
 21
-4.749775290524183
 31
0.0
  0
LINE
  5
B02B
330
ADBE
100
AcDbEntity
  8
0
100
AcDbLine
 10
8.768895904084587
 20
-4.838781526478115
 30
0.0
 11
8.751758767359888
 21
-4.865062970895422
 31
0.0
  0
LINE
  5
B02C
330
ADBE
100
AcDbEntity
  8
0
100
AcDbLine
 10
8.786559155198318
 20
-4.810562637303647
 30
0.0
 11
8.768895904084587
 21
-4.838781526478115
 31
0.0
  0
LINE
  5
B02D
330
ADBE
100
AcDbEntity
  8
0
100
AcDbLine
 10
8.804331808521254
 20
-4.780771994832264
 30
0.0
 11
8.786559155198318
 21
-4.810562637303647
 31
0.0
  0
LINE
  5
B02E
330
ADBE
100
AcDbEntity
  8
0
100
AcDbLine
 10
8.821797151873553
 20
-4.749775290524183
 30
0.0
 11
8.804331808521254
 21
-4.780771994832264
 31
0.0
  0
LINE
  5
B02F
330
ADBE
100
AcDbEntity
  8
0
100
AcDbLine
 10
8.854139059946874
 20
-4.6856264622389
 30
0.0
 11
8.838538473075388
 21
-4.717938215839652
 31
0.0
  0
LINE
  5
B030
330
ADBE
100
AcDbEntity
  8
0
100
AcDbLine
 10
8.868182200308183
 20
-4.653205721182168
 30
0.0
 11
8.854139059946874
 21
-4.6856264622389
 31
0.0
  0
LINE
  5
B031
330
ADBE
100
AcDbEntity
  8
0
100
AcDbLine
 10
8.880335897493552
 20
-4.620984966505034
 30
0.0
 11
8.868182200308183
 21
-4.653205721182168
 31
0.0
  0
LINE
  5
B032
330
ADBE
100
AcDbEntity
  8
0
100
AcDbLine
 10
8.890607016893341
 20
-4.589046301544492
 30
0.0
 11
8.880335897493552
 21
-4.620984966505034
 31
0.0
  0
LINE
  5
B033
330
ADBE
100
AcDbEntity
  8
0
100
AcDbLine
 10
8.899087139412046
 20
-4.557415112012876
 30
0.0
 11
8.890607016893341
 21
-4.589046301544492
 31
0.0
  0
LINE
  5
B034
330
ADBE
100
AcDbEntity
  8
0
100
AcDbLine
 10
8.888143402627449
 20
-4.166941432437809
 30
0.0
 11
8.893094058710119
 21
-4.188198645414303
 31
0.0
  0
LINE
  5
B035
330
ADBE
100
AcDbEntity
  8
0
100
AcDbLine
 10
8.88572113274354
 20
-4.160140622747555
 30
0.0
 11
8.889925145001711
 21
-4.17806502003205
 31
0.0
  0
LINE
  5
B036
330
ADBE
100
AcDbEntity
  8
0
100
AcDbLine
 10
8.916090576513923
 20
-4.346925336744249
 30
0.0
 11
8.917497682692243
 21
-4.375529913672323
 31
0.0
  0
LINE
  5
B037
330
ADBE
100
AcDbEntity
  8
0
100
AcDbLine
 10
8.917828130445514
 20
-4.404759795720494
 30
0.0
 11
8.91692927876528
 21
-4.434472822422421
 31
0.0
  0
LINE
  5
B038
330
ADBE
100
AcDbEntity
  8
0
100
AcDbLine
 10
8.911040717424043
 20
-4.495176702085771
 30
0.0
 11
8.905867845954134
 21
-4.526116783622526
 31
0.0
  0
LINE
  5
B039
330
ADBE
100
AcDbEntity
  8
0
100
AcDbLine
 10
8.914697334726284
 20
-4.464620253114958
 30
0.0
 11
8.911040717424043
 21
-4.495176702085771
 31
0.0
  0
LINE
  5
B03A
330
ADBE
100
AcDbEntity
  8
0
100
AcDbLine
 10
8.91692927876528
 20
-4.434472822422421
 30
0.0
 11
8.914697334726284
 21
-4.464620253114958
 31
0.0
  0
LINE
  5
B03B
330
ADBE
100
AcDbEntity
  8
0
100
AcDbLine
 10
8.917497682692243
 20
-4.375529913672323
 30
0.0
 11
8.917828130445514
 21
-4.404759795720494
 31
0.0
  0
LINE
  5
B03C
330
ADBE
100
AcDbEntity
  8
0
100
AcDbLine
 10
8.889925145001711
 20
-4.17806502003205
 30
0.0
 11
8.894269882155469
 21
-4.197698146058421
 31
0.0
  0
LINE
  5
B03D
330
ADBE
100
AcDbEntity
  8
0
100
AcDbLine
 10
8.893094058710119
 20
-4.188198645414303
 30
0.0
 11
8.89799861191696
 21
-4.211075966006454
 31
0.0
  0
LINE
  5
B03E
330
ADBE
100
AcDbEntity
  8
0
100
AcDbLine
 10
8.913771664939787
 20
-4.319111580353435
 30
0.0
 11
8.916090576513923
 21
-4.346925336744249
 31
0.0
  0
LINE
  5
B03F
330
ADBE
100
AcDbEntity
  8
0
100
AcDbLine
 10
8.910705800999082
 20
-4.292254159917021
 30
0.0
 11
8.913771664939787
 21
-4.319111580353435
 31
0.0
  0
LINE
  5
B040
330
ADBE
100
AcDbEntity
  8
0
100
AcDbLine
 10
8.907057837721055
 20
-4.266518590852165
 30
0.0
 11
8.910705800999082
 21
-4.292254159917021
 31
0.0
  0
LINE
  5
B041
330
ADBE
100
AcDbEntity
  8
0
100
AcDbLine
 10
8.902992628134938
 20
-4.24207038857601
 30
0.0
 11
8.907057837721055
 21
-4.266518590852165
 31
0.0
  0
LINE
  5
B042
330
ADBE
100
AcDbEntity
  8
0
100
AcDbLine
 10
8.898675025270009
 20
-4.219075068505709
 30
0.0
 11
8.902992628134938
 21
-4.24207038857601
 31
0.0
  0
LINE
  5
B043
330
ADBE
100
AcDbEntity
  8
0
100
AcDbLine
 10
8.894269882155469
 20
-4.197698146058421
 30
0.0
 11
8.898675025270009
 21
-4.219075068505709
 31
0.0
  0
LWPOLYLINE
  5
B044
330
ADBE
100
AcDbEntity
  8
0
100
AcDbPolyline
 90
       17
 70
     0
 43
0.0
 10
8.911218921462847
 20
-3.996766076981558
 10
8.905612717733106
 20
-3.997769342562364
 10
8.89404411811887
 20
-3.99986294470716
 10
8.884506492863494
 20
-4.001718517718266
 10
8.876874346353446
 20
-4.003405166240099
 10
8.870901810021337
 20
-4.004999673417046
 10
8.866343015299761
 20
-4.006578822393514
 10
8.862952093621316
 20
-4.00821939631389
 10
8.860483176418597
 20
-4.009998178322568
 10
8.858690395124199
 20
-4.011991951563942
 10
8.857327881170732
 20
-4.014277499182412
 10
8.856199708120897
 20
-4.016935443299502
 10
8.855309718057796
 20
-4.020061761945314
 10
8.85471169519468
 20
-4.023756272127073
 10
8.854459423744742
 20
-4.028118790852019
 10
8.854606687921233
 20
-4.033249135127377
 10
8.855207271937374
 20
-4.039247121960393
  0
ARC
  5
B045
330
ADBE
100
AcDbEntity
  8
0
100
AcDbCircle
 10
8.891443186564799
 20
-3.919034150362591
 30
0.0
 40
0.0802080551232581
100
AcDbArc
 50
284.2737759431314
 51
353.0095072737018
  0
LINE
  5
B046
330
ADBE
100
AcDbEntity
  8
0
100
AcDbLine
 10
8.883297749928587
 20
-4.147425899433955
 30
0.0
 11
8.888143402627449
 21
-4.166941432437809
 31
0.0
  0
LINE
  5
B047
330
ADBE
100
AcDbEntity
  8
0
100
AcDbLine
 10
8.878636496003238
 20
-4.129614935144431
 30
0.0
 11
8.883297749928587
 21
-4.147425899433955
 31
0.0
  0
LINE
  5
B048
330
ADBE
100
AcDbEntity
  8
0
100
AcDbLine
 10
8.87422110852367
 20
-4.113431757407091
 30
0.0
 11
8.878636496003238
 21
-4.129614935144431
 31
0.0
  0
LINE
  5
B049
330
ADBE
100
AcDbEntity
  8
0
100
AcDbLine
 10
8.870113055162136
 20
-4.098799584059797
 30
0.0
 11
8.87422110852367
 21
-4.113431757407091
 31
0.0
  0
LINE
  5
B04A
330
ADBE
100
AcDbEntity
  8
0
100
AcDbLine
 10
8.866373803590889
 20
-4.085641632940408
 30
0.0
 11
8.870113055162136
 21
-4.098799584059797
 31
0.0
  0
LINE
  5
B04B
330
ADBE
100
AcDbEntity
  8
0
100
AcDbLine
 10
8.863064821482197
 20
-4.073881121886792
 30
0.0
 11
8.866373803590889
 21
-4.085641632940408
 31
0.0
  0
LINE
  5
B04C
330
ADBE
100
AcDbEntity
  8
0
100
AcDbLine
 10
8.860247576508299
 20
-4.063441268736795
 30
0.0
 11
8.863064821482197
 21
-4.073881121886792
 31
0.0
  0
LINE
  5
B04D
330
ADBE
100
AcDbEntity
  8
0
100
AcDbLine
 10
8.857983536341478
 20
-4.054245291328292
 30
0.0
 11
8.860247576508299
 21
-4.063441268736795
 31
0.0
  0
LINE
  5
B04E
330
ADBE
100
AcDbEntity
  8
0
100
AcDbLine
 10
8.856314960006372
 20
-4.046212568358285
 30
0.0
 11
8.857983536341478
 21
-4.054245291328292
 31
0.0
  0
LINE
  5
B04F
330
ADBE
100
AcDbEntity
  8
0
100
AcDbLine
 10
8.881721257496877
 20
-4.143849769906651
 30
0.0
 11
8.88572113274354
 21
-4.160140622747555
 31
0.0
  0
LINE
  5
B050
330
ADBE
100
AcDbEntity
  8
0
100
AcDbLine
 10
8.877988931377657
 20
-4.129117277211037
 30
0.0
 11
8.881721257496877
 21
-4.143849769906651
 31
0.0
  0
LINE
  5
B051
330
ADBE
100
AcDbEntity
  8
0
100
AcDbLine
 10
8.874587566501816
 20
-4.115867960362436
 30
0.0
 11
8.877988931377657
 21
-4.129117277211037
 31
0.0
  0
LINE
  5
B052
330
ADBE
100
AcDbEntity
  8
0
100
AcDbLine
 10
8.871580574985273
 20
-4.104026635062567
 30
0.0
 11
8.874587566501816
 21
-4.115867960362436
 31
0.0
  0
LINE
  5
B053
330
ADBE
100
AcDbEntity
  8
0
100
AcDbLine
 10
8.855207271937374
 20
-4.039247121960393
 30
0.0
 11
8.856314960006372
 21
-4.046212568358285
 31
0.0
  0
LINE
  5
B054
330
ADBE
100
AcDbEntity
  8
0
100
AcDbLine
 10
8.978089996601369
 20
-3.87323797189876
 30
0.0
 11
8.971055003893255
 21
-3.928795843264794
 31
0.0
  0
LINE
  5
B055
330
ADBE
100
AcDbEntity
  8
0
100
AcDbLine
 10
9.012925455273858
 20
-3.058907044717066
 30
0.0
 11
9.009467729863573
 21
-3.165122535611864
 31
0.0
  0
LINE
  5
B056
330
ADBE
100
AcDbEntity
  8
0
100
AcDbLine
 10
9.002517621264473
 20
-3.384213158520154
 30
0.0
 11
8.998932716202119
 21
-3.490744936274992
 31
0.0
  0
LINE
  5
B057
330
ADBE
100
AcDbEntity
  8
0
100
AcDbLine
 10
8.995212896048911
 20
-3.59103878872451
 30
0.0
 11
8.99131189986808
 21
-3.681923038739398
 31
0.0
  0
LINE
  5
B058
330
ADBE
100
AcDbEntity
  8
0
100
AcDbLine
 10
8.987183466722854
 20
-3.760226009190311
 30
0.0
 11
8.982785179527638
 21
-3.823630594074913
 31
0.0
  0
LINE
  5
B059
330
ADBE
100
AcDbEntity
  8
0
100
AcDbLine
 10
8.99131189986808
 20
-3.681923038739398
 30
0.0
 11
8.987183466722854
 21
-3.760226009190311
 31
0.0
  0
LINE
  5
B05A
330
ADBE
100
AcDbEntity
  8
0
100
AcDbLine
 10
8.998932716202119
 20
-3.490744936274992
 30
0.0
 11
8.995212896048911
 21
-3.59103878872451
 31
0.0
  0
LINE
  5
B05B
330
ADBE
100
AcDbEntity
  8
0
100
AcDbLine
 10
9.006013872172701
 20
-3.274615132589332
 30
0.0
 11
9.002517621264473
 21
-3.384213158520154
 31
0.0
  0
LINE
  5
B05C
330
ADBE
100
AcDbEntity
  8
0
100
AcDbLine
 10
9.009467729863573
 20
-3.165122535611864
 30
0.0
 11
9.006013872172701
 21
-3.274615132589332
 31
0.0
  0
LINE
  5
B05D
330
ADBE
100
AcDbEntity
  8
0
100
AcDbLine
 10
9.028149361248281
 20
-2.712915170939631
 30
0.0
 11
9.02391159041953
 21
-2.7865038276408
 31
0.0
  0
LINE
  5
B05E
330
ADBE
100
AcDbEntity
  8
0
100
AcDbLine
 10
9.020053445903499
 20
-2.868352070670155
 30
0.0
 11
9.0164333093403
 21
-2.95914033703427
 31
0.0
  0
LINE
  5
B05F
330
ADBE
100
AcDbEntity
  8
0
100
AcDbLine
 10
9.0164333093403
 20
-2.95914033703427
 30
0.0
 11
9.012925455273858
 21
-3.058907044717066
 31
0.0
  0
LINE
  5
B060
330
ADBE
100
AcDbEntity
  8
0
100
AcDbLine
 10
9.02391159041953
 20
-2.7865038276408
 30
0.0
 11
9.020053445903499
 21
-2.868352070670155
 31
0.0
  0
LINE
  5
B061
330
ADBE
100
AcDbEntity
  8
0
100
AcDbLine
 10
9.038330255283554
 20
-2.587794868495542
 30
0.0
 11
9.032908376749645
 21
-2.646905663560069
 31
0.0
  0
LINE
  5
B062
330
ADBE
100
AcDbEntity
  8
0
100
AcDbLine
 10
9.032908376749645
 20
-2.646905663560069
 30
0.0
 11
9.028149361248281
 21
-2.712915170939631
 31
0.0
  0
LINE
  5
B063
330
ADBE
100
AcDbEntity
  8
0
100
AcDbLine
 10
9.044556615209884
 20
-2.534902348739478
 30
0.0
 11
9.038330255283554
 21
-2.587794868495542
 31
0.0
  0
LINE
  5
B064
330
ADBE
100
AcDbEntity
  8
0
100
AcDbLine
 10
9.051729074888555
 20
-2.487547667285312
 30
0.0
 11
9.044556615209884
 21
-2.534902348739478
 31
0.0
  0
LINE
  5
B065
330
ADBE
100
AcDbEntity
  8
0
100
AcDbLine
 10
9.059989252679457
 20
-2.44505038712645
 30
0.0
 11
9.051729074888555
 21
-2.487547667285312
 31
0.0
  0
LINE
  5
B066
330
ADBE
100
AcDbEntity
  8
0
100
AcDbLine
 10
9.534555683618222
 20
-1.00350715291605
 30
0.0
 11
9.534263715534237
 21
-1.333865916672834
 31
0.0
  0
LINE
  5
B067
330
ADBE
100
AcDbEntity
  8
0
100
AcDbLine
 10
9.532757774890541
 20
-1.712884241427666
 30
0.0
 11
9.531359401435693
 21
-1.800733529238591
 31
0.0
  0
LINE
  5
B068
330
ADBE
100
AcDbEntity
  8
0
100
AcDbLine
 10
9.385518610040847
 20
-2.045822919621897
 30
0.0
 11
9.353965520098725
 21
-2.070357462253056
 31
0.0
  0
LINE
  5
B069
330
ADBE
100
AcDbEntity
  8
0
100
AcDbLine
 10
9.320937221404221
 20
-2.096151236534254
 30
0.0
 11
9.287417187696533
 21
-2.122804973126903
 31
0.0
  0
LINE
  5
B06A
330
ADBE
100
AcDbEntity
  8
0
100
AcDbLine
 10
9.167879164739176
 20
-2.230203077382363
 30
0.0
 11
9.145182472601632
 21
-2.256350036250751
 31
0.0
  0
LINE
  5
B06B
330
ADBE
100
AcDbEntity
  8
0
100
AcDbLine
 10
9.145182472601632
 20
-2.256350036250751
 30
0.0
 11
9.125374734539832
 21
-2.2829883999091
 31
0.0
  0
LINE
  5
B06C
330
ADBE
100
AcDbEntity
  8
0
100
AcDbLine
 10
9.080519215469635
 20
-2.371994518788532
 30
0.0
 11
9.06950126437151
 21
-2.406741100771355
 31
0.0
  0
LINE
  5
B06D
330
ADBE
100
AcDbEntity
  8
0
100
AcDbLine
 10
9.09331970890777
 20
-2.340196381261527
 30
0.0
 11
9.080519215469635
 21
-2.371994518788532
 31
0.0
  0
LINE
  5
B06E
330
ADBE
100
AcDbEntity
  8
0
100
AcDbLine
 10
9.108179347619852
 20
-2.310732428273873
 30
0.0
 11
9.09331970890777
 21
-2.340196381261527
 31
0.0
  0
LINE
  5
B06F
330
ADBE
100
AcDbEntity
  8
0
100
AcDbLine
 10
9.125374734539832
 20
-2.2829883999091
 30
0.0
 11
9.108179347619852
 21
-2.310732428273873
 31
0.0
  0
LINE
  5
B070
330
ADBE
100
AcDbEntity
  8
0
100
AcDbLine
 10
9.193741413886414
 20
-2.203933263387469
 30
0.0
 11
9.167879164739176
 21
-2.230203077382363
 31
0.0
  0
LINE
  5
B071
330
ADBE
100
AcDbEntity
  8
0
100
AcDbLine
 10
9.222835810198432
 20
-2.177095255892112
 30
0.0
 11
9.193741413886414
 21
-2.203933263387469
 31
0.0
  0
LINE
  5
B072
330
ADBE
100
AcDbEntity
  8
0
100
AcDbLine
 10
9.254388892714871
 20
-2.14991940269239
 30
0.0
 11
9.222835810198432
 21
-2.177095255892112
 31
0.0
  0
LINE
  5
B073
330
ADBE
100
AcDbEntity
  8
0
100
AcDbLine
 10
9.287417187696533
 20
-2.122804973126903
 30
0.0
 11
9.254388892714871
 21
-2.14991940269239
 31
0.0
  0
LINE
  5
B074
330
ADBE
100
AcDbEntity
  8
0
100
AcDbLine
 10
9.353965520098725
 20
-2.070357462253056
 30
0.0
 11
9.320937221404221
 21
-2.096151236534254
 31
0.0
  0
LINE
  5
B075
330
ADBE
100
AcDbEntity
  8
0
100
AcDbLine
 10
9.523414796026358
 20
-1.889616821340467
 30
0.0
 11
9.518820139151372
 21
-1.906304191317815
 31
0.0
  0
LINE
  5
B076
330
ADBE
100
AcDbEntity
  8
0
100
AcDbLine
 10
9.440265268711129
 20
-2.002128606664136
 30
0.0
 11
9.414613017491376
 21
-2.022946877979393
 31
0.0
  0
LINE
  5
B077
330
ADBE
100
AcDbEntity
  8
0
100
AcDbLine
 10
9.414613017491376
 20
-2.022946877979393
 30
0.0
 11
9.385518610040847
 21
-2.045822919621897
 31
0.0
  0
LINE
  5
B078
330
ADBE
100
AcDbEntity
  8
0
100
AcDbLine
 10
9.518820139151372
 20
-1.906304191317815
 30
0.0
 11
9.512565872098434
 21
-1.921763042444482
 31
0.0
  0
LINE
  5
B079
330
ADBE
100
AcDbEntity
  8
0
100
AcDbLine
 10
9.461732636133874
 20
-1.98359845349951
 30
0.0
 11
9.440265268711129
 21
-2.002128606664136
 31
0.0
  0
LINE
  5
B07A
330
ADBE
100
AcDbEntity
  8
0
100
AcDbLine
 10
9.479235376885299
 20
-1.966911080247989
 30
0.0
 11
9.461732636133874
 21
-1.98359845349951
 31
0.0
  0
LINE
  5
B07B
330
ADBE
100
AcDbEntity
  8
0
100
AcDbLine
 10
9.493234494264072
 20
-1.951452227156813
 30
0.0
 11
9.479235376885299
 21
-1.966911080247989
 31
0.0
  0
LINE
  5
B07C
330
ADBE
100
AcDbEntity
  8
0
100
AcDbLine
 10
9.504190991568904
 20
-1.936607634473226
 30
0.0
 11
9.493234494264072
 21
-1.951452227156813
 31
0.0
  0
LINE
  5
B07D
330
ADBE
100
AcDbEntity
  8
0
100
AcDbLine
 10
9.512565872098434
 20
-1.921763042444482
 30
0.0
 11
9.504190991568904
 21
-1.936607634473226
 31
0.0
  0
LINE
  5
B07E
330
ADBE
100
AcDbEntity
  8
0
100
AcDbLine
 10
9.526810846022101
 20
-1.871086672759702
 30
0.0
 11
9.523414796026358
 21
-1.889616821340467
 31
0.0
  0
LINE
  5
B07F
330
ADBE
100
AcDbEntity
  8
0
100
AcDbLine
 10
9.529407825295407
 20
-1.846936051880454
 30
0.0
 11
9.526810846022101
 21
-1.871086672759702
 31
0.0
  0
LINE
  5
B080
330
ADBE
100
AcDbEntity
  8
0
100
AcDbLine
 10
9.531359401435693
 20
-1.800733529238591
 30
0.0
 11
9.529407825295407
 21
-1.846936051880454
 31
0.0
  0
LINE
  5
B081
330
ADBE
100
AcDbEntity
  8
0
100
AcDbLine
 10
9.534263715534237
 20
-1.333865916672834
 30
0.0
 11
9.533695146107532
 21
-1.563793325041231
 31
0.0
  0
LINE
  5
B082
330
ADBE
100
AcDbEntity
  8
0
100
AcDbLine
 10
9.533695146107532
 20
-1.563793325041231
 30
0.0
 11
9.532757774890541
 21
-1.712884241427666
 31
0.0
  0
LINE
  5
B083
330
ADBE
100
AcDbEntity
  8
0
100
AcDbLine
 10
9.534677656905188
 20
0.0
 30
0.0
 11
9.534663250807057
 21
-0.553122170364432
 31
0.0
  0
LINE
  5
B084
330
ADBE
100
AcDbEntity
  8
0
100
AcDbLine
 10
9.534663250807057
 20
-0.553122170364432
 30
0.0
 11
9.534555683618222
 21
-1.00350715291605
 31
0.0
  0
ENDBLK
  5
B085
330
ADBE
100
AcDbEntity
  8
0
100
AcDbBlockEnd
  0
BLOCK
  5
B087
330
B086
100
AcDbEntity
  8
0
100
AcDbBlockBegin
  2
3315_C
 70
     0
 10
0.0
 20
0.0
 30
0.0
  3
3315_C
  1

  0
LINE
  5
B088
330
B086
100
AcDbEntity
  8
0
100
AcDbLine
 10
0.0
 20
0.0
 30
0.0
 11
0.0000000000000036
 21
-15.40652481028379
 31
0.0
  0
LINE
  5
B089
330
B086
100
AcDbEntity
  8
0
100
AcDbLine
 10
-2.249999999999996
 20
0.0
 30
0.0
 11
-2.249999999999996
 21
-15.40652481028379
 31
0.0
  0
LINE
  5
B08A
330
B086
100
AcDbEntity
  8
0
100
AcDbLine
 10
-2.249999999999992
 20
-12.25663940484462
 30
0.0
 11
0.0000000000000071
 21
-12.25663940484462
 31
0.0
  0
LINE
  5
B08B
330
B086
100
AcDbEntity
  8
0
100
AcDbLine
 10
-2.249999999999996
 20
-15.40652481028379
 30
0.0
 11
0.0000000000000036
 21
-15.40652481028379
 31
0.0
  0
LINE
  5
B08C
330
B086
100
AcDbEntity
  8
0
100
AcDbLine
 10
-2.249999999999992
 20
-10.46246886925372
 30
0.0
 11
0.0000000000000071
 21
-10.46246886925371
 31
0.0
  0
LINE
  5
B08D
330
B086
100
AcDbEntity
  8
0
100
AcDbLine
 10
-2.249999999999992
 20
-7.43480608305731
 30
0.0
 11
0.0
 21
-7.43480608305731
 31
0.0
  0
LINE
  5
B08E
330
B086
100
AcDbEntity
  8
0
100
AcDbLine
 10
-2.249999999999992
 20
-6.595199159852093
 30
0.0
 11
0.0
 21
-6.595199159852093
 31
0.0
  0
LINE
  5
B08F
330
B086
100
AcDbEntity
  8
0
100
AcDbLine
 10
-2.249999999999992
 20
-5.545114894255526
 30
0.0
 11
0.0
 21
-5.545114894255526
 31
0.0
  0
LINE
  5
B090
330
B086
100
AcDbEntity
  8
0
100
AcDbLine
 10
-2.249999999999992
 20
-5.276625977942934
 30
0.0
 11
0.0
 21
-5.276625977942934
 31
0.0
  0
LINE
  5
B091
330
B086
100
AcDbEntity
  8
0
100
AcDbLine
 10
-2.249999999999992
 20
-5.003091634519769
 30
0.0
 11
0.0
 21
-5.003091634519769
 31
0.0
  0
LINE
  5
B092
330
B086
100
AcDbEntity
  8
0
100
AcDbLine
 10
-2.249999999999992
 20
-4.016935443299502
 30
0.0
 11
0.0
 21
-4.016935443299502
 31
0.0
  0
LINE
  5
B093
330
B086
100
AcDbEntity
  8
0
100
AcDbLine
 10
-2.249999999999992
 20
-2.487547667285312
 30
0.0
 11
0.0
 21
-2.487547667285312
 31
0.0
  0
LINE
  5
B094
330
B086
100
AcDbEntity
  8
0
100
AcDbLine
 10
-2.249999999999992
 20
-1.800733529238591
 30
0.0
 11
0.0
 21
-1.800733529238591
 31
0.0
  0
LINE
  5
B095
330
B086
100
AcDbEntity
  8
0
100
AcDbLine
 10
-2.249999999999996
 20
0.0
 30
0.0
 11
0.0
 21
0.0
 31
0.0
  0
ENDBLK
  5
B096
330
B086
100
AcDbEntity
  8
0
100
AcDbBlockEnd
  0
BLOCK
  5
C04D
330
C042
100
AcDbEntity
  8
0
100
AcDbBlockBegin
  2
*D2
 70
     1
 10
0.0
 20
0.0
 30
0.0
  3
*D2
  1

  0
LINE
  5
C0AF
330
C042
100
AcDbEntity
  8
DIM
 62
     0
370
    -2
100
AcDbLine
 10
7.803281448520493
 20
30.16039447787519
 30
0.0
 11
4.717464806371292
 21
30.16039447787519
 31
0.0
  0
LINE
  5
C0B0
330
C042
100
AcDbEntity
  8
DIM
 62
     0
370
    -2
100
AcDbLine
 10
7.803281259289963
 20
14.53539447787519
 30
0.0
 11
4.717464806371289
 21
14.53539447787519
 31
0.0
  0
LINE
  5
C0B1
330
C042
100
AcDbEntity
  8
DIM
 62
     0
370
    -2
100
AcDbLine
 10
4.897464806371291
 20
29.98039447787519
 30
0.0
 11
4.89746480637129
 21
23.60456114454186
 31
0.0
  0
LINE
  5
C0B2
330
C042
100
AcDbEntity
  8
DIM
 62
     0
370
    -2
100
AcDbLine
 10
4.897464806371289
 20
14.71539447787519
 30
0.0
 11
4.89746480637129
 21
21.09122781120852
 31
0.0
  0
SOLID
  5
C0B3
330
C042
100
AcDbEntity
  8
DIM
 62
     0
100
AcDbTrace
 10
4.867464806371291
 20
29.98039447787519
 30
0.0
 11
4.927464806371292
 21
29.98039447787519
 31
0.0
 12
4.897464806371292
 22
30.16039447787519
 32
0.0
 13
4.897464806371292
 23
30.16039447787519
 33
0.0
  0
SOLID
  5
C0B4
330
C042
100
AcDbEntity
  8
DIM
 62
     0
100
AcDbTrace
 10
4.867464806371288
 20
14.71539447787519
 30
0.0
 11
4.927464806371289
 21
14.71539447787519
 31
0.0
 12
4.897464806371289
 22
14.53539447787519
 32
0.0
 13
4.897464806371289
 23
14.53539447787519
 33
0.0
  0
MTEXT
  5
C0B5
330
C042
100
AcDbEntity
  8
DIM
 62
     0
100
AcDbMText
 10
4.897464806371287
 20
22.34789447787519
 30
0.0
 40
1.0
 41
0.0
 71
     5
 72
     1
  1
\A1;15{\H1.000000x;\S5/8;}
 73
     1
 44
1.0
  0
POINT
  5
C0B6
330
C042
100
AcDbEntity
  8
Defpoints
 62
     0
100
AcDbPoint
 10
7.865781448520493
 20
30.16039447787519
 30
0.0
  0
POINT
  5
C0B7
330
C042
100
AcDbEntity
  8
Defpoints
 62
     0
100
AcDbPoint
 10
7.865781259289963
 20
14.53539447787519
 30
0.0
  0
POINT
  5
C0B8
330
C042
100
AcDbEntity
  8
Defpoints
 62
     0
100
AcDbPoint
 10
4.897464806371289
 20
14.53539447787519
 30
0.0
  0
ENDBLK
  5
C04E
330
C042
100
AcDbEntity
  8
0
100
AcDbBlockEnd
  0
BLOCK
  5
C05A
330
C04F
100
AcDbEntity
  8
0
100
AcDbBlockBegin
  2
*D3
 70
     1
 10
0.0
 20
0.0
 30
0.0
  3
*D3
  1

  0
LINE
  5
C0B9
330
C04F
100
AcDbEntity
  8
DIM
 62
     0
370
    -2
100
AcDbLine
 10
17.49078144852049
 20
30.22289447787519
 30
0.0
 11
17.49078144852049
 21
33.40718315233311
 31
0.0
  0
LINE
  5
C0BA
330
C04F
100
AcDbEntity
  8
DIM
 62
     0
370
    -2
100
AcDbLine
 10
7.865781448520497
 20
30.22289447787519
 30
0.0
 11
7.865781448520497
 21
33.40718315233311
 31
0.0
  0
LINE
  5
C0BB
330
C04F
100
AcDbEntity
  8
DIM
 62
     0
370
    -2
100
AcDbLine
 10
17.31078144852049
 20
33.22718315233311
 30
0.0
 11
13.60161478185383
 21
33.22718315233311
 31
0.0
  0
LINE
  5
C0BC
330
C04F
100
AcDbEntity
  8
DIM
 62
     0
370
    -2
100
AcDbLine
 10
8.045781448520497
 20
33.22718315233311
 30
0.0
 11
11.75494811518716
 21
33.22718315233311
 31
0.0
  0
SOLID
  5
C0BD
330
C04F
100
AcDbEntity
  8
DIM
 62
     0
100
AcDbTrace
 10
17.31078144852049
 20
33.25718315233312
 30
0.0
 11
17.31078144852049
 21
33.19718315233311
 31
0.0
 12
17.49078144852049
 22
33.22718315233311
 32
0.0
 13
17.49078144852049
 23
33.22718315233311
 33
0.0
  0
SOLID
  5
C0BE
330
C04F
100
AcDbEntity
  8
DIM
 62
     0
100
AcDbTrace
 10
8.045781448520497
 20
33.25718315233312
 30
0.0
 11
8.045781448520497
 21
33.19718315233311
 31
0.0
 12
7.865781448520497
 22
33.22718315233311
 32
0.0
 13
7.865781448520497
 23
33.22718315233311
 33
0.0
  0
MTEXT
  5
C0BF
330
C04F
100
AcDbEntity
  8
DIM
 62
     0
100
AcDbMText
 10
12.67828144852049
 20
33.22718315233311
 30
0.0
 40
1.0
 41
0.0
 71
     5
 72
     1
  1
\A1;9{\H1.000000x;\S5/8;}
 73
     1
 44
1.0
  0
POINT
  5
C0C0
330
C04F
100
AcDbEntity
  8
Defpoints
 62
     0
100
AcDbPoint
 10
17.49078144852049
 20
30.16039447787519
 30
0.0
  0
POINT
  5
C0C1
330
C04F
100
AcDbEntity
  8
Defpoints
 62
     0
100
AcDbPoint
 10
7.865781448520497
 20
30.16039447787519
 30
0.0
  0
POINT
  5
C0C2
330
C04F
100
AcDbEntity
  8
Defpoints
 62
     0
100
AcDbPoint
 10
7.865781448520497
 20
33.22718315233311
 30
0.0
  0
ENDBLK
  5
C05B
330
C04F
100
AcDbEntity
  8
0
100
AcDbBlockEnd
  0
BLOCK
  5
C067
330
C05C
100
AcDbEntity
  8
0
100
AcDbBlockBegin
  2
*D4
 70
     1
 10
0.0
 20
0.0
 30
0.0
  3
*D4
  1

  0
LINE
  5
C0C3
330
C05C
100
AcDbEntity
  8
DIM
 62
     0
370
    -2
100
AcDbLine
 10
21.88261243343172
 20
30.22289447787519
 30
0.0
 11
21.88261243343172
 21
33.31303563838578
 31
0.0
  0
LINE
  5
C0C4
330
C05C
100
AcDbEntity
  8
DIM
 62
     0
370
    -2
100
AcDbLine
 10
24.63261243343171
 20
30.22289447787519
 30
0.0
 11
24.63261243343171
 21
33.31303563838578
 31
0.0
  0
LINE
  5
C0C5
330
C05C
100
AcDbEntity
  8
DIM
 62
     0
370
    -2
100
AcDbLine
 10
22.06261243343172
 20
33.13303563838578
 30
0.0
 11
22.33427910009838
 21
33.13303563838578
 31
0.0
  0
LINE
  5
C0C6
330
C05C
100
AcDbEntity
  8
DIM
 62
     0
370
    -2
100
AcDbLine
 10
24.45261243343172
 20
33.13303563838578
 30
0.0
 11
24.18094576676505
 21
33.13303563838578
 31
0.0
  0
SOLID
  5
C0C7
330
C05C
100
AcDbEntity
  8
DIM
 62
     0
100
AcDbTrace
 10
22.06261243343172
 20
33.16303563838578
 30
0.0
 11
22.06261243343172
 21
33.10303563838578
 31
0.0
 12
21.88261243343172
 22
33.13303563838578
 32
0.0
 13
21.88261243343172
 23
33.13303563838578
 33
0.0
  0
SOLID
  5
C0C8
330
C05C
100
AcDbEntity
  8
DIM
 62
     0
100
AcDbTrace
 10
24.45261243343172
 20
33.16303563838578
 30
0.0
 11
24.45261243343172
 21
33.10303563838578
 31
0.0
 12
24.63261243343171
 22
33.13303563838578
 32
0.0
 13
24.63261243343171
 23
33.13303563838578
 33
0.0
  0
MTEXT
  5
C0C9
330
C05C
100
AcDbEntity
  8
DIM
 62
     0
100
AcDbMText
 10
23.25761243343172
 20
33.13303563838578
 30
0.0
 40
1.0
 41
0.0
 71
     5
 72
     1
  1
\A1;2{\H1.000000x;\S3/4;}
 73
     1
 44
1.0
  0
POINT
  5
C0CA
330
C05C
100
AcDbEntity
  8
Defpoints
 62
     0
100
AcDbPoint
 10
21.88261243343172
 20
30.16039447787519
 30
0.0
  0
POINT
  5
C0CB
330
C05C
100
AcDbEntity
  8
Defpoints
 62
     0
100
AcDbPoint
 10
24.63261243343171
 20
30.16039447787519
 30
0.0
  0
POINT
  5
C0CC
330
C05C
100
AcDbEntity
  8
Defpoints
 62
     0
100
AcDbPoint
 10
24.63261243343171
 20
33.13303563838578
 30
0.0
  0
ENDBLK
  5
C068
330
C05C
100
AcDbEntity
  8
0
100
AcDbBlockEnd
  0
ENDSEC
  0
SECTION
  2
ENTITIES
  0
ARC
  5
C015
330
18
100
AcDbEntity
  8
0
100
AcDbCircle
 10
17.36578144852049
 20
28.27631742924414
 30
0.0
 40
0.125
100
AcDbArc
 50
278.9820949612256
 51
0.0
  0
ARC
  5
C016
330
18
100
AcDbEntity
  8
0
100
AcDbCircle
 10
14.34377117988387
 20
26.28539447787521
 30
0.0
 40
0.125
100
AcDbArc
 50
191.3747213393548
 51
269.9999999999919
  0
ARC
  5
C017
330
18
100
AcDbEntity
  8
0
100
AcDbCircle
 10
16.74078144852049
 20
26.28539447787519
 30
0.0
 40
0.125
100
AcDbArc
 50
270.0
 51
0.0
  0
LINE
  5
C018
330
18
100
AcDbEntity
  8
0
100
AcDbLine
 10
21.88261243343172
 20
30.16039447787519
 30
0.0
 11
24.63261243343171
 21
30.16039447787519
 31
0.0
  0
LINE
  5
C019
330
18
100
AcDbEntity
  8
0
100
AcDbLine
 10
21.88261243343172
 20
28.16039447787519
 30
0.0
 11
24.63261243343171
 21
28.16039447787519
 31
0.0
  0
LINE
  5
C01A
330
18
100
AcDbEntity
  8
0
100
AcDbLine
 10
21.88261243343172
 20
26.16039447787519
 30
0.0
 11
24.63261243343171
 21
26.16039447787519
 31
0.0
  0
LINE
  5
C01B
330
18
100
AcDbEntity
  8
0
100
AcDbLine
 10
21.88261243343172
 20
25.09940839939574
 30
0.0
 11
24.63261243343172
 21
25.09940839939574
 31
0.0
  0
LINE
  5
C01C
330
18
100
AcDbEntity
  8
0
100
AcDbLine
 10
21.88261243343172
 20
24.97440839939573
 30
0.0
 11
24.63261243343172
 21
24.97440839939573
 31
0.0
  0
LINE
  5
C01D
330
18
100
AcDbEntity
  8
0
100
AcDbLine
 10
21.88261243343172
 20
24.28687839939574
 30
0.0
 11
24.63261243343172
 21
24.28687839939574
 31
0.0
  0
LINE
  5
C01E
330
18
100
AcDbEntity
  8
0
100
AcDbLine
 10
21.88261243343172
 20
23.66187839939573
 30
0.0
 11
24.63261243343172
 21
23.66187839939573
 31
0.0
  0
LINE
  5
C01F
330
18
100
AcDbEntity
  8
0
100
AcDbLine
 10
21.88261243343172
 20
22.66235306249504
 30
0.0
 11
24.63261243343172
 21
22.66235306249504
 31
0.0
  0
LINE
  5
C020
330
18
100
AcDbEntity
  8
0
100
AcDbLine
 10
21.88261243343172
 20
19.55737644466679
 30
0.0
 11
24.63261243343172
 21
19.55737644466679
 31
0.0
  0
LINE
  5
C021
330
18
100
AcDbEntity
  8
0
100
AcDbLine
 10
21.88261243343172
 20
17.66039447787519
 30
0.0
 11
24.63261243343172
 21
17.66039447787519
 31
0.0
  0
LINE
  5
C022
330
18
100
AcDbEntity
  8
0
100
AcDbLine
 10
21.88261243343172
 20
14.53539447787519
 30
0.0
 11
24.63261243343172
 21
14.53539447787519
 31
0.0
  0
DIMENSION
  5
C023
330
18
100
AcDbEntity
  8
DIM
100
AcDbDimension
  2
*D2
 10
4.897464806371289
 20
14.53539447787519
 30
0.0
 11
4.897464806371287
 21
22.34789447787519
 31
0.0
 70
    32
 71
     5
 42
15.625
  3
STANDARD
100
AcDbAlignedDimension
 13
7.865781448520493
 23
30.16039447787519
 33
0.0
 14
7.865781259289963
 24
14.53539447787519
 34
0.0
 50
90.0
100
AcDbRotatedDimension
  0
DIMENSION
  5
C024
330
18
100
AcDbEntity
  8
DIM
100
AcDbDimension
  2
*D3
 10
7.865781448520497
 20
33.22718315233311
 30
0.0
 11
12.67828144852049
 21
33.22718315233311
 31
0.0
 70
    32
 71
     5
 42
9.624999999999996
  3
STANDARD
100
AcDbAlignedDimension
 13
17.49078144852049
 23
30.16039447787519
 33
0.0
 14
7.865781448520497
 24
30.16039447787519
 34
0.0
100
AcDbRotatedDimension
  0
SPLINE
  5
C025
330
18
100
AcDbEntity
  8
0
100
AcDbSpline
210
0.0
220
0.0
230
1.0
 70
     8
 71
     3
 72
    24
 73
    20
 74
     0
 42
0.0000000001
 43
0.0000000001
 40
0.0
 40
0.0
 40
0.0
 40
0.0
 40
0.7370589759721196
 40
1.780122312493583
 40
2.671983335813608
 40
3.715293871149511
 40
4.730420345236217
 40
5.964163575513067
 40
6.747955463849947
 40
7.523810179222967
 40
8.004607268171255
 40
8.704456293384197
 40
9.530070461330581
 40
10.36862157097499
 40
11.05152953690292
 40
11.9345817602303
 40
12.67444118186604
 40
13.18711526080277
 40
13.3017304477657
 40
13.3017304477657
 40
13.3017304477657
 40
13.3017304477657
 10
9.751868738437806
 20
19.55737644466679
 30
0.0
 10
9.997888132112525
 20
19.56542457021501
 30
0.0
 10
10.59206665277826
 20
19.58486215706923
 30
0.0
 10
11.45050051641336
 20
19.96656224681694
 30
0.0
 10
12.04113326311009
 20
20.80329390662414
 30
0.0
 10
12.25073922100284
 20
21.79882335244478
 30
0.0
 10
11.973329562314
 20
22.89233073808807
 30
0.0
 10
11.40018401641821
 20
23.73602679751876
 30
0.0
 10
10.83122415096858
 20
24.47145075922293
 30
0.0
 10
10.56200701298952
 20
25.11633243376718
 30
0.0
 10
10.55082059958585
 20
25.77749480170278
 30
0.0
 10
10.74141169260835
 20
26.42729346493431
 30
0.0
 10
11.16481019538513
 20
27.11347400804235
 30
0.0
 10
11.86340348635305
 20
27.53827732801956
 30
0.0
 10
12.67728972033634
 20
27.62192805781238
 30
0.0
 10
13.43726440263091
 20
27.41707450122346
 30
0.0
 10
14.02156165369926
 20
26.94653329223255
 30
0.0
 10
14.17033903712514
 20
26.50291374002225
 30
0.0
 10
14.21369664235837
 20
26.29817000168565
 30
0.0
 10
14.22122639428233
 20
26.26074137417857
 30
0.0
  0
SPLINE
  5
C026
330
18
100
AcDbEntity
  8
0
100
AcDbSpline
210
0.0
220
0.0
230
1.0
 70
     8
 71
     3
 72
    13
 73
     9
 74
     7
 42
0.0000000001
 43
0.0000000001
 44
0.0000000001
 40
0.0
 40
0.0
 40
0.0
 40
0.0
 40
0.5207229263362453
 40
1.298619894674449
 40
2.393650010234448
 40
3.286943181202996
 40
3.777080745623953
 40
4.089923892920896
 40
4.089923892920896
 40
4.089923892920896
 40
4.089923892920896
 10
7.865781259289963
 20
14.53539447787519
 30
0.0
 10
8.039293615163781
 20
14.58652323430214
 30
0.0
 10
8.472012410349062
 20
14.71403215877597
 30
0.0
 10
8.77696405681555
 20
15.5702301017793
 30
0.0
 10
8.668120736691415
 20
16.44113021119958
 30
0.0
 10
8.826640233714527
 20
17.35544388525401
 30
0.0
 10
9.370021417240383
 20
17.63440805198695
 30
0.0
 10
9.636831587491363
 20
17.65310867268632
 30
0.0
 10
9.740781448520493
 20
17.66039447787519
 30
0.0
 11
7.865781259289963
 21
14.53539447787519
 31
0.0
 11
8.343344259939335
 21
14.74296602318656
 31
0.0
 11
8.682686764588886
 21
15.44294484992915
 31
0.0
 11
8.722483400983492
 21
16.53725156274555
 31
0.0
 11
9.000306988961838
 21
17.38624316650961
 31
0.0
 11
9.430386747996038
 21
17.62133087976914
 31
0.0
 11
9.740781448520493
 21
17.66039447787519
 31
0.0
  0
LINE
  5
C027
330
18
100
AcDbEntity
  8
0
100
AcDbLine
 10
9.740781448520493
 20
17.66039447787519
 30
0.0
 11
9.740781448520493
 21
19.53539447787519
 31
0.0
  0
ARC
  5
C028
330
18
100
AcDbEntity
  8
0
100
AcDbCircle
 10
17.48150912264015
 20
27.54416089812784
 30
0.0
 40
0.6162463022594796
100
AcDbArc
 50
98.98209496122603
 51
177.6491822102642
  0
LINE
  5
C029
330
18
100
AcDbEntity
  8
0
100
AcDbLine
 10
16.86578144852049
 20
26.28539447787519
 30
0.0
 11
16.86578144852049
 21
27.56943808886731
 31
0.0
  0
LINE
  5
C02A
330
18
100
AcDbEntity
  8
0
100
AcDbLine
 10
17.49078144852049
 20
30.16039447787519
 30
0.0
 11
17.49078144852049
 21
28.27631742924414
 31
0.0
  0
LINE
  5
C02B
330
18
100
AcDbEntity
  8
0
100
AcDbLine
 10
7.865781448520493
 20
30.16039447787519
 30
0.0
 11
7.865781448520493
 21
14.53539447787519
 31
0.0
  0
LINE
  5
C02C
330
18
100
AcDbEntity
  8
0
100
AcDbLine
 10
7.865781448520493
 20
30.16039447787519
 30
0.0
 11
17.49078144852049
 21
30.16039447787519
 31
0.0
  0
LINE
  5
C02D
330
18
100
AcDbEntity
  8
0
100
AcDbLine
 10
15.91460854715692
 20
22.98718544389849
 30
0.0
 11
16.03960854715692
 21
23.66187839939573
 31
0.0
  0
LINE
  5
C02E
330
18
100
AcDbEntity
  8
0
100
AcDbLine
 10
15.03960854715693
 20
23.66187839939573
 30
0.0
 11
15.16460854715693
 21
22.98718544389849
 31
0.0
  0
ARC
  5
C02F
330
18
100
AcDbEntity
  8
0
100
AcDbCircle
 10
15.53960854715692
 20
23.04122704504686
 30
0.0
 40
0.3788739825518205
100
AcDbArc
 50
188.2004903000416
 51
351.7995096999591
  0
ARC
  5
C030
330
18
100
AcDbEntity
  8
0
100
AcDbCircle
 10
16.03960854715692
 20
23.97437839939573
 30
0.0
 40
0.3125
100
AcDbArc
 50
270.0000000000007
 51
89.99999999999806
  0
ARC
  5
C031
330
18
100
AcDbEntity
  8
0
100
AcDbCircle
 10
15.03960854715692
 20
23.97437839939573
 30
0.0
 40
0.3125
100
AcDbArc
 50
89.99999999999934
 51
270.0000000000007
  0
LINE
  5
C032
330
18
100
AcDbEntity
  8
0
100
AcDbLine
 10
15.03960854715693
 20
23.66187839939573
 30
0.0
 11
16.03960854715692
 21
23.66187839939573
 31
0.0
  0
ARC
  5
C033
330
18
100
AcDbEntity
  8
0
100
AcDbCircle
 10
16.87336355586869
 20
24.23929365274993
 30
0.0
 40
0.8351118024943076
100
AcDbArc
 50
118.3263681534523
 51
176.7335120629701
  0
ARC
  5
C034
330
18
100
AcDbEntity
  8
0
100
AcDbCircle
 10
14.20585353844515
 20
24.23929365274992
 30
0.0
 40
0.8351118024943177
100
AcDbArc
 50
3.266487937030236
 51
61.67363184654742
  0
LINE
  5
C035
330
18
100
AcDbEntity
  8
0
100
AcDbLine
 10
15.03960854715693
 20
24.28687839939574
 30
0.0
 11
16.03960854715692
 21
24.28687839939574
 31
0.0
  0
LINE
  5
C036
330
18
100
AcDbEntity
  8
0
100
AcDbLine
 10
16.47710854715693
 20
25.09940839939574
 30
0.0
 11
16.47710854715693
 21
24.97440839939573
 31
0.0
  0
LINE
  5
C037
330
18
100
AcDbEntity
  8
0
100
AcDbLine
 10
14.60210854715693
 20
25.09940839939574
 30
0.0
 11
14.60210854715693
 21
24.97440839939574
 31
0.0
  0
LINE
  5
C038
330
18
100
AcDbEntity
  8
0
100
AcDbLine
 10
14.60210854715693
 20
24.97440839939573
 30
0.0
 11
16.47710854715693
 21
24.97440839939573
 31
0.0
  0
SPLINE
  5
C039
330
18
100
AcDbEntity
  8
0
100
AcDbSpline
210
0.0
220
0.0
230
1.0
 70
     8
 71
     3
 72
     9
 73
     5
 74
     3
 42
0.0000000001
 43
0.0000000001
 44
0.0000000001
 40
0.0
 40
0.0
 40
0.0
 40
0.0
 40
0.4881406047441659
 40
1.183101483325419
 40
1.183101483325419
 40
1.183101483325419
 40
1.183101483325419
 10
16.47710854715693
 20
25.09940839939574
 30
0.0
 10
16.60814169796891
 20
25.21706170174414
 30
0.0
 10
16.92572543016366
 20
25.50221682953663
 30
0.0
 10
16.76984597287835
 20
25.91684148089828
 30
0.0
 10
16.67828144852049
 20
26.16039447787519
 30
0.0
 11
16.47710854715693
 21
25.09940839939574
 31
0.0
 11
16.78960854715693
 21
25.47440839939574
 31
0.0
 11
16.67828144852049
 21
26.16039447787519
 31
0.0
  0
SPLINE
  5
C03A
330
18
100
AcDbEntity
  8
0
100
AcDbSpline
210
0.0
220
0.0
230
1.0
 70
     8
 71
     3
 72
     9
 73
     5
 74
     3
 42
0.0000000001
 43
0.0000000001
 44
0.0000000001
 40
0.0
 40
0.0
 40
0.0
 40
0.0
 40
0.4881406047441659
 40
1.188002786491551
 40
1.188002786491551
 40
1.188002786491551
 40
1.188002786491551
 10
14.60210854715693
 20
25.09940839939574
 30
0.0
 10
14.46991757222643
 20
25.21732309857085
 30
0.0
 10
14.148200335348
 20
25.50429572454563
 30
0.0
 10
14.32445083445174
 20
25.91716802223769
 30
0.0
 10
14.42828144852049
 20
26.16039447787519
 30
0.0
 11
14.60210854715693
 21
25.09940839939574
 31
0.0
 11
14.28960854715693
 21
25.47440839939574
 31
0.0
 11
14.42828144852049
 21
26.16039447787519
 31
0.0
  0
LINE
  5
C03B
330
18
100
AcDbEntity
  8
0
100
AcDbLine
 10
14.60210854715693
 20
25.09940839939574
 30
0.0
 11
16.47710854715693
 21
25.09940839939574
 31
0.0
  0
LINE
  5
C03C
330
18
100
AcDbEntity
  8
0
100
AcDbLine
 10
16.74078144852049
 20
26.1603944778752
 30
0.0
 11
16.67828144852049
 21
26.16039447787519
 31
0.0
  0
LINE
  5
C03D
330
18
100
AcDbEntity
  8
0
100
AcDbLine
 10
14.34377117988386
 20
26.16039447787519
 30
0.0
 11
14.42828144852049
 21
26.16039447787519
 31
0.0
  0
LINE
  5
C03E
330
18
100
AcDbEntity
  8
0
100
AcDbLine
 10
14.34377117988387
 20
26.16039447787519
 30
0.0
 11
16.74078144852049
 21
26.16039447787519
 31
0.0
  0
DIMENSION
  5
C03F
330
18
100
AcDbEntity
  8
DIM
100
AcDbDimension
  2
*D4
 10
24.63261243343171
 20
33.13303563838578
 30
0.0
 11
23.25761243343172
 21
33.13303563838578
 31
0.0
 70
    32
 71
     5
 42
2.749999999999996
  3
STANDARD
100
AcDbAlignedDimension
 13
21.88261243343172
 23
30.16039447787519
 33
0.0
 14
24.63261243343171
 24
30.16039447787519
 34
0.0
100
AcDbRotatedDimension
  0
LINE
  5
C040
330
18
100
AcDbEntity
  8
0
100
AcDbLine
 10
24.63261243343171
 20
30.16039447787519
 30
0.0
 11
24.63261243343172
 21
14.53730441948855
 31
0.0
  0
LINE
  5
C041
330
18
100
AcDbEntity
  8
0
100
AcDbLine
 10
21.88261243343172
 20
30.16039447787519
 30
0.0
 11
21.88261243343172
 21
14.53730441948855
 31
0.0
  0
VIEWPORT
  5
B464
330
15
100
AcDbEntity
 67
     1
  8
0
100
AcDbViewport
 10
5.249999639556163
 20
3.999999883606677
 30
0.0
 40
17.58823365488479
 41
8.99512521206965
 68
     2
 69
     1
 12
5.249999639556163
 22
3.999999883606677
 13
0.0
 23
0.0
 14
10.0
 24
10.0
 15
10.0
 25
10.0
 16
0.0
 26
0.0
 36
1.0
 17
0.0
 27
0.0
 37
0.0
 42
50.0
 43
0.0
 44
0.0
 45
8.99512521206965
 50
0.0
 51
0.0
 72
   100
 90
    32800
  1

281
     0
 71
     1
 74
     0
110
0.0
120
0.0
130
0.0
111
1.0
121
0.0
131
0.0
112
0.0
122
1.0
132
0.0
 79
     0
146
0.0
170
     0
  0
VIEWPORT
  5
B466
330
15
100
AcDbEntity
 67
     1
  8
0
100
AcDbViewport
 10
5.24999976158142
 20
3.99999976158142
 30
0.0
 40
8.399999618530271
 41
6.399999618530272
 68
     1
 69
     2
 12
14.94193430466585
 22
24.68363631478236
 13
0.0
 23
0.0
 14
0.5
 24
0.5
 15
0.5
 25
0.5
 16
0.0
 26
0.0
 36
1.0
 17
0.0
 27
0.0
 37
0.0
 42
50.0
 43
0.0
 44
0.0
 45
35.57875022769845
 50
0.0
 51
0.0
 72
   100
 90
    32800
  1

281
     0
 71
     1
 74
     0
110
0.0
120
0.0
130
0.0
111
1.0
121
0.0
131
0.0
112
0.0
122
1.0
132
0.0
 79
     0
146
0.0
170
     0
  0
ENDSEC
  0
SECTION
  2
OBJECTS
  0
DICTIONARY
  5
C
330
0
100
AcDbDictionary
281
     1
  3
ACAD_COLOR
350
B0A0
  3
ACAD_GROUP
350
D
  3
ACAD_IMAGE_DICT
350
21
  3
ACAD_IMAGE_VARS
350
20
  3
ACAD_LAYOUT
350
B0A1
  3
ACAD_MATERIAL
350
B09F
  3
ACAD_MLINESTYLE
350
1B
  3
ACAD_PLOTSETTINGS
350
B0A2
  3
ACAD_PLOTSTYLENAME
350
B09D
  0
DICTIONARY
  5
B0A0
102
{ACAD_REACTORS
330
C
102
}
330
C
100
AcDbDictionary
281
     1
  0
DICTIONARY
  5
D
102
{ACAD_REACTORS
330
C
102
}
330
C
100
AcDbDictionary
281
     1
  0
DICTIONARY
  5
21
102
{ACAD_REACTORS
330
C
102
}
330
C
100
AcDbDictionary
281
     1
  3
3315-1
350
9B49
  3
3315-2
350
9B4C
  0
RASTERVARIABLES
  5
20
102
{ACAD_REACTORS
330
C
102
}
330
C
100
AcDbRasterVariables
 90
        0
 70
     1
 71
     1
 72
     0
  0
DICTIONARY
  5
B0A1
102
{ACAD_REACTORS
330
C
102
}
330
C
100
AcDbDictionary
281
     1
  3
Layout1
350
B0A4
  3
Model
350
B0A3
  0
DICTIONARY
  5
B09F
102
{ACAD_REACTORS
330
C
102
}
330
C
100
AcDbDictionary
281
     1
  0
DICTIONARY
  5
1B
102
{ACAD_REACTORS
330
C
102
}
330
C
100
AcDbDictionary
281
     1
  3
STANDARD
350
1C
  0
DICTIONARY
  5
B0A2
102
{ACAD_REACTORS
330
C
102
}
330
C
100
AcDbDictionary
281
     1
  0
ACDBDICTIONARYWDFLT
  5
B09D
102
{ACAD_REACTORS
330
C
102
}
330
C
100
AcDbDictionary
281
     1
  3
Normal
350
B09E
100
AcDbDictionaryWithDefault
340
B09E
  0
IMAGEDEF
  5
9B49
102
{ACAD_REACTORS
330
21
102
}
330
21
100
AcDbRasterImageDef
 90
        0
  1
U:\TPDWG\MichelQ\3315-1.tif
 10
2940.0
 20
3652.0
 11
0.0705555555555556
 21
0.0705555555555556
280
     1
281
     5
  0
IMAGEDEF
  5
9B4C
102
{ACAD_REACTORS
330
21
102
}
330
21
100
AcDbRasterImageDef
 90
        0
  1
U:\TPDWG\MichelQ\3315-2.tif
 10
2940.0
 20
3652.0
 11
0.0705555555555556
 21
0.0705555555555556
280
     1
281
     5
  0
LAYOUT
  5
B0A4
102
{ACAD_REACTORS
330
B0A1
102
}
330
B0A1
100
AcDbPlotSettings
  1

  2
none_device
  4
Letter_(8.50_x_11.00_Inches)
  6

 40
6.349999904632568
 41
6.349999904632568
 42
6.350006103515625
 43
6.350006103515625
 44
215.8999938964844
 45
279.3999938964844
 46
0.0
 47
0.0
 48
0.0
 49
0.0
140
0.0
141
0.0
142
1.0
143
1.0
 70
   688
 72
     0
 73
     1
 74
     5
  7

 75
    16
147
1.0
 76
     1
 77
     2
 78
   300
148
0.0
149
0.0
100
AcDbLayout
  1
Layout1
 70
     1
 71
     1
 10
-0.2500002402958907
 20
-0.2499999962453767
 11
10.74999951940821
 21
8.249999763458731
 12
0.0
 22
0.0
 32
0.0
 14
1.049999952316284
 24
0.7999999523162842
 34
0.0
 15
9.449999570846555
 25
7.199999570846556
 35
0.0
146
0.0
 13
0.0
 23
0.0
 33
0.0
 16
1.0
 26
0.0
 36
0.0
 17
0.0
 27
1.0
 37
0.0
 76
     0
330
15
331
B466
  0
LAYOUT
  5
B0A3
102
{ACAD_REACTORS
330
B0A1
102
}
330
B0A1
100
AcDbPlotSettings
  1

  2
None
  4

  6

 40
0.0
 41
0.0
 42
0.0
 43
0.0
 44
0.0
 45
0.0
 46
0.0
 47
0.0
 48
0.0
 49
0.0
140
0.0
141
0.0
142
1.0
143
1.0
 70
  1712
 72
     0
 73
     0
 74
     0
  7

 75
     0
147
1.0
 76
     0
 77
     2
 78
   300
148
0.0
149
0.0
100
AcDbLayout
  1
Model
 70
     1
 71
     0
 10
0.0
 20
0.0
 11
12.0
 21
9.0
 12
0.0
 22
0.0
 32
0.0
 14
0.0
 24
0.0
 34
0.0
 15
0.0
 25
0.0
 35
0.0
146
0.0
 13
0.0
 23
0.0
 33
0.0
 16
1.0
 26
0.0
 36
0.0
 17
0.0
 27
1.0
 37
0.0
 76
     0
330
18
  0
MLINESTYLE
  5
1C
102
{ACAD_REACTORS
330
1B
102
}
330
1B
100
AcDbMlineStyle
  2
STANDARD
 70
     0
  3

 62
   256
 51
90.0
 52
90.0
 71
     2
 49
0.5
 62
   256
  6
BYLAYER
 49
-0.5
 62
   256
  6
BYLAYER
  0
ACDBPLACEHOLDER
  5
B09E
102
{ACAD_REACTORS
330
B09D
102
}
330
B09D
  0
ENDSEC
  0
EOF
