  0
SECTION
  2
HEADER
  9
$ACADVER
  1
AC1018
  9
$ACADMAINTVER
 70
     0
  9
$DWGCODEPAGE
  3
ANSI_1252
  9
$INSBASE
 10
0.0
 20
0.0
 30
0.0
  9
$EXTMIN
 10
3.948126735513329
 20
-3.359378721923864
 30
0.0
  9
$EXTMAX
 10
29.73524688655878
 20
17.32344537533881
 30
0.0
  9
$LIMMIN
 10
0.0
 20
0.0
  9
$LIMMAX
 10
12.0
 20
9.0
  9
$ORTHOMODE
 70
     0
  9
$REGENMODE
 70
     1
  9
$FILLMODE
 70
     1
  9
$QTEXTMODE
 70
     0
  9
$MIRRTEXT
 70
     1
  9
$LTSCALE
 40
1.0
  9
$ATTMODE
 70
     1
  9
$TEXTSIZE
 40
0.2
  9
$TRACEWID
 40
0.05
  9
$TEXTSTYLE
  7
STANDARD
  9
$CLAYER
  8
0
  9
$CELTYPE
  6
BYLAYER
  9
$CECOLOR
 62
   256
  9
$CELTSCALE
 40
1.0
  9
$DISPSILH
 70
     0
  9
$DIMSCALE
 40
1.0
  9
$DIMASZ
 40
0.18
  9
$DIMEXO
 40
0.0625
  9
$DIMDLI
 40
0.38
  9
$DIMRND
 40
0.0
  9
$DIMDLE
 40
0.0
  9
$DIMEXE
 40
0.18
  9
$DIMTP
 40
0.0
  9
$DIMTM
 40
0.0
  9
$DIMTXT
 40
1.0
  9
$DIMCEN
 40
0.09
  9
$DIMTSZ
 40
0.0
  9
$DIMTOL
 70
     0
  9
$DIMLIM
 70
     0
  9
$DIMTIH
 70
     1
  9
$DIMTOH
 70
     1
  9
$DIMSE1
 70
     0
  9
$DIMSE2
 70
     0
  9
$DIMTAD
 70
     0
  9
$DIMZIN
 70
     0
  9
$DIMBLK
  1

  9
$DIMASO
 70
     1
  9
$DIMSHO
 70
     1
  9
$DIMPOST
  1

  9
$DIMAPOST
  1

  9
$DIMALT
 70
     0
  9
$DIMALTD
 70
     2
  9
$DIMALTF
 40
25.4
  9
$DIMLFAC
 40
1.0
  9
$DIMTOFL
 70
     0
  9
$DIMTVP
 40
0.0
  9
$DIMTIX
 70
     0
  9
$DIMSOXD
 70
     0
  9
$DIMSAH
 70
     0
  9
$DIMBLK1
  1

  9
$DIMBLK2
  1

  9
$DIMSTYLE
  2
STANDARD
  9
$DIMCLRD
 70
     0
  9
$DIMCLRE
 70
     0
  9
$DIMCLRT
 70
     0
  9
$DIMTFAC
 40
1.0
  9
$DIMGAP
 40
0.09
  9
$DIMJUST
 70
     0
  9
$DIMSD1
 70
     0
  9
$DIMSD2
 70
     0
  9
$DIMTOLJ
 70
     1
  9
$DIMTZIN
 70
     0
  9
$DIMALTZ
 70
     0
  9
$DIMALTTZ
 70
     0
  9
$DIMUPT
 70
     0
  9
$DIMDEC
 70
     4
  9
$DIMTDEC
 70
     4
  9
$DIMALTU
 70
     2
  9
$DIMALTTD
 70
     2
  9
$DIMTXSTY
  7
STANDARD
  9
$DIMAUNIT
 70
     0
  9
$DIMADEC
 70
     0
  9
$DIMALTRND
 40
0.0
  9
$DIMAZIN
 70
     0
  9
$DIMDSEP
 70
    46
  9
$DIMATFIT
 70
     3
  9
$DIMFRAC
 70
     0
  9
$DIMLDRBLK
  1

  9
$DIMLUNIT
 70
     5
  9
$DIMLWD
 70
    -2
  9
$DIMLWE
 70
    -2
  9
$DIMTMOVE
 70
     0
  9
$LUNITS
 70
     4
  9
$LUPREC
 70
     4
  9
$SKETCHINC
 40
0.1
  9
$FILLETRAD
 40
0.5
  9
$AUNITS
 70
     0
  9
$AUPREC
 70
     0
  9
$MENU
  1
.
  9
$ELEVATION
 40
0.0
  9
$PELEVATION
 40
0.0
  9
$THICKNESS
 40
0.0
  9
$LIMCHECK
 70
     0
  9
$CHAMFERA
 40
0.5
  9
$CHAMFERB
 40
0.5
  9
$CHAMFERC
 40
1.0
  9
$CHAMFERD
 40
0.0
  9
$SKPOLY
 70
     0
  9
$TDCREATE
 40
2451160.318790972
  9
$TDUCREATE
 40
2451160.485457639
  9
$TDUPDATE
 40
2453488.686467812
  9
$TDUUPDATE
 40
2453488.853134480
  9
$TDINDWG
 40
0.1524418287
  9
$TDUSRTIMER
 40
0.1524418287
  9
$USRTIMER
 70
     1
  9
$ANGBASE
 50
0.0
  9
$ANGDIR
 70
     0
  9
$PDMODE
 70
     3
  9
$PDSIZE
 40
1.0
  9
$PLINEWID
 40
0.0
  9
$SPLFRAME
 70
     0
  9
$SPLINETYPE
 70
     6
  9
$SPLINESEGS
 70
     8
  9
$HANDSEED
  5
8480
  9
$SURFTAB1
 70
     6
  9
$SURFTAB2
 70
     6
  9
$SURFTYPE
 70
     6
  9
$SURFU
 70
     6
  9
$SURFV
 70
     6
  9
$UCSBASE
  2

  9
$UCSNAME
  2

  9
$UCSORG
 10
0.0
 20
0.0
 30
0.0
  9
$UCSXDIR
 10
1.0
 20
0.0
 30
0.0
  9
$UCSYDIR
 10
0.0
 20
1.0
 30
0.0
  9
$UCSORTHOREF
  2

  9
$UCSORTHOVIEW
 70
     0
  9
$UCSORGTOP
 10
0.0
 20
0.0
 30
0.0
  9
$UCSORGBOTTOM
 10
0.0
 20
0.0
 30
0.0
  9
$UCSORGLEFT
 10
0.0
 20
0.0
 30
0.0
  9
$UCSORGRIGHT
 10
0.0
 20
0.0
 30
0.0
  9
$UCSORGFRONT
 10
0.0
 20
0.0
 30
0.0
  9
$UCSORGBACK
 10
0.0
 20
0.0
 30
0.0
  9
$PUCSBASE
  2

  9
$PUCSNAME
  2

  9
$PUCSORG
 10
0.0
 20
0.0
 30
0.0
  9
$PUCSXDIR
 10
1.0
 20
0.0
 30
0.0
  9
$PUCSYDIR
 10
0.0
 20
1.0
 30
0.0
  9
$PUCSORTHOREF
  2

  9
$PUCSORTHOVIEW
 70
     0
  9
$PUCSORGTOP
 10
0.0
 20
0.0
 30
0.0
  9
$PUCSORGBOTTOM
 10
0.0
 20
0.0
 30
0.0
  9
$PUCSORGLEFT
 10
0.0
 20
0.0
 30
0.0
  9
$PUCSORGRIGHT
 10
0.0
 20
0.0
 30
0.0
  9
$PUCSORGFRONT
 10
0.0
 20
0.0
 30
0.0
  9
$PUCSORGBACK
 10
0.0
 20
0.0
 30
0.0
  9
$USERI1
 70
     0
  9
$USERI2
 70
     0
  9
$USERI3
 70
     0
  9
$USERI4
 70
     0
  9
$USERI5
 70
     0
  9
$USERR1
 40
0.0
  9
$USERR2
 40
0.0
  9
$USERR3
 40
0.0
  9
$USERR4
 40
0.0
  9
$USERR5
 40
0.0
  9
$WORLDVIEW
 70
     1
  9
$SHADEDGE
 70
     3
  9
$SHADEDIF
 70
    70
  9
$TILEMODE
 70
     1
  9
$MAXACTVP
 70
    48
  9
$PINSBASE
 10
0.0
 20
0.0
 30
0.0
  9
$PLIMCHECK
 70
     0
  9
$PEXTMIN
 10
1.049743681505489
 20
0.7996673802841308
 30
-0.0015258207003583
  9
$PEXTMAX
 10
9.450622583565561
 20
7.200576801086516
 30
0.0000000349246037
  9
$PLIMMIN
 10
-0.2500002402958907
 20
-0.2499999962453767
  9
$PLIMMAX
 10
10.74999951940821
 20
8.249999763458731
  9
$UNITMODE
 70
     0
  9
$VISRETAIN
 70
     1
  9
$PLINEGEN
 70
     0
  9
$PSLTSCALE
 70
     1
  9
$TREEDEPTH
 70
  3020
  9
$CMLSTYLE
  2
STANDARD
  9
$CMLJUST
 70
     0
  9
$CMLSCALE
 40
1.0
  9
$PROXYGRAPHICS
 70
     1
  9
$MEASUREMENT
 70
     0
  9
$CELWEIGHT
370
    -1
  9
$ENDCAPS
280
     0
  9
$JOINSTYLE
280
     0
  9
$LWDISPLAY
290
     0
  9
$INSUNITS
 70
     0
  9
$HYPERLINKBASE
  1

  9
$STYLESHEET
  1

  9
$XEDIT
290
     1
  9
$CEPSNTYPE
380
     0
  9
$PSTYLEMODE
290
     1
  9
$FINGERPRINTGUID
  2
{4F0121D9-DF16-4CB1-B3BD-ABA29E5B7983}
  9
$VERSIONGUID
  2
{333ECE8E-541D-4D63-8C2B-DD40966F4DD0}
  9
$EXTNAMES
290
     1
  9
$PSVPSCALE
 40
0.0
  9
$OLESTARTUP
290
     0
  9
$SORTENTS
280
   127
  9
$INDEXCTL
280
     0
  9
$HIDETEXT
280
     0
  9
$XCLIPFRAME
290
     0
  9
$HALOGAP
280
     0
  9
$OBSCOLOR
 70
   257
  9
$OBSLTYPE
280
     0
  9
$INTERSECTIONDISPLAY
280
     0
  9
$INTERSECTIONCOLOR
 70
   257
  9
$DIMASSOC
280
     1
  9
$PROJECTNAME
  1

  0
ENDSEC
  0
SECTION
  2
CLASSES
  0
CLASS
  1
RASTERVARIABLES
  2
AcDbRasterVariables
  3
ISM
 90
        0
 91
        1
280
     0
281
     0
  0
CLASS
  1
IMAGEDEF
  2
AcDbRasterImageDef
  3
ISM
 90
        0
 91
        2
280
     0
281
     0
  0
CLASS
  1
IMAGEDEF_REACTOR
  2
AcDbRasterImageDefReactor
  3
ISM
 90
        1
 91
        0
280
     0
281
     0
  0
CLASS
  1
IMAGE
  2
AcDbRasterImage
  3
ISM
 90
      127
 91
        0
280
     0
281
     1
  0
CLASS
  1
ACDBDICTIONARYWDFLT
  2
AcDbDictionaryWithDefault
  3
ObjectDBX Classes
 90
        0
 91
        1
280
     0
281
     0
  0
ENDSEC
  0
SECTION
  2
TABLES
  0
TABLE
  2
VPORT
  5
8
330
0
100
AcDbSymbolTable
 70
     2
  0
VPORT
  5
847F
330
8
100
AcDbSymbolTableRecord
100
AcDbViewportTableRecord
  2
*Active
 70
     0
 10
0.0
 20
0.0
 11
1.0
 21
1.0
 12
16.98764244012084
 22
5.531015949810093
 13
0.0
 23
0.0
 14
0.5
 24
0.5
 15
0.5
 25
0.5
 16
0.0
 26
0.0
 36
1.0
 17
0.0
 27
0.0
 37
0.0
 40
25.94964888644072
 41
1.977142857142857
 42
50.0
 43
0.0
 44
0.0
 50
0.0
 51
0.0
 71
     0
 72
   100
 73
     1
 74
     1
 75
     0
 76
     0
 77
     0
 78
     0
281
     0
 65
     1
110
0.0
120
0.0
130
0.0
111
1.0
121
0.0
131
0.0
112
0.0
122
1.0
132
0.0
 79
     0
146
0.0
  0
ENDTAB
  0
TABLE
  2
LTYPE
  5
5
330
0
100
AcDbSymbolTable
 70
     1
  0
LTYPE
  5
12
330
5
100
AcDbSymbolTableRecord
100
AcDbLinetypeTableRecord
  2
BYBLOCK
 70
     0
  3

 72
    65
 73
     0
 40
0.0
  0
LTYPE
  5
13
330
5
100
AcDbSymbolTableRecord
100
AcDbLinetypeTableRecord
  2
BYLAYER
 70
     0
  3

 72
    65
 73
     0
 40
0.0
  0
LTYPE
  5
14
330
5
100
AcDbSymbolTableRecord
100
AcDbLinetypeTableRecord
  2
CONTINUOUS
 70
     0
  3
Solid line
 72
    65
 73
     0
 40
0.0
  0
ENDTAB
  0
TABLE
  2
LAYER
  5
2
330
0
100
AcDbSymbolTable
 70
     3
  0
LAYER
  5
E
330
2
100
AcDbSymbolTableRecord
100
AcDbLayerTableRecord
  2
0
 70
     0
 62
     7
  6
CONTINUOUS
370
    -3
390
82EF
  0
LAYER
  5
82F9
330
2
100
AcDbSymbolTableRecord
100
AcDbLayerTableRecord
  2
Defpoints
 70
     0
 62
     7
  6
CONTINUOUS
290
     0
370
    -3
390
82EF
  0
LAYER
  5
8439
330
2
100
AcDbSymbolTableRecord
100
AcDbLayerTableRecord
  2
DIM
 70
     0
 62
    -3
  6
CONTINUOUS
370
    -3
390
82EF
  0
ENDTAB
  0
TABLE
  2
STYLE
  5
3
330
0
100
AcDbSymbolTable
 70
     1
  0
STYLE
  5
F
330
3
100
AcDbSymbolTableRecord
100
AcDbTextStyleTableRecord
  2
STANDARD
 70
     0
 40
0.0
 41
1.0
 50
0.0
 71
     0
 42
0.2
  3
txt
  4

  0
ENDTAB
  0
TABLE
  2
VIEW
  5
6
330
0
100
AcDbSymbolTable
 70
     0
  0
ENDTAB
  0
TABLE
  2
UCS
  5
7
330
0
100
AcDbSymbolTable
 70
     0
  0
ENDTAB
  0
TABLE
  2
APPID
  5
9
330
0
100
AcDbSymbolTable
 70
     1
  0
APPID
  5
10
330
9
100
AcDbSymbolTableRecord
100
AcDbRegAppTableRecord
  2
ACAD
 70
     0
  0
ENDTAB
  0
TABLE
  2
DIMSTYLE
  5
A
330
0
100
AcDbSymbolTable
 70
     1
100
AcDbDimStyleTable
 71
     1
340
1D
  0
DIMSTYLE
105
1D
102
{ACAD_REACTORS
330
83D1
330
8402
330
8413
102
}
330
A
100
AcDbSymbolTableRecord
100
AcDbDimStyleTableRecord
  2
STANDARD
 70
     0
140
1.0
277
     5
340
F
  0
ENDTAB
  0
TABLE
  2
BLOCK_RECORD
  5
1
330
0
100
AcDbSymbolTable
 70
     4
  0
BLOCK_RECORD
  5
18
330
1
100
AcDbSymbolTableRecord
100
AcDbBlockTableRecord
  2
*MODEL_SPACE
340
82F4
  0
BLOCK_RECORD
  5
15
330
1
100
AcDbSymbolTableRecord
100
AcDbBlockTableRecord
  2
*PAPER_SPACE
340
82F5
  0
BLOCK_RECORD
  5
7ED3
330
1
100
AcDbSymbolTableRecord
100
AcDbBlockTableRecord
  2
3321_E
340
0
  0
BLOCK_RECORD
  5
83D4
330
1
100
AcDbSymbolTableRecord
100
AcDbBlockTableRecord
  2
*D1
340
0
  0
BLOCK_RECORD
  5
8403
330
1
100
AcDbSymbolTableRecord
100
AcDbBlockTableRecord
  2
*D2
340
0
  0
BLOCK_RECORD
  5
8414
330
1
100
AcDbSymbolTableRecord
100
AcDbBlockTableRecord
  2
*D3
340
0
  0
ENDTAB
  0
ENDSEC
  0
SECTION
  2
BLOCKS
  0
BLOCK
  5
19
330
18
100
AcDbEntity
  8
0
100
AcDbBlockBegin
  2
*MODEL_SPACE
 70
     0
 10
0.0
 20
0.0
 30
0.0
  3
*MODEL_SPACE
  1

  0
ENDBLK
  5
1A
330
18
100
AcDbEntity
  8
0
100
AcDbBlockEnd
  0
BLOCK
  5
16
330
15
100
AcDbEntity
 67
     1
  8
0
100
AcDbBlockBegin
  2
*PAPER_SPACE
 70
     0
 10
0.0
 20
0.0
 30
0.0
  3
*PAPER_SPACE
  1

  0
ENDBLK
  5
17
330
15
100
AcDbEntity
 67
     1
  8
0
100
AcDbBlockEnd
  0
BLOCK
  5
7ED4
330
7ED3
100
AcDbEntity
  8
0
100
AcDbBlockBegin
  2
3321_E
 70
     0
 10
0.0
 20
0.0
 30
0.0
  3
3321_E
  1

  0
LINE
  5
7ED5
330
7ED3
100
AcDbEntity
  8
0
100
AcDbLine
 10
0.0
 20
0.0
 30
0.0
 11
0.0
 21
6.329527703186304
 31
0.0
  0
LWPOLYLINE
  5
7ED6
330
7ED3
100
AcDbEntity
  8
0
100
AcDbPolyline
 90
     1039
 70
     0
 43
0.0
 10
0.0
 20
0.0
 10
0.0169108607754325
 20
-0.0005872337437376
 10
0.0614657099567015
 20
-0.0007443364474393
 10
0.1019384999345014
 20
0.0010566245131511
 10
0.1401616201324156
 20
0.0051782568936223
 10
0.1779674599740826
 20
0.0119831684495329
 10
0.2171884088830858
 20
0.0218339669364713
 10
0.2596568562830335
 20
0.0350932601099827
 10
0.3068211760116402
 20
0.0521085470004517
 10
0.3585936795631834
 20
0.0731668917372788
 10
0.4145026628460418
 20
0.0985402497246466
 10
0.4740764217685954
 20
0.1285005763667386
 10
0.5368432522392528
 20
0.1633198270677445
 10
0.6023314501663784
 20
0.2032699572318544
 10
0.6700693114583665
 20
0.2486229222632437
 10
0.73958513202364
 20
0.299650677566103
 10
0.8104313978199026
 20
0.3562263114874726
 10
0.8822573550023893
 20
0.4166274441457923
 10
0.9547364397757025
 20
0.4787328286023654
 10
1.027542088344441
 20
0.5404212179184893
 10
1.100347736913182
 20
0.5995713651554531
 10
1.172826821686479
 20
0.6540620233745691
 10
1.244652778868982
 20
0.7017719456371192
 10
1.315499044665244
 20
0.7405798850044221
 10
1.385123720007165
 20
0.768993112051446
 10
1.453623564735803
 20
0.7880329674079492
 10
1.521180003419562
 20
0.7993493092173765
 10
1.587974460626783
 20
0.8045919956231649
 10
1.654188360925894
 20
0.8054108847687512
 10
1.72000312888521
 20
0.8034558347975879
 10
1.78560018907317
 20
0.8003767038531041
 10
1.851160966058104
 20
0.7978233500787515
 10
1.916909216682949
 20
0.797255263506028
 10
1.983238026888876
 20
0.7993704617186919
 10
2.050582814891507
 20
0.8046765941885634
 10
2.119378998906594
 20
0.8136813103874604
 10
2.190061997149786
 20
0.8268922597872032
 10
2.26306722783678
 20
0.8448170918596037
 10
2.338830109183268
 20
0.8679634560764956
 10
2.417786059404932
 20
0.8968390019096975
 10
2.499974386730597
 20
0.9316008591776117
 10
2.583849959441558
 20
0.9710040790850689
 10
2.667471535832321
 20
1.01345319318347
 10
2.748897874197302
 20
1.057352733024222
 10
2.82618773283097
 20
1.101107230158739
 10
2.897399870027788
 20
1.143121216138435
 10
2.9605930440822
 20
1.181799222514725
 10
3.013826013288658
 20
1.215545780838999
 10
3.055695761911664
 20
1.243179398445069
 10
3.086952178095904
 20
1.265174485796229
 10
3.108883375956086
 20
1.282419429138178
 10
3.12277746960696
 20
1.2958026147166
 10
3.129922573163218
 20
1.306212428777178
 10
3.131606800739607
 20
1.314537257565596
 10
3.129118266450822
 20
1.321665487327552
 10
3.123745084411623
 20
1.328485504308729
 10
3.116394377107447
 20
1.335828281796926
 10
3.106449300506927
 20
1.344295141248439
 10
3.092912018949384
 20
1.354429991161639
 10
3.074784696774168
 20
1.366776740034943
 10
3.051069498320625
 20
1.381879296366735
 10
3.020768587928108
 20
1.400281568655412
 10
2.98288412993595
 20
1.422527465399371
 10
2.93641828868354
 20
1.449160895097002
 10
2.88086912247294
 20
1.480610941210936
 10
2.817718265457497
 20
1.516847387060702
 10
2.74894324575319
 20
1.557725190930046
 10
2.676521591476118
 20
1.603099311102731
 10
2.602430830742322
 20
1.65282470586251
 10
2.528648491667844
 20
1.70675633349313
 10
2.457152102368722
 20
1.764749152278362
 10
2.389919190961055
 20
1.826658120501959
 10
2.328612816166444
 20
1.892359348288989
 10
2.273638159128916
 20
1.96181355312986
 10
2.225085931598091
 20
2.035002604356297
 10
2.183046845323554
 20
2.111908371300025
 10
2.147611612054923
 20
2.19251272329276
 10
2.118870943541788
 20
2.276797529666232
 10
2.096915551533749
 20
2.364744659752164
 10
2.081836147780439
 20
2.456335982882288
 10
2.073696230560024
 20
2.551353934997234
 10
2.072450444264989
 20
2.648783218473371
 10
2.078026219816422
 20
2.747409102295963
 10
2.090350988135357
 20
2.846016855450275
 10
2.109352180142886
 20
2.943391746921578
 10
2.134957226760041
 20
3.03831904569515
 10
2.167093558907941
 20
3.129584020756273
 10
2.205688607507592
 20
3.215971941090192
 10
2.250606304578234
 20
3.29650376974984
 10
2.301456586531621
 20
3.371143246058635
 10
2.357785890877636
 20
3.440089803407671
 10
2.419140655126184
 20
3.503542875188014
 10
2.48506731678713
 20
3.561701894790737
 10
2.555112313370411
 20
3.61476629560693
 10
2.628822082385873
 20
3.66293551102765
 10
2.705743061343454
 20
3.706408974443985
 10
2.785442854291233
 20
3.745367989018719
 10
2.867573731430193
 20
3.779921337001538
 10
2.951809129499476
 20
3.810159670413824
 10
3.037822485238253
 20
3.836173641276985
 10
3.125287235385723
 20
3.858053901612393
 10
3.213876816681056
 20
3.875891103441448
 10
3.303264665863391
 20
3.889775898785556
 10
3.393124219671932
 20
3.8997989396661
 10
3.483092629771778
 20
3.906029725878143
 10
3.572661907531887
 20
3.908453148311465
 10
3.661287779247086
 20
3.907032945629511
 10
3.748425971212263
 20
3.901732856495736
 10
3.833532209722278
 20
3.892516619573578
 10
3.916062221072046
 20
3.879347973526499
 10
3.995471731556381
 20
3.86219065701793
 10
4.07121646747019
 20
3.841008408711339
 10
4.142851938549648
 20
3.815885836247014
 10
4.210332788296307
 20
3.787391023172733
 10
4.27371344365298
 20
3.756212922013092
 10
4.333048331562537
 20
3.723040485292717
 10
4.388391878967819
 20
3.688562665536219
 10
4.439798512811645
 20
3.653468415268216
 10
4.487322660036907
 20
3.618446687013328
 10
4.531018747586424
 20
3.584186433296159
 10
4.570959345073713
 20
3.551252715996426
 10
4.60728959279497
 20
3.519715034414203
 10
4.640172773717095
 20
3.489518997204641
 10
4.669772170806933
 20
3.460610213022923
 10
4.696251067031351
 20
3.432934290524213
 10
4.719772745357239
 20
3.406436838363671
 10
4.740500488751486
 20
3.381063465196464
 10
4.758597580180918
 20
3.356759779677757
 10
4.774230326034473
 20
3.333438151674212
 10
4.787577126389336
 20
3.31087799589841
 10
4.798819404744694
 20
3.28882548827444
 10
4.808138584599738
 20
3.267026804726388
 10
4.815716089453733
 20
3.245228121178336
 10
4.821733342805854
 20
3.223175613554375
 10
4.826371768155306
 20
3.200615457778572
 10
4.829812789001323
 20
3.17729382977502
 10
4.832219686706999
 20
3.153029426655925
 10
4.833683174091131
 20
3.127931030285953
 10
4.834275821836392
 20
3.102179943717909
 10
4.834070200625456
 20
3.075957470004587
 10
4.833138881141035
 20
3.04944491219878
 10
4.831554434065775
 20
3.022823573353289
 10
4.829389430082375
 20
2.996274756520912
 10
4.826716439873539
 20
2.969979764754434
 10
4.823647342528911
 20
2.944135009666896
 10
4.820451250766252
 20
2.918997337112255
 10
4.817436585710311
 20
2.894838701504707
 10
4.814911768485831
 20
2.87193105725845
 10
4.813185220217526
 20
2.850546358787681
 10
4.812565362030136
 20
2.830956560506591
 10
4.813360615048413
 20
2.813433616829379
 10
4.815879400397134
 20
2.798249482170242
 10
4.820393854394215
 20
2.78560056808721
 10
4.827030974130657
 20
2.77538111471365
 10
4.835881471890605
 20
2.767409819326756
 10
4.84703605995827
 20
2.761505379203737
 10
4.860585450617843
 20
2.757486491621788
 10
4.876620356153503
 20
2.755171853858113
 10
4.895231488849439
 20
2.75438016318991
 10
4.916509560989851
 20
2.754930116894376
 10
4.940542261080491
 20
2.756728041942073
 10
4.967405182513271
 20
2.760030784076955
 10
4.997170894901767
 20
2.765182818736346
 10
5.02991196785944
 20
2.772528621357564
 10
5.065700970999861
 20
2.782412667377915
 10
5.104610473936531
 20
2.795179432234722
 10
5.146713046282931
 20
2.811173391365302
 10
5.192081257652624
 20
2.830739020206975
 10
5.240715108045607
 20
2.854193598909628
 10
5.292324319007772
 20
2.881745626473475
 10
5.346546042471585
 20
2.913576406611311
 10
5.403017430369425
 20
2.949867243035911
 10
5.461375634633704
 20
2.990799439460083
 10
5.521257807196832
 20
3.036554299596599
 10
5.58230109999123
 20
3.087313127158263
 10
5.644142664949324
 20
3.143257225857846
 10
5.706350107633868
 20
3.204422856756921
 10
5.768212848128984
 20
3.270266110312086
 10
5.828950760149165
 20
3.340098034328742
 10
5.887783717408877
 20
3.413229676612249
 10
5.943931593622631
 20
3.488972084968003
 10
5.996614262504905
 20
3.56663630720138
 10
6.04505159777015
 20
3.645533391117766
 10
6.088463473132875
 20
3.724974384522532
 10
6.1262777719453
 20
3.804292131325586
 10
6.15875441611055
 20
3.882906659854876
 10
6.18636133716952
 20
3.960259794542869
 10
6.20956646666305
 20
4.035793359822053
 10
6.22883773613206
 20
4.108949180124893
 10
6.244643077117377
 20
4.179169079883864
 10
6.257450421159905
 20
4.245894883531439
 10
6.2677276998005
 20
4.308568415500092
 10
6.275888234542616
 20
4.366835681163157
 10
6.282126906739829
 20
4.421159409657491
 10
6.286583987708343
 20
4.472206511060768
 10
6.289399748764282
 20
4.520643895450715
 10
6.290714461223821
 20
4.567138472905035
 10
6.290668396403145
 20
4.612357153501422
 10
6.289401825618401
 20
4.656966847317598
 10
6.287055020185766
 20
4.701634464431249
 10
6.28378379138665
 20
4.746786871003459
 10
6.279806110363583
 20
4.791890757528753
 10
6.275355488224349
 20
4.836172770585006
 10
6.270665436076679
 20
4.878859556750125
 10
6.265969465028387
 20
4.919177762601982
 10
6.26150108618725
 20
4.95635403471847
 10
6.257493810661021
 20
4.989615019677488
 10
6.254181149557489
 20
5.018187364056908
 10
6.251746953381712
 20
5.041540398213353
 10
6.25017643022797
 20
5.060114187618305
 10
6.249405127587763
 20
5.074591481521988
 10
6.249368592952635
 20
5.085655029174606
 10
6.250002373814156
 20
5.093987579826375
 10
6.251242017663852
 20
5.100271882727502
 10
6.253023071993268
 20
5.105190687128201
 10
6.255281084293926
 20
5.109426742278701
 10
6.258089102452746
 20
5.113619857238264
 10
6.262070175938191
 20
5.118238080302493
 10
6.267984854614045
 20
5.123706519576042
 10
6.27659368834411
 20
5.130450283163568
 10
6.288657226992224
 20
5.13889447916973
 10
6.304936020422168
 20
5.149464215699197
 10
6.326190618497758
 20
5.162584600856616
 10
6.353181571082792
 20
5.178680742746664
 10
6.386443841232196
 20
5.198111192147791
 10
6.425610044765203
 20
5.220968270533765
 10
6.470087210692177
 20
5.247277742052119
 10
6.519282368023471
 20
5.277065370850422
 10
6.572602545769424
 20
5.310356921076225
 10
6.629454772940386
 20
5.347178156877074
 10
6.689246078546712
 20
5.387554842400529
 10
6.751383491598767
 20
5.431512741794156
 10
6.815400799328386
 20
5.479114118359539
 10
6.881338821853679
 20
5.53056723201441
 10
6.949365137514178
 20
5.586116841830552
 10
7.019647324649447
 20
5.646007706879739
 10
7.092352961599102
 20
5.710484586233738
 10
7.167649626702679
 20
5.779792238964343
 10
7.24570489829977
 20
5.854175424143317
 10
7.326686354729964
 20
5.933878900842431
 10
7.410432861960096
 20
6.018726614108405
 10
7.495468436466053
 20
6.106859252887659
 10
7.57998838235102
 20
6.195996692101578
 10
7.662188003718142
 20
6.283858806671513
 10
7.740262604670622
 20
6.368165471518844
 10
7.812407489311585
 20
6.446636561564933
 10
7.876817961744222
 20
6.516991951731151
 10
7.931689326071705
 20
6.576951516938859
 10
7.975771185846127
 20
6.624832001032793
 10
8.010030342415348
 20
6.661337623551123
 10
8.035987896576134
 20
6.687769472955388
 10
8.055164949125277
 20
6.705428637707115
 10
8.069082600859559
 20
6.715616206267837
 10
8.079261952575755
 20
6.719633267099098
 10
8.087224105070653
 20
6.718780908662438
 10
8.094490159141027
 20
6.714360219419367
 10
8.102394300760984
 20
6.707444704638042
 10
8.111523056613734
 20
6.698197536812966
 10
8.122276038559789
 20
6.686554305245264
 10
8.135052858459673
 20
6.67245059923605
 10
8.150253128173943
 20
6.655822008086433
 10
8.168276459563081
 20
6.636604121097537
 10
8.189522464487637
 20
6.614732527570481
 10
8.214390754808157
 20
6.590142816806372
 10
8.243192855793388
 20
6.562837135542515
 10
8.275887946345243
 20
6.533083860260942
 10
8.312347118773892
 20
6.501217924879863
 10
8.352441465389503
 20
6.467574263317487
 10
8.396042078502265
 20
6.432487809492048
 10
8.443020050422312
 20
6.396293497321742
 10
8.493246473459819
 20
6.359326260724788
 10
8.546592439924982
 20
6.321921033619403
 10
8.602901112582863
 20
6.284429926022161
 10
8.661903936018294
 20
6.247273752343136
 10
8.723304425271035
 20
6.210890503090762
 10
8.786806095380875
 20
6.175718168773467
 10
8.852112461387541
 20
6.142194739899686
 10
8.918927038330792
 20
6.110758206977855
 10
8.986953341250387
 20
6.081846560516407
 10
9.055894885186091
 20
6.055897791023774
 10
9.125480966323614
 20
6.033264008406549
 10
9.195544005432385
 20
6.013953800163914
 10
9.265942204427773
 20
5.997889873193209
 10
9.33653376522524
 20
5.984994934391785
 10
9.407176889740124
 20
5.975191690656981
 10
9.477729779887841
 20
5.968402848886139
 10
9.548050637583767
 20
5.9645511159766
 10
9.617997664743299
 20
5.963559198825709
 10
9.68735816459592
 20
5.96530901137217
 10
9.755635845627431
 20
5.969519295720179
 10
9.822263517637779
 20
5.975868001015282
 10
9.886673990426793
 20
5.984033076403024
 10
9.948300073794428
 20
5.993692471028978
 10
10.00657457754057
 20
6.004524134038673
 10
10.06093031146511
 20
6.016206014577678
 10
10.11080008536795
 20
6.028416061791542
 10
10.15577139735018
 20
6.040885899858224
 10
10.19605049871766
 20
6.05356185308533
 10
10.23199832907741
 20
6.066443920812858
 10
10.26397582803646
 20
6.079532102380818
 10
10.29234393520184
 20
6.092826397129227
 10
10.3174635901806
 20
6.106326804398069
 10
10.33969573257976
 20
6.120033323527374
 10
10.35940130200634
 20
6.133945953857132
 10
10.37688752675271
 20
6.148030342750622
 10
10.39224678985244
 20
6.162114729664125
 10
10.40551776302447
 20
6.175993002077209
 10
10.41673911798768
 20
6.189459047469416
 10
10.42594952646098
 20
6.202306753320316
 10
10.43318766016331
 20
6.214330007109438
 10
10.43849219081355
 20
6.225322696316357
 10
10.44190179013062
 20
6.235078708420617
 10
10.44339497332135
 20
6.243544368554807
 10
10.44270962954427
 20
6.251275752463659
 10
10.43952349144585
 20
6.258981373544941
 10
10.43351429167254
 20
6.267369745196432
 10
10.4243597628708
 20
6.277149380815876
 10
10.41173763768709
 20
6.289028793801058
 10
10.39532564876786
 20
6.303716497549743
 10
10.37480152875959
 20
6.321921005459699
 10
10.35005355823463
 20
6.344103924679615
 10
10.32181220946898
 20
6.369739237361921
 10
10.29101850266455
 20
6.398054019409958
 10
10.25861345802325
 20
6.428275346727076
 10
10.22553809574699
 20
6.459630295216632
 10
10.19273343603766
 20
6.491345940781959
 10
10.1611404990972
 20
6.522649359326418
 10
10.13170030512748
 20
6.552767626753357
 10
10.10515192035743
 20
6.581112461968594
 10
10.08142659512394
 20
6.607834155887871
 10
10.06025362579089
 20
6.633267642429409
 10
10.04136230872219
 20
6.657747855511402
 10
10.0244819402817
 20
6.681609729052091
 10
10.00934181683336
 20
6.705188196969665
 10
9.995671234741024
 20
6.728818193182359
 10
9.983199490368583
 20
6.752834651608367
 10
9.971722481700304
 20
6.777581094160101
 10
9.961302513201889
 20
6.803435394726704
 10
9.952068490959458
 20
6.830784015191493
 10
9.944149321059068
 20
6.860013417437805
 10
9.937673909586798
 20
6.891510063348967
 10
9.93277116262876
 20
6.925660414808302
 10
9.929569986271012
 20
6.962850933699144
 10
9.928199286599664
 20
7.003468081904813
 10
9.928768180158701
 20
7.047704637061769
 10
9.93130662532404
 20
7.09497863981899
 10
9.935824790929437
 20
7.144514446578581
 10
9.942332845808692
 20
7.195536413742653
 10
9.950840958795605
 20
7.247268897713297
 10
9.961359298724005
 20
7.298936254892632
 10
9.973898034427655
 20
7.349762841682764
 10
9.988467334740388
 20
7.3989730144858
 10
10.00507156800542
 20
7.445958525053709
 10
10.02369190060387
 20
7.490780706537913
 10
10.04430369842622
 20
7.533668287439704
 10
10.06688232736305
 20
7.574849996260384
 10
10.09140315330486
 20
7.614554561501233
 10
10.11784154214218
 20
7.653010711663558
 10
10.14617285976556
 20
7.690447175248632
 10
10.17637247206551
 20
7.72709268075776
 10
10.2084330037597
 20
7.763120921579201
 10
10.2424161148743
 20
7.798485450649117
 10
10.27840072426259
 20
7.833084785790642
 10
10.31646575077787
 20
7.866817444826901
 10
10.35669011327343
 20
7.899581945581029
 10
10.39915273060259
 20
7.931276805876157
 10
10.44393252161861
 20
7.961800543535419
 10
10.49110840517482
 20
7.991051676381939
 10
10.54072036565813
 20
8.018925597226909
 10
10.59265264959011
 20
8.045305198833666
 10
10.64675056902594
 20
8.070070248953628
 10
10.70285943602085
 20
8.093100515338214
 10
10.76082456263004
 20
8.114275765738804
 10
10.82049126090867
 20
8.133475767906823
 10
10.88170484291198
 20
8.150580289593667
 10
10.94431062069514
 20
8.165469098550747
 10
11.00816536456086
 20
8.178053451841485
 10
11.07317167780175
 20
8.188370563777342
 10
11.13924362195794
 20
8.196489137981821
 10
11.20629525856951
 20
8.202477878078397
 10
11.2742406491766
 20
8.206405487690572
 10
11.3429938553193
 20
8.20834067044182
 10
11.41246893853776
 20
8.208352129955644
 10
11.48257996037205
 20
8.206508569855518
 10
11.55322665955295
 20
8.202850067172651
 10
11.62425148357376
 20
8.197302192569097
 10
11.6954825571185
 20
8.189761890114642
 10
11.76674800487109
 20
8.180126103879047
 10
11.83787595151554
 20
8.168291777932086
 10
11.9086945217358
 20
8.154155856343539
 10
11.97903184021586
 20
8.137615283183166
 10
12.04871603163967
 20
8.118567002520764
 10
12.11764110632703
 20
8.09693658507337
 10
12.185964617141
 20
8.072764108147193
 10
12.25391000258046
 20
8.046118275695706
 10
12.32170070114428
 20
8.017067791672415
 10
12.38956015133136
 20
7.985681360030781
 10
12.45771179164054
 20
7.952027684724306
 10
12.52637906057072
 20
7.916175469706461
 10
12.59578539662079
 20
7.878193418930743
 10
12.66603106061449
 20
7.838158824509807
 10
12.73672360267511
 20
7.796183331193075
 10
12.80734739525081
 20
7.752387171889115
 10
12.87738681078976
 20
7.706890579506522
 10
12.94632622174014
 20
7.659813786953879
 10
13.01365000055012
 20
7.611277027139788
 10
13.07884251966784
 20
7.561400532972825
 10
13.1413881515415
 20
7.510304537361573
 10
13.2008514772426
 20
7.458106410439903
 10
13.25711791233618
 20
7.40491207124276
 10
13.3101530810106
 20
7.350824576030369
 10
13.35992260745426
 20
7.29594698106295
 10
13.40639211585551
 20
7.240382342600723
 10
13.44952723040275
 20
7.184233716903921
 10
13.48929357528435
 20
7.12760416023277
 10
13.5256567746887
 20
7.07059672884748
 10
13.5586053698337
 20
7.013274401592086
 10
13.58821957005555
 20
6.955539847645816
 10
13.6146025017199
 20
6.897255658771699
 10
13.63785729119247
 20
6.83828442673278
 10
13.65808706483895
 20
6.77848874329209
 10
13.67539494902504
 20
6.717731200212664
 10
13.68988407011646
 20
6.655874389257537
 10
13.70165755447888
 20
6.59278090218973
 10
13.71085863270059
 20
6.528519443622741
 10
13.71779095226024
 20
6.463983169571807
 10
13.72279826485906
 20
6.400271348902631
 10
13.72622432219823
 20
6.338483250480898
 10
13.72841287597901
 20
6.279718143172289
 10
13.72970767790261
 20
6.225075295842515
 10
13.73045247967025
 20
6.17565397735726
 10
13.73099103298316
 20
6.132553456582209
 10
13.73161552662698
 20
6.096549519618765
 10
13.73241189772517
 20
6.067124021511087
 10
13.73341452048559
 20
6.043435334539029
 10
13.73465776911613
 20
6.024641830982458
 10
13.73617601782463
 20
6.009901883121234
 10
13.738003640819
 20
5.998373863235217
 10
13.74017501230709
 20
5.989216143604267
 10
13.74272450649678
 20
5.981587096508246
 10
13.7457065501527
 20
5.974808266941526
 10
13.74925578026667
 20
5.968853890756562
 10
13.75352688638719
 20
5.963861376520304
 10
13.75867455806283
 20
5.959968132799728
 10
13.76485348484215
 20
5.957311568161783
 10
13.77221835627366
 20
5.956029091173437
 10
13.78092386190595
 20
5.956258110401657
 10
13.79112469128755
 20
5.958136034413396
 10
13.80302996090985
 20
5.961880426828013
 10
13.81706649503565
 20
5.968029471474444
 10
13.83371554487055
 20
5.977201507234003
 10
13.85345836162021
 20
5.990014872988023
 10
13.87677619649025
 20
6.00708790761783
 10
13.90415030068627
 20
6.029038950004753
 10
13.93606192541393
 20
6.056486339030115
 10
13.97299232187885
 20
6.090048413575235
 10
14.01517638620372
 20
6.130145987610179
 10
14.06186359417942
 20
6.176409775460003
 10
14.11205706651392
 20
6.228272966538479
 10
14.16475992391519
 20
6.285168750259403
 10
14.21897528709116
 20
6.346530316036545
 10
14.2737062767498
 20
6.411790853283697
 10
14.32795601359907
 20
6.480383551414647
 10
14.38072761834691
 20
6.551741599843172
 10
14.4311674414877
 20
6.625303913257514
 10
14.47899475266145
 20
6.700532307443758
 10
14.52407205129459
 20
6.776894323462414
 10
14.56626183681355
 20
6.853857502374033
 10
14.60542660864477
 20
6.93088938523913
 10
14.64142886621465
 20
7.00745751311825
 10
14.67413110894963
 20
7.08302942707191
 10
14.70339583627615
 20
7.157072668160639
 10
14.7293290383199
 20
7.229166422084389
 10
14.75301066800363
 20
7.299336453100696
 10
14.77576416894939
 20
7.36772017010653
 10
14.79891298477923
 20
7.434454981998845
 10
14.82378055911518
 20
7.499678297674599
 10
14.85169033557927
 20
7.563527526030746
 10
14.88396575779356
 20
7.626140075964258
 10
14.92193026938007
 20
7.687653356372084
 10
14.96649194741096
 20
7.748221952249551
 10
15.01689740275888
 20
7.808069152985469
 10
15.07197787974658
 20
7.86743542406702
 10
15.13056462269683
 20
7.926561230981373
 10
15.19148887593239
 20
7.985687039215713
 10
15.25358188377603
 20
8.045053314257224
 10
15.3156748905505
 20
8.104900521593071
 10
15.37659914057857
 20
8.165469126710442
 10
15.43534343113514
 20
8.22688222501765
 10
15.49152677130379
 20
8.288793431607569
 10
15.54492572312019
 20
8.350738991494218
 10
15.59531684862007
 20
8.41225514969161
 10
15.64247670983913
 20
8.472878151213759
 10
15.68618186881308
 20
8.532144241074679
 10
15.72620888757762
 20
8.589589664288396
 10
15.76233432816844
 20
8.644750665868905
 10
15.79440923185362
 20
8.697203568576425
 10
15.82258255683048
 20
8.746685006155953
 10
15.84707774052878
 20
8.792971690098653
 10
15.86811822037822
 20
8.83584033189572
 10
15.88592743380849
 20
8.875067643038338
 10
15.90072881824934
 20
8.910430335017675
 10
15.91274581113045
 20
8.941705119324936
 10
15.92220184988154
 20
8.96866870745128
 10
15.9293031847393
 20
8.991220906021228
 10
15.93418731716826
 20
9.009753902192553
 10
15.93697456143994
 20
9.024782978256373
 10
15.93778523182584
 20
9.036823416503775
 10
15.93673964259747
 20
9.04639049922588
 10
15.93395810802636
 20
9.053999508713795
 10
15.92956094238399
 20
9.060165727258612
 10
15.9236684599419
 20
9.065404437151453
 10
15.91633222432841
 20
9.070127864203188
 10
15.90732879659914
 20
9.074336008303825
 10
15.89636598716658
 20
9.077925812863146
 10
15.88315160644319
 20
9.080794221290929
 10
15.86739346484141
 20
9.082838176996954
 10
15.84879937277372
 20
9.083954623390999
 10
15.82707714065258
 20
9.084040503882855
 10
15.80193457889045
 20
9.082992761882291
 10
15.77316830047607
 20
9.080768457143376
 10
15.74093012870326
 20
9.077565114797383
 10
15.70546068944213
 20
9.073640376319852
 10
15.66700060856278
 20
9.069251883186334
 10
15.62579051193535
 20
9.064657276872368
 10
15.58207102542989
 20
9.060114198853522
 10
15.53608277491656
 20
9.055880290605324
 10
15.48806638626542
 20
9.052213193603339
 10
15.43819659979988
 20
9.049356235889474
 10
15.38638461365644
 20
9.047495491771064
 10
15.3324757404249
 20
9.046802722121814
 10
15.276315292695
 20
9.04744968781542
 10
15.21774858305654
 20
9.049608149725592
 10
15.15662092409932
 20
9.053449868726019
 10
15.09277762841312
 20
9.059146605690413
 10
15.02606400858771
 20
9.066870121492465
 10
14.95634256458409
 20
9.076803627664798
 10
14.88354454584822
 20
9.08917613837568
 10
14.80761838919721
 20
9.104228118452292
 10
14.72851253144824
 20
9.122200032721822
 10
14.64617540941844
 20
9.14333234601146
 10
14.56055545992497
 20
9.167865523148384
 10
14.47160111978499
 20
9.196040028959783
 10
14.37926082581563
 20
9.228096328272846
 10
14.28373223492435
 20
9.264100262541319
 10
14.18620988437982
 20
9.303419179725235
 10
14.088137531541
 20
9.345245804411197
 10
13.99095893376686
 20
9.388772861185801
 10
13.89611784841635
 20
9.433193074635646
 10
13.80505803284846
 20
9.477699169347335
 10
13.71922324442213
 20
9.521483869907465
 10
13.64005724049634
 20
9.563739900902636
 10
13.5673279887084
 20
9.603757317850211
 10
13.49410029780904
 20
9.641215499990629
 10
13.41176318682729
 20
9.675891157495073
 10
13.31170567479221
 20
9.707561000534747
 10
13.18531678073287
 20
9.736001739280846
 10
13.02398552367832
 20
9.760990083904568
 10
12.81910092265763
 20
9.78230274457711
 10
12.56205199669985
 20
9.799716431469668
 10
12.24815399858962
 20
9.813072599298788
 10
11.88842711613393
 20
9.822471680962433
 10
11.49781777089533
 20
9.82807885390393
 10
11.0912723844364
 20
9.830059295566588
 10
10.68373737831968
 20
9.828578183393727
 10
10.29015917410774
 20
9.823800694828669
 10
9.925484193363161
 20
9.815892007314724
 10
9.60465885764848
 20
9.805017298295219
 10
9.338878349555503
 20
9.791312688800726
 10
9.12433289579279
 20
9.774798074210856
 10
8.95346148409817
 20
9.755464293492488
 10
8.818703102209482
 20
9.733302185612499
 10
8.712496737864508
 20
9.708302589537755
 10
8.627281378801065
 20
9.680456344235137
 10
8.555496012756993
 20
9.649754288671514
 10
8.48957962747006
 20
9.616187261813767
 10
8.423248583064498
 20
9.579737944070037
 10
8.355328729209922
 20
9.540356381613566
 10
8.285923287962347
 20
9.497984462058868
 10
8.215135481377803
 20
9.452564073020457
 10
8.143068531512327
 20
9.404037102112857
 10
8.069825660421884
 20
9.352345436950566
 10
7.995510090162547
 20
9.297430965148105
 10
7.92022504279032
 20
9.239235574319991
 10
7.844082318098443
 20
9.177752060092402
 10
7.767228026829052
 20
9.113176850138207
 10
7.689816857461565
 20
9.04575728014192
 10
7.612003498475328
 20
8.975740685788078
 10
7.533942638349756
 20
8.903374402761212
 10
7.455788965564231
 20
8.828905766745846
 10
7.37769716859811
 20
8.752582113426511
 10
7.2998219359308
 20
8.674650778487743
 10
7.222297330857625
 20
8.595335909859258
 10
7.145174915937765
 20
8.514768904451594
 10
7.068485628546365
 20
8.433057971420483
 10
6.992260406058505
 20
8.350311319921667
 10
6.916530185849342
 20
8.266637159110876
 10
6.841325905294009
 20
8.182143698143832
 10
6.766678501767614
 20
8.096939146176282
 10
6.692618912645301
 20
8.011131712363956
 10
6.619196122371647
 20
7.92490174551974
 10
6.546531303669002
 20
7.838718153085133
 10
6.474763676329176
 20
7.753121982158788
 10
6.404032460144037
 20
7.668654279839362
 10
6.334476874905366
 20
7.585856093225505
 10
6.266236140405002
 20
7.505268469415877
 10
6.19944947643475
 20
7.427432455509126
 10
6.134256102786425
 20
7.352889098603906
 10
6.070738520107127
 20
7.282066083527631
 10
6.008752352464934
 20
7.214937646022743
 10
5.94809650478316
 20
7.151364659560446
 10
5.888569881985176
 20
7.091207997611959
 10
5.829971388994341
 20
7.034328533648469
 10
5.772099930733979
 20
6.980587141141185
 10
5.714754412127433
 20
6.929844693561316
 10
5.657733738098048
 20
6.881962064380065
 10
5.60082650111082
 20
6.836782092209352
 10
5.54378004379717
 20
6.794075476223929
 10
5.486331396330205
 20
6.753594880739267
 10
5.428217588883033
 20
6.715092970070848
 10
5.369175651628712
 20
6.678322408534135
 10
5.308942614740363
 20
6.643035860444602
 10
5.247255508391052
 20
6.608985990117719
 10
5.18385136275387
 20
6.575925461868955
 10
5.118526505172191
 20
6.543730607856051
 10
5.051314451670263
 20
6.512772431605799
 10
4.98230801544264
 20
6.483545604487256
 10
4.911600009683899
 20
6.456544797869472
 10
4.839283247588589
 20
6.43226468312152
 10
4.765450542351214
 20
6.411199931612449
 10
4.690194707166341
 20
6.393845214711303
 10
4.61360855522853
 20
6.380695203787162
 10
4.5357977902162
 20
6.372138937281103
 10
4.456919677743227
 20
6.368142921922288
 10
4.377144373907437
 20
6.368568031511937
 10
4.296642034806588
 20
6.373275139851237
 10
4.215582816538429
 20
6.382125120741397
 10
4.134136875200795
 20
6.394978847983612
 10
4.052474366891447
 20
6.411697195379094
 10
3.970765447708174
 20
6.432141036729039
 10
3.889208633632936
 20
6.456124870325041
 10
3.808115880184615
 20
6.483277692420319
 10
3.727827502766249
 20
6.513182123758483
 10
3.648683816780899
 20
6.545420785083145
 10
3.571025137631645
 20
6.579576297137911
 10
3.495191780721524
 20
6.615231280666387
 10
3.421524061453599
 20
6.651968356412201
 10
3.350362295230935
 20
6.68937014511895
 10
3.281979765586154
 20
6.72711974772771
 10
3.216381628570267
 20
6.765302185969414
 10
3.153506008363875
 20
6.804102961772461
 10
3.093291029147511
 20
6.843707577065238
 10
3.03567481510181
 20
6.884301533776147
 10
2.980595490407305
 20
6.926070333833582
 10
2.927991179244598
 20
6.969199479165933
 10
2.877800005794256
 20
7.013874471701599
 10
2.83000650074508
 20
7.060203520981307
 10
2.784780820818472
 20
7.107985666995126
 10
2.742339529244095
 20
7.15694265734546
 10
2.702899189251613
 20
7.20679623963471
 10
2.6666763640706
 20
7.257268161465278
 10
2.633887616930749
 20
7.308080170439565
 10
2.60474951106168
 20
7.358954014159975
 10
2.57947860969301
 20
7.409611440228911
 10
2.558255382182808
 20
7.459859217814711
 10
2.541115922402642
 20
7.509844202349439
 10
2.528060230352553
 20
7.559798270831084
 10
2.519088306032498
 20
7.609953300257657
 10
2.514200149442507
 20
7.660541167627147
 10
2.51339576058255
 20
7.711793749937555
 10
2.516675139452656
 20
7.763942924186878
 10
2.524038286052826
 20
7.817220567373119
 10
2.535492934994087
 20
7.871745194333019
 10
2.551077759331866
 20
7.927181871258383
 10
2.570839166732575
 20
7.983082302179733
 10
2.594823564862654
 20
8.038998191127628
 10
2.623077361388515
 20
8.094481242132598
 10
2.655646963976657
 20
8.149083159225195
 10
2.692578780293445
 20
8.202355646435956
 10
2.733919218005395
 20
8.253850407795424
 10
2.779603824425779
 20
8.303165522843734
 10
2.829124705455633
 20
8.350084573159429
 10
2.881863106642818
 20
8.394437515830636
 10
2.937200273535214
 20
8.436054307945489
 10
2.994517451680723
 20
8.474764906592127
 10
3.053195886627214
 20
8.51039926885867
 10
3.112616823922589
 20
8.542787351833256
 10
3.172161509114715
 20
8.571759112604022
 10
3.23132204801546
 20
8.597193459996454
 10
3.290033987492742
 20
8.619165109785457
 10
3.34834373467835
 20
8.637797729483306
 10
3.406297696704182
 20
8.65321498660227
 10
3.463942280702095
 20
8.665540548654615
 10
3.521323893803922
 20
8.6748980831526
 10
3.578488943141531
 20
8.681411257608507
 10
3.635483835846766
 20
8.685203739534598
 10
3.692308572365138
 20
8.686342515472519
 10
3.748777526396651
 20
8.684667848081423
 10
3.804658664954885
 20
8.679963319049846
 10
3.85971995505354
 20
8.672012510066322
 10
3.913729363706231
 20
8.660599002819381
 10
3.966454857926567
 20
8.645506378997556
 10
4.017664404728208
 20
8.626518220289376
 10
4.067125971124777
 20
8.603418108383387
 10
4.114592055531446
 20
8.57605661150975
 10
4.159753281969525
 20
8.544552244065249
 10
4.202284805861825
 20
8.509090506988265
 10
4.241861782631207
 20
8.469856901217216
 10
4.278159367700505
 20
8.427036927690492
 10
4.310852716492533
 20
8.380816087346527
 10
4.339616984430147
 20
8.331379881123703
 10
4.364127326936188
 20
8.278913809960432
 10
4.384182649914047
 20
8.223696125924313
 10
4.400076861189463
 20
8.166376085599727
 10
4.41222761906873
 20
8.107695696700274
 10
4.421052581858106
 20
8.048396966939503
 10
4.426969407863918
 20
7.989221904031005
 10
4.430395755392453
 20
7.930912515688373
 10
4.431749282750004
 20
7.874210809625166
 10
4.431447648242864
 20
7.819858793554974
 10
4.429890463107863
 20
7.768505724172177
 10
4.427405150304062
 20
7.720429854094369
 10
4.424301085721062
 20
7.675816684919947
 10
4.420887645248459
 20
7.634851718247308
 10
4.417474204775857
 20
7.597720455674863
 10
4.414370140192854
 20
7.564608398800999
 10
4.411884827389069
 20
7.535701049224108
 10
4.410327642254081
 20
7.511183908542605
 10
4.410000226422805
 20
7.491157456678941
 10
4.411173284511406
 20
7.475382086851874
 10
4.41410978688142
 20
7.463533170604193
 10
4.419072703894293
 20
7.455286079478732
 10
4.426325005911564
 20
7.45031618501828
 10
4.436129663294678
 20
7.448298858765655
 10
4.448749646405172
 20
7.448909472263677
 10
4.464447925604488
 20
7.451823397055136
 10
4.483428173994841
 20
7.456811332094815
 10
4.505656875640976
 20
7.464025285985272
 10
4.531041217348359
 20
7.473712594741041
 10
4.559488385922454
 20
7.486120594376636
 10
4.5909055681687
 20
7.5014966209066
 10
4.625199950892561
 20
7.520088010345444
 10
4.662278720899486
 20
7.542142098707696
 10
4.702049064994929
 20
7.567906222007884
 10
4.744340826011946
 20
7.597537541744094
 10
4.788674470893994
 20
7.630832521348629
 10
4.834493122612109
 20
7.667497449737375
 10
4.881239904137355
 20
7.707238615826184
 10
4.9283579384408
 20
7.749762308530943
 10
4.97529034849348
 20
7.794774816767523
 10
5.021480257266441
 20
7.841982429451796
 10
5.066370787730765
 20
7.891091435499621
 10
5.109454047212947
 20
7.941689608825129
 10
5.150418080461452
 20
7.992890663335426
 10
5.188999916580209
 20
8.043689797935858
 10
5.224936584673141
 20
8.093082211531761
 10
5.257965113844161
 20
8.140063103028513
 10
5.287822533197205
 20
8.183627671331452
 10
5.314245871836188
 20
8.222771115345922
 10
5.336972158865052
 20
8.256488633977285
 10
5.355973034221364
 20
8.284100054148083
 10
5.372158581177412
 20
8.306223714849636
 10
5.386673493839129
 20
8.323802583090467
 10
5.400662466312445
 20
8.337779625879095
 10
5.415270192703292
 20
8.349097810224035
 10
5.431641367117606
 20
8.358700103133813
 10
5.450920683661315
 20
8.367529471616936
 10
5.474252836440353
 20
8.376528882681931
 10
5.502519549110084
 20
8.386517635550053
 10
5.535550663523476
 20
8.397820358293495
 10
5.572913051082917
 20
8.410638011197184
 10
5.614173583190821
 20
8.42517155454605
 10
5.658899131249587
 20
8.441621948625019
 10
5.706656566661585
 20
8.460190153719031
 10
5.757012760829235
 20
8.481077130113
 10
5.809534585154921
 20
8.504483838091866
 10
5.863776020824456
 20
8.530536522000645
 10
5.919239488157337
 20
8.559062562424717
 10
5.975414517256457
 20
8.589814624009544
 10
6.031790638224734
 20
8.622545371400601
 10
6.087857381165095
 20
8.657007469243353
 10
6.143104276180434
 20
8.692953582183259
 10
6.19702085337364
 20
8.730136374865802
 10
6.249096642847668
 20
8.768308511936439
 10
6.298885627837515
 20
8.807202046568599
 10
6.346199604106812
 20
8.846466586047545
 10
6.390914820551323
 20
8.885731126186483
 10
6.432907526066752
 20
8.924624662798622
 10
6.472053969548852
 20
8.96277619169718
 10
6.508230399893399
 20
8.999814708695376
 10
6.541313065996099
 20
9.035369209606422
 10
6.57117821675272
 20
9.069068690243526
 10
6.597743351337978
 20
9.10059625138277
 10
6.621090970042573
 20
9.129851413651685
 10
6.64134482343617
 20
9.156787802640653
 10
6.65862866208845
 20
9.181359043940057
 10
6.67306623656907
 20
9.203518763140309
 10
6.684781297447722
 20
9.223220585831784
 10
6.693897595294062
 20
9.240418137604873
 10
6.700538880677786
 20
9.255065044049974
 10
6.704779919545751
 20
9.267143270967784
 10
6.706499539353854
 20
9.276748145000256
 10
6.705527582935079
 20
9.284003332999686
 10
6.701693893122502
 20
9.289032501818331
 10
6.694828312749192
 20
9.291959318308469
 10
6.684760684648193
 20
9.292907449322385
 10
6.671320851652565
 20
9.292000561712342
 10
6.654338656595333
 20
9.289362322330619
 10
6.633672301926505
 20
9.285126703930508
 10
6.609293428563731
 20
9.279468902869382
 10
6.581202037041595
 20
9.272574421405641
 10
6.549398127894676
 20
9.264628761797666
 10
6.51388170165756
 20
9.255817426303847
 10
6.474652758864827
 20
9.246325917182584
 10
6.431711300051052
 20
9.236339736692258
 10
6.385057325750825
 20
9.226044387091274
 10
6.334752711516301
 20
9.215666593142096
 10
6.281106832969751
 20
9.205597969623575
 10
6.224490940751035
 20
9.19627135381863
 10
6.16527628550002
 20
9.188119583010193
 10
6.103834117856575
 20
9.181575494481196
 10
6.040535688460503
 20
9.17707192551455
 10
5.9757522479517
 20
9.175041713393193
 10
5.909855046970031
 20
9.17591769540005
 10
5.843238539810329
 20
9.180032228675591
 10
5.776389995387607
 20
9.187315749790403
 10
5.709819886271867
 20
9.197598215172638
 10
5.644038685033091
 20
9.210709581250432
 10
5.579556864241311
 20
9.226479804451928
 10
5.516884896466539
 20
9.244738841205258
 10
5.456533254278745
 20
9.265316647938568
 10
5.399012410247973
 20
9.288043181080002
 10
5.344706507903524
 20
9.312771584922487
 10
5.293494374612155
 20
9.339447755218158
 10
5.245128508699959
 20
9.368040775583942
 10
5.199361408492947
 20
9.398519729636767
 10
5.155945572317261
 20
9.430853700993559
 10
5.114633498498907
 20
9.46501177327125
 10
5.075177685363982
 20
9.500963030086767
 10
5.037330631238557
 20
9.538676555057035
 10
5.000300847369073
 20
9.577966846858654
 10
4.961120896683254
 20
9.61803006440691
 10
4.916279355029271
 20
9.657907781676753
 10
4.862264798255239
 20
9.69664157264313
 10
4.795565802209303
 20
9.73327301128101
 10
4.712670942739542
 20
9.766843671565339
 10
4.610068795694147
 20
9.79639512747107
 10
4.484247936921185
 20
9.820968952973158
 10
4.333206633197871
 20
9.839747073027403
 10
4.16098191501749
 20
9.852472816512992
 10
3.973120503802441
 20
9.859029863289968
 10
3.775169120975066
 20
9.859301893218367
 10
3.572674487957733
 20
9.853172586158219
 10
3.371183326172813
 20
9.84052562196957
 10
3.176242357042662
 20
9.82124468051245
 10
2.993398301989634
 20
9.7952134416469
 10
2.827163650953695
 20
9.762622734984976
 10
2.67791396794497
 20
9.724891989146806
 10
2.544990585491239
 20
9.683747782504564
 10
2.427734836120224
 20
9.640916693430392
 10
2.325488052359689
 20
9.598125300296448
 10
2.237591566737355
 20
9.557100181474902
 10
2.163386711780971
 20
9.519567915337894
 10
2.102214820018289
 20
9.487255080257593
 10
2.05325870040075
 20
9.461473277229364
 10
2.015067067574529
 20
9.441874197741416
 10
1.986030112609565
 20
9.427694555905191
 10
1.964538026575738
 20
9.41817106583211
 10
1.948981000542961
 20
9.4125404416336
 10
1.937749225581125
 20
9.410039397421094
 10
1.929232892760158
 20
9.409904647306019
 10
1.921822193149925
 20
9.411372905399806
 10
1.913934038495565
 20
9.413874577815665
 10
1.904092223242903
 20
9.417614838673971
 10
1.890847262512981
 20
9.422992554096886
 10
1.872749671426825
 20
9.430406590206558
 10
1.848349965105489
 20
9.440255813125153
 10
1.816198658670026
 20
9.452939088974826
 10
1.774846267241466
 20
9.468855283877733
 10
1.722843305940845
 20
9.48840326395603
 10
1.659279470445925
 20
9.511778963317798
 10
1.585401178661284
 20
9.538366588014806
 10
1.502994029048231
 20
9.567347412084727
 10
1.413843620068048
 20
9.597902709565255
 10
1.319735550182089
 20
9.62921375449407
 10
1.22245541785158
 20
9.660461820908857
 10
1.123788821537887
 20
9.690828182847301
 10
1.025521359702295
 20
9.719494114347082
 10
0.9292320616016684
 20
9.745784341348942
 10
0.8356736796752954
 20
9.769597397405849
 10
0.7453923971580121
 20
9.79097526797382
 10
0.6589343972846731
 20
9.809959938508882
 10
0.5768458632901261
 20
9.826593394467053
 10
0.4996729784092171
 20
9.840917621304351
 10
0.4279619258768044
 20
9.852974604476804
 10
0.3622588889277196
 20
9.862806329440433
 10
0.3029770061490122
 20
9.870465278235258
 10
0.2499972375362898
 20
9.876045919237318
 10
0.2030674984374237
 20
9.879653217406646
 10
0.1619357042002267
 20
9.881392137703295
 10
0.1263497701725083
 20
9.881367645087296
 10
0.0960576117021113
 20
9.879684704518682
 10
0.070807144136877
 20
9.876448280957509
 10
0.050346282824588
 20
9.871763339363802
 10
0.034408938469598
 20
9.865731345909606
 10
0.0226730032022378
 20
9.858439771614953
 10
0.0148023645093218
 20
9.849972588711864
 10
0.0104609098776667
 20
9.840413769432371
 10
0.0093125267941154
 20
9.829847286008504
 10
0.0110211027454526
 20
9.818357110672298
 10
0.0152505252185513
 20
9.806027215655774
 10
0.0216646817001962
 20
9.79294157319096
 10
0.029948466553396
 20
9.779159663663884
 10
0.0398708016457121
 20
9.764643000076521
 10
0.0512216157208911
 20
9.749328603584853
 10
0.0637908375227045
 20
9.733153495344845
 10
0.0773683957948777
 20
9.716054696512482
 10
0.0917442192811713
 20
9.697969228243735
 10
0.1067082367252965
 20
9.678834111694582
 10
0.1220503768710248
 20
9.658586368020989
 10
0.137637594625053
 20
9.637145524163932
 10
0.1536449495457361
 20
9.614361130204358
 10
0.1703245273544596
 20
9.590065242008197
 10
0.1879284137725481
 20
9.564089915441398
 10
0.206708694521323
 20
9.536267206369888
 10
0.2269174553221411
 20
9.50642917065962
 10
0.2488067818963398
 20
9.474407864176525
 10
0.2726287599652579
 20
9.440035342786542
 10
0.2985094326568642
 20
9.403073685715588
 10
0.3260706727255869
 20
9.363005065629462
 10
0.3548083103324942
 20
9.319241678553954
 10
0.3842181756386882
 20
9.271195720514835
 10
0.4137960988052072
 20
9.21827938753789
 10
0.4430379099931248
 20
9.159904875648908
 10
0.4714394393635395
 20
9.095484380873665
 10
0.4984965170774914
 20
9.02443009923793
 10
0.5238380181220972
 20
8.946399145117586
 10
0.5476249967885512
 20
8.862028306288873
 10
0.5701515521941545
 20
8.772199288878109
 10
0.5917117834561463
 20
8.677793799011627
 10
0.6125997896917959
 20
8.579693542815748
 10
0.6331096700183441
 20
8.4787802264168
 10
0.653535523553046
 20
8.375935555941115
 10
0.674171449413187
 20
8.27204123751502
 10
0.6953150476986654
 20
8.167842522662779
 10
0.7172779224401751
 20
8.063538844500493
 10
0.7403751786510409
 20
7.959193181542177
 10
0.7649219213446444
 20
7.854868512301854
 10
0.7912332555342783
 20
7.750627815293569
 10
0.8196242862332994
 20
7.646534069031332
 10
0.8504101184550592
 20
7.542650252029186
 10
0.8839058572129125
 20
7.439039342801159
 10
0.9203530831417925
 20
7.335844793085303
 10
0.9596992793631748
 20
7.233531947515791
 10
1.001818404620145
 20
7.132646623950833
 10
1.046584417655777
 20
7.03373464024863
 10
1.093871277213143
 20
6.937341814267398
 10
1.143552942035325
 20
6.844013963865329
 10
1.195503370865415
 20
6.754296906900625
 10
1.249596522446452
 20
6.66873646123151
 10
1.305660839895606
 20
6.587766482125127
 10
1.363342703826127
 20
6.511372974484473
 10
1.422242979225362
 20
6.439429980621502
 10
1.481962531080599
 20
6.371811542848158
 10
1.542102224379199
 20
6.308391703476395
 10
1.602262924108465
 20
6.249044504818165
 10
1.6620454952557
 20
6.193643989185412
 10
1.721050802808267
 20
6.142064198890089
 10
1.778928728451209
 20
6.094105700706123
 10
1.835525220660521
 20
6.049275159255323
 10
1.89073524460996
 20
6.007005763621478
 10
1.944453765473305
 20
5.966730702888375
 10
1.996575748424238
 20
5.927883166139805
 10
2.046996158636556
 20
5.889896342459557
 10
2.095609961283994
 20
5.852203420931413
 10
2.142312121540296
 20
5.814237590639164
 10
2.186945086987869
 20
5.775456532512613
 10
2.229141234843901
 20
5.735415894865589
 10
2.268480424734153
 20
5.693695817857927
 10
2.304542516284499
 20
5.649876441649482
 10
2.336907369120725
 20
5.603537906400077
 10
2.36515484286868
 20
5.554260352269578
 10
2.388864797154162
 20
5.501623919417813
 10
2.407617091603009
 20
5.445208748004619
 10
2.421068611380256
 20
5.384853891801945
 10
2.429184343808046
 20
5.321434059030112
 10
2.432006301747662
 20
5.256082871521556
 10
2.429576498060473
 20
5.189933951108688
 10
2.421936945607807
 20
5.12412091962393
 10
2.409129657250971
 20
5.059777398899711
 10
2.391196645851341
 20
4.998037010768458
 10
2.368179924270251
 20
4.940033377062594
 10
2.340156517512351
 20
4.886753168538483
 10
2.307343499155651
 20
4.838595251648291
 10
2.26999295492147
 20
4.795811541768102
 10
2.228356970531192
 20
4.758653954274029
 10
2.182687631706142
 20
4.727374404542166
 10
2.133237024167645
 20
4.702224807948615
 10
2.080257233637025
 20
4.683457079869477
 10
2.024000345835665
 20
4.671323135680854
 10
1.964795472113214
 20
4.665948932960803
 10
1.903279826332799
 20
4.666956598095159
 10
1.840167647985817
 20
4.673842299671752
 10
1.776173176563744
 20
4.686102206278372
 10
1.712010651557982
 20
4.703232486502836
 10
1.648394312459979
 20
4.724729308932937
 10
1.586038398761187
 20
4.750088842156495
 10
1.525657149953003
 20
4.778807254761311
 10
1.467807252574765
 20
4.810461188394217
 10
1.412415181357093
 20
4.844949176938182
 10
1.359249858078467
 20
4.882250227335198
 10
1.308080204517423
 20
4.922343346527254
 10
1.258675142452414
 20
4.965207541456342
 10
1.210803593661944
 20
5.01082181906446
 10
1.164234479924521
 20
5.059165186293601
 10
1.118736723018628
 20
5.110216650085751
 10
1.074068741418331
 20
5.163909732533895
 10
1.029946940379966
 20
5.219996016334935
 10
0.9860772218554583
 20
5.278181599336765
 10
0.9421654877966876
 20
5.338172579387272
 10
0.8979176401555797
 20
5.399675054334363
 10
0.8530395808840331
 20
5.462395122025911
 10
0.8072372119339696
 20
5.526038880309826
 10
0.7602164352572736
 20
5.590312427033991
 10
0.7117671808450706
 20
5.654897368310285
 10
0.6620154908452669
 20
5.719377343306559
 10
0.6111714354449074
 20
5.78331149945464
 10
0.5594450848311024
 20
5.84625898418635
 10
0.5070465091909533
 20
5.907778944933536
 10
0.4541857787115405
 20
5.967430529128012
 10
0.4010729635799688
 20
6.024772884201629
 10
0.3479181339832866
 20
6.079365157586206
 10
0.2948298258195621
 20
6.130759498862573
 10
0.2415104378305681
 20
6.178480066207562
 10
0.1875608344690818
 20
6.222044019947
 10
0.1325818801878089
 20
6.260968520406709
 10
0.0761744394394999
 20
6.294770727912524
 10
0.0179393766769049
 20
6.322967802790259
 10
0.0
 20
6.329527703186304
  0
ENDBLK
  5
82E7
330
7ED3
100
AcDbEntity
  8
0
100
AcDbBlockEnd
  0
BLOCK
  5
83DF
330
83D4
100
AcDbEntity
  8
0
100
AcDbBlockBegin
  2
*D1
 70
     1
 10
0.0
 20
0.0
 30
0.0
  3
*D1
  1

  0
LINE
  5
8458
330
83D4
100
AcDbEntity
  8
DIM
 62
     0
370
    -2
100
AcDbLine
 10
7.93542880359287
 20
8.827079899610415
 30
0.0
 11
7.93542880359287
 21
15.99621962401936
 31
0.0
  0
LINE
  5
8459
330
83D4
100
AcDbEntity
  8
DIM
 62
     0
370
    -2
100
AcDbLine
 10
17.90667241577935
 20
12.71338123082966
 30
0.0
 11
17.90667241577935
 21
15.99621962401936
 31
0.0
  0
LINE
  5
845A
330
83D4
100
AcDbEntity
  8
DIM
 62
     0
370
    -2
100
AcDbLine
 10
8.11542880359287
 20
15.81621962401936
 30
0.0
 11
12.24771727635278
 21
15.81621962401936
 31
0.0
  0
LINE
  5
845B
330
83D4
100
AcDbEntity
  8
DIM
 62
     0
370
    -2
100
AcDbLine
 10
17.72667241577935
 20
15.81621962401936
 30
0.0
 11
13.59438394301944
 21
15.81621962401936
 31
0.0
  0
SOLID
  5
845C
330
83D4
100
AcDbEntity
  8
DIM
 62
     0
100
AcDbTrace
 10
8.11542880359287
 20
15.84621962401936
 30
0.0
 11
8.11542880359287
 21
15.78621962401936
 31
0.0
 12
7.93542880359287
 22
15.81621962401936
 32
0.0
 13
7.93542880359287
 23
15.81621962401936
 33
0.0
  0
SOLID
  5
845D
330
83D4
100
AcDbEntity
  8
DIM
 62
     0
100
AcDbTrace
 10
17.72667241577935
 20
15.84621962401936
 30
0.0
 11
17.72667241577935
 21
15.78621962401936
 31
0.0
 12
17.90667241577935
 22
15.81621962401936
 32
0.0
 13
17.90667241577935
 23
15.81621962401936
 33
0.0
  0
MTEXT
  5
845E
330
83D4
100
AcDbEntity
  8
DIM
 62
     0
100
AcDbMText
 10
12.92105060968611
 20
15.81621962401936
 30
0.0
 40
1.0
 41
0.0
 71
     5
 72
     1
  1
\A1;10
 73
     1
 44
1.0
  0
POINT
  5
845F
330
83D4
100
AcDbEntity
  8
Defpoints
 62
     0
100
AcDbPoint
 10
7.93542880359287
 20
8.764579899610415
 30
0.0
  0
POINT
  5
8460
330
83D4
100
AcDbEntity
  8
Defpoints
 62
     0
100
AcDbPoint
 10
17.90667241577935
 20
12.65088123082966
 30
0.0
  0
POINT
  5
8461
330
83D4
100
AcDbEntity
  8
Defpoints
 62
     0
100
AcDbPoint
 10
17.90667241577935
 20
15.81621962401936
 30
0.0
  0
ENDBLK
  5
83E0
330
83D4
100
AcDbEntity
  8
0
100
AcDbBlockEnd
  0
BLOCK
  5
840E
330
8403
100
AcDbEntity
  8
0
100
AcDbBlockBegin
  2
*D2
 70
     1
 10
0.0
 20
0.0
 30
0.0
  3
*D2
  1

  0
LINE
  5
8462
330
8403
100
AcDbEntity
  8
DIM
 62
     0
370
    -2
100
AcDbLine
 10
8.689768059516296
 20
-3.358327904749355
 30
0.0
 11
4.434793402179995
 21
-3.358327904749354
 31
0.0
  0
LINE
  5
8463
330
8403
100
AcDbEntity
  8
DIM
 62
     0
370
    -2
100
AcDbLine
 10
14.6320462501796
 20
12.65873718721521
 30
0.0
 11
4.434793402179999
 21
12.65873718721521
 31
0.0
  0
LINE
  5
8464
330
8403
100
AcDbEntity
  8
DIM
 62
     0
370
    -2
100
AcDbLine
 10
4.614793402179995
 20
-3.178327904749354
 30
0.0
 11
4.614793402179997
 21
4.060204641232928
 31
0.0
  0
LINE
  5
8465
330
8403
100
AcDbEntity
  8
DIM
 62
     0
370
    -2
100
AcDbLine
 10
4.614793402179999
 20
12.47873718721521
 30
0.0
 11
4.614793402179997
 21
5.240204641232928
 31
0.0
  0
SOLID
  5
8466
330
8403
100
AcDbEntity
  8
DIM
 62
     0
100
AcDbTrace
 10
4.584793402179995
 20
-3.178327904749354
 30
0.0
 11
4.644793402179995
 21
-3.178327904749354
 31
0.0
 12
4.614793402179995
 22
-3.358327904749354
 32
0.0
 13
4.614793402179995
 23
-3.358327904749354
 33
0.0
  0
SOLID
  5
8467
330
8403
100
AcDbEntity
  8
DIM
 62
     0
100
AcDbTrace
 10
4.584793402179998
 20
12.47873718721521
 30
0.0
 11
4.644793402179999
 21
12.47873718721521
 31
0.0
 12
4.614793402179999
 22
12.65873718721521
 32
0.0
 13
4.614793402179999
 23
12.65873718721521
 33
0.0
  0
MTEXT
  5
8468
330
8403
100
AcDbEntity
  8
DIM
 62
     0
100
AcDbMText
 10
4.614793402179996
 20
4.650204641232929
 30
0.0
 40
1.0
 41
0.0
 71
     5
 72
     1
  1
\A1;16
 73
     1
 44
1.0
  0
POINT
  5
8469
330
8403
100
AcDbEntity
  8
Defpoints
 62
     0
100
AcDbPoint
 10
8.752268059516296
 20
-3.358327904749355
 30
0.0
  0
POINT
  5
846A
330
8403
100
AcDbEntity
  8
Defpoints
 62
     0
100
AcDbPoint
 10
14.6945462501796
 20
12.65873718721521
 30
0.0
  0
POINT
  5
846B
330
8403
100
AcDbEntity
  8
Defpoints
 62
     0
100
AcDbPoint
 10
4.614793402179999
 20
12.65873718721521
 30
0.0
  0
ENDBLK
  5
840F
330
8403
100
AcDbEntity
  8
0
100
AcDbBlockEnd
  0
BLOCK
  5
841F
330
8414
100
AcDbEntity
  8
0
100
AcDbBlockBegin
  2
*D3
 70
     1
 10
0.0
 20
0.0
 30
0.0
  3
*D3
  1

  0
LINE
  5
846C
330
8414
100
AcDbEntity
  8
DIM
 62
     0
370
    -2
100
AcDbLine
 10
26.75691355322544
 20
4.721237187215212
 30
0.0
 11
26.75691355322544
 21
16.33677870867214
 31
0.0
  0
LINE
  5
846D
330
8414
100
AcDbEntity
  8
DIM
 62
     0
370
    -2
100
AcDbLine
 10
28.13191355322544
 20
4.721237187215212
 30
0.0
 11
28.13191355322544
 21
16.33677870867214
 31
0.0
  0
LINE
  5
846E
330
8414
100
AcDbEntity
  8
DIM
 62
     0
370
    -2
100
AcDbLine
 10
26.93691355322544
 20
16.15677870867214
 30
0.0
 11
27.95191355322545
 21
16.15677870867214
 31
0.0
  0
LINE
  5
846F
330
8414
100
AcDbEntity
  8
DIM
 62
     0
370
    -2
100
AcDbLine
 10
28.13191355322544
 20
16.15677870867214
 30
0.0
 11
28.31191355322545
 21
16.15677870867214
 31
0.0
  0
SOLID
  5
8470
330
8414
100
AcDbEntity
  8
DIM
 62
     0
100
AcDbTrace
 10
26.93691355322544
 20
16.18677870867214
 30
0.0
 11
26.93691355322544
 21
16.12677870867214
 31
0.0
 12
26.75691355322544
 22
16.15677870867214
 32
0.0
 13
26.75691355322544
 23
16.15677870867214
 33
0.0
  0
SOLID
  5
8471
330
8414
100
AcDbEntity
  8
DIM
 62
     0
100
AcDbTrace
 10
27.95191355322545
 20
16.18677870867214
 30
0.0
 11
27.95191355322545
 21
16.12677870867214
 31
0.0
 12
28.13191355322544
 22
16.15677870867214
 32
0.0
 13
28.13191355322544
 23
16.15677870867214
 33
0.0
  0
MTEXT
  5
8472
330
8414
100
AcDbEntity
  8
DIM
 62
     0
100
AcDbMText
 10
29.06858021989211
 20
16.15677870867214
 30
0.0
 40
1.0
 41
0.0
 71
     5
 72
     1
  1
\A1;1{\H1.000000x;\S3/8;}
 73
     1
 44
1.0
  0
POINT
  5
8473
330
8414
100
AcDbEntity
  8
Defpoints
 62
     0
100
AcDbPoint
 10
26.75691355322544
 20
4.658737187215212
 30
0.0
  0
POINT
  5
8474
330
8414
100
AcDbEntity
  8
Defpoints
 62
     0
100
AcDbPoint
 10
28.13191355322544
 20
4.658737187215212
 30
0.0
  0
POINT
  5
8475
330
8414
100
AcDbEntity
  8
Defpoints
 62
     0
100
AcDbPoint
 10
28.13191355322544
 20
16.15677870867214
 30
0.0
  0
ENDBLK
  5
8420
330
8414
100
AcDbEntity
  8
0
100
AcDbBlockEnd
  0
ENDSEC
  0
SECTION
  2
ENTITIES
  0
LINE
  5
8395
330
18
100
AcDbEntity
  8
0
100
AcDbLine
 10
26.75691355322545
 20
12.65873718721521
 30
0.0
 11
28.13191355322544
 21
12.65873718721521
 31
0.0
  0
DIMENSION
  5
83D1
330
18
100
AcDbEntity
  8
DIM
100
AcDbDimension
  2
*D1
 10
17.90667241577935
 20
15.81621962401936
 30
0.0
 11
12.92105060968611
 21
15.81621962401936
 31
0.0
 70
    32
 71
     5
 42
9.97124361218648
  3
STANDARD
100
AcDbAlignedDimension
 13
7.93542880359287
 23
8.764579899610415
 33
0.0
 14
17.90667241577935
 24
12.65088123082966
 34
0.0
 50
180.0
100
AcDbRotatedDimension
  0
LWPOLYLINE
  5
83D2
330
18
100
AcDbEntity
  8
0
100
AcDbPolyline
 90
     1039
 70
     0
 43
0.0
 10
17.90637733082312
 20
12.65937893836931
 10
17.90696750073558
 20
12.64238352329
 10
17.9071253889528
 20
12.59760589986283
 10
17.9053154231874
 20
12.55693074593514
 10
17.90117318264503
 20
12.51851651013623
 10
17.89433424653134
 20
12.48052164109536
 10
17.88443419405196
 20
12.44110458744181
 10
17.87110860441259
 20
12.39842379780486
 10
17.85400824108767
 20
12.35102365647761
 10
17.83284460462715
 20
12.29899229040831
 10
17.80734437984985
 20
12.24280376220904
 10
17.77723425157455
 20
12.18293213449187
 10
17.74224090462004
 20
12.11985146986886
 10
17.6972792493668
 20
12.05755659436354
 10
17.64739279787253
 20
11.99347261621245
 10
17.59129040116638
 20
11.92874609095517
 10
17.49804700476019
 20
11.8314737397551
 10
17.4377332896355
 20
11.77142679428371
 10
17.36276401849293
 20
11.69858531408653
 10
17.30076718723022
 20
11.62541563727494
 10
17.24132128925708
 20
11.55224596046336
 10
17.18655817774687
 20
11.4794044802662
 10
17.138609705873
 20
11.40721939329778
 10
17.09960772680886
 20
11.33601889617254
 10
17.0710524336266
 20
11.26604609745391
 10
17.05191737899332
 20
11.19720375350162
 10
17.04054445547484
 20
11.12930953262445
 10
17.03527555563703
 20
11.06218110313119
 10
17.03445257204571
 20
10.99563613333058
 10
17.03641739726673
 20
10.92949229153147
 10
17.03951192386593
 20
10.86356724604257
 10
17.04207804440916
 20
10.79767866517271
 10
17.04264897141475
 20
10.73160167329474
 10
17.04052319721102
 20
10.66494121903779
 10
17.0351905340788
 20
10.59725970709514
 10
17.02614079429891
 20
10.52811954215998
 10
17.01286379015217
 20
10.45708312892557
 10
16.99484933391941
 20
10.38371287208514
 10
16.97158723788143
 20
10.30757117633192
 10
16.94256731431906
 20
10.22822044635915
 10
16.90763164776481
 20
10.14562117739686
 10
16.86803141175781
 20
10.06132622682234
 10
16.82537005208892
 20
9.977286542549627
 10
16.78125101454896
 20
9.89545307249282
 10
16.73727774492877
 20
9.817776764565985
 10
16.69505368901918
 20
9.746208566683183
 10
16.65618229261101
 20
9.682699426758498
 10
16.62226700149511
 20
9.629200292706007
 10
16.59449521580101
 20
9.587121195339888
 10
16.57239015301309
 20
9.555708497074727
 10
16.55505898495444
 20
9.533667643225243
 10
16.54160888344812
 20
9.519704079106114
 10
16.53114702031724
 20
9.512523250032074
 10
16.52278056738488
 20
9.510830601317804
 10
16.51561669647412
 20
9.513331578278034
 10
16.50876257940803
 20
9.518731626227427
 10
16.5013830880324
 20
9.526119087068126
 10
16.49287389428362
 20
9.536113889051648
 10
16.48268837012086
 20
9.549718857016978
 10
16.47027988750319
 20
9.56793681580307
 10
16.45510181838974
 20
9.591770590248881
 10
16.43660753473962
 20
9.622223005193362
 10
16.41425040851194
 20
9.66029688547548
 10
16.38748381166582
 20
9.706995055934152
 10
16.35587651532131
 20
9.762821967975805
 10
16.3194588872423
 20
9.826288579276326
 10
16.27837669435361
 20
9.895407474079153
 10
16.23277570358006
 20
9.96819123662761
 10
16.18280168184648
 20
10.04265245116507
 10
16.12860039607771
 20
10.11680370193492
 10
16.07031761319855
 20
10.18865757318054
 10
16.00809910013384
 20
10.25622664914525
 10
15.94206936620787
 20
10.31783955581383
 10
15.8722678903428
 20
10.37308908613655
 10
15.79871289386023
 20
10.42188407480503
 10
15.72142259808178
 20
10.46413335651093
 10
15.64041522432908
 20
10.49974576594591
 10
15.55570899392374
 20
10.52863013780161
 10
15.46732212818738
 20
10.55069530676969
 10
15.37527284844161
 20
10.56585010754176
 10
15.27977980656609
 20
10.57403072434828
 10
15.18186337667257
 20
10.57528273957479
 10
15.08274436343086
 20
10.5696790851456
 10
14.98364357151078
 20
10.55729269298507
 10
14.88578180558212
 20
10.5381964950175
 10
14.79037987031468
 20
10.51246342316726
 10
14.69865857037825
 20
10.48016640935863
 10
14.61183871044266
 20
10.44137838551598
 10
14.53090422263972
 20
10.39623609995998
 10
14.45589154894938
 20
10.34513156659683
 10
14.3866002588136
 20
10.28852061572908
 10
14.32282992167435
 20
10.22685907765929
 10
14.26438010697362
 20
10.16060278269004
 10
14.21105038415334
 20
10.09020756112384
 10
14.16264032265552
 20
10.0161292432633
 10
14.1189494919221
 20
9.938823659410937
 10
14.07979568227449
 20
9.85872536749842
 10
14.04506956755176
 20
9.776183835973766
 10
14.01468004247241
 20
9.691527260914135
 10
13.98853600175494
 20
9.605083838396666
 10
13.96654634011785
 20
9.517181764498458
 10
13.94861995227965
 20
9.428149235296649
 10
13.93466573295882
 20
9.338314446868402
 10
13.92459257687387
 20
9.248005595290818
 10
13.91833063673077
 20
9.157587343140471
 10
13.91589509718528
 20
9.067570218991562
 10
13.91732240088065
 20
8.978501217917788
 10
13.92264899046009
 20
8.890927334992785
 10
13.93191130856686
 20
8.80539556529022
 10
13.94514579784418
 20
8.722452903883704
 10
13.96238890093529
 20
8.642646345846946
 10
13.98367706048341
 20
8.566522886253569
 10
14.00892524581006
 20
8.494529237818714
 10
14.03756253294971
 20
8.426710983823321
 10
14.06889652461515
 20
8.363013425189866
 10
14.10223482351913
 20
8.30338186284076
 10
14.13688503237441
 20
8.247761597698451
 10
14.17215475389375
 20
8.196097930685407
 10
14.20735159078991
 20
8.148336162724017
 10
14.24178314577567
 20
8.104421594736752
 10
14.2748815316619
 20
8.064281294262025
 10
14.30657690165203
 20
8.027769395302163
 10
14.33692391904764
 20
7.994721798475428
 10
14.36597724715027
 20
7.964974404400141
 10
14.39379154926147
 20
7.938363113694601
 10
14.42042148868282
 20
7.914723826977082
 10
14.44592172871586
 20
7.893892444865864
 10
14.47034693266216
 20
7.875704867979285
 10
14.49378516880572
 20
7.859993958396463
 10
14.51645812536041
 20
7.846580424039824
 10
14.53862089552249
 20
7.835281934292691
 10
14.56052857248829
 20
7.825916158538371
 10
14.58243624945408
 20
7.818300766160106
 10
14.60459901961616
 20
7.812253426541223
 10
14.62727197617084
 20
7.807591809065025
 10
14.65071021231441
 20
7.804133583114778
 10
14.6750959374491
 20
7.801714650920574
 10
14.70031982580092
 20
7.800243846099521
 10
14.72619966780181
 20
7.799648235115533
 10
14.7525532538837
 20
7.799854884432525
 10
14.77919837447853
 20
7.800790860514368
 10
14.80595282001825
 20
7.802383229825004
 10
14.83263438093479
 20
7.804559058828321
 10
14.8590608476601
 20
7.807245413988201
 10
14.88503482652308
 20
7.810329856819553
 10
14.91029818744049
 20
7.813541929041024
 10
14.93457761622608
 20
7.816571667422245
 10
14.95759979869357
 20
7.819109108732847
 10
14.97909142065669
 20
7.820844289742494
 10
14.99877916792918
 20
7.821467247220821
 10
15.01638972632478
 20
7.820668017937453
 10
15.03164978165721
 20
7.818136638661988
 10
15.04436194031066
 20
7.813599612394922
 10
15.05463249095109
 20
7.806929307059798
 10
15.06264364281492
 20
7.79803455681105
 10
15.06857760513855
 20
7.786824195803047
 10
15.07261658715841
 20
7.773207058190175
 10
15.0749427981109
 20
7.757091978126837
 10
15.07573844723245
 20
7.738387789767422
 10
15.07518574375946
 20
7.717003327266308
 10
15.07337882908652
 20
7.692850463675215
 10
15.07005957324096
 20
7.66585322763527
 10
15.06488177840828
 20
7.635938686684832
 10
15.05749924677395
 20
7.60303390836237
 10
15.0475657805235
 20
7.567065960206248
 10
15.03473518184241
 20
7.527961909754894
 10
15.01866125291618
 20
7.485648824546762
 10
14.9989977959303
 20
7.44005377212022
 10
14.97542594433413
 20
7.391176752475272
 10
14.94773615663246
 20
7.339309495458298
 10
14.91574622259394
 20
7.284816663377165
 10
14.87927393198722
 20
7.228062918539835
 10
14.83813707458092
 20
7.169412923254236
 10
14.79215344014372
 20
7.109231339828292
 10
14.74114081844425
 20
7.047882830569921
 10
14.68491699925117
 20
6.985732057787037
 10
14.6234455401976
 20
6.92321357788907
 10
14.55727307037466
 20
6.861041523691479
 10
14.48709198673792
 20
6.799999922111197
 10
14.41359468624299
 20
6.740872800065186
 10
14.33747356584546
 20
6.684444184470365
 10
14.25942102250092
 20
6.631498102243678
 10
14.18012945316495
 20
6.582818580302108
 10
14.10029125479316
 20
6.539189645562569
 10
14.02057691925609
 20
6.501186275256081
 10
13.94156931808416
 20
6.468547247870006
 10
13.86382941772272
 20
6.44080229220574
 10
13.78791818461714
 20
6.417481137064743
 10
13.71439658521279
 20
6.398113511248388
 10
13.64382558595502
 20
6.382229143558145
 10
13.57676615328921
 20
6.369357762795404
 10
13.51377925366071
 20
6.359029097761604
 10
13.45522065166933
 20
6.350827760345779
 10
13.40062530453253
 20
6.344557894787579
 10
13.34932296762223
 20
6.340078528414222
 10
13.30064339631034
 20
6.337248688553005
 10
13.25391634596875
 20
6.33592740253117
 10
13.20847157196938
 20
6.335973697675949
 10
13.16363882968412
 20
6.337246601314616
 10
13.1187478744849
 20
6.339605140774414
 10
13.07336970587983
 20
6.342892725717527
 10
13.02804029992191
 20
6.346890295145708
 10
12.98353687680038
 20
6.351363170395639
 10
12.94063665670443
 20
6.356076672804046
 10
12.90011685982331
 20
6.360796123707581
 10
12.86275470634624
 20
6.365286844442923
 10
12.82932741646243
 20
6.369314156346783
 10
12.80061221036111
 20
6.372643380755834
 10
12.77714241103389
 20
6.37508974791249
 10
12.75847575268191
 20
6.376668123682
 10
12.74392607230871
 20
6.377443282835407
 10
12.73280720691783
 20
6.377480000143712
 10
12.7244329935128
 20
6.376843050377882
 10
12.71811726909717
 20
6.375597208308938
 10
12.71317387067446
 20
6.373807248707874
 10
12.70891663524821
 20
6.371537946345714
 10
12.70470255471385
 20
6.368715888096099
 10
12.7000612405343
 20
6.364714909243227
 10
12.69456545906438
 20
6.358770657173995
 10
12.68778797665892
 20
6.350118779275279
 10
12.67930155967273
 20
6.337994922933924
 10
12.66867897446061
 20
6.32163473553683
 10
12.65549298737741
 20
6.300273864470863
 10
12.63931636477791
 20
6.273147957122903
 10
12.61978876312978
 20
6.239719375622753
 10
12.59681739935187
 20
6.200357341072081
 10
12.57037638047593
 20
6.155657789315471
 10
12.54043981353363
 20
6.106216656197521
 10
12.5069818055567
 20
6.052629877562839
 10
12.46997646357685
 20
5.995493389256022
 10
12.42939789462577
 20
5.935403127121663
 10
12.38522020573518
 20
5.87295502700435
 10
12.33738082228697
 20
5.808617632736082
 10
12.28567044306382
 20
5.742349920098162
 10
12.2298430851986
 20
5.673983472859362
 10
12.16965276582417
 20
5.603349874788415
 10
12.1048535020734
 20
5.530280709654013
 10
12.03519931107914
 20
5.454607561224918
 10
11.96044420997427
 20
5.376162013269841
 10
11.88034221589166
 20
5.294775649557495
 10
11.79507026405936
 20
5.210610409791213
 10
11.70649696208621
 20
5.125149657412727
 10
11.61691383567622
 20
5.040207111798334
 10
11.52861241053344
 20
4.957596492324377
 10
11.44388421236187
 20
4.879131518367135
 10
11.36502076686555
 20
4.806625909302971
 10
11.2943135997485
 20
4.741893384508164
 10
11.23405423671475
 20
4.686747663359048
 10
11.18593435020035
 20
4.642445394285749
 10
11.14924619956943
 20
4.608014941933687
 10
11.12268219091814
 20
4.581927600002094
 10
11.10493473034265
 20
4.56265466219021
 10
11.09469622393913
 20
4.548667422197253
 10
11.09065907780371
 20
4.538437173722476
 10
11.09151569803255
 20
4.530435210465105
 10
11.09595849072184
 20
4.523132826124379
 10
11.10290858307707
 20
4.515189163796319
 10
11.11220198674127
 20
4.50601476416431
 10
11.12390343446681
 20
4.495208017308526
 10
11.13807765900608
 20
4.482367313309138
 10
11.15478939311144
 20
4.4670910422463
 10
11.17410336953528
 20
4.448977594200213
 10
11.19608432102997
 20
4.427625359251036
 10
11.2207969803479
 20
4.402632727478914
 10
11.24823919001808
 20
4.373686615988757
 10
11.27814123167606
 20
4.340828049984144
 10
11.31016649673404
 20
4.304186581693349
 10
11.34397837660423
 20
4.263891763344657
 10
11.3792402626988
 20
4.220073147166337
 10
11.41561554642995
 20
4.172860285386688
 10
11.45276761920989
 20
4.122382730233992
 10
11.4903598724508
 20
4.0687700339365
 10
11.52803843558603
 20
4.012179817915336
 10
11.56538039013345
 20
3.952881980362723
 10
11.60194555563209
 20
3.89117448866372
 10
11.63729375162097
 20
3.827355310203328
 10
11.67098479763912
 20
3.761722412366628
 10
11.70257851322556
 20
3.694573762538665
 10
11.73163471791932
 20
3.626207328104468
 10
11.75771323125941
 20
3.556921076449091
 10
11.78046018278972
 20
3.48698706490588
 10
11.79986694207357
 20
3.416573710601566
 10
11.81601118867913
 20
3.345823520611196
 10
11.82897060217456
 20
3.274879002009745
 10
11.83882286212804
 20
3.203882661872283
 10
11.84564564810774
 20
3.132977007273828
 10
11.84951663968182
 20
3.062304545289427
 10
11.85051351641847
 20
2.992007782994091
 10
11.84875495480927
 20
2.922300480642212
 10
11.84452361903953
 20
2.85368141120554
 10
11.83814317021794
 20
2.786720600835144
 10
11.82993726945326
 20
2.721988075682181
 10
11.82022957785418
 20
2.660053861897713
 10
11.80934375652944
 20
2.601487985632841
 10
11.79760346658774
 20
2.546860473038675
 10
11.7853323691378
 20
2.496741350266317
 10
11.77280018188079
 20
2.451545181724176
 10
11.76006084888755
 20
2.41106468484986
 10
11.74711437082138
 20
2.37493711533831
 10
11.73396074834558
 20
2.34279972888447
 10
11.72059998212343
 20
2.31428978118326
 10
11.70703207281825
 20
2.289044527929609
 10
11.69325702109329
 20
2.266701224818445
 10
11.67927482761188
 20
2.246897127544739
 10
11.66512001677393
 20
2.229323471674637
 10
11.65096520792586
 20
2.213887412259408
 10
11.63701754415071
 20
2.200550084221516
 10
11.62348416853154
 20
2.189272622483484
 10
11.61057222415139
 20
2.180016161967818
 10
11.59848885409332
 20
2.172741837596978
 10
11.58744120144036
 20
2.167410784293485
 10
11.57763640927558
 20
2.16398413697984
 10
11.56912842084072
 20
2.162483487873151
 10
11.56135838001233
 20
2.163172258369121
 10
11.55361423082564
 20
2.166374327158036
 10
11.54518391731589
 20
2.172413572930208
 10
11.53535538351835
 20
2.181613874375953
 10
11.52341657346824
 20
2.19429911018558
 10
11.50865543120081
 20
2.210793159049407
 10
11.49035990075131
 20
2.231419899657721
 10
11.46806606693529
 20
2.25629161003531
 10
11.44230257768957
 20
2.284674165544783
 10
11.4138462217313
 20
2.315621840883236
 10
11.38347378777759
 20
2.348188910747742
 10
11.35196206454559
 20
2.381429649835387
 10
11.32008784075243
 20
2.41439833284326
 10
11.28862790511525
 20
2.446149234468427
 10
11.25835904635118
 20
2.475736629407995
 10
11.22987248695987
 20
2.502417756101896
 10
11.20301718457099
 20
2.52626170796155
 10
11.17745653059675
 20
2.547540542141261
 10
11.15285391644935
 20
2.566526315795305
 10
11.12887273354095
 20
2.583491086077996
 10
11.10517637328379
 20
2.598706910143581
 10
11.08142822709003
 20
2.61244584514638
 10
11.05729168637189
 20
2.624979948240683
 10
11.0324215116074
 20
2.636514341952304
 10
11.00643793953796
 20
2.646986410293214
 10
10.97895257597085
 20
2.656266602646857
 10
10.94957702671331
 20
2.664225368396747
 10
10.91792289757259
 20
2.670733156926376
 10
10.88360179435596
 20
2.6756604176192
 10
10.84622532287066
 20
2.678877599858739
 10
10.80540508892397
 20
2.680255153028442
 10
10.76094735099123
 20
2.679683415001614
 10
10.71343697822022
 20
2.677132277610449
 10
10.66365349242683
 20
2.67259152117702
 10
10.61237641542694
 20
2.666050926023368
 10
10.56038526903644
 20
2.657500272471525
 10
10.50845957507121
 20
2.64692934084348
 10
10.45737885534713
 20
2.634327911461314
 10
10.40792263168007
 20
2.619685764647018
 10
10.36070219355933
 20
2.602998510215658
 10
10.3156559011677
 20
2.584285075954222
 10
10.2725538823614
 20
2.563570219142749
 10
10.23116626499662
 20
2.54087869706124
 10
10.19126317692957
 20
2.516235266989726
 10
10.15261474601643
 20
2.48966468620821
 10
10.11499110011343
 20
2.461191711996713
 10
10.07816236707675
 20
2.430841101635268
 10
10.04195398505121
 20
2.398620267282604
 10
10.00641263333594
 20
2.364467240612436
 10
9.971640301518711
 20
2.328302708177207
 10
9.937738979187269
 20
2.290047356529352
 10
9.90481065592937
 20
2.249621872221307
 10
9.872957321332769
 20
2.2069469418055
 10
9.84228096498521
 20
2.161943251834403
 10
9.812883576474458
 20
2.114531488860417
 10
9.784870286025263
 20
2.064671468574682
 10
9.758358786410472
 20
2.012479523223052
 10
9.733469911039911
 20
1.958111114190034
 10
9.710324493323401
 20
1.901721702860146
 10
9.689043366670809
 20
1.843466750617916
 10
9.66974736449195
 20
1.783501718847889
 10
9.65255732019667
 20
1.721982068934567
 10
9.637594067194804
 20
1.659063262262495
 10
9.624946792137613
 20
1.594889244677442
 10
9.614578094642077
 20
1.52955789987035
 10
9.606418927566576
 20
1.46315559599338
 10
9.600400243769517
 20
1.39576870119875
 10
9.596452996109281
 20
1.327483583638627
 10
9.594508137444275
 20
1.258386611465208
 10
9.594496620632884
 20
1.188564152830653
 10
9.596349398533511
 20
1.118102575887195
 10
9.600026193729792
 20
1.047102643210396
 10
9.605601807706364
 20
0.9757226950694741
 10
9.61317981167309
 20
0.9041354661570109
 10
9.622863776839864
 20
0.8325136911656612
 10
9.634757274416559
 20
0.761030104787987
 10
9.648963875613048
 20
0.6898574417166214
 10
9.665587151639224
 20
0.6191684366441689
 10
9.684730673704937
 20
0.5491358242632413
 10
9.706469243239569
 20
0.4798661242024406
 10
9.730762582550376
 20
0.4112009958344016
 10
9.75754164416412
 20
0.3429158834677421
 10
9.786737380607528
 20
0.2747862314111015
 10
9.81828074440737
 20
0.2065874839730907
 10
9.852102688090377
 20
0.1380950854623631
 10
9.888134164183313
 20
0.0690844801875297
 10
9.926306125212908
 20
-0.0006688875427916
 10
9.966540892605948
 20
-0.0712657798564582
 10
10.00872626338926
 20
-0.1423117846273787
 10
10.05274140348974
 20
-0.2132886961659513
 10
10.09846547883425
 20
-0.2836783087826025
 10
10.14577765534965
 20
-0.3529624167877377
 10
10.19455709896281
 20
-0.4206228144917623
 10
10.24468297560061
 20
-0.4861412962050741
 10
10.29603445118992
 20
-0.5489996562381072
 10
10.3484935687462
 20
-0.6087602985677072
 10
10.40195387963933
 20
-0.6653080658367521
 10
10.45631181232778
 20
-0.7186084103545461
 10
10.51146379527004
 20
-0.7686267844304289
 10
10.56730625692458
 20
-0.8153286403736764
 10
10.62373562574986
 20
-0.8586794304936567
 10
10.68064833020437
 20
-0.8986446070996599
 10
10.73794079874659
 20
-0.9351896225010399
 10
10.79554973763825
 20
-0.9683029606217679
 10
10.85357296435426
 20
-0.9980652318447178
 10
10.91214857417274
 20
-1.024580078167387
 10
10.97141466237186
 20
-1.04795114158732
 10
11.03150932422975
 20
-1.06828206410203
 10
11.09257065502458
 20
-1.085676487709052
 10
11.15473675003448
 20
-1.100238054405936
 10
11.21814570453762
 20
-1.112070406190165
 10
11.28272847039745
 20
-1.121317489802985
 10
11.34758742581864
 20
-1.128284470960432
 10
11.41161780559116
 20
-1.13331682012224
 10
11.473714844505
 20
-1.13676000774811
 10
11.53277377735015
 20
-1.138959504297796
 10
11.58768983891658
 20
-1.140260780231011
 10
11.63735826399426
 20
-1.141009306007491
 10
11.68067428737318
 20
-1.141550552086963
 10
11.71685824402144
 20
-1.142178168199004
 10
11.74643086961966
 20
-1.142978521152686
 10
11.77023800002658
 20
-1.14398615702691
 10
11.78912547110093
 20
-1.145235621900605
 10
11.80393911870146
 20
-1.146761461852643
 10
11.81552477868691
 20
-1.148598222961988
 10
11.82472828691601
 20
-1.150780451307513
 10
11.83239547924751
 20
-1.153342692968147
 10
11.83920820296207
 20
-1.156339646842356
 10
11.84519235102795
 20
-1.159906623106893
 10
11.8502098278354
 20
-1.164199084758012
 10
11.85412253777458
 20
-1.169372494792037
 10
11.85679238523571
 20
-1.175582316205245
 10
11.858081274609
 20
-1.182984011993925
 10
11.85785111028464
 20
-1.191733045154373
 10
11.85596379665284
 20
-1.201984878682873
 10
11.85220068227615
 20
-1.213949674653294
 10
11.84602089240649
 20
-1.228056391449714
 10
11.83680299646813
 20
-1.244788686533796
 10
11.82392556388534
 20
-1.2646302173672
 10
11.80676716408239
 20
-1.288064641411589
 10
11.78470636648352
 20
-1.315575616128585
 10
11.75712174051304
 20
-1.347646798979889
 10
11.72339185559519
 20
-1.384761847427137
 10
11.68309379369007
 20
-1.427156832073629
 10
11.636598686901
 20
-1.474077476089201
 10
11.58447617986713
 20
-1.524521915785379
 10
11.5272959172276
 20
-1.57748828747365
 10
11.46562754362157
 20
-1.631974727465506
 10
11.40004070368819
 20
-1.686979372072444
 10
11.33110504206658
 20
-1.741500357605952
 10
11.25939020339592
 20
-1.794535820377534
 10
11.1854600784145
 20
-1.845227842634033
 10
11.10985554225733
 20
-1.893294290363643
 10
11.03311171615858
 20
-1.938596975489952
 10
10.9557637213524
 20
-1.980997709936511
 10
10.87834667907298
 20
-2.020358305626883
 10
10.80139571055446
 20
-2.056540574484619
 10
10.72544593703103
 20
-2.089406328433275
 10
10.65103247973686
 20
-2.11881737939643
 10
10.57857825704349
 20
-2.144880247450385
 10
10.5080573758721
 20
-2.168680285282538
 10
10.43933174028124
 20
-2.191547553733028
 10
10.37226325432946
 20
-2.214812113642023
 10
10.30671382207533
 20
-2.239804025849648
 10
10.2425453475774
 20
-2.267853351196064
 10
10.17961973489422
 20
-2.300290150521417
 10
10.11779888808436
 20
-2.338444484665861
 10
10.0569274492275
 20
-2.383228971086912
 10
9.996781012487907
 20
-2.433886453711563
 10
9.93711791005095
 20
-2.48924233308421
 10
9.877696474102023
 20
-2.548122009749204
 10
9.818275036826513
 20
-2.609350884250948
 10
9.758611930409795
 20
-2.671754357133797
 10
9.698465487037267
 20
-2.734157828942149
 10
9.637594038894309
 20
-2.795386700220352
 10
9.575873875095565
 20
-2.854424712229712
 10
9.513653112472697
 20
-2.910888969099201
 10
9.451397824786615
 20
-2.964554915674686
 10
9.389574085798235
 20
-3.015197996802062
 10
9.328647969268475
 20
-3.062593657327224
 10
9.269085548958251
 20
-3.106517342096037
 10
9.211352898628465
 20
-3.146744495954398
 10
9.155916092040055
 20
-3.183050563748179
 10
9.103200924818997
 20
-3.215285841951772
 10
9.053472080051571
 20
-3.243600033553531
 10
9.006953962689157
 20
-3.268217693170317
 10
8.963870977683104
 20
-3.289363375419004
 10
8.924447529984773
 20
-3.307261634916433
 10
8.888908024545539
 20
-3.322137026279481
 10
8.857476866316744
 20
-3.334214104124992
 10
8.830378460249768
 20
-3.343717423069837
 10
8.807713500686972
 20
-3.350854264601889
 10
8.78908783953479
 20
-3.355762817692987
 10
8.77398361809065
 20
-3.358563998186032
 10
8.76188297765201
 20
-3.359378721923864
 10
8.752268059516296
 20
-3.358327904749355
 10
8.744621004980942
 20
-3.355532462505383
 10
8.738423955343401
 20
-3.351113311034805
 10
8.733159051901095
 20
-3.345191366180497
 10
8.728412007714101
 20
-3.337818449388944
 10
8.724182822892959
 20
-3.328770004521029
 10
8.720575069310841
 20
-3.317752381041306
 10
8.717692318840919
 20
-3.304471928414298
 10
8.715638143356365
 20
-3.288634996104516
 10
8.714516114730349
 20
-3.269947933576478
 10
8.714429804836035
 20
-3.248117090294738
 10
8.715482785546601
 20
-3.222848815723797
 10
8.717718211809211
 20
-3.193938705917343
 10
8.720937570866933
 20
-3.161539343285671
 10
8.724881933036852
 20
-3.12589255682823
 10
8.729292368636038
 20
-3.08724017554449
 10
8.733909947981572
 20
-3.045824028433916
 10
8.738475741390514
 20
-3.001885944495935
 10
8.742730819179952
 20
-2.955667752730033
 10
8.746416251666948
 20
-2.907411282135637
 10
8.749287494169381
 20
-2.857292146737773
 10
8.751157542008385
 20
-2.805221100663619
 10
8.751853775505882
 20
-2.751042683065915
 10
8.751203574983808
 20
-2.694601433097365
 10
8.749034320764085
 20
-2.635741889910722
 10
8.745173393168656
 20
-2.574308592658713
 10
8.739448172519438
 20
-2.510146080494078
 10
8.731686039138377
 20
-2.443098892569541
 10
8.721702865435183
 20
-2.373028841345903
 10
8.709268492170746
 20
-2.299866832516354
 10
8.694141252193752
 20
-2.223561045082082
 10
8.676079478352871
 20
-2.144059658044373
 10
8.654841503496786
 20
-2.061310850404421
 10
8.630185660474179
 20
-1.975262801163492
 10
8.60187028213372
 20
-1.885863689322807
 10
8.569653701324096
 20
-1.793061693883597
 10
8.53346974738428
 20
-1.697055460037863
 10
8.493954235614442
 20
-1.599045497740608
 10
8.451918477805051
 20
-1.500482783137595
 10
8.408173785746576
 20
-1.402818292374587
 10
8.363531471229482
 20
-1.307503001597322
 10
8.318802846044231
 20
-1.215987886951591
 10
8.274799221981304
 20
-1.129723924583135
 10
8.232331910831156
 20
-1.050162090637716
 10
8.192114406798843
 20
-0.977069192590836
 10
8.154468933747724
 20
-0.9034753632369751
 10
8.119619897955757
 20
-0.8207265667003122
 10
8.087791705700885
 20
-0.7201687671050616
 10
8.059208763261056
 20
-0.5931479285754231
 10
8.034095476914215
 20
-0.4310100152356038
 10
8.012676252938309
 20
-0.2251009912098107
 10
7.995175497611288
 20
0.0332331793777632
 10
7.981752548943024
 20
0.3487006674785425
 10
7.972306471871061
 20
0.7102261843465064
 10
7.966671263064856
 20
1.102788576311301
 10
7.964680919193884
 20
1.511366689702523
 10
7.966169436927613
 20
1.920939370849825
 10
7.970970812935494
 20
2.316485466082827
 10
7.978919043887009
 20
2.682983821731131
 10
7.989848126451612
 20
3.005413284124383
 10
8.003621258993577
 20
3.272522694757828
 10
8.020218446656397
 20
3.488140875789351
 10
8.039648896278356
 20
3.65986664454245
 10
8.061921814697745
 20
3.79529881834058
 10
8.087046408752863
 20
3.90203621450728
 10
8.115031885281995
 20
3.987677650366041
 10
8.145887451123435
 20
4.059821943240333
 10
8.179622313115471
 20
4.126067910453695
 10
8.21625387744792
 20
4.192730610081287
 10
8.255832347716673
 20
4.260990063205138
 10
8.298416126869145
 20
4.330742531658952
 10
8.344063617852746
 20
4.401884277276419
 10
8.392833223614886
 20
4.474311561891223
 10
8.444783347102989
 20
4.547920647337118
 10
8.499972391264462
 20
4.622607795447752
 10
8.558458759046716
 20
4.698269268056836
 10
8.620249690845444
 20
4.774792706372171
 10
8.685147776849408
 20
4.852031269097915
 10
8.75290444469568
 20
4.929829494312238
 10
8.823271122021289
 20
5.008031920093408
 10
8.895999236463289
 20
5.086483084519606
 10
8.970840215658732
 20
5.16502752566906
 10
9.047545487244665
 20
5.24350978162001
 10
9.125866478858124
 20
5.321774390450658
 10
9.205577921829753
 20
5.399686618549198
 10
9.286547762264454
 20
5.477194645543658
 10
9.368667249960722
 20
5.554267379372014
 10
9.451827634717034
 20
5.630873727972314
 10
9.535920166331877
 20
5.70698259928252
 10
9.620836094603756
 20
5.78256290124063
 10
9.706466669331145
 20
5.857583541784658
 10
9.792703140312532
 20
5.932013428852583
 10
9.879364256990967
 20
6.005803333077604
 10
9.965978767387749
 20
6.078831475873762
 10
10.05200291916872
 20
6.150957941350288
 10
10.13689295999975
 20
6.222042813616353
 10
10.22010513754667
 20
6.291946176781216
 10
10.30109569947535
 20
6.360528114954083
 10
10.37932089345163
 20
6.427648712244186
 10
10.45423696714138
 20
6.493168052760752
 10
10.52541409729303
 20
6.557003223353447
 10
10.59287817698545
 20
6.619299321833851
 10
10.65676902838006
 20
6.680258448754033
 10
10.71722647363829
 20
6.740082704666008
 10
10.77439033492159
 20
6.798974190121796
 10
10.82840043439141
 20
6.857135005673461
 10
10.87939659420918
 20
6.914767251873039
 10
10.92751863653634
 20
6.972073029272571
 10
10.97292450856791
 20
7.029264802444735
 10
11.01584465763326
 20
7.086596492044954
 10
11.05652765609534
 20
7.144332382749253
 10
11.0952220763171
 20
7.202736759233662
 10
11.1321764906615
 20
7.262073906174254
 10
11.16763947149148
 20
7.322608108247045
 10
11.20185959117
 20
7.384603650128102
 10
11.23508542206001
 20
7.448324816493471
 10
11.26744125034297
 20
7.513976298363058
 10
11.29855421747448
 20
7.581524412132495
 10
11.32792717872861
 20
7.650875880541256
 10
11.35506298937948
 20
7.721937426328791
 10
11.37946450470118
 20
7.794615772234578
 10
11.40063457996779
 20
7.868817640998139
 10
11.41807607045344
 20
7.944449755358936
 10
11.43129183143221
 20
8.021418838056437
 10
11.4398908792708
 20
8.099618656893829
 10
11.4439068747064
 20
8.178891159929166
 10
11.44347963956881
 20
8.259065340284134
 10
11.43874899568781
 20
8.339970191080489
 10
11.4298547648932
 20
8.421434705439988
 10
11.41693676901478
 20
8.503287876484311
 10
11.40013482988232
 20
8.585358697335205
 10
11.37958876932562
 20
8.667476161114395
 10
11.35548501656164
 20
8.749440759260009
 10
11.32819643035589
 20
8.830938976475572
 10
11.29814247686103
 20
8.911628795781028
 10
11.26574262222975
 20
8.991168200196307
 10
11.2314163326147
 20
9.069215172741307
 10
11.19558307416859
 20
9.145427696435977
 10
11.15866231304404
 20
9.219463754300242
 10
11.12107351539376
 20
9.290981329354019
 10
11.08313516477196
 20
9.359705771647025
 10
11.04476181433905
 20
9.42563189934799
 10
11.00576703465698
 20
9.488821897655416
 10
10.96596439628774
 20
9.54933795176786
 10
10.92516746979328
 20
9.607242246883791
 10
10.88318982573556
 20
9.662596968201768
 10
10.83984503467654
 20
9.715464300920288
 10
10.7949466671782
 20
9.765906430237881
 10
10.74838597265209
 20
9.813938902812305
 10
10.7003649159082
 20
9.859390711138544
 10
10.65116314060612
 20
9.902044209170794
 10
10.60106029040542
 20
9.941681750863239
 10
10.5503360089657
 20
9.978085690170157
 10
10.49926993994654
 20
10.0110383810457
 10
10.44814172700753
 20
10.04032217744412
 10
10.39723101380825
 20
10.06571943331963
 10
10.34673199733452
 20
10.08704877696739
 10
10.29649708787712
 20
10.10427393404645
 10
10.24629324905307
 20
10.1173949045568
 10
10.19588744447936
 20
10.12641168849845
 10
10.14504663777302
 20
10.13132428587139
 10
10.09353779255106
 20
10.13213269667565
 10
10.04112787243049
 20
10.12883692091119
 10
9.987583841028321
 20
10.12143695857802
 10
9.932786590933623
 20
10.10992503639205
 10
9.877072730623634
 20
10.09426228793258
 10
9.820892797547678
 20
10.07440207349487
 10
9.76469732915504
 20
10.05029775337414
 10
9.708936862895047
 20
10.02190268786565
 10
9.654061936216987
 20
9.98917023726457
 10
9.600523086570174
 20
9.952053761866199
 10
9.548770851403908
 20
9.910506621965689
 10
9.499209160780356
 20
9.864593592513204
 10
9.452055515213082
 20
9.814825107078199
 10
9.40748080782852
 20
9.761823013885079
 10
9.365655931753092
 20
9.70620916115822
 10
9.32675178011322
 20
9.648605397121984
 10
9.290939246035346
 20
9.58963357000076
 10
9.258389222645885
 20
9.529915528018909
 10
9.229272603071265
 20
9.470073119400822
 10
9.203711083941872
 20
9.410616777805573
 10
9.181629575903922
 20
9.351611278630905
 10
9.162903793107584
 20
9.293009982709369
 10
9.147409449703026
 20
9.234766250873407
 10
9.135022259840422
 20
9.176833443955505
 10
9.125617937669947
 20
9.11916492278817
 10
9.119072197341758
 20
9.061714048203873
 10
9.115260753006037
 20
9.004434181035112
 10
9.114116283188426
 20
8.947325320834147
 10
9.11579932391648
 20
8.890574022032478
 10
9.120527375593212
 20
8.834413477781451
 10
9.128517938621655
 20
8.779076881232304
 10
9.13998851340483
 20
8.724797425536349
 10
9.155156600345765
 20
8.671808303844912
 10
9.174239699847486
 20
8.620342709309262
 10
9.197455312313003
 20
8.570633835080711
 10
9.224953616671008
 20
8.522930420252007
 10
9.256615505952732
 20
8.477543387681739
 10
9.292254551715101
 20
8.434799206169977
 10
9.331684325515006
 20
8.395024344516748
 10
9.374718398909362
 20
8.358545271522103
 10
9.421170343455047
 20
8.325688455986115
 10
9.470853730708984
 20
8.296780366708814
 10
9.523582132228073
 20
8.272147472490242
 10
9.579075904684373
 20
8.251991872897495
 10
9.636682545210581
 20
8.236018190565701
 10
9.695656336054533
 20
8.223806678897037
 10
9.755251559464106
 20
8.214937591293715
 10
9.814722497687148
 20
8.208991181157873
 10
9.873323432971492
 20
8.205547701891696
 10
9.930308647565015
 20
8.204187406897357
 10
9.984932423715557
 20
8.204490549577034
 10
10.03654225844527
 20
8.206055520637709
 10
10.08485850787346
 20
8.208553260005528
 10
10.12969474289376
 20
8.211672844911444
 10
10.17086453439976
 20
8.21510335258641
 10
10.20818145328507
 20
8.218533860261375
 10
10.2414590704433
 20
8.221653445167293
 10
10.27051095676807
 20
8.224151184535097
 10
10.29515068315299
 20
8.22571615559576
 10
10.31527726727597
 20
8.226045208506192
 10
10.33113151395217
 20
8.224866285127149
 10
10.34303967478109
 20
8.221915100245285
 10
10.35132800136218
 20
8.216927368647347
 10
10.35632274529493
 20
8.20963880511999
 10
10.35835015817882
 20
8.199785124449959
 10
10.35773649161331
 20
8.187102041423914
 10
10.35480799719789
 20
8.171325270828601
 10
10.34979512248302
 20
8.152250121196296
 10
10.34254509882311
 20
8.129910276041931
 10
10.33280935352356
 20
8.104399012626011
 10
10.32033931388979
 20
8.075809608209045
 10
10.30488640722717
 20
8.044235340051567
 10
10.28620206084113
 20
8.009769485414087
 10
10.26403770203707
 20
7.972505321557125
 10
10.23814475812038
 20
7.932536125741206
 10
10.20836528178549
 20
7.890032905919104
 10
10.17490382728293
 20
7.845477592812645
 10
10.13805557425224
 20
7.79942984783594
 10
10.09811570233299
 20
7.752449332403067
 10
10.05537939116471
 20
7.705095707928105
 10
10.01014182038694
 20
7.657928635825163
 10
9.962698169639251
 20
7.611507777508336
 10
9.913343618561187
 20
7.566392794391692
 10
9.862492454369052
 20
7.523094118612098
 10
9.811035394586204
 20
7.48192526519735
 10
9.759982264312769
 20
7.443150519897999
 10
9.710342888648886
 20
7.407034168464603
 10
9.663127092694651
 20
7.373840496647728
 10
9.619344701550199
 20
7.343833790197919
 10
9.580005540315655
 20
7.31727833486574
 10
9.546119434091135
 20
7.294438416401733
 10
9.518369956819483
 20
7.27534253666864
 10
9.496135677814423
 20
7.259076061977813
 10
9.478468915232388
 20
7.244488574752786
 10
9.464421987229817
 20
7.230429657417104
 10
9.453047211963152
 20
7.215748892394303
 10
9.443396907588825
 20
7.199295862107918
 10
9.434523392263287
 20
7.179920148981489
 10
9.425478984142966
 20
7.156471335438556
 10
9.415440287510504
 20
7.128063289205476
 10
9.404081051153344
 20
7.094867019220018
 10
9.391199309985138
 20
7.057317819722779
 10
9.376593098919526
 20
7.015850984954337
 10
9.360060452870163
 20
6.970901809155277
 10
9.341399406750682
 20
6.922905586566217
 10
9.320407995474742
 20
6.872297611427731
 10
9.296884253955981
 20
6.819513177980416
 10
9.270701306627659
 20
6.765000535132534
 10
9.242032636001466
 20
6.709259750462987
 10
9.211126814108714
 20
6.652803846218372
 10
9.178232412980701
 20
6.596145844645254
 10
9.143598004648737
 20
6.539798767990191
 10
9.10747216114413
 20
6.484275638499775
 10
9.070103454498177
 20
6.430089478420603
 10
9.031740456742184
 20
6.377753309999205
 10
8.992652454436864
 20
6.327715380084409
 10
8.953191592260523
 20
6.280164833933765
 10
8.913730729420894
 20
6.235226041407033
 10
8.874642725125692
 20
6.193023372364026
 10
8.836300438582643
 20
6.153681196664516
 10
8.799076728999455
 20
6.117323884168245
 10
8.763344455583855
 20
6.084075804735032
 10
8.729476477543563
 20
6.054061328224628
 10
8.697791278598625
 20
6.027363367966444
 10
8.668389840518365
 20
6.003899011168327
 10
8.641318769584451
 20
5.98354388850776
 10
8.61662467207855
 20
5.96617363066222
 10
8.594354154282299
 20
5.951663868309196
 10
8.574553822477366
 20
5.939890232126151
 10
8.55727028294541
 20
5.930728352790579
 10
8.542550141968085
 20
5.924053860979936
 10
8.530411523915685
 20
5.919791616917631
 10
8.52075862551305
 20
5.918063399010488
 10
8.513467161573622
 20
5.919040215211357
 10
8.508412846910886
 20
5.922893073472996
 10
8.505471396338297
 20
5.929792981748173
 10
8.504518524669311
 20
5.939910947989679
 10
8.505429946717406
 20
5.953417980150284
 10
8.508081377296036
 20
5.970485086182801
 10
8.512338173788148
 20
5.991254772624973
 10
8.518024263854577
 20
6.015755540354563
 10
8.524953217725638
 20
6.043987388834308
 10
8.532938605631652
 20
6.075950317526963
 10
8.54179399780294
 20
6.111644325895264
 10
8.551332964469811
 20
6.151069413401961
 10
8.561369075862589
 20
6.194225579509804
 10
8.571715902211579
 20
6.241112823681532
 10
8.582145585130501
 20
6.291668960987228
 10
8.592264551766614
 20
6.345583068926512
 10
8.601637800650582
 20
6.40248204060632
 10
8.609830330313062
 20
6.46199276913359
 10
8.616407139284703
 20
6.523742147615253
 10
8.620933226096184
 20
6.587357069158306
 10
8.622973589278148
 20
6.652464426869654
 10
8.622093227361256
 20
6.71869111385623
 10
8.617958121419338
 20
6.785640703551731
 10
8.610638182698952
 20
6.852823490696566
 10
8.600304304989807
 20
6.919726450357885
 10
8.587127382081623
 20
6.985836557602855
 10
8.571278307764119
 20
7.050640787498593
 10
8.552927975827023
 20
7.113626115112239
 10
8.532247280060046
 20
7.174279515510972
 10
8.509407114252905
 20
7.232087963761898
 10
8.484555068391207
 20
7.28666539561807
 10
8.457745517244058
 20
7.338133589575896
 10
8.429009531776445
 20
7.386741284817652
 10
8.398378182953356
 20
7.4327372205257
 10
8.365882541739781
 20
7.476370135882264
 10
8.331553679100702
 20
7.51788877006971
 10
8.295422666001107
 20
7.55754186227031
 10
8.257520573405987
 20
7.595578151666362
 10
8.21803383014536
 20
7.632793084455192
 10
8.177770296509361
 20
7.67216893489444
 10
8.13769319065317
 20
7.717234684256695
 10
8.098765730731962
 20
7.771519313814597
 10
8.061951134900892
 20
7.838551804840761
 10
8.028212621315141
 20
7.921861138607871
 10
7.998513408129882
 20
8.024976296388494
 10
7.973816713500283
 20
8.15142625945532
 10
7.954944702845766
 20
8.303222769697251
 10
7.94215533064275
 20
8.476308611468533
 10
7.935565498631889
 20
8.665109329739658
 10
7.935292108553849
 20
8.864050469481171
 10
7.941452062149297
 20
9.06755757566359
 10
7.95416226115889
 20
9.270056193257435
 10
7.973539607323298
 20
9.465971867233236
 10
7.999701002383174
 20
9.64973014256153
 10
8.032454662578407
 20
9.816795966852648
 10
8.070374062145768
 20
9.966791898276417
 10
8.111723989821221
 20
10.10037989764241
 10
8.154769234340765
 20
10.21822192576028
 10
8.197774584440377
 20
10.32097994343962
 10
8.239004828856032
 20
10.40931591149007
 10
8.276724756323725
 20
10.48389179072123
 10
8.309199155579428
 20
10.54536954194273
 10
8.335109867622797
 20
10.59457044215835
 10
8.354806942508187
 20
10.63295303314871
 10
8.369057482553593
 20
10.6621351728885
 10
8.378628590077038
 20
10.68373471935249
 10
8.38428736739654
 20
10.69936953051543
 10
8.386800916830109
 20
10.71065746435208
 10
8.386936340695759
 20
10.71921637883715
 10
8.385460741311504
 20
10.72666413194544
 10
8.382946560533566
 20
10.73459172737307
 10
8.379187598370968
 20
10.74448275170199
 10
8.373782994370939
 20
10.75779393723556
 10
8.366331888080718
 20
10.77598201627715
 10
8.35643341904753
 20
10.80050372113009
 10
8.343686726818608
 20
10.83281578409773
 10
8.327690950941187
 20
10.87437493748343
 10
8.308045230962498
 20
10.92663791359056
 10
8.284552653103922
 20
10.99051956826295
 10
8.257832090283429
 20
11.06476725150652
 10
8.228706362093159
 20
11.14758643686764
 10
8.197998288125226
 20
11.23718259789272
 10
8.166530687971768
 20
11.33176120812811
 10
8.135126381224909
 20
11.42952774112027
 10
8.104608187476772
 20
11.52868767041553
 10
8.075798926319492
 20
11.6274464695603
 10
8.049377248182622
 20
11.72421721415143
 10
8.025445126845431
 20
11.81824338798744
 10
8.003960366924619
 20
11.90897607691731
 10
7.984880773036882
 20
11.99586636679001
 10
7.968164149798921
 20
12.07836534345453
 10
7.953768301827436
 20
12.15592409275985
 10
7.941651033739121
 20
12.22799370055492
 10
7.931770150150674
 20
12.29402525268875
 10
7.924072906611876
 20
12.35360354488135
 10
7.918464362404805
 20
12.40684821233714
 10
7.91483902774463
 20
12.4540126001315
 10
7.913091412846497
 20
12.49535005333988
 10
7.913116027925577
 20
12.53111391703774
 10
7.914807383197032
 20
12.56155753630049
 10
7.918059988876013
 20
12.58693425620355
 10
7.922768355177687
 20
12.6074974218224
 10
7.928830508599155
 20
12.62351445289916
 10
7.93615854076528
 20
12.63530906784286
 10
7.944668059582886
 20
12.64321905972924
 10
7.954274672958776
 20
12.64758222163405
 10
7.964893988799762
 20
12.64873634663302
 10
7.97644161501265
 20
12.64701922780193
 10
7.988833159504256
 20
12.64276865821647
 10
8.001984230181394
 20
12.63632243095241
 10
8.015835049256105
 20
12.62799722717495
 10
8.030424296161406
 20
12.61802528040717
 10
8.045815264635532
 20
12.60661771226162
 10
8.062071248416739
 20
12.59398564435079
 10
8.079255541243265
 20
12.58034019828726
 10
8.097431436853355
 20
12.56589249568353
 10
8.116662228985253
 20
12.55085365815219
 10
8.137011211377217
 20
12.53543480730573
 10
8.158559259453557
 20
12.51976965346293
 10
8.181457575382932
 20
12.50368226176765
 10
8.20587494302007
 20
12.48691928606988
 10
8.231980146219704
 20
12.4692273802197
 10
8.259941968836571
 20
12.45035319806718
 10
8.289929194725392
 20
12.43004339346236
 10
8.322110607740903
 20
12.40804462025529
 10
8.356654991737837
 20
12.38410353229603
 10
8.393801457094145
 20
12.35809345624096
 10
8.434070420280701
 20
12.33039440997189
 10
8.478052624291585
 20
12.30151308417695
 10
8.526338812120899
 20
12.27195616954423
 10
8.579519726762729
 20
12.24223035676188
 10
8.638186111211156
 20
12.21284233651802
 10
8.702928708460275
 20
12.18429879950075
 10
8.774338261504189
 20
12.15710643639823
 10
8.852759370395135
 20
12.1316382278484
 10
8.937552063417991
 20
12.10773231428862
 10
9.02783022591581
 20
12.08509312610599
 10
9.122707743231623
 20
12.06342509368768
 10
9.221298500708481
 20
12.04243264742085
 10
9.322716383689424
 20
12.02182021769268
 10
9.426075277517488
 20
12.0012922348903
 10
9.530489067535713
 20
11.98055312940086
 10
9.635208775962215
 20
11.95930381312395
 10
9.740033972515313
 20
11.93723112400873
 10
9.844901363788421
 20
11.91401838151681
 10
9.949747656374945
 20
11.88934890510974
 10
10.05450955686827
 20
11.86290601424916
 10
10.15912377186182
 20
11.83437302839664
 10
10.26352700794897
 20
11.80343326701377
 10
10.36765597172314
 20
11.76977004956213
 10
10.47136649418758
 20
11.73314058750361
 10
10.57419090398494
 20
11.69359766030112
 10
10.67558065416772
 20
11.65126793941786
 10
10.77498719778843
 20
11.60627809631705
 10
10.87186198789957
 20
11.5587548024619
 10
10.96565647755365
 20
11.5088247293156
 10
11.05582211980318
 20
11.45661454834137
 10
11.14181036770064
 20
11.40225093100242
 10
11.22318519670255
 20
11.34590629196602
 10
11.29996067188141
 20
11.28793601871585
 10
11.3722633807137
 20
11.22874124193962
 10
11.44021991067591
 20
11.16872309232511
 10
11.50395684924453
 20
11.10828270056001
 10
11.56360078389605
 20
11.0478211973321
 10
11.61927830210697
 20
10.98773971332913
 10
11.67111599135377
 20
10.9284393792388
 10
11.71931428202865
 20
10.87027206396764
 10
11.76436897618671
 20
10.81339258929729
 10
11.80684971879872
 20
10.7579065152281
 10
11.84732615483549
 20
10.70391940176044
 10
11.8863679292678
 20
10.65153680889475
 10
11.92454468706645
 20
10.60086429663137
 10
11.96242607320224
 20
10.55200742497069
 10
12.00058173264595
 20
10.50507175391311
 10
12.03955669606313
 20
10.4602156236383
 10
12.07979753689839
 20
10.41780849504299
 10
12.12172621429109
 20
10.37827260920328
 10
12.16576468738058
 20
10.34203020719519
 10
12.21233491530623
 20
10.30950353009478
 10
12.26185885720738
 20
10.28111481897808
 10
12.31475847222341
 20
10.25728631492117
 10
12.37145571949367
 20
10.23844025900008
 10
12.43211234997735
 20
10.22492148162395
 10
12.49584928191304
 20
10.21676517053402
 10
12.56152722535915
 20
10.21392910280471
 10
12.62800689037408
 20
10.21637105551033
 10
12.69414898701626
 20
10.22404880572526
 10
12.7588142253441
 20
10.23692013052388
 10
12.82086331541601
 20
10.25494280698051
 10
12.8791569672904
 20
10.2780746121695
 10
12.93270357685713
 20
10.30623813596119
 10
12.98110228333178
 20
10.33921521940968
 10
13.02409991176136
 20
10.37675251636503
 10
13.06144328719291
 20
10.41859668067726
 10
13.09287923467343
 20
10.46449436619643
 10
13.11815457924995
 20
10.51419222677262
 10
13.13701614596948
 20
10.5674369162559
 10
13.14921075987905
 20
10.62397508849626
 10
13.1546118336127
 20
10.68347598658733
 10
13.15359913015267
 20
10.74529921059665
 10
13.14667900006819
 20
10.80872694983536
 10
13.13435779392854
 20
10.87304139361454
 10
13.11714186230296
 20
10.93752473124534
 10
13.09553755576071
 20
11.00145915203883
 10
13.07005122487103
 20
11.06412684530611
 10
13.04118922020319
 20
11.12481000035834
 10
13.00937701690212
 20
11.18294914722347
 10
12.97471658841544
 20
11.23861817879723
 10
12.93722903276643
 20
11.29204932869225
 10
12.89693544797842
 20
11.3434748305211
 10
12.85385693207468
 20
11.39312691789643
 10
12.80801458307852
 20
11.44123782443085
 10
12.75942949901324
 20
11.48803978373696
 10
12.70812277790213
 20
11.53376502942739
 10
12.65416123004174
 20
11.57865635093568
 10
12.5977945148217
 20
11.62299876097924
 10
12.53931800390486
 20
11.66708782809637
 10
12.4790270689541
 20
11.71121912082544
 10
12.41721708163227
 20
11.75568820770475
 10
12.35418341360227
 20
11.80079065727265
 10
12.29022143652693
 20
11.84682203806747
 10
12.22562652206915
 20
11.89407791862755
 10
12.16071865608647
 20
11.94276941931181
 10
12.09591628121521
 20
11.99276986776161
 10
12.03166245428639
 20
12.04386814343898
 10
11.96840023213102
 20
12.09585312580585
 10
11.9065726715801
 20
12.1485136943242
 10
11.84662282946465
 20
12.20163872845601
 10
11.78899376261567
 20
12.25501710766324
 10
11.73412852786417
 20
12.3084377114079
 10
11.68247721488142
 20
12.36179146111245
 10
11.63451804469971
 20
12.41537744604139
 10
11.59073627119157
 20
12.46959679741968
 10
11.55161714822956
 20
12.52485064647236
 10
11.51764592968622
 20
12.58154012442441
 10
11.4893078694341
 20
12.64006636250082
 10
11.48271516953607
 20
12.65809543606111
  0
LINE
  5
83D3
330
18
100
AcDbEntity
  8
0
100
AcDbLine
 10
17.90637733082312
 20
12.65937893836931
 30
0.0
 11
11.48271516953607
 21
12.65809543606111
 31
0.0
  0
DIMENSION
  5
8402
330
18
100
AcDbEntity
  8
DIM
100
AcDbDimension
  2
*D2
 10
4.614793402179999
 20
12.65873718721521
 30
0.0
 11
4.614793402179996
 21
4.650204641232929
 31
0.0
 70
    32
 71
     5
 42
16.01706509196457
  3
STANDARD
100
AcDbAlignedDimension
 13
8.752268059516296
 23
-3.358327904749355
 33
0.0
 14
14.6945462501796
 24
12.65873718721521
 34
0.0
 50
90.0
100
AcDbRotatedDimension
  0
LINE
  5
8410
330
18
100
AcDbEntity
  8
0
100
AcDbLine
 10
28.13191355322544
 20
12.65873718721521
 30
0.0
 11
28.13191355322544
 21
-3.341262812784787
 31
0.0
  0
LINE
  5
8411
330
18
100
AcDbEntity
  8
0
100
AcDbLine
 10
28.13191355322544
 20
-3.341262812784787
 30
0.0
 11
26.75691355322544
 21
-3.341262812784787
 31
0.0
  0
LINE
  5
8412
330
18
100
AcDbEntity
  8
0
100
AcDbLine
 10
26.75691355322544
 20
-3.341262812784787
 30
0.0
 11
26.75691355322544
 21
12.65873718721521
 31
0.0
  0
DIMENSION
  5
8413
330
18
100
AcDbEntity
  8
DIM
100
AcDbDimension
  2
*D3
 10
28.13191355322544
 20
16.15677870867214
 30
0.0
 11
29.06858021989211
 21
16.15677870867214
 31
0.0
 70
    32
 71
     5
 42
1.375000000000003
  3
STANDARD
100
AcDbAlignedDimension
 13
26.75691355322544
 23
4.658737187215212
 33
0.0
 14
28.13191355322544
 24
4.658737187215212
 34
0.0
100
AcDbRotatedDimension
  0
VIEWPORT
  5
842D
330
15
100
AcDbEntity
 67
     1
  8
0
100
AcDbViewport
 10
5.249999639556163
 20
3.999999883606677
 30
0.0
 40
17.58407771518677
 41
8.992999745766947
 68
     2
 69
     1
 12
5.249999639556163
 22
3.999999883606677
 13
0.0
 23
0.0
 14
10.0
 24
10.0
 15
10.0
 25
10.0
 16
0.0
 26
0.0
 36
1.0
 17
0.0
 27
0.0
 37
0.0
 42
50.0
 43
0.0
 44
0.0
 45
8.992999745766947
 50
0.0
 51
0.0
 72
   100
 90
    32800
  1

281
     0
 71
     1
 74
     0
110
0.0
120
0.0
130
0.0
111
1.0
121
0.0
131
0.0
112
0.0
122
1.0
132
0.0
 79
     0
146
0.0
170
     0
  0
VIEWPORT
  5
842F
330
15
100
AcDbEntity
 67
     1
  8
0
100
AcDbViewport
 10
5.24999976158142
 20
3.99999976158142
 30
0.0
 40
8.399999618530271
 41
6.399999618530272
 68
     1
 69
     2
 12
16.92489162503017
 22
6.898669928875187
 13
0.0
 23
0.0
 14
0.5
 24
0.5
 15
0.5
 25
0.5
 16
0.0
 26
0.0
 36
1.0
 17
0.0
 27
0.0
 37
0.0
 42
50.0
 43
0.0
 44
0.0
 45
21.1733258446505
 50
0.0
 51
0.0
 72
   100
 90
    32800
  1

281
     0
 71
     1
 74
     0
110
0.0
120
0.0
130
0.0
111
1.0
121
0.0
131
0.0
112
0.0
122
1.0
132
0.0
 79
     0
146
0.0
170
     0
  0
ENDSEC
  0
SECTION
  2
OBJECTS
  0
DICTIONARY
  5
C
330
0
100
AcDbDictionary
281
     1
  3
ACAD_COLOR
350
82F1
  3
ACAD_GROUP
350
D
  3
ACAD_IMAGE_DICT
350
21
  3
ACAD_IMAGE_VARS
350
20
  3
ACAD_LAYOUT
350
82F2
  3
ACAD_MATERIAL
350
82F0
  3
ACAD_MLINESTYLE
350
1B
  3
ACAD_PLOTSETTINGS
350
82F3
  3
ACAD_PLOTSTYLENAME
350
82EE
  0
DICTIONARY
  5
82F1
102
{ACAD_REACTORS
330
C
102
}
330
C
100
AcDbDictionary
281
     1
  0
DICTIONARY
  5
D
102
{ACAD_REACTORS
330
C
102
}
330
C
100
AcDbDictionary
281
     1
  0
DICTIONARY
  5
21
102
{ACAD_REACTORS
330
C
102
}
330
C
100
AcDbDictionary
281
     1
  3
3321-1
350
68BE
  3
3321-2
350
68C1
  0
RASTERVARIABLES
  5
20
102
{ACAD_REACTORS
330
C
102
}
330
C
100
AcDbRasterVariables
 90
        0
 70
     1
 71
     1
 72
     0
  0
DICTIONARY
  5
82F2
102
{ACAD_REACTORS
330
C
102
}
330
C
100
AcDbDictionary
281
     1
  3
Layout1
350
82F5
  3
Model
350
82F4
  0
DICTIONARY
  5
82F0
102
{ACAD_REACTORS
330
C
102
}
330
C
100
AcDbDictionary
281
     1
  0
DICTIONARY
  5
1B
102
{ACAD_REACTORS
330
C
102
}
330
C
100
AcDbDictionary
281
     1
  3
STANDARD
350
1C
  0
DICTIONARY
  5
82F3
102
{ACAD_REACTORS
330
C
102
}
330
C
100
AcDbDictionary
281
     1
  0
ACDBDICTIONARYWDFLT
  5
82EE
102
{ACAD_REACTORS
330
C
102
}
330
C
100
AcDbDictionary
281
     1
  3
Normal
350
82EF
100
AcDbDictionaryWithDefault
340
82EF
  0
IMAGEDEF
  5
68BE
102
{ACAD_REACTORS
330
21
102
}
330
21
100
AcDbRasterImageDef
 90
        0
  1
U:\TPDWG\MichelQ\3321-1.tif
 10
2904.0
 20
3603.0
 11
0.0705555555555556
 21
0.0705555555555556
280
     1
281
     5
  0
IMAGEDEF
  5
68C1
102
{ACAD_REACTORS
330
21
102
}
330
21
100
AcDbRasterImageDef
 90
        0
  1
U:\TPDWG\MichelQ\3321-2.tif
 10
2904.0
 20
3603.0
 11
0.0705555555555556
 21
0.0705555555555556
280
     1
281
     5
  0
LAYOUT
  5
82F5
102
{ACAD_REACTORS
330
82F2
102
}
330
82F2
100
AcDbPlotSettings
  1

  2
none_device
  4
Letter_(8.50_x_11.00_Inches)
  6

 40
6.349999904632568
 41
6.349999904632568
 42
6.350006103515625
 43
6.350006103515625
 44
215.8999938964844
 45
279.3999938964844
 46
0.0
 47
0.0
 48
0.0
 49
0.0
140
0.0
141
0.0
142
1.0
143
1.0
 70
   688
 72
     0
 73
     1
 74
     5
  7

 75
    16
147
1.0
 76
     1
 77
     2
 78
   300
148
0.0
149
0.0
100
AcDbLayout
  1
Layout1
 70
     1
 71
     1
 10
-0.2500002402958907
 20
-0.2499999962453767
 11
10.74999951940821
 21
8.249999763458731
 12
0.0
 22
0.0
 32
0.0
 14
1.049743681505489
 24
0.7996673802841308
 34
-0.0015258207003583
 15
9.450622583565561
 25
7.200576801086516
 35
0.0000000349246037
146
0.0
 13
0.0
 23
0.0
 33
0.0
 16
1.0
 26
0.0
 36
0.0
 17
0.0
 27
1.0
 37
0.0
 76
     0
330
15
331
842F
  0
LAYOUT
  5
82F4
102
{ACAD_REACTORS
330
82F2
102
}
330
82F2
100
AcDbPlotSettings
  1

  2
None
  4

  6

 40
0.0
 41
0.0
 42
0.0
 43
0.0
 44
0.0
 45
0.0
 46
0.0
 47
0.0
 48
0.0
 49
0.0
140
0.0
141
0.0
142
1.0
143
1.0
 70
  1712
 72
     0
 73
     0
 74
     0
  7

 75
     0
147
1.0
 76
     0
 77
     2
 78
   300
148
0.0
149
0.0
100
AcDbLayout
  1
Model
 70
     1
 71
     0
 10
0.0
 20
0.0
 11
12.0
 21
9.0
 12
0.0
 22
0.0
 32
0.0
 14
0.0
 24
0.0
 34
0.0
 15
0.0
 25
0.0
 35
0.0
146
0.0
 13
0.0
 23
0.0
 33
0.0
 16
1.0
 26
0.0
 36
0.0
 17
0.0
 27
1.0
 37
0.0
 76
     0
330
18
  0
MLINESTYLE
  5
1C
102
{ACAD_REACTORS
330
1B
102
}
330
1B
100
AcDbMlineStyle
  2
STANDARD
 70
     0
  3

 62
   256
 51
90.0
 52
90.0
 71
     2
 49
0.5
 62
   256
  6
BYLAYER
 49
-0.5
 62
   256
  6
BYLAYER
  0
ACDBPLACEHOLDER
  5
82EF
102
{ACAD_REACTORS
330
82EE
102
}
330
82EE
  0
ENDSEC
  0
EOF
