  0
SECTION
  2
HEADER
  9
$ACADVER
  1
AC1018
  9
$ACADMAINTVER
 70
     0
  9
$DWGCODEPAGE
  3
ANSI_1252
  9
$INSBASE
 10
0.0
 20
0.0
 30
0.0
  9
$EXTMIN
 10
78.10010810615756
 20
20.24908076408137
 30
0.0
  9
$EXTMAX
 10
92.37722666761072
 20
35.05357444623621
 30
0.0
  9
$LIMMIN
 10
0.0
 20
0.0
  9
$LIMMAX
 10
12.0
 20
9.0
  9
$ORTHOMODE
 70
     0
  9
$REGENMODE
 70
     1
  9
$FILLMODE
 70
     1
  9
$QTEXTMODE
 70
     0
  9
$MIRRTEXT
 70
     1
  9
$LTSCALE
 40
1.0
  9
$ATTMODE
 70
     1
  9
$TEXTSIZE
 40
0.2
  9
$TRACEWID
 40
0.05
  9
$TEXTSTYLE
  7
STANDARD
  9
$CLAYER
  8
0
  9
$CELTYPE
  6
BYLAYER
  9
$CECOLOR
 62
     4
  9
$CELTSCALE
 40
1.0
  9
$DISPSILH
 70
     0
  9
$DIMSCALE
 40
1.0
  9
$DIMASZ
 40
0.18
  9
$DIMEXO
 40
0.0625
  9
$DIMDLI
 40
0.38
  9
$DIMRND
 40
0.0
  9
$DIMDLE
 40
0.0
  9
$DIMEXE
 40
0.18
  9
$DIMTP
 40
0.0
  9
$DIMTM
 40
0.0
  9
$DIMTXT
 40
0.75
  9
$DIMCEN
 40
0.09
  9
$DIMTSZ
 40
0.0
  9
$DIMTOL
 70
     0
  9
$DIMLIM
 70
     0
  9
$DIMTIH
 70
     1
  9
$DIMTOH
 70
     1
  9
$DIMSE1
 70
     0
  9
$DIMSE2
 70
     0
  9
$DIMTAD
 70
     0
  9
$DIMZIN
 70
     0
  9
$DIMBLK
  1

  9
$DIMASO
 70
     1
  9
$DIMSHO
 70
     1
  9
$DIMPOST
  1

  9
$DIMAPOST
  1

  9
$DIMALT
 70
     0
  9
$DIMALTD
 70
     2
  9
$DIMALTF
 40
25.4
  9
$DIMLFAC
 40
1.0
  9
$DIMTOFL
 70
     0
  9
$DIMTVP
 40
0.0
  9
$DIMTIX
 70
     0
  9
$DIMSOXD
 70
     0
  9
$DIMSAH
 70
     0
  9
$DIMBLK1
  1

  9
$DIMBLK2
  1

  9
$DIMSTYLE
  2
STANDARD
  9
$DIMCLRD
 70
     0
  9
$DIMCLRE
 70
     0
  9
$DIMCLRT
 70
     0
  9
$DIMTFAC
 40
1.0
  9
$DIMGAP
 40
0.09
  9
$DIMJUST
 70
     0
  9
$DIMSD1
 70
     0
  9
$DIMSD2
 70
     0
  9
$DIMTOLJ
 70
     1
  9
$DIMTZIN
 70
     0
  9
$DIMALTZ
 70
     0
  9
$DIMALTTZ
 70
     0
  9
$DIMUPT
 70
     0
  9
$DIMDEC
 70
     4
  9
$DIMTDEC
 70
     4
  9
$DIMALTU
 70
     2
  9
$DIMALTTD
 70
     2
  9
$DIMTXSTY
  7
STANDARD
  9
$DIMAUNIT
 70
     0
  9
$DIMADEC
 70
     0
  9
$DIMALTRND
 40
0.0
  9
$DIMAZIN
 70
     0
  9
$DIMDSEP
 70
    46
  9
$DIMATFIT
 70
     3
  9
$DIMFRAC
 70
     0
  9
$DIMLDRBLK
  1

  9
$DIMLUNIT
 70
     5
  9
$DIMLWD
 70
    -2
  9
$DIMLWE
 70
    -2
  9
$DIMTMOVE
 70
     0
  9
$LUNITS
 70
     2
  9
$LUPREC
 70
     4
  9
$SKETCHINC
 40
0.1
  9
$FILLETRAD
 40
0.3
  9
$AUNITS
 70
     0
  9
$AUPREC
 70
     0
  9
$MENU
  1
.
  9
$ELEVATION
 40
0.0
  9
$PELEVATION
 40
0.0
  9
$THICKNESS
 40
0.0
  9
$LIMCHECK
 70
     0
  9
$CHAMFERA
 40
0.5
  9
$CHAMFERB
 40
0.5
  9
$CHAMFERC
 40
1.0
  9
$CHAMFERD
 40
0.0
  9
$SKPOLY
 70
     0
  9
$TDCREATE
 40
2451160.318790972
  9
$TDUCREATE
 40
2451160.485457639
  9
$TDUPDATE
 40
2453531.359418901
  9
$TDUUPDATE
 40
2453531.526085567
  9
$TDINDWG
 40
0.7779566898
  9
$TDUSRTIMER
 40
0.7779566898
  9
$USRTIMER
 70
     1
  9
$ANGBASE
 50
0.0
  9
$ANGDIR
 70
     0
  9
$PDMODE
 70
     3
  9
$PDSIZE
 40
0.01
  9
$PLINEWID
 40
0.0
  9
$SPLFRAME
 70
     0
  9
$SPLINETYPE
 70
     6
  9
$SPLINESEGS
 70
     8
  9
$HANDSEED
  5
18052
  9
$SURFTAB1
 70
     6
  9
$SURFTAB2
 70
     6
  9
$SURFTYPE
 70
     6
  9
$SURFU
 70
     6
  9
$SURFV
 70
     6
  9
$UCSBASE
  2

  9
$UCSNAME
  2

  9
$UCSORG
 10
0.0
 20
0.0
 30
0.0
  9
$UCSXDIR
 10
1.0
 20
0.0
 30
0.0
  9
$UCSYDIR
 10
0.0
 20
1.0
 30
0.0
  9
$UCSORTHOREF
  2

  9
$UCSORTHOVIEW
 70
     0
  9
$UCSORGTOP
 10
0.0
 20
0.0
 30
0.0
  9
$UCSORGBOTTOM
 10
0.0
 20
0.0
 30
0.0
  9
$UCSORGLEFT
 10
0.0
 20
0.0
 30
0.0
  9
$UCSORGRIGHT
 10
0.0
 20
0.0
 30
0.0
  9
$UCSORGFRONT
 10
0.0
 20
0.0
 30
0.0
  9
$UCSORGBACK
 10
0.0
 20
0.0
 30
0.0
  9
$PUCSBASE
  2

  9
$PUCSNAME
  2

  9
$PUCSORG
 10
0.0
 20
0.0
 30
0.0
  9
$PUCSXDIR
 10
1.0
 20
0.0
 30
0.0
  9
$PUCSYDIR
 10
0.0
 20
1.0
 30
0.0
  9
$PUCSORTHOREF
  2

  9
$PUCSORTHOVIEW
 70
     0
  9
$PUCSORGTOP
 10
0.0
 20
0.0
 30
0.0
  9
$PUCSORGBOTTOM
 10
0.0
 20
0.0
 30
0.0
  9
$PUCSORGLEFT
 10
0.0
 20
0.0
 30
0.0
  9
$PUCSORGRIGHT
 10
0.0
 20
0.0
 30
0.0
  9
$PUCSORGFRONT
 10
0.0
 20
0.0
 30
0.0
  9
$PUCSORGBACK
 10
0.0
 20
0.0
 30
0.0
  9
$USERI1
 70
     0
  9
$USERI2
 70
     0
  9
$USERI3
 70
     0
  9
$USERI4
 70
     0
  9
$USERI5
 70
     0
  9
$USERR1
 40
0.0
  9
$USERR2
 40
0.0
  9
$USERR3
 40
0.0
  9
$USERR4
 40
0.0
  9
$USERR5
 40
0.0
  9
$WORLDVIEW
 70
     1
  9
$SHADEDGE
 70
     3
  9
$SHADEDIF
 70
    70
  9
$TILEMODE
 70
     1
  9
$MAXACTVP
 70
    48
  9
$PINSBASE
 10
0.0
 20
0.0
 30
0.0
  9
$PLIMCHECK
 70
     0
  9
$PEXTMIN
 10
1.049636599258096
 20
0.7996597240971113
 30
-0.0000000000112498
  9
$PEXTMAX
 10
9.450362731076971
 20
7.200340082697458
 30
0.0000000000002956
  9
$PLIMMIN
 10
-0.2500002402958907
 20
-0.2499999962453767
  9
$PLIMMAX
 10
10.74999951940821
 20
8.249999763458731
  9
$UNITMODE
 70
     0
  9
$VISRETAIN
 70
     1
  9
$PLINEGEN
 70
     0
  9
$PSLTSCALE
 70
     1
  9
$TREEDEPTH
 70
  3020
  9
$CMLSTYLE
  2
STANDARD
  9
$CMLJUST
 70
     0
  9
$CMLSCALE
 40
1.0
  9
$PROXYGRAPHICS
 70
     1
  9
$MEASUREMENT
 70
     0
  9
$CELWEIGHT
370
    -1
  9
$ENDCAPS
280
     0
  9
$JOINSTYLE
280
     0
  9
$LWDISPLAY
290
     0
  9
$INSUNITS
 70
     0
  9
$HYPERLINKBASE
  1

  9
$STYLESHEET
  1

  9
$XEDIT
290
     1
  9
$CEPSNTYPE
380
     0
  9
$PSTYLEMODE
290
     1
  9
$FINGERPRINTGUID
  2
{C667DFB6-41CF-4BAE-8BFD-D038ABE97765}
  9
$VERSIONGUID
  2
{BAEAB8E5-5E2D-420C-8F72-C0D9C38961F3}
  9
$EXTNAMES
290
     1
  9
$PSVPSCALE
 40
0.0
  9
$OLESTARTUP
290
     0
  9
$SORTENTS
280
   127
  9
$INDEXCTL
280
     0
  9
$HIDETEXT
280
     0
  9
$XCLIPFRAME
290
     0
  9
$HALOGAP
280
     0
  9
$OBSCOLOR
 70
   257
  9
$OBSLTYPE
280
     0
  9
$INTERSECTIONDISPLAY
280
     0
  9
$INTERSECTIONCOLOR
 70
   257
  9
$DIMASSOC
280
     1
  9
$PROJECTNAME
  1

  0
ENDSEC
  0
SECTION
  2
CLASSES
  0
CLASS
  1
RASTERVARIABLES
  2
AcDbRasterVariables
  3
ISM
 90
        0
 91
        1
280
     0
281
     0
  0
CLASS
  1
IMAGEDEF
  2
AcDbRasterImageDef
  3
ISM
 90
        0
 91
       13
280
     0
281
     0
  0
CLASS
  1
IMAGEDEF_REACTOR
  2
AcDbRasterImageDefReactor
  3
ISM
 90
        1
 91
        2
280
     0
281
     0
  0
CLASS
  1
IMAGE
  2
AcDbRasterImage
  3
ISM
 90
      127
 91
        0
280
     0
281
     1
  0
CLASS
  1
ACDBDICTIONARYWDFLT
  2
AcDbDictionaryWithDefault
  3
ObjectDBX Classes
 90
        0
 91
        1
280
     0
281
     0
  0
CLASS
  1
SORTENTSTABLE
  2
AcDbSortentsTable
  3
ObjectDBX Classes
 90
        0
 91
        2
280
     0
281
     0
  0
ENDSEC
  0
SECTION
  2
TABLES
  0
TABLE
  2
VPORT
  5
8
330
0
100
AcDbSymbolTable
 70
     8
  0
VPORT
  5
18051
330
8
100
AcDbSymbolTableRecord
100
AcDbViewportTableRecord
  2
*Active
 70
     0
 10
0.0
 20
0.0
 11
1.0
 21
1.0
 12
86.19787426596868
 22
25.6193445053826
 13
0.0
 23
0.0
 14
0.5
 24
0.5
 15
0.5
 25
0.5
 16
0.0
 26
0.0
 36
1.0
 17
0.0
 27
0.0
 37
0.0
 40
15.19171359345263
 41
1.955307262569832
 42
50.0
 43
0.0
 44
0.0
 50
0.0
 51
0.0
 71
     0
 72
   100
 73
     1
 74
     1
 75
     0
 76
     0
 77
     0
 78
     0
281
     0
 65
     1
110
0.0
120
0.0
130
0.0
111
1.0
121
0.0
131
0.0
112
0.0
122
1.0
132
0.0
 79
     0
146
0.0
  0
ENDTAB
  0
TABLE
  2
LTYPE
  5
5
330
0
100
AcDbSymbolTable
 70
     1
  0
LTYPE
  5
12
330
5
100
AcDbSymbolTableRecord
100
AcDbLinetypeTableRecord
  2
BYBLOCK
 70
     0
  3

 72
    65
 73
     0
 40
0.0
  0
LTYPE
  5
13
330
5
100
AcDbSymbolTableRecord
100
AcDbLinetypeTableRecord
  2
BYLAYER
 70
     0
  3

 72
    65
 73
     0
 40
0.0
  0
LTYPE
  5
14
330
5
100
AcDbSymbolTableRecord
100
AcDbLinetypeTableRecord
  2
CONTINUOUS
 70
     0
  3
Solid line
 72
    65
 73
     0
 40
0.0
  0
ENDTAB
  0
TABLE
  2
LAYER
  5
2
330
0
100
AcDbSymbolTable
 70
     3
  0
LAYER
  5
E
330
2
100
AcDbSymbolTableRecord
100
AcDbLayerTableRecord
  2
0
 70
     0
 62
     7
  6
CONTINUOUS
370
    -3
390
15449
  0
LAYER
  5
1755A
330
2
100
AcDbSymbolTableRecord
100
AcDbLayerTableRecord
  2
DIM
 70
     0
 62
    -3
  6
CONTINUOUS
370
    -3
390
15449
  0
LAYER
  5
1755C
330
2
100
AcDbSymbolTableRecord
100
AcDbLayerTableRecord
  2
Defpoints
 70
     0
 62
     7
  6
CONTINUOUS
290
     0
370
    -3
390
15449
  0
ENDTAB
  0
TABLE
  2
STYLE
  5
3
330
0
100
AcDbSymbolTable
 70
     1
  0
STYLE
  5
F
330
3
100
AcDbSymbolTableRecord
100
AcDbTextStyleTableRecord
  2
STANDARD
 70
     0
 40
0.0
 41
1.0
 50
0.0
 71
     0
 42
0.2
  3
txt
  4

  0
ENDTAB
  0
TABLE
  2
VIEW
  5
6
330
0
100
AcDbSymbolTable
 70
     0
  0
ENDTAB
  0
TABLE
  2
UCS
  5
7
330
0
100
AcDbSymbolTable
 70
     0
  0
ENDTAB
  0
TABLE
  2
APPID
  5
9
330
0
100
AcDbSymbolTable
 70
     2
  0
APPID
  5
10
330
9
100
AcDbSymbolTableRecord
100
AcDbRegAppTableRecord
  2
ACAD
 70
     0
  0
APPID
  5
1733B
330
9
100
AcDbSymbolTableRecord
100
AcDbRegAppTableRecord
  2
CONTENTBLOCKICON
 70
     0
  0
ENDTAB
  0
TABLE
  2
DIMSTYLE
  5
A
330
0
100
AcDbSymbolTable
 70
     1
100
AcDbDimStyleTable
 71
     1
340
1D
  0
DIMSTYLE
105
1D
102
{ACAD_REACTORS
330
17F5F
330
17F6D
330
18024
102
}
330
A
100
AcDbSymbolTableRecord
100
AcDbDimStyleTableRecord
  2
STANDARD
 70
     0
140
0.75
277
     5
340
F
  0
ENDTAB
  0
TABLE
  2
BLOCK_RECORD
  5
1
330
0
100
AcDbSymbolTable
 70
     7
  0
BLOCK_RECORD
  5
18
102
{ACAD_XDICTIONARY
360
15481
102
}
330
1
100
AcDbSymbolTableRecord
100
AcDbBlockTableRecord
  2
*MODEL_SPACE
340
1544C
  0
BLOCK_RECORD
  5
15
102
{ACAD_XDICTIONARY
360
1547F
102
}
330
1
100
AcDbSymbolTableRecord
100
AcDbBlockTableRecord
  2
*PAPER_SPACE
340
1544D
  0
BLOCK_RECORD
  5
16B91
330
1
100
AcDbSymbolTableRecord
100
AcDbBlockTableRecord
  2
2219e
340
0
310
2800000020000000200000000100080000000000000400000000000000000000000000000000000000000000000080000080000000808000800000008000800080800000C0C0C000C0DCC000F0CAA6000020400000206000002080000020A0000020C0000020E00000400000004020000040400000406000004080000040A0
310
000040C0000040E00000600000006020000060400000606000006080000060A0000060C0000060E00000800000008020000080400000806000008080000080A0000080C0000080E00000A0000000A0200000A0400000A0600000A0800000A0A00000A0C00000A0E00000C0000000C0200000C0400000C0600000C0800000C0
310
A00000C0C00000C0E00000E0000000E0200000E0400000E0600000E0800000E0A00000E0C00000E0E00040000000400020004000400040006000400080004000A0004000C0004000E00040200000402020004020400040206000402080004020A0004020C0004020E000404000004040200040404000404060004040800040
310
40A0004040C0004040E00040600000406020004060400040606000406080004060A0004060C0004060E00040800000408020004080400040806000408080004080A0004080C0004080E00040A0000040A0200040A0400040A0600040A0800040A0A00040A0C00040A0E00040C0000040C0200040C0400040C0600040C08000
310
40C0A00040C0C00040C0E00040E0000040E0200040E0400040E0600040E0800040E0A00040E0C00040E0E00080000000800020008000400080006000800080008000A0008000C0008000E00080200000802020008020400080206000802080008020A0008020C0008020E00080400000804020008040400080406000804080
310
008040A0008040C0008040E00080600000806020008060400080606000806080008060A0008060C0008060E00080800000808020008080400080806000808080008080A0008080C0008080E00080A0000080A0200080A0400080A0600080A0800080A0A00080A0C00080A0E00080C0000080C0200080C0400080C0600080C0
310
800080C0A00080C0C00080C0E00080E0000080E0200080E0400080E0600080E0800080E0A00080E0C00080E0E000C0000000C0002000C0004000C0006000C0008000C000A000C000C000C000E000C0200000C0202000C0204000C0206000C0208000C020A000C020C000C020E000C0400000C0402000C0404000C0406000C0
310
408000C040A000C040C000C040E000C0600000C0602000C0604000C0606000C0608000C060A000C060C000C060E000C0800000C0802000C0804000C0806000C0808000C080A000C080C000C080E000C0A00000C0A02000C0A04000C0A06000C0A08000C0A0A000C0A0C000C0A0E000C0C00000C0C02000C0C04000C0C06000
310
C0C08000C0C0A000F0FBFF00A4A0A000808080000000FF0000FF000000FFFF00FF000000FF00FF00FFFF0000FFFFFF0000000000000000000000000000000000000000000000000000000000000000000000000000000000000000000000000000000000000000000000000000000000000000000000000000000000000000
310
00000000000000000000000000000000000000000000000000000000000000000000000000000000000000000000000000000000000000000000000000000000000000000000000000000000000000000000000000000000000000000000000000000000000000000000000000000000000000000000000000000000000000
310
00000000000000000000000000000000000000FFFFFFFFFFFFFFFFFFFFFF000000000000000000000000000000000000000000FF000000FFFFFF00000000FFFF00000000000000000000000000000000000000FF0000FFFF0000000000000000FFFF0000000000000000000000000000000000FF00FF000000000000000000
310
0000FFFF00000000000000000000000000000000FFFFFF000000FFFFFFFFFF00000000FF00000000000000000000000000000000FFFF0000FFFFFFFFFFFFFFFFFF0000FFFF000000000000000000000000000000FFFF0000FFFFFF000000FFFFFFFF0000FF000000000000000000000000000000FF000000FFFF0000000000
310
FFFFFFFF0000FF0000000000000000000000000000FF0000FFFF000000FFFF0000FFFFFF0000FFFF00000000000000000000000000FF0000FFFFFF000000FF0000FFFFFFFF0000FFFF000000000000000000000000FFFF0000FFFF0000FFFF0000FFFFFFFFFF0000FFFF00000000FFFFFF00000000FFFF0000FFFFFFFFFFFF
310
0000FF00FFFFFFFF0000FFFFFF00FFFFFFFFFF000000FFFFFF0000FFFFFFFF000000FF00FFFFFFFF00000000FFFFFF00FFFFFF000000FF00FF0000000000000000FF00FFFFFFFFFFFFFF00000000FFFFFFFF00FF0000FF0000FFFF00000000FFFFFF00FFFFFFFFFFFFFFFFFF0000FFFFFFFFFFFF0000FF000000FFFFFFFFFF
310
FF000000FFFF00FFFFFFFFFFFFFFFFFFFFFFFFFF000000FFFFFFFFFFFFFFFFFFFFFFFFFFFFFFFFFFFFFFFFFFFFFFFFFFFFFFFFFFFF0000FFFFFFFFFFFFFFFFFFFFFFFFFFFFFFFFFFFFFFFFFFFFFFFFFFFFFFFFFFFF000000000000000000000000000000000000000000000000000000000000000000000000000000000000
310
00000000000000000000000000000000000000000000000000000000000000000000000000000000000000000000000000000000000000000000000000000000000000000000000000000000000000000000000000000000000000000000000000000000000000000000000000000000000000000000000000000000000000
310
0000000000000000000000000000000000000000000000000000000000000000000000000000000000000000000000000000000000000000
  0
BLOCK_RECORD
  5
172D3
330
1
100
AcDbSymbolTableRecord
100
AcDbBlockTableRecord
  2
2219f
340
0
310
2800000020000000200000000100080000000000000400000000000000000000000000000000000000000000000080000080000000808000800000008000800080800000C0C0C000C0DCC000F0CAA6000020400000206000002080000020A0000020C0000020E00000400000004020000040400000406000004080000040A0
310
000040C0000040E00000600000006020000060400000606000006080000060A0000060C0000060E00000800000008020000080400000806000008080000080A0000080C0000080E00000A0000000A0200000A0400000A0600000A0800000A0A00000A0C00000A0E00000C0000000C0200000C0400000C0600000C0800000C0
310
A00000C0C00000C0E00000E0000000E0200000E0400000E0600000E0800000E0A00000E0C00000E0E00040000000400020004000400040006000400080004000A0004000C0004000E00040200000402020004020400040206000402080004020A0004020C0004020E000404000004040200040404000404060004040800040
310
40A0004040C0004040E00040600000406020004060400040606000406080004060A0004060C0004060E00040800000408020004080400040806000408080004080A0004080C0004080E00040A0000040A0200040A0400040A0600040A0800040A0A00040A0C00040A0E00040C0000040C0200040C0400040C0600040C08000
310
40C0A00040C0C00040C0E00040E0000040E0200040E0400040E0600040E0800040E0A00040E0C00040E0E00080000000800020008000400080006000800080008000A0008000C0008000E00080200000802020008020400080206000802080008020A0008020C0008020E00080400000804020008040400080406000804080
310
008040A0008040C0008040E00080600000806020008060400080606000806080008060A0008060C0008060E00080800000808020008080400080806000808080008080A0008080C0008080E00080A0000080A0200080A0400080A0600080A0800080A0A00080A0C00080A0E00080C0000080C0200080C0400080C0600080C0
310
800080C0A00080C0C00080C0E00080E0000080E0200080E0400080E0600080E0800080E0A00080E0C00080E0E000C0000000C0002000C0004000C0006000C0008000C000A000C000C000C000E000C0200000C0202000C0204000C0206000C0208000C020A000C020C000C020E000C0400000C0402000C0404000C0406000C0
310
408000C040A000C040C000C040E000C0600000C0602000C0604000C0606000C0608000C060A000C060C000C060E000C0800000C0802000C0804000C0806000C0808000C080A000C080C000C080E000C0A00000C0A02000C0A04000C0A06000C0A08000C0A0A000C0A0C000C0A0E000C0C00000C0C02000C0C04000C0C06000
310
C0C08000C0C0A000F0FBFF00A4A0A000808080000000FF0000FF000000FFFF00FF000000FF00FF00FFFF0000FFFFFF00000000000000000000000000000000000000000000000000000000000000000000000000000000000000FFFFFFFFFFFFFFFFFFFFFFFF0000000000000000000000000000000000000000FF00FF0000
310
FFFFFF00FF00FF0000000000000000000000000000000000000000FF00FFFFFFFFFFFFFFFF00FF0000000000000000000000000000000000000000FF00FFFFFFFFFFFFFFFF00FF0000000000000000000000000000000000000000FF00FFFFFFFFFFFFFFFF00FF0000000000000000000000000000000000000000FF00FFFF
310
FFFFFFFFFFFF00FF0000000000000000000000000000000000000000FF00FFFFFFFFFFFFFFFF00FF0000000000000000000000000000000000000000FF00FFFFFFFFFFFFFFFF00FF0000000000000000000000000000000000000000FF00FFFFFFFFFFFFFFFF00FF0000000000000000000000000000000000000000FF00FF
310
FFFFFFFFFFFFFF00FF0000000000000000000000000000000000000000FF00FFFFFFFF00FFFFFF00FF0000000000000000000000000000000000000000FF00FFFFFFFFFF00FFFF00FF0000000000000000000000000000000000000000FF00FF0000FF00FF00FF00FF0000000000000000000000000000000000000000FF00
310
FFFFFFFFFF00FFFF00FF0000000000000000000000000000000000000000FF00FF0000FF00FF00FF00FF0000000000000000000000000000000000000000FF00FFFFFFFF0000FFFF00FF0000000000000000000000000000000000000000FF00FF0000FFFF0000FF00FF0000000000000000000000000000000000000000FF
310
00FF00FFFF00FFFFFF00FF0000000000000000000000000000000000000000FFFFFFFFFFFFFFFFFFFFFFFF0000000000000000000000000000000000000000FF00FF0000FFFF0000FF00FF0000000000000000000000000000000000000000FF00FF0000FFFF0000FF00FF0000000000000000000000000000000000000000
310
FF00FF0000FFFF0000FF00FF0000000000000000000000000000000000000000FF00FF0000FFFF0000FF00FF0000000000000000000000000000000000000000FF00FF0000FFFF0000FF00FF0000000000000000000000000000000000000000FF00FF0000FFFF0000FF00FF00000000000000000000000000000000000000
310
00FF00FF0000FFFF0000FF00FF0000000000000000000000000000000000000000FFFFFFFFFFFFFFFFFFFFFFFF0000000000000000000000000000000000000000FFFFFFFFFFFFFFFFFFFFFFFF0000000000000000000000000000000000000000FF00000000000000000000FF000000000000000000000000000000000000
310
0000FFFFFFFFFFFFFFFFFFFFFFFF000000000000000000000000000000000000000000000000000000000000000000000000000000000000
  0
BLOCK_RECORD
  5
17F60
330
1
100
AcDbSymbolTableRecord
100
AcDbBlockTableRecord
  2
*D2
340
0
  0
BLOCK_RECORD
  5
17F6E
330
1
100
AcDbSymbolTableRecord
100
AcDbBlockTableRecord
  2
*D3
340
0
  0
BLOCK_RECORD
  5
18025
330
1
100
AcDbSymbolTableRecord
100
AcDbBlockTableRecord
  2
*D6
340
0
  0
ENDTAB
  0
ENDSEC
  0
SECTION
  2
BLOCKS
  0
BLOCK
  5
19
330
18
100
AcDbEntity
  8
0
100
AcDbBlockBegin
  2
*MODEL_SPACE
 70
     0
 10
0.0
 20
0.0
 30
0.0
  3
*MODEL_SPACE
  1

  0
ENDBLK
  5
1A
330
18
100
AcDbEntity
  8
0
100
AcDbBlockEnd
  0
BLOCK
  5
16
330
15
100
AcDbEntity
 67
     1
  8
0
100
AcDbBlockBegin
  2
*PAPER_SPACE
 70
     0
 10
0.0
 20
0.0
 30
0.0
  3
*PAPER_SPACE
  1

  0
ENDBLK
  5
17
330
15
100
AcDbEntity
 67
     1
  8
0
100
AcDbBlockEnd
  0
BLOCK
  5
16B92
330
16B91
100
AcDbEntity
  8
0
100
AcDbBlockBegin
  2
2219e
 70
     0
 10
0.0
 20
0.0
 30
0.0
  3
2219e
  1

  0
LWPOLYLINE
  5
16B94
330
16B91
100
AcDbEntity
  8
0
100
AcDbPolyline
 90
      613
 70
     0
 43
0.0
 10
4.18615704358626
 20
-5.215176762836158
 10
4.213329578250447
 20
-5.216748434301165
 10
4.240386238550979
 20
-5.21663479719644
 10
4.267211150124214
 20
-5.215003096062297
 10
4.293688438606507
 20
-5.212020575439045
 10
4.319702229634205
 20
-5.207854479866997
 10
4.345136648843663
 20
-5.202672053886465
 10
4.369875821871233
 20
-5.196640542037763
 10
4.393803874353283
 20
-5.189927188861204
 10
4.41685643163391
 20
-5.18264992324988
 10
4.439175117888336
 20
-5.174729411508035
 10
4.460953056999553
 20
-5.166037004292691
 10
4.482383372850549
 20
-5.156444052260871
 10
4.503659189324305
 20
-5.145821906069597
 10
4.524973630303821
 20
-5.134041916375893
 10
4.546519819672073
 20
-5.120975433836785
 10
4.568490881312051
 20
-5.106493809109293
 10
4.591017710313164
 20
-5.090517708408382
 10
4.613982286590532
 20
-5.073165060180759
 10
4.637204361265704
 20
-5.054603108431078
 10
4.660503685460206
 20
-5.034999097163986
 10
4.683700010295593
 20
-5.014520270384131
 10
4.706613086893404
 20
-4.993333872096163
 10
4.729062666375176
 20
-4.971607146304731
 10
4.750868499862463
 20
-4.949507337014487
 10
4.771884671596504
 20
-4.927163093487247
 10
4.792102598297371
 20
-4.904548686013484
 10
4.811548029804851
 20
-4.881599790140853
 10
4.830246715958715
 20
-4.858252081416994
 10
4.848224406598748
 20
-4.834441235389558
 10
4.865506851564735
 20
-4.810102927606192
 10
4.882119800696436
 20
-4.785172833614537
 10
4.898089003833654
 20
-4.759586628962246
 10
4.913438064982075
 20
-4.733297142358285
 10
4.928182004811023
 20
-4.706325815156914
 10
4.942333698155771
 20
-4.678711241873719
 10
4.955906019851549
 20
-4.650492017024277
 10
4.968911844733622
 20
-4.621706735124176
 10
4.981364047637233
 20
-4.592393990688997
 10
4.993275503397634
 20
-4.562592378234325
 10
5.004659086850075
 20
-4.532340492275737
 10
5.015504068795902
 20
-4.501664062474059
 10
5.025705303900846
 20
-4.470537359071078
 10
5.035134042796724
 20
-4.438921787453817
 10
5.043661536115354
 20
-4.406778753009294
 10
5.051159034488573
 20
-4.374069661124541
 10
5.057497788548195
 20
-4.340755917186576
 10
5.062549048926051
 20
-4.306798926582426
 10
5.066184066253943
 20
-4.272160094699113
 10
5.068312716036239
 20
-4.236811547665723
 10
5.06899937326736
 20
-4.20076829457957
 10
5.068347037814268
 20
-4.164056065280034
 10
5.066458709543913
 20
-4.126700589606491
 10
5.063437388323252
 20
-4.08872759739832
 10
5.059386074019235
 20
-4.050162818494896
 10
5.054407766498822
 20
-4.011031982735599
 10
5.048605465628973
 20
-3.971360819959805
 10
5.042062858713416
 20
-3.931215798976055
 10
5.034786382803002
 20
-3.890826344469516
 10
5.026763162385377
 20
-3.850462620094543
 10
5.017980321948164
 20
-3.810394789505459
 10
5.008424985979007
 20
-3.770893016356613
 10
4.998084278965539
 20
-3.732227464302337
 10
4.986945325395385
 20
-3.694668296996973
 10
4.974995249756182
 20
-3.658485678094852
 10
4.962210447590836
 20
-3.623868293295771
 10
4.948524398663302
 20
-3.590678916481302
 10
4.933859853792789
 20
-3.558698843578463
 10
4.918139563798526
 20
-3.527709370514278
 10
4.90128627949972
 20
-3.497491793215778
 10
4.883222751715601
 20
-3.467827407609975
 10
4.863871731265378
 20
-3.438497509623902
 10
4.843155968968271
 20
-3.409283395184577
 10
4.820998215587083
 20
-3.380000666768918
 10
4.797321221658887
 20
-3.350602153053432
 10
4.772047737664346
 20
-3.321074989264518
 10
4.745100514084128
 20
-3.29140631062858
 10
4.716402301398894
 20
-3.261583252372023
 10
4.685875850089301
 20
-3.231592949721239
 10
4.653443910636008
 20
-3.201422537902637
 10
4.619029233519678
 20
-3.171059152142612
 10
4.582576027364362
 20
-3.140541387378788
 10
4.544114333367674
 20
-3.110113677393665
 10
4.503695650870612
 20
-3.080071915680952
 10
4.46137147921418
 20
-3.050711995734369
 10
4.41719331773938
 20
-3.022329811047626
 10
4.371212665787215
 20
-2.995221255114444
 10
4.323481022698688
 20
-2.969682221428543
 10
4.274049887814789
 20
-2.946008603483628
 10
4.223002947903218
 20
-2.924431970077583
 10
4.170552639438386
 20
-2.904926591224942
 10
4.116943586321409
 20
-2.8874024122444
 10
4.062420412453375
 20
-2.871769378454655
 10
4.007227741735403
 20
-2.857937435174402
 10
3.951610198068584
 20
-2.845816527722335
 10
3.895812405354035
 20
-2.835316601417149
 10
3.840078987492841
 20
-2.826347601577548
 10
3.784598776981966
 20
-2.818825906022649
 10
3.729337440701696
 20
-2.81269362257327
 10
3.67420485412815
 20
-2.807899291550658
 10
3.619110892737479
 20
-2.804391453276058
 10
3.563965432005808
 20
-2.802118648070719
 10
3.508678347409262
 20
-2.801029416255878
 10
3.453159514423981
 20
-2.801072298152786
 10
3.397318808526099
 20
-2.80219583408269
 10
3.34112189656768
 20
-2.804372150077277
 10
3.284757610904618
 20
-2.807667715010015
 10
3.228470575268727
 20
-2.812172583464811
 10
3.172505413391841
 20
-2.817976810025582
 10
3.11710674900578
 20
-2.825170449276227
 10
3.062519205842365
 20
-2.83384355580067
 10
3.008987407633429
 20
-2.844086184182811
 10
2.956755978110797
 20
-2.855988389006571
 10
2.905987999734138
 20
-2.86963808069445
 10
2.8565203898745
 20
-2.885114593023382
 10
2.808108524630782
 20
-2.902495115608886
 10
2.760507780101876
 20
-2.92185683806649
 10
2.713473532386679
 20
-2.94327695001172
 10
2.666761157584093
 20
-2.966832641060097
 10
2.620126031793019
 20
-2.992601100827153
 10
2.573323531112323
 20
-3.020659518928408
 10
2.526194864553048
 20
-3.051044345993992
 10
2.47892457277468
 20
-3.083629076712477
 10
2.431783029348811
 20
-3.118246466787029
 10
2.385040607847054
 20
-3.154729271920819
 10
2.338967681841012
 20
-3.192910247817017
 10
2.293834624902282
 20
-3.232622150178793
 10
2.249911810602483
 20
-3.273697734709324
 10
2.207469612513217
 20
-3.315969757111774
 10
2.166726904498313
 20
-3.359316000413738
 10
2.127696561590512
 20
-3.403794356940486
 10
2.090339959114779
 20
-3.4495077463417
 10
2.054618472396093
 20
-3.496559088267079
 10
2.020493476759423
 20
-3.545051302366306
 10
1.987926347529736
 20
-3.595087308289069
 10
1.956878460032008
 20
-3.646770025685061
 10
1.927311189591194
 20
-3.700202374203972
 10
1.899215952983806
 20
-3.755414372170294
 10
1.872704332792463
 20
-3.812144432607744
 10
1.847917953051309
 20
-3.870058067214843
 10
1.824998437794499
 20
-3.928820787690114
 10
1.804087411056175
 20
-3.988098105732077
 10
1.785326496870488
 20
-4.047555533039254
 10
1.768857319271596
 20
-4.106858581310168
 10
1.754821502293633
 20
-4.165672762243334
 10
1.743292003759554
 20
-4.223738632991416
 10
1.734067116647515
 20
-4.281096932523555
 10
1.726876467724468
 20
-4.337863445263057
 10
1.721449683757361
 20
-4.394153955633202
 10
1.71751639151315
 20
-4.450084248057272
 10
1.714806217758788
 20
-4.505770106958566
 10
1.713048789261221
 20
-4.561327316760365
 10
1.711973732787407
 20
-4.616871661885959
 10
1.711375049647328
 20
-4.672531791662093
 10
1.711304239323039
 20
-4.728487815029334
 10
1.711877175839639
 20
-4.784932705831711
 10
1.713209733222214
 20
-4.842059437913253
 10
1.715417785495859
 20
-4.900060985117981
 10
1.718617206685662
 20
-4.959130321289924
 10
1.722923870816714
 20
-5.01946042027311
 10
1.728453651914097
 20
-5.081244255911563
 10
1.735311934672278
 20
-5.14457501638499
 10
1.743562146463135
 20
-5.209146747215821
 10
1.753257225327926
 20
-5.274553708262157
 10
1.764450109307889
 20
-5.340390159382107
 10
1.777193736444289
 20
-5.406250360433775
 10
1.791541044778363
 20
-5.471728571275269
 10
1.807544972351375
 20
-5.536419051764694
 10
1.825258457204558
 20
-5.599916061760155
 10
1.844735864088853
 20
-5.661909523461703
 10
1.866037264593839
 20
-5.72247200843718
 10
1.889224157018784
 20
-5.781771750596361
 10
1.914358039662959
 20
-5.839976983849032
 10
1.941500410825616
 20
-5.897255942104971
 10
1.970712768806032
 20
-5.953776859273965
 10
2.00205661190347
 20
-6.00970796926579
 10
2.035593438417179
 20
-6.065217505990232
 10
2.071357570096993
 20
-6.120425212419781
 10
2.109274622494923
 20
-6.17525686777777
 10
2.149243034613543
 20
-6.229589760350243
 10
2.191161245455436
 20
-6.283301178423242
 10
2.23492769402315
 20
-6.336268410282809
 10
2.280440819319283
 20
-6.388368744214991
 10
2.327599060346385
 20
-6.439479468505829
 10
2.376300856107047
 20
-6.489477871441367
 10
2.426431530872351
 20
-6.538255260775779
 10
2.477823949987484
 20
-6.585759022135779
 10
2.530297864066157
 20
-6.631950560616209
 10
2.583673023722063
 20
-6.676791281311913
 10
2.63776917956892
 20
-6.720242589317735
 10
2.69240608222043
 20
-6.762265889728521
 10
2.747403482290295
 20
-6.802822587639114
 10
2.802581130392229
 20
-6.841874088144356
 10
2.857833880994462
 20
-6.879396805468878
 10
2.913357003983344
 20
-6.915427190356436
 10
2.96942087309977
 20
-6.950016702680571
 10
3.026295862084608
 20
-6.983216802314824
 10
3.084252344678757
 20
-7.015078949132738
 10
3.143560694623097
 20
-7.045654603007854
 10
3.2044912856585
 20
-7.074995223813711
 10
3.267314491525867
 20
-7.103152271423851
 10
3.332249186201876
 20
-7.130127890097064
 10
3.399308244606409
 20
-7.155726961633143
 10
3.468453041895169
 20
-7.179705052217124
 10
3.539644953223838
 20
-7.201817728034045
 10
3.612845353748119
 20
-7.221820555268946
 10
3.688015618623684
 20
-7.23946910010687
 10
3.765117123006247
 20
-7.254518928732849
 10
3.844111242051483
 20
-7.266725607331927
 10
3.924935746852964
 20
-7.275894017671425
 10
4.007433992255805
 20
-7.282026303847817
 10
4.091425729042984
 20
-7.285173925539853
 10
4.176730707997478
 20
-7.28538834242629
 10
4.263168679902284
 20
-7.28272101418588
 10
4.350559395540384
 20
-7.277223400497383
 10
4.438722605694751
 20
-7.268946961039547
 10
4.527478061148384
 20
-7.257943155491132
 10
4.616621908763208
 20
-7.244274164337875
 10
4.705855879716953
 20
-7.228045051293477
 10
4.794858101266285
 20
-7.209371600878613
 10
4.883306700667877
 20
-7.188369597613966
 10
4.970879805178404
 20
-7.165154826020216
 10
5.057255542054534
 20
-7.139843070618048
 10
5.142112038552943
 20
-7.112550115928137
 10
5.225127421930295
 20
-7.08339174647117
 10
5.306037756484028
 20
-7.052496611671279
 10
5.384810854674602
 20
-7.020044820566434
 10
5.461472466003253
 20
-6.986229347098051
 10
5.536048339971179
 20
-6.951243165207548
 10
5.608564226079613
 20
-6.915279248836347
 10
5.67904587382978
 20
-6.878530571925868
 10
5.747519032722903
 20
-6.841190108417534
 10
5.814009452260198
 20
-6.803450832252758
 10
5.878628714855012
 20
-6.765392077127308
 10
5.94183173456915
 20
-6.726638615754309
 10
6.004159258376551
 20
-6.686701580601233
 10
6.066152033251147
 20
-6.645092104135555
 10
6.128350806166868
 20
-6.60132131882474
 10
6.19129632409763
 20
-6.554900357136264
 10
6.255529334017388
 20
-6.505340351537595
 10
6.321590582900056
 20
-6.452152434496209
 10
6.389823402196626
 20
-6.395017126791711
 10
6.459781461266269
 20
-6.33429250245225
 10
6.530821013945214
 20
-6.270506023818129
 10
6.602298314069702
 20
-6.20418515322963
 10
6.673569615475944
 20
-6.135857353027048
 10
6.743991172000177
 20
-6.066050085550677
 10
6.81291923747863
 20
-5.995290813140802
 10
6.879710065747537
 20
-5.924106998137719
 10
6.94385901358036
 20
-5.852924145542402
 10
7.00541784949957
 20
-5.781759930998573
 10
7.064577444964854
 20
-5.710530072810632
 10
7.121528671435926
 20
-5.639150289282986
 10
7.176462400372475
 20
-5.567536298720036
 10
7.229569503234205
 20
-5.495603819426185
 10
7.281040851480827
 20
-5.423268569705839
 10
7.331067316572037
 20
-5.350446267863398
 10
7.379860208516691
 20
-5.277049745775345
 10
7.427712591520283
 20
-5.202980289606454
 10
7.474937968337465
 20
-5.128136299093586
 10
7.52184984172288
 20
-5.052416173973591
 10
7.568761714431174
 20
-4.975718313983325
 10
7.615987089217008
 20
-4.897941118859643
 10
7.663839468835027
 20
-4.818982988339398
 10
7.712632356039878
 20
-4.738742322159447
 10
7.762637356921873
 20
-4.657163289598893
 10
7.81395849091399
 20
-4.574373138105842
 10
7.866657880784869
 20
-4.490544884670653
 10
7.920797649303136
 20
-4.405851546283681
 10
7.976439919237455
 20
-4.320466139935279
 10
8.033646813356448
 20
-4.234561682615814
 10
8.092480454428754
 20
-4.14831119131563
 10
8.153002965223008
 20
-4.061887683025092
 10
8.215225344034697
 20
-3.975463212602734
 10
8.278954091266594
 20
-3.889205986379809
 10
8.343944582848317
 20
-3.803283248555759
 10
8.409952194709497
 20
-3.717862243330012
 10
8.47673230277973
 20
-3.633110214902016
 10
8.544040282988651
 20
-3.549194407471192
 10
8.611631511265864
 20
-3.466282065236984
 10
8.679261363541002
 20
-3.384540432398829
 10
8.746723840616191
 20
-3.304126032349171
 10
8.81396744278366
 20
-3.225152505252506
 10
8.880979295208158
 20
-3.147722770466352
 10
8.947746523054437
 20
-3.071939747348205
 10
9.014256251487246
 20
-2.997906355255585
 10
9.080495605671336
 20
-2.925725513545998
 10
9.146451710771456
 20
-2.855500141576952
 10
9.212111691952356
 20
-2.787333158705959
 10
9.277466966018742
 20
-2.721314619370835
 10
9.342526116335195
 20
-2.65748311833065
 10
9.407302017906232
 20
-2.595864385424782
 10
9.471807545736382
 20
-2.53648415049261
 10
9.536055574830175
 20
-2.479368143373501
 10
9.600058980192143
 20
-2.424542093906843
 10
9.663830636826817
 20
-2.372031731932009
 10
9.72738341973873
 20
-2.321862787288379
 10
9.790703560864994
 20
-2.274020871354882
 10
9.853670719873067
 20
-2.228331121668672
 10
9.916137913363034
 20
-2.184578557306457
 10
9.977958157934933
 20
-2.142548197344954
 10
10.03898447018884
 20
-2.10202506086086
 10
10.09906986672479
 20
-2.062794166930892
 10
10.15806736414287
 20
-2.024640534631756
 10
10.21582997904313
 20
-1.987349183040155
 10
10.27233357362749
 20
-1.950718278868912
 10
10.32804539250535
 20
-1.914598579375228
 10
10.38355552588798
 20
-1.878853989452426
 10
10.43945406398664
 20
-1.843348413993814
 10
10.49633109701261
 20
-1.807945757892715
 10
10.55477671517714
 20
-1.772509926042441
 10
10.61538100869151
 20
-1.736904823336304
 10
10.67873406776697
 20
-1.700994354667624
 10
10.74524305396881
 20
-1.664700034424942
 10
10.81458341427832
 20
-1.628173814977738
 10
10.88624766703081
 20
-1.591625258190706
 10
10.95972833056159
 20
-1.555263925928562
 10
11.03451792320597
 20
-1.519299380056
 10
11.11010896329925
 20
-1.483941182437734
 10
11.18599396917673
 20
-1.44939889493846
 10
11.26166545917374
 20
-1.415882079422886
 10
11.33688078095075
 20
-1.383537496745029
 10
11.41245659946901
 20
-1.352260703716134
 10
11.48947440901493
 20
-1.321884456136775
 10
11.56901570387493
 20
-1.292241509807514
 10
11.65216197833544
 20
-1.263164620528913
 10
11.73999472668286
 20
-1.234486544101534
 10
11.83359544320364
 20
-1.206040036325946
 10
11.93404562218417
 20
-1.177657853002715
 10
12.04194394803413
 20
-1.149277813564928
 10
12.15595786565623
 20
-1.121257991975821
 10
12.27427201007639
 20
-1.094061525831147
 10
12.39507101632055
 20
-1.068151552726664
 10
12.51653951941465
 20
-1.043991210258129
 10
12.63686215438464
 20
-1.022043636021309
 10
12.75422355625646
 20
-1.002771967611953
 10
12.86680836005604
 20
-0.9866393426258182
 10
12.97326469823571
 20
-0.9739566636214844
 10
13.0740946929533
 20
-0.9644258930087557
 10
13.17026396379302
 20
-0.957596758160267
 10
13.2627381303391
 20
-0.9530189864486422
 10
13.35248281217573
 20
-0.9502423052465108
 10
13.44046362888715
 20
-0.9488164419264965
 10
13.52764620005756
 20
-0.948291123861229
 10
13.61499614527118
 20
-0.948216078423332
 10
13.7033117100408
 20
-0.9482482407469001
 10
13.79272164359353
 20
-0.9484733770118921
 10
13.88318732108506
 20
-0.9490844611597218
 10
13.9746701176711
 20
-0.9502744671318076
 10
14.06713140850731
 20
-0.9522363688695792
 10
14.16053256874941
 20
-0.9551631403144444
 10
14.25483497355308
 20
-0.9592477554078326
 10
14.349999998074
 20
-0.9646831880911575
 10
14.44580662269889
 20
-0.9715766461096565
 10
14.5413042487386
 20
-0.9796922724238092
 10
14.63535988273497
 20
-0.988708443797925
 10
14.72684053122986
 20
-0.9983035369963022
 10
14.81461320076514
 20
-1.008155928783234
 10
14.89754489788265
 20
-1.01794399592303
 10
14.97450262912424
 20
-1.027346115179988
 10
15.04435340103179
 20
-1.036040663318403
 10
15.10629038492542
 20
-1.043838954719652
 10
15.16081141123835
 20
-1.051084054233416
 10
15.20874047518212
 20
-1.058251964326442
 10
15.25090157196821
 20
-1.06581868746548
 10
15.28811869680814
 20
-1.074260226117278
 10
15.32121584491341
 20
-1.08405258274859
 10
15.35101701149554
 20
-1.09567175982616
 10
15.37834619176603
 20
-1.109593759816748
 10
15.40392652735493
 20
-1.12621739560403
 10
15.42807774556647
 20
-1.145632721739464
 10
15.45101872012341
 20
-1.167852603191434
 10
15.47296832474852
 20
-1.19288990492832
 10
15.49414543316457
 20
-1.220757491918507
 10
15.51476891909432
 20
-1.251468229130386
 10
15.53505765626055
 20
-1.28503498153234
 10
15.55523051838601
 20
-1.321470614092756
 10
15.57542912967413
 20
-1.360740820342891
 10
15.59548611625099
 20
-1.402622608065534
 10
15.61515685472331
 20
-1.446845813606351
 10
15.63419672169784
 20
-1.493140273310992
 10
15.6523610937813
 20
-1.541235823525126
 10
15.66940534758042
 20
-1.590862300594417
 10
15.68508485970194
 20
-1.641749540864517
 10
15.6991550067526
 20
-1.693627380681099
 10
15.71140764423648
 20
-1.74626853950414
 10
15.72178054324716
 20
-1.799617269250936
 10
15.73024795377559
 20
-1.853660704953097
 10
15.73678412581271
 20
-1.908385981642244
 10
15.74136330934945
 20
-1.963780234349985
 10
15.74395975437676
 20
-2.019830598107942
 10
15.74454771088558
 20
-2.076524207947719
 10
15.74310142886686
 20
-2.133848198900941
 10
15.73961876237364
 20
-2.191740390465631
 10
15.73419198170747
 20
-2.249941340005457
 10
15.726936961232
 20
-2.308142289350493
 10
15.71796957531085
 20
-2.366034480330822
 10
15.7074056983077
 20
-2.423309154776523
 10
15.69536120458617
 20
-2.479657554517671
 10
15.68195196850993
 20
-2.534770921384353
 10
15.66729386444263
 20
-2.588340497206639
 10
15.65148790426956
 20
-2.640120544609433
 10
15.63457564996275
 20
-2.690117409396923
 10
15.61658380101584
 20
-2.738400458168123
 10
15.59753905692252
 20
-2.785039057522034
 10
15.57746811717645
 20
-2.830102574057671
 10
15.55639768127128
 20
-2.873660374374044
 10
15.53435444870071
 20
-2.915781825070162
 10
15.51136511895839
 20
-2.956536292745031
 10
15.4874366043171
 20
-2.995997055440996
 10
15.46249666816609
 20
-3.034253036973712
 10
15.43645328667371
 20
-3.071397072602155
 10
15.40921443600831
 20
-3.107521997585316
 10
15.38068809233826
 20
-3.142720647182167
 10
15.3507822318319
 20
-3.177085856651703
 10
15.31940483065761
 20
-3.210710461252902
 10
15.28646386498371
 20
-3.24368729624475
 10
15.25188495242182
 20
-3.276068834845222
 10
15.21566427635638
 20
-3.30774610210833
 10
15.1778156616151
 20
-3.338569761047065
 10
15.13835293302566
 20
-3.368390474674423
 10
15.09728991541579
 20
-3.397058906003408
 10
15.05464043361316
 20
-3.424425718047025
 10
15.01041831244546
 20
-3.450341573818257
 10
14.96463737674041
 20
-3.47465713633012
 10
14.91735635519912
 20
-3.497247958077204
 10
14.86881359201646
 20
-3.51808914948052
 10
14.81929233526073
 20
-3.537180710442671
 10
14.76907583300023
 20
-3.554522640866261
 10
14.71844733330325
 20
-3.570114940653904
 10
14.6676900842381
 20
-3.583957609708206
 10
14.61708733387307
 20
-3.596050647931766
 10
14.56692233027645
 20
-3.606394055227198
 10
14.5173924887455
 20
-3.61498139904538
 10
14.46835189349325
 20
-3.621780517030272
 10
14.41956879596167
 20
-3.626752814374118
 10
14.37081144759278
 20
-3.629859696269148
 10
14.32184809982851
 20
-3.63106256790761
 10
14.27244700411088
 20
-3.63032283448173
 10
14.22237641188187
 20
-3.627601901183751
 10
14.17140457458345
 20
-3.622861173205915
 10
14.11941347215895
 20
-3.616089929773693
 10
14.06673999855709
 20
-3.607388946245515
 10
14.01383477622794
 20
-3.596886872013064
 10
13.96114842762156
 20
-3.584712356468006
 10
13.90913157518801
 20
-3.570994049002015
 10
13.85823484137735
 20
-3.555860599006765
 10
13.80890884863963
 20
-3.539440655873931
 10
13.76160421942495
 20
-3.521862868995188
 10
13.71663853525985
 20
-3.503191563082597
 10
13.67379721397687
 20
-3.483233764129814
 10
13.6327326324851
 20
-3.461732173450886
 10
13.59309716769358
 20
-3.438429492359862
 10
13.55454319651135
 20
-3.413068422170785
 10
13.51672309584749
 20
-3.385391664197703
 10
13.47928924261104
 20
-3.355141919754663
 10
13.44189401371107
 20
-3.322061890155714
 10
13.40430995208844
 20
-3.286052944236285
 10
13.36679026481136
 20
-3.247651120917323
 10
13.3297083249798
 20
-3.207551126641165
 10
13.29343750569379
 20
-3.166447667850145
 10
13.25835118005331
 20
-3.125035450986597
 10
13.22482272115837
 20
-3.084009182492856
 10
13.19322550210898
 20
-3.044063568811257
 10
13.16393289600513
 20
-3.005893316384129
 10
13.13723888048055
 20
-2.970066626439763
 10
13.11311985130385
 20
-2.936645679350282
 10
13.09147280877734
 20
-2.905566150273758
 10
13.07219475320334
 20
-2.876763714368259
 10
13.05518268488419
 20
-2.850174046791861
 10
13.04033360412222
 20
-2.825732822702639
 10
13.02754451121973
 20
-2.803375717258668
 10
13.01671240647906
 20
-2.783038405618017
 10
13.00770854041917
 20
-2.764654418826058
 10
13.00030116442562
 20
-2.748148711477366
 10
12.99423278010062
 20
-2.733444094053811
 10
12.98924588904636
 20
-2.720463377037248
 10
12.98508299286505
 20
-2.709129370909558
 10
12.9814865931589
 20
-2.699364886152602
 10
12.9781991915301
 20
-2.691092733248256
 10
12.97496328958086
 20
-2.684235722678373
 10
12.97154499294729
 20
-2.678712376618276
 10
12.96780482340112
 20
-2.674424064017002
 10
12.96362690674796
 20
-2.671267865517053
 10
12.95889536879347
 20
-2.669140861760918
 10
12.95349433534326
 20
-2.667940133391088
 10
12.94730793220296
 20
-2.667562761050045
 10
12.94022028517821
 20
-2.667905825380294
 10
12.93211552007464
 20
-2.668866407024314
 10
12.92279192975755
 20
-2.670393046319584
 10
12.9117044753309
 20
-2.672640122383537
 10
12.89822228495835
 20
-2.675813474028573
 10
12.88171448680354
 20
-2.680118940067116
 10
12.86155020903011
 20
-2.685762359311567
 10
12.83709857980171
 20
-2.692949570574348
 10
12.80772872728196
 20
-2.70188641266786
 10
12.77280977963452
 20
-2.712778724404527
 10
12.7318803850414
 20
-2.7257808848693
 10
12.68515727175804
 20
-2.740841434237337
 10
12.63302668805826
 20
-2.757857452956347
 10
12.57587488221586
 20
-2.77672602147403
 10
12.51408810250465
 20
-2.797344220238088
 10
12.44805259719845
 20
-2.819609129696224
 10
12.37815461457105
 20
-2.843417830296149
 10
12.30478040289629
 20
-2.868667402485566
 10
12.22835054345482
 20
-2.895276368309916
 10
12.14942294955471
 20
-2.92324901620563
 10
12.06858986751091
 20
-2.952611076206862
 10
11.98644354363834
 20
-2.98338827834778
 10
11.90357622425194
 20
-3.015606352662547
 10
11.82058015566665
 20
-3.049291029185328
 10
11.73804758419738
 20
-3.084468037950286
 10
11.65657075615909
 20
-3.121163108991588
 10
11.57666955700532
 20
-3.159339006380979
 10
11.49857442874413
 20
-3.198706630340552
 10
11.42244345252222
 20
-3.238913915129984
 10
11.34843470948627
 20
-3.279608795008956
 10
11.27670628078297
 20
-3.320439204237141
 10
11.20741624755898
 20
-3.361053077074225
 10
11.14072269096102
 20
-3.40109834777988
 10
11.07678369213575
 20
-3.440222950613781
 10
11.01565897931902
 20
-3.478207969575211
 10
10.95701486910322
 20
-3.515367087621868
 10
10.90041932516987
 20
-3.552147137451049
 10
10.84544031120052
 20
-3.588994951760053
 10
10.79164579087672
 20
-3.626357363246172
 10
10.73860372788
 20
-3.664681204606714
 10
10.68588208589188
 20
-3.704413308538966
 10
10.63304882859392
 20
-3.746000507740238
 10
10.57970589789442
 20
-3.789867981268707
 10
10.52559114860877
 20
-3.836354293626126
 10
10.47047641377911
 20
-3.885776355675123
 10
10.4141335264476
 20
-3.938451078278335
 10
10.3563343196564
 20
-3.994695372298397
 10
10.29685062644766
 20
-4.054826148597947
 10
10.23545427986353
 20
-4.119160318039612
 10
10.17191711294618
 20
-4.18801479148603
 10
10.10613481941974
 20
-4.261555030174392
 10
10.03849853573638
 20
-4.339340696840099
 10
9.969523259030248
 20
-4.420780004593119
 10
9.899723986435486
 20
-4.505281166543411
 10
9.829615715086259
 20
-4.592252395800938
 10
9.759713442116709
 20
-4.681101905475661
 10
9.690532164660991
 20
-4.771237908677546
 10
9.622586879853251
 20
-4.862068618516549
 10
9.556253106458308
 20
-4.953163059736716
 10
9.491348449763618
 20
-5.044733503618421
 10
9.427551036687297
 20
-5.137153033076115
 10
9.364538994147441
 20
-5.230794731024259
 10
9.30199044906219
 20
-5.326031680377299
 10
9.239583528349641
 20
-5.423236964049693
 10
9.176996358927908
 20
-5.522783664955898
 10
9.113907067715112
 20
-5.625044866010367
 10
9.050099890075188
 20
-5.730187599160149
 10
8.985783495155368
 20
-5.837554692482674
 10
8.921272660548694
 20
-5.946282923087967
 10
8.856882163848222
 20
-6.055509068086059
 10
8.792926782647001
 20
-6.164369904586971
 10
8.729721294538082
 20
-6.272002209700733
 10
8.667580477114508
 20
-6.377542760537371
 10
8.606819107969338
 20
-6.48012833420691
 10
8.547624617378836
 20
-6.579132201145311
 10
8.489675046352141
 20
-6.674873605092291
 10
8.432521088581617
 20
-6.767908283113499
 10
8.375713437759612
 20
-6.858791972274585
 10
8.318802787578491
 20
-6.948080409641195
 10
8.261339831730605
 20
-7.036329332278985
 10
8.202875263908319
 20
-7.124094477253599
 10
8.142959777803989
 20
-7.211931581630689
 10
8.0811941648792
 20
-7.300258520314543
 10
8.017379607672458
 20
-7.388941719563979
 10
7.951367386491498
 20
-7.477709743476455
 10
7.88300878164406
 20
-7.566291156149436
 10
7.812155073437883
 20
-7.65441452168037
 10
7.738657542180695
 20
-7.741808404166719
 10
7.662367468180247
 20
-7.82820136770594
 10
7.583136131744265
 20
-7.913321976395488
 10
7.500871787081484
 20
-7.996918303745613
 10
7.41571058400462
 20
-8.078816460917684
 10
7.327845646227376
 20
-8.15886206848587
 10
7.237470097463468
 20
-8.23690074702433
 10
7.144777061426593
 20
-8.312778117107232
 10
7.049959661830468
 20
-8.386339799308737
 10
6.953211022388803
 20
-8.457431414203005
 10
6.854724266815296
 20
-8.525898582364202
 10
6.754713977108121
 20
-8.5916062218353
 10
6.653480568403261
 20
-8.654496440534515
 10
6.551345914121158
 20
-8.714530643848865
 10
6.448631887682265
 20
-8.771670237165384
 10
6.345660362507011
 20
-8.825876625871089
 10
6.242753212015842
 20
-8.877111215352998
 10
6.140232309629213
 20
-8.925335410998147
 10
6.038419528767562
 20
-8.970510618193557
 10
5.937585243087122
 20
-9.012617539681432
 10
5.837793827187353
 20
-9.05171406762472
 10
5.739058155903505
 20
-9.087877391541557
 10
5.641391104070827
 20
-9.121184700950067
 10
5.544805546524561
 20
-9.151713185368391
 10
5.449314358099976
 20
-9.179540034314655
 10
5.354930413632306
 20
-9.204742437307
 10
5.261666587956807
 20
-9.227397583863545
 10
5.169518589348876
 20
-9.247591240131789
 10
5.078413459844506
 20
-9.265443478776649
 10
4.988261074919812
 20
-9.281082949092407
 10
4.898971310050943
 20
-9.294638300373346
 10
4.810454040714016
 20
-9.306238181913737
 10
4.722619142385169
 20
-9.316011243007871
 10
4.635376490540537
 20
-9.324086132950021
 10
4.548635960656247
 20
-9.330591501034469
 10
4.462376094504269
 20
-9.335638843313009
 10
4.376850099039939
 20
-9.339271042867505
 10
4.292379847514404
 20
-9.341513829537333
 10
4.209287213178839
 20
-9.342392933161875
  0
POLYLINE
  5
16DFB
330
16B91
100
AcDbEntity
  8
0
100
AcDb2dPolyline
 66
     1
 10
0.0
 20
0.0
 30
0.0
 70
     5
 75
     6
  0
VERTEX
  5
16DFC
330
16DFB
100
AcDbEntity
  8
0
100
AcDbVertex
100
AcDb2dVertex
 10
6.516423709719513
 20
-5.796489971164321
 30
0.0
 70
    16
  0
VERTEX
  5
16DFD
330
16DFB
100
AcDbEntity
  8
0
100
AcDbVertex
100
AcDb2dVertex
 10
6.481567198119289
 20
-5.792589071240574
 30
0.0
 70
     8
  0
VERTEX
  5
16DFE
330
16DFB
100
AcDbEntity
  8
0
100
AcDbVertex
100
AcDb2dVertex
 10
6.479336873640667
 20
-5.78988103373595
 30
0.0
 70
     8
  0
VERTEX
  5
16DFF
330
16DFB
100
AcDbEntity
  8
0
100
AcDbVertex
100
AcDb2dVertex
 10
6.478102913325353
 20
-5.786075575850592
 30
0.0
 70
     8
  0
VERTEX
  5
16E00
330
16DFB
100
AcDbEntity
  8
0
100
AcDbVertex
100
AcDb2dVertex
 10
6.478208121744178
 20
-5.78075445107621
 30
0.0
 70
     8
  0
VERTEX
  5
16E01
330
16DFB
100
AcDbEntity
  8
0
100
AcDbVertex
100
AcDb2dVertex
 10
6.47999530346796
 20
-5.773499412904526
 30
0.0
 70
     8
  0
VERTEX
  5
16E02
330
16DFB
100
AcDbEntity
  8
0
100
AcDbVertex
100
AcDb2dVertex
 10
6.483807263067497
 20
-5.76389221482726
 30
0.0
 70
     8
  0
VERTEX
  5
16E03
330
16DFB
100
AcDbEntity
  8
0
100
AcDbVertex
100
AcDb2dVertex
 10
6.489986805113633
 20
-5.751514610336128
 30
0.0
 70
     8
  0
VERTEX
  5
16E04
330
16DFB
100
AcDbEntity
  8
0
100
AcDbVertex
100
AcDb2dVertex
 10
6.498876734177155
 20
-5.735948352922846
 30
0.0
 70
     8
  0
VERTEX
  5
16E05
330
16DFB
100
AcDbEntity
  8
0
100
AcDbVertex
100
AcDb2dVertex
 10
6.510819854828904
 20
-5.716775196079131
 30
0.0
 70
     8
  0
VERTEX
  5
16E06
330
16DFB
100
AcDbEntity
  8
0
100
AcDbVertex
100
AcDb2dVertex
 10
6.526040545370389
 20
-5.693693800826648
 30
0.0
 70
     8
  0
VERTEX
  5
16E07
330
16DFB
100
AcDbEntity
  8
0
100
AcDbVertex
100
AcDb2dVertex
 10
6.544289479025988
 20
-5.666870458306812
 30
0.0
 70
     8
  0
VERTEX
  5
16E08
330
16DFB
100
AcDbEntity
  8
0
100
AcDbVertex
100
AcDb2dVertex
 10
6.565198902750806
 20
-5.636588367190984
 30
0.0
 70
     8
  0
VERTEX
  5
16E09
330
16DFB
100
AcDbEntity
  8
0
100
AcDbVertex
100
AcDb2dVertex
 10
6.588401063499936
 20
-5.603130726150532
 30
0.0
 70
     8
  0
VERTEX
  5
16E0A
330
16DFB
100
AcDbEntity
  8
0
100
AcDbVertex
100
AcDb2dVertex
 10
6.613528208228452
 20
-5.566780733856814
 30
0.0
 70
     8
  0
VERTEX
  5
16E0B
330
16DFB
100
AcDbEntity
  8
0
100
AcDbVertex
100
AcDb2dVertex
 10
6.64021258389146
 20
-5.527821588981196
 30
0.0
 70
     8
  0
VERTEX
  5
16E0C
330
16DFB
100
AcDbEntity
  8
0
100
AcDbVertex
100
AcDb2dVertex
 10
6.668086437444054
 20
-5.486536490195036
 30
0.0
 70
     8
  0
VERTEX
  5
16E0D
330
16DFB
100
AcDbEntity
  8
0
100
AcDbVertex
100
AcDb2dVertex
 10
6.69678201584132
 20
-5.443208636169697
 30
0.0
 70
     8
  0
VERTEX
  5
16E0E
330
16DFB
100
AcDbEntity
  8
0
100
AcDbVertex
100
AcDb2dVertex
 10
6.725987219903506
 20
-5.39806870229842
 30
0.0
 70
     8
  0
VERTEX
  5
16E0F
330
16DFB
100
AcDbEntity
  8
0
100
AcDbVertex
100
AcDb2dVertex
 10
6.755612565911531
 20
-5.351137270861946
 30
0.0
 70
     8
  0
VERTEX
  5
16E10
330
16DFB
100
AcDbEntity
  8
0
100
AcDbVertex
100
AcDb2dVertex
 10
6.785624224011469
 20
-5.302382400862901
 30
0.0
 70
     8
  0
VERTEX
  5
16E11
330
16DFB
100
AcDbEntity
  8
0
100
AcDbVertex
100
AcDb2dVertex
 10
6.815988364349376
 20
-5.251772151303905
 30
0.0
 70
     8
  0
VERTEX
  5
16E12
330
16DFB
100
AcDbEntity
  8
0
100
AcDbVertex
100
AcDb2dVertex
 10
6.846671157071337
 20
-5.19927458118758
 30
0.0
 70
     8
  0
VERTEX
  5
16E13
330
16DFB
100
AcDbEntity
  8
0
100
AcDbVertex
100
AcDb2dVertex
 10
6.877638772323405
 20
-5.144857749516547
 30
0.0
 70
     8
  0
VERTEX
  5
16E14
330
16DFB
100
AcDbEntity
  8
0
100
AcDbVertex
100
AcDb2dVertex
 10
6.908857380251674
 20
-5.08848971529343
 30
0.0
 70
     8
  0
VERTEX
  5
16E15
330
16DFB
100
AcDbEntity
  8
0
100
AcDbVertex
100
AcDb2dVertex
 10
6.940293151002192
 20
-5.030138537520851
 30
0.0
 70
     8
  0
VERTEX
  5
16E16
330
16DFB
100
AcDbEntity
  8
0
100
AcDbVertex
100
AcDb2dVertex
 10
6.971868240605029
 20
-4.96981576319285
 30
0.0
 70
     8
  0
VERTEX
  5
16E17
330
16DFB
100
AcDbEntity
  8
0
100
AcDbVertex
100
AcDb2dVertex
 10
7.003328748626171
 20
-4.907706891269162
 30
0.0
 70
     8
  0
VERTEX
  5
16E18
330
16DFB
100
AcDbEntity
  8
0
100
AcDbVertex
100
AcDb2dVertex
 10
7.034376760515583
 20
-4.844040908700941
 30
0.0
 70
     8
  0
VERTEX
  5
16E19
330
16DFB
100
AcDbEntity
  8
0
100
AcDbVertex
100
AcDb2dVertex
 10
7.064714361723244
 20
-4.779046802439344
 30
0.0
 70
     8
  0
VERTEX
  5
16E1A
330
16DFB
100
AcDbEntity
  8
0
100
AcDbVertex
100
AcDb2dVertex
 10
7.09404363769913
 20
-4.712953559435524
 30
0.0
 70
     8
  0
VERTEX
  5
16E1B
330
16DFB
100
AcDbEntity
  8
0
100
AcDbVertex
100
AcDb2dVertex
 10
7.122066673893195
 20
-4.645990166640632
 30
0.0
 70
     8
  0
VERTEX
  5
16E1C
330
16DFB
100
AcDbEntity
  8
0
100
AcDbVertex
100
AcDb2dVertex
 10
7.14848555575543
 20
-4.578385611005824
 30
0.0
 70
     8
  0
VERTEX
  5
16E1D
330
16DFB
100
AcDbEntity
  8
0
100
AcDbVertex
100
AcDb2dVertex
 10
7.1730023687358
 20
-4.510368879482254
 30
0.0
 70
     8
  0
VERTEX
  5
16E1E
330
16DFB
100
AcDbEntity
  8
0
100
AcDbVertex
100
AcDb2dVertex
 10
7.195414683725656
 20
-4.442084997132496
 30
0.0
 70
     8
  0
VERTEX
  5
16E1F
330
16DFB
100
AcDbEntity
  8
0
100
AcDbVertex
100
AcDb2dVertex
 10
7.21590201338189
 20
-4.373343141464788
 30
0.0
 70
     8
  0
VERTEX
  5
16E20
330
16DFB
100
AcDbEntity
  8
0
100
AcDbVertex
100
AcDb2dVertex
 10
7.234739355802761
 20
-4.303868528098787
 30
0.0
 70
     8
  0
VERTEX
  5
16E21
330
16DFB
100
AcDbEntity
  8
0
100
AcDbVertex
100
AcDb2dVertex
 10
7.252201709086531
 20
-4.233386372654156
 30
0.0
 70
     8
  0
VERTEX
  5
16E22
330
16DFB
100
AcDbEntity
  8
0
100
AcDbVertex
100
AcDb2dVertex
 10
7.268564071331475
 20
-4.161621890750544
 30
0.0
 70
     8
  0
VERTEX
  5
16E23
330
16DFB
100
AcDbEntity
  8
0
100
AcDbVertex
100
AcDb2dVertex
 10
7.284101440635847
 20
-4.088300298007618
 30
0.0
 70
     8
  0
VERTEX
  5
16E24
330
16DFB
100
AcDbEntity
  8
0
100
AcDbVertex
100
AcDb2dVertex
 10
7.299088815097919
 20
-4.013146810045024
 30
0.0
 70
     8
  0
VERTEX
  5
16E25
330
16DFB
100
AcDbEntity
  8
0
100
AcDbVertex
100
AcDb2dVertex
 10
7.313801192815958
 20
-3.935886642482429
 30
0.0
 70
     8
  0
VERTEX
  5
16E26
330
16DFB
100
AcDbEntity
  8
0
100
AcDbVertex
100
AcDb2dVertex
 10
7.328425725264096
 20
-3.856271726106511
 30
0.0
 70
     8
  0
VERTEX
  5
16E27
330
16DFB
100
AcDbEntity
  8
0
100
AcDbVertex
100
AcDb2dVertex
 10
7.342798177419963
 20
-3.774160852372067
 30
0.0
 70
     8
  0
VERTEX
  5
16E28
330
16DFB
100
AcDbEntity
  8
0
100
AcDbVertex
100
AcDb2dVertex
 10
7.356666467637055
 20
-3.689439527900903
 30
0.0
 70
     8
  0
VERTEX
  5
16E29
330
16DFB
100
AcDbEntity
  8
0
100
AcDbVertex
100
AcDb2dVertex
 10
7.369778514268875
 20
-3.601993259314843
 30
0.0
 70
     8
  0
VERTEX
  5
16E2A
330
16DFB
100
AcDbEntity
  8
0
100
AcDbVertex
100
AcDb2dVertex
 10
7.381882235668909
 20
-3.511707553235698
 30
0.0
 70
     8
  0
VERTEX
  5
16E2B
330
16DFB
100
AcDbEntity
  8
0
100
AcDbVertex
100
AcDb2dVertex
 10
7.392725550190661
 20
-3.418467916285293
 30
0.0
 70
     8
  0
VERTEX
  5
16E2C
330
16DFB
100
AcDbEntity
  8
0
100
AcDbVertex
100
AcDb2dVertex
 10
7.402056376187625
 20
-3.322159855085432
 30
0.0
 70
     8
  0
VERTEX
  5
16E2D
330
16DFB
100
AcDbEntity
  8
0
100
AcDbVertex
100
AcDb2dVertex
 10
7.409622632013291
 20
-3.222668876257935
 30
0.0
 70
     8
  0
VERTEX
  5
16E2E
330
16DFB
100
AcDbEntity
  8
0
100
AcDbVertex
100
AcDb2dVertex
 10
7.415187513824961
 20
-3.119991163415305
 30
0.0
 70
     8
  0
VERTEX
  5
16E2F
330
16DFB
100
AcDbEntity
  8
0
100
AcDbVertex
100
AcDb2dVertex
 10
7.418575328995056
 20
-3.014565608132752
 30
0.0
 70
     8
  0
VERTEX
  5
16E30
330
16DFB
100
AcDbEntity
  8
0
100
AcDbVertex
100
AcDb2dVertex
 10
7.419625662699796
 20
-2.906941778976177
 30
0.0
 70
     8
  0
VERTEX
  5
16E31
330
16DFB
100
AcDbEntity
  8
0
100
AcDbVertex
100
AcDb2dVertex
 10
7.418178100115405
 20
-2.79766924451148
 30
0.0
 70
     8
  0
VERTEX
  5
16E32
330
16DFB
100
AcDbEntity
  8
0
100
AcDbVertex
100
AcDb2dVertex
 10
7.414072226418105
 20
-2.687297573304561
 30
0.0
 70
     8
  0
VERTEX
  5
16E33
330
16DFB
100
AcDbEntity
  8
0
100
AcDbVertex
100
AcDb2dVertex
 10
7.407147626784104
 20
-2.576376333921316
 30
0.0
 70
     8
  0
VERTEX
  5
16E34
330
16DFB
100
AcDbEntity
  8
0
100
AcDbVertex
100
AcDb2dVertex
 10
7.397243886389639
 20
-2.465455094927644
 30
0.0
 70
     8
  0
VERTEX
  5
16E35
330
16DFB
100
AcDbEntity
  8
0
100
AcDbVertex
100
AcDb2dVertex
 10
7.384200590410912
 20
-2.355083424889442
 30
0.0
 70
     8
  0
VERTEX
  5
16E36
330
16DFB
100
AcDbEntity
  8
0
100
AcDbVertex
100
AcDb2dVertex
 10
7.367970655877139
 20
-2.245841841711775
 30
0.0
 70
     8
  0
VERTEX
  5
16E37
330
16DFB
100
AcDbEntity
  8
0
100
AcDbVertex
100
AcDb2dVertex
 10
7.348960327229433
 20
-2.138434660656383
 30
0.0
 70
     8
  0
VERTEX
  5
16E38
330
16DFB
100
AcDbEntity
  8
0
100
AcDbVertex
100
AcDb2dVertex
 10
7.327689180761891
 20
-2.033597146324161
 30
0.0
 70
     8
  0
VERTEX
  5
16E39
330
16DFB
100
AcDbEntity
  8
0
100
AcDbVertex
100
AcDb2dVertex
 10
7.304676792768625
 20
-1.932064563316007
 30
0.0
 70
     8
  0
VERTEX
  5
16E3A
330
16DFB
100
AcDbEntity
  8
0
100
AcDbVertex
100
AcDb2dVertex
 10
7.280442739543732
 20
-1.834572176232822
 30
0.0
 70
     8
  0
VERTEX
  5
16E3B
330
16DFB
100
AcDbEntity
  8
0
100
AcDbVertex
100
AcDb2dVertex
 10
7.25550659738132
 20
-1.741855249675507
 30
0.0
 70
     8
  0
VERTEX
  5
16E3C
330
16DFB
100
AcDbEntity
  8
0
100
AcDbVertex
100
AcDb2dVertex
 10
7.230387942575486
 20
-1.654649048244964
 30
0.0
 70
     8
  0
VERTEX
  5
16E3D
330
16DFB
100
AcDbEntity
  8
0
100
AcDbVertex
100
AcDb2dVertex
 10
7.205606351420337
 20
-1.573688836542095
 30
0.0
 70
     8
  0
VERTEX
  5
16E3E
330
16DFB
100
AcDbEntity
  8
0
100
AcDbVertex
100
AcDb2dVertex
 10
7.181581327708959
 20
-1.499490083965617
 30
0.0
 70
     8
  0
VERTEX
  5
16E3F
330
16DFB
100
AcDbEntity
  8
0
100
AcDbVertex
100
AcDb2dVertex
 10
7.158332085230413
 20
-1.43168907910556
 30
0.0
 70
     8
  0
VERTEX
  5
16E40
330
16DFB
100
AcDbEntity
  8
0
100
AcDbVertex
100
AcDb2dVertex
 10
7.135777765272749
 20
-1.369702315349775
 30
0.0
 70
     8
  0
VERTEX
  5
16E41
330
16DFB
100
AcDbEntity
  8
0
100
AcDbVertex
100
AcDb2dVertex
 10
7.113837509124023
 20
-1.312946286086108
 30
0.0
 70
     8
  0
VERTEX
  5
16E42
330
16DFB
100
AcDbEntity
  8
0
100
AcDbVertex
100
AcDb2dVertex
 10
7.092430458072284
 20
-1.260837484702419
 30
0.0
 70
     8
  0
VERTEX
  5
16E43
330
16DFB
100
AcDbEntity
  8
0
100
AcDbVertex
100
AcDb2dVertex
 10
7.071475753405572
 20
-1.212792404586551
 30
0.0
 70
     8
  0
VERTEX
  5
16E44
330
16DFB
100
AcDbEntity
  8
0
100
AcDbVertex
100
AcDb2dVertex
 10
7.050892536411955
 20
-1.168227539126358
 30
0.0
 70
     8
  0
VERTEX
  5
16E45
330
16DFB
100
AcDbEntity
  8
0
100
AcDbVertex
100
AcDb2dVertex
 10
7.030599948379463
 20
-1.126559381709687
 30
0.0
 70
     8
  0
VERTEX
  5
16E46
330
16DFB
100
AcDbEntity
  8
0
100
AcDbVertex
100
AcDb2dVertex
 10
7.010569279629083
 20
-1.087316781937263
 30
0.0
 70
     8
  0
VERTEX
  5
16E47
330
16DFB
100
AcDbEntity
  8
0
100
AcDbVertex
100
AcDb2dVertex
 10
6.990980416613409
 20
-1.050478014261274
 30
0.0
 70
     8
  0
VERTEX
  5
16E48
330
16DFB
100
AcDbEntity
  8
0
100
AcDbVertex
100
AcDb2dVertex
 10
6.972065394817978
 20
-1.016133709346797
 30
0.0
 70
     8
  0
VERTEX
  5
16E49
330
16DFB
100
AcDbEntity
  8
0
100
AcDbVertex
100
AcDb2dVertex
 10
6.95405624972833
 20
-0.9843744978588896
 30
0.0
 70
     8
  0
VERTEX
  5
16E4A
330
16DFB
100
AcDbEntity
  8
0
100
AcDbVertex
100
AcDb2dVertex
 10
6.937185016829983
 20
-0.955291010462618
 30
0.0
 70
     8
  0
VERTEX
  5
16E4B
330
16DFB
100
AcDbEntity
  8
0
100
AcDbVertex
100
AcDb2dVertex
 10
6.921683731608458
 20
-0.9289738778230447
 30
0.0
 70
     8
  0
VERTEX
  5
16E4C
330
16DFB
100
AcDbEntity
  8
0
100
AcDbVertex
100
AcDb2dVertex
 10
6.907784429549296
 20
-0.9055137306052417
 30
0.0
 70
     8
  0
VERTEX
  5
16E4D
330
16DFB
100
AcDbEntity
  8
0
100
AcDbVertex
100
AcDb2dVertex
 10
6.895719146138036
 20
-0.8850011994742768
 30
0.0
 70
     8
  0
VERTEX
  5
16E4E
330
16DFB
100
AcDbEntity
  8
0
100
AcDbVertex
100
AcDb2dVertex
 10
6.885652819778517
 20
-0.8674574396267594
 30
0.0
 70
     8
  0
VERTEX
  5
16E4F
330
16DFB
100
AcDbEntity
  8
0
100
AcDbVertex
100
AcDb2dVertex
 10
6.877482000547994
 20
-0.8526257043855283
 30
0.0
 70
     8
  0
VERTEX
  5
16E50
330
16DFB
100
AcDbEntity
  8
0
100
AcDbVertex
100
AcDb2dVertex
 10
6.871036141442012
 20
-0.8401797716049699
 30
0.0
 70
     8
  0
VERTEX
  5
16E51
330
16DFB
100
AcDbEntity
  8
0
100
AcDbVertex
100
AcDb2dVertex
 10
6.866144695456156
 20
-0.8297934191394706
 30
0.0
 70
     8
  0
VERTEX
  5
16E52
330
16DFB
100
AcDbEntity
  8
0
100
AcDbVertex
100
AcDb2dVertex
 10
6.862637115585981
 20
-0.8211404248434224
 30
0.0
 70
     8
  0
VERTEX
  5
16E53
330
16DFB
100
AcDbEntity
  8
0
100
AcDbVertex
100
AcDb2dVertex
 10
6.860342854827059
 20
-0.8138945665712009
 30
0.0
 70
     8
  0
VERTEX
  5
16E54
330
16DFB
100
AcDbEntity
  8
0
100
AcDbVertex
100
AcDb2dVertex
 10
6.859091366174958
 20
-0.8077296221772087
 30
0.0
 70
     8
  0
VERTEX
  5
16E55
330
16DFB
100
AcDbEntity
  8
0
100
AcDbVertex
100
AcDb2dVertex
 10
6.858712102625234
 20
-0.8023193695158216
 30
0.0
 70
     8
  0
VERTEX
  5
16E56
330
16DFB
100
AcDbEntity
  8
0
100
AcDbVertex
100
AcDb2dVertex
 10
6.859064565960415
 20
-0.7973887108438767
 30
0.0
 70
     8
  0
VERTEX
  5
16E57
330
16DFB
100
AcDbEntity
  8
0
100
AcDbVertex
100
AcDb2dVertex
 10
6.860128453110779
 20
-0.7928670460279795
 30
0.0
 70
     8
  0
VERTEX
  5
16E58
330
16DFB
100
AcDbEntity
  8
0
100
AcDbVertex
100
AcDb2dVertex
 10
6.861913509793534
 20
-0.7887348993371816
 30
0.0
 70
     8
  0
VERTEX
  5
16E59
330
16DFB
100
AcDbEntity
  8
0
100
AcDbVertex
100
AcDb2dVertex
 10
6.864429481725936
 20
-0.7849727950405391
 30
0.0
 70
     8
  0
VERTEX
  5
16E5A
330
16DFB
100
AcDbEntity
  8
0
100
AcDbVertex
100
AcDb2dVertex
 10
6.867686114625185
 20
-0.7815612574071033
 30
0.0
 70
     8
  0
VERTEX
  5
16E5B
330
16DFB
100
AcDbEntity
  8
0
100
AcDbVertex
100
AcDb2dVertex
 10
6.871693154208517
 20
-0.7784808107059252
 30
0.0
 70
     8
  0
VERTEX
  5
16E5C
330
16DFB
100
AcDbEntity
  8
0
100
AcDbVertex
100
AcDb2dVertex
 10
6.876460346193165
 20
-0.7757119792060612
 30
0.0
 70
     8
  0
VERTEX
  5
16E5D
330
16DFB
100
AcDbEntity
  8
0
100
AcDbVertex
100
AcDb2dVertex
 10
6.881997436296346
 20
-0.7732352871765677
 30
0.0
 70
     8
  0
VERTEX
  5
16E5E
330
16DFB
100
AcDbEntity
  8
0
100
AcDbVertex
100
AcDb2dVertex
 10
6.888340970365176
 20
-0.771053169270474
 30
0.0
 70
     8
  0
VERTEX
  5
16E5F
330
16DFB
100
AcDbEntity
  8
0
100
AcDbVertex
100
AcDb2dVertex
 10
6.89563469476637
 20
-0.7692557016767639
 30
0.0
 70
     8
  0
VERTEX
  5
16E60
330
16DFB
100
AcDbEntity
  8
0
100
AcDbVertex
100
AcDb2dVertex
 10
6.904049155996506
 20
-0.7679548709684152
 30
0.0
 70
     8
  0
VERTEX
  5
16E61
330
16DFB
100
AcDbEntity
  8
0
100
AcDbVertex
100
AcDb2dVertex
 10
6.913754900552195
 20
-0.7672626637183902
 30
0.0
 70
     8
  0
VERTEX
  5
16E62
330
16DFB
100
AcDbEntity
  8
0
100
AcDbVertex
100
AcDb2dVertex
 10
6.924922474930029
 20
-0.7672910664996559
 30
0.0
 70
     8
  0
VERTEX
  5
16E63
330
16DFB
100
AcDbEntity
  8
0
100
AcDbVertex
100
AcDb2dVertex
 10
6.937722425626613
 20
-0.7681520658851852
 30
0.0
 70
     8
  0
VERTEX
  5
16E64
330
16DFB
100
AcDbEntity
  8
0
100
AcDbVertex
100
AcDb2dVertex
 10
6.952325299138535
 20
-0.7699576484479506
 30
0.0
 70
     8
  0
VERTEX
  5
16E65
330
16DFB
100
AcDbEntity
  8
0
100
AcDbVertex
100
AcDb2dVertex
 10
6.968901641962383
 20
-0.7728198007609141
 30
0.0
 70
     8
  0
VERTEX
  5
16E66
330
16DFB
100
AcDbEntity
  8
0
100
AcDbVertex
100
AcDb2dVertex
 10
6.987569212393442
 20
-0.7768391484403656
 30
0.0
 70
     8
  0
VERTEX
  5
16E67
330
16DFB
100
AcDbEntity
  8
0
100
AcDbVertex
100
AcDb2dVertex
 10
7.00823461592167
 20
-0.7820708732758913
 30
0.0
 70
     8
  0
VERTEX
  5
16E68
330
16DFB
100
AcDbEntity
  8
0
100
AcDbVertex
100
AcDb2dVertex
 10
7.030751669835698
 20
-0.7885587961003841
 30
0.0
 70
     8
  0
VERTEX
  5
16E69
330
16DFB
100
AcDbEntity
  8
0
100
AcDbVertex
100
AcDb2dVertex
 10
7.054974191424143
 20
-0.7963467377467526
 30
0.0
 70
     8
  0
VERTEX
  5
16E6A
330
16DFB
100
AcDbEntity
  8
0
100
AcDbVertex
100
AcDb2dVertex
 10
7.08075599797565
 20
-0.8054785190478952
 30
0.0
 70
     8
  0
VERTEX
  5
16E6B
330
16DFB
100
AcDbEntity
  8
0
100
AcDbVertex
100
AcDb2dVertex
 10
7.107950906778853
 20
-0.8159979608367045
 30
0.0
 70
     8
  0
VERTEX
  5
16E6C
330
16DFB
100
AcDbEntity
  8
0
100
AcDbVertex
100
AcDb2dVertex
 10
7.136412735122374
 20
-0.8279488839460951
 30
0.0
 70
     8
  0
VERTEX
  5
16E6D
330
16DFB
100
AcDbEntity
  8
0
100
AcDbVertex
100
AcDb2dVertex
 10
7.165995300294841
 20
-0.8413751092089594
 30
0.0
 70
     8
  0
VERTEX
  5
16E6E
330
16DFB
100
AcDbEntity
  8
0
100
AcDbVertex
100
AcDb2dVertex
 10
7.196564601449301
 20
-0.8563374989094445
 30
0.0
 70
     8
  0
VERTEX
  5
16E6F
330
16DFB
100
AcDbEntity
  8
0
100
AcDbVertex
100
AcDb2dVertex
 10
7.228035365196381
 20
-0.8729650811367084
 30
0.0
 70
     8
  0
VERTEX
  5
16E70
330
16DFB
100
AcDbEntity
  8
0
100
AcDbVertex
100
AcDb2dVertex
 10
7.260334500011118
 20
-0.8914039254311372
 30
0.0
 70
     8
  0
VERTEX
  5
16E71
330
16DFB
100
AcDbEntity
  8
0
100
AcDbVertex
100
AcDb2dVertex
 10
7.293388914368556
 20
-0.9118001013331324
 30
0.0
 70
     8
  0
VERTEX
  5
16E72
330
16DFB
100
AcDbEntity
  8
0
100
AcDbVertex
100
AcDb2dVertex
 10
7.327125516743725
 20
-0.9342996783830848
 30
0.0
 70
     8
  0
VERTEX
  5
16E73
330
16DFB
100
AcDbEntity
  8
0
100
AcDbVertex
100
AcDb2dVertex
 10
7.361471215611657
 20
-0.9590487261213963
 30
0.0
 70
     8
  0
VERTEX
  5
16E74
330
16DFB
100
AcDbEntity
  8
0
100
AcDbVertex
100
AcDb2dVertex
 10
7.396352919447397
 20
-0.986193314088463
 30
0.0
 70
     8
  0
VERTEX
  5
16E75
330
16DFB
100
AcDbEntity
  8
0
100
AcDbVertex
100
AcDb2dVertex
 10
7.431697536725979
 20
-1.015879511824681
 30
0.0
 70
     8
  0
VERTEX
  5
16E76
330
16DFB
100
AcDbEntity
  8
0
100
AcDbVertex
100
AcDb2dVertex
 10
7.46739299375887
 20
-1.048199018545301
 30
0.0
 70
     8
  0
VERTEX
  5
16E77
330
16DFB
100
AcDbEntity
  8
0
100
AcDbVertex
100
AcDb2dVertex
 10
7.50317128820322
 20
-1.083026052165041
 30
0.0
 70
     8
  0
VERTEX
  5
16E78
330
16DFB
100
AcDbEntity
  8
0
100
AcDbVertex
100
AcDb2dVertex
 10
7.538725435552642
 20
-1.120180460273467
 30
0.0
 70
     8
  0
VERTEX
  5
16E79
330
16DFB
100
AcDbEntity
  8
0
100
AcDbVertex
100
AcDb2dVertex
 10
7.573748451300689
 20
-1.159482090460146
 30
0.0
 70
     8
  0
VERTEX
  5
16E7A
330
16DFB
100
AcDbEntity
  8
0
100
AcDbVertex
100
AcDb2dVertex
 10
7.607933350940978
 20
-1.20075079031465
 30
0.0
 70
     8
  0
VERTEX
  5
16E7B
330
16DFB
100
AcDbEntity
  8
0
100
AcDbVertex
100
AcDb2dVertex
 10
7.640973149967084
 20
-1.243806407426549
 30
0.0
 70
     8
  0
VERTEX
  5
16E7C
330
16DFB
100
AcDbEntity
  8
0
100
AcDbVertex
100
AcDb2dVertex
 10
7.672560863872597
 20
-1.288468789385411
 30
0.0
 70
     8
  0
VERTEX
  5
16E7D
330
16DFB
100
AcDbEntity
  8
0
100
AcDbVertex
100
AcDb2dVertex
 10
7.702389508151103
 20
-1.334557783780807
 30
0.0
 70
     8
  0
VERTEX
  5
16E7E
330
16DFB
100
AcDbEntity
  8
0
100
AcDbVertex
100
AcDb2dVertex
 10
7.730219324057932
 20
-1.381972041786537
 30
0.0
 70
     8
  0
VERTEX
  5
16E7F
330
16DFB
100
AcDbEntity
  8
0
100
AcDbVertex
100
AcDb2dVertex
 10
7.756079455895346
 20
-1.430925428913305
 30
0.0
 70
     8
  0
VERTEX
  5
16E80
330
16DFB
100
AcDbEntity
  8
0
100
AcDbVertex
100
AcDb2dVertex
 10
7.780066273727372
 20
-1.481710614256039
 30
0.0
 70
     8
  0
VERTEX
  5
16E81
330
16DFB
100
AcDbEntity
  8
0
100
AcDbVertex
100
AcDb2dVertex
 10
7.802276147618004
 20
-1.534620266909683
 30
0.0
 70
     8
  0
VERTEX
  5
16E82
330
16DFB
100
AcDbEntity
  8
0
100
AcDbVertex
100
AcDb2dVertex
 10
7.82280544763126
 20
-1.589947055969164
 30
0.0
 70
     8
  0
VERTEX
  5
16E83
330
16DFB
100
AcDbEntity
  8
0
100
AcDbVertex
100
AcDb2dVertex
 10
7.84175054383115
 20
-1.647983650529415
 30
0.0
 70
     8
  0
VERTEX
  5
16E84
330
16DFB
100
AcDbEntity
  8
0
100
AcDbVertex
100
AcDb2dVertex
 10
7.859207806281675
 20
-1.709022719685373
 30
0.0
 70
     8
  0
VERTEX
  5
16E85
330
16DFB
100
AcDbEntity
  8
0
100
AcDbVertex
100
AcDb2dVertex
 10
7.875273605046865
 20
-1.773356932531972
 30
0.0
 70
     8
  0
VERTEX
  5
16E86
330
16DFB
100
AcDbEntity
  8
0
100
AcDbVertex
100
AcDb2dVertex
 10
7.890024790909911
 20
-1.841190231878257
 30
0.0
 70
     8
  0
VERTEX
  5
16E87
330
16DFB
100
AcDbEntity
  8
0
100
AcDbVertex
100
AcDb2dVertex
 10
7.903460137530766
 20
-1.912371655389747
 30
0.0
 70
     8
  0
VERTEX
  5
16E88
330
16DFB
100
AcDbEntity
  8
0
100
AcDbVertex
100
AcDb2dVertex
 10
7.915558899288603
 20
-1.98666151444608
 30
0.0
 70
     8
  0
VERTEX
  5
16E89
330
16DFB
100
AcDbEntity
  8
0
100
AcDbVertex
100
AcDb2dVertex
 10
7.926300330562579
 20
-2.06382012042689
 30
0.0
 70
     8
  0
VERTEX
  5
16E8A
330
16DFB
100
AcDbEntity
  8
0
100
AcDbVertex
100
AcDb2dVertex
 10
7.935663685731845
 20
-2.143607784711807
 30
0.0
 70
     8
  0
VERTEX
  5
16E8B
330
16DFB
100
AcDbEntity
  8
0
100
AcDbVertex
100
AcDb2dVertex
 10
7.943628219175558
 20
-2.22578481868047
 30
0.0
 70
     8
  0
VERTEX
  5
16E8C
330
16DFB
100
AcDbEntity
  8
0
100
AcDbVertex
100
AcDb2dVertex
 10
7.950173185272879
 20
-2.310111533712506
 30
0.0
 70
     8
  0
VERTEX
  5
16E8D
330
16DFB
100
AcDbEntity
  8
0
100
AcDbVertex
100
AcDb2dVertex
 10
7.955277838402965
 20
-2.396348241187558
 30
0.0
 70
     8
  0
VERTEX
  5
16E8E
330
16DFB
100
AcDbEntity
  8
0
100
AcDbVertex
100
AcDb2dVertex
 10
7.958886579829104
 20
-2.484271851933407
 30
0.0
 70
     8
  0
VERTEX
  5
16E8F
330
16DFB
100
AcDbEntity
  8
0
100
AcDbVertex
100
AcDb2dVertex
 10
7.960804398351106
 20
-2.573725674570462
 30
0.0
 70
     8
  0
VERTEX
  5
16E90
330
16DFB
100
AcDbEntity
  8
0
100
AcDbVertex
100
AcDb2dVertex
 10
7.960801429652929
 20
-2.664569617167278
 30
0.0
 70
     8
  0
VERTEX
  5
16E91
330
16DFB
100
AcDbEntity
  8
0
100
AcDbVertex
100
AcDb2dVertex
 10
7.958647809418513
 20
-2.756663587792414
 30
0.0
 70
     8
  0
VERTEX
  5
16E92
330
16DFB
100
AcDbEntity
  8
0
100
AcDbVertex
100
AcDb2dVertex
 10
7.954113673331817
 20
-2.849867494514431
 30
0.0
 70
     8
  0
VERTEX
  5
16E93
330
16DFB
100
AcDbEntity
  8
0
100
AcDbVertex
100
AcDb2dVertex
 10
7.946969157076782
 20
-2.944041245401886
 30
0.0
 70
     8
  0
VERTEX
  5
16E94
330
16DFB
100
AcDbEntity
  8
0
100
AcDbVertex
100
AcDb2dVertex
 10
7.936984396337354
 20
-3.039044748523335
 30
0.0
 70
     8
  0
VERTEX
  5
16E95
330
16DFB
100
AcDbEntity
  8
0
100
AcDbVertex
100
AcDb2dVertex
 10
7.92392952679747
 20
-3.134737911947337
 30
0.0
 70
     8
  0
VERTEX
  5
16E96
330
16DFB
100
AcDbEntity
  8
0
100
AcDbVertex
100
AcDb2dVertex
 10
7.90760917545182
 20
-3.231015441738759
 30
0.0
 70
     8
  0
VERTEX
  5
16E97
330
16DFB
100
AcDbEntity
  8
0
100
AcDbVertex
100
AcDb2dVertex
 10
7.887965934537912
 20
-3.327911235947681
 30
0.0
 70
     8
  0
VERTEX
  5
16E98
330
16DFB
100
AcDbEntity
  8
0
100
AcDbVertex
100
AcDb2dVertex
 10
7.864976887603987
 20
-3.42549399062049
 30
0.0
 70
     8
  0
VERTEX
  5
16E99
330
16DFB
100
AcDbEntity
  8
0
100
AcDbVertex
100
AcDb2dVertex
 10
7.83861911819828
 20
-3.523832401803578
 30
0.0
 70
     8
  0
VERTEX
  5
16E9A
330
16DFB
100
AcDbEntity
  8
0
100
AcDbVertex
100
AcDb2dVertex
 10
7.808869709869029
 20
-3.62299516554334
 30
0.0
 70
     8
  0
VERTEX
  5
16E9B
330
16DFB
100
AcDbEntity
  8
0
100
AcDbVertex
100
AcDb2dVertex
 10
7.775705746164465
 20
-3.723050977886156
 30
0.0
 70
     8
  0
VERTEX
  5
16E9C
330
16DFB
100
AcDbEntity
  8
0
100
AcDbVertex
100
AcDb2dVertex
 10
7.739104310632841
 20
-3.824068534878419
 30
0.0
 70
     8
  0
VERTEX
  5
16E9D
330
16DFB
100
AcDbEntity
  8
0
100
AcDbVertex
100
AcDb2dVertex
 10
7.699042486822381
 20
-3.926116532566516
 30
0.0
 70
     8
  0
VERTEX
  5
16E9E
330
16DFB
100
AcDbEntity
  8
0
100
AcDbVertex
100
AcDb2dVertex
 10
7.655573746538503
 20
-4.029152990022388
 30
0.0
 70
     8
  0
VERTEX
  5
16E9F
330
16DFB
100
AcDbEntity
  8
0
100
AcDbVertex
100
AcDb2dVertex
 10
7.609057114615365
 20
-4.132693218420184
 30
0.0
 70
     8
  0
VERTEX
  5
16EA0
330
16DFB
100
AcDbEntity
  8
0
100
AcDbVertex
100
AcDb2dVertex
 10
7.559928004144281
 20
-4.236141851959602
 30
0.0
 70
     8
  0
VERTEX
  5
16EA1
330
16DFB
100
AcDbEntity
  8
0
100
AcDbVertex
100
AcDb2dVertex
 10
7.508621828216573
 20
-4.338903524840348
 30
0.0
 70
     8
  0
VERTEX
  5
16EA2
330
16DFB
100
AcDbEntity
  8
0
100
AcDbVertex
100
AcDb2dVertex
 10
7.455573999923561
 20
-4.440382871262114
 30
0.0
 70
     8
  0
VERTEX
  5
16EA3
330
16DFB
100
AcDbEntity
  8
0
100
AcDbVertex
100
AcDb2dVertex
 10
7.401219932356586
 20
-4.539984525424604
 30
0.0
 70
     8
  0
VERTEX
  5
16EA4
330
16DFB
100
AcDbEntity
  8
0
100
AcDbVertex
100
AcDb2dVertex
 10
7.34599503860696
 20
-4.637113121527516
 30
0.0
 70
     8
  0
VERTEX
  5
16EA5
330
16DFB
100
AcDbEntity
  8
0
100
AcDbVertex
100
AcDb2dVertex
 10
7.290334731766018
 20
-4.731173293770551
 30
0.0
 70
     8
  0
VERTEX
  5
16EA6
330
16DFB
100
AcDbEntity
  8
0
100
AcDbVertex
100
AcDb2dVertex
 10
7.234676736116296
 20
-4.821634821084295
 30
0.0
 70
     8
  0
VERTEX
  5
16EA7
330
16DFB
100
AcDbEntity
  8
0
100
AcDbVertex
100
AcDb2dVertex
 10
7.179468020705291
 20
-4.908228061322867
 30
0.0
 70
     8
  0
VERTEX
  5
16EA8
330
16DFB
100
AcDbEntity
  8
0
100
AcDbVertex
100
AcDb2dVertex
 10
7.125157865771702
 20
-4.990748517071283
 30
0.0
 70
     8
  0
VERTEX
  5
16EA9
330
16DFB
100
AcDbEntity
  8
0
100
AcDbVertex
100
AcDb2dVertex
 10
7.072195551554259
 20
-5.068991690914549
 30
0.0
 70
     8
  0
VERTEX
  5
16EAA
330
16DFB
100
AcDbEntity
  8
0
100
AcDbVertex
100
AcDb2dVertex
 10
7.021030358291663
 20
-5.142753085437674
 30
0.0
 70
     8
  0
VERTEX
  5
16EAB
330
16DFB
100
AcDbEntity
  8
0
100
AcDbVertex
100
AcDb2dVertex
 10
6.972111566222628
 20
-5.211828203225668
 30
0.0
 70
     8
  0
VERTEX
  5
16EAC
330
16DFB
100
AcDbEntity
  8
0
100
AcDbVertex
100
AcDb2dVertex
 10
6.925888455585856
 20
-5.276012546863543
 30
0.0
 70
     8
  0
VERTEX
  5
16EAD
330
16DFB
100
AcDbEntity
  8
0
100
AcDbVertex
100
AcDb2dVertex
 10
6.882810306620083
 20
-5.335101618936307
 30
0.0
 70
     8
  0
VERTEX
  5
16EAE
330
16DFB
100
AcDbEntity
  8
0
100
AcDbVertex
100
AcDb2dVertex
 10
6.843210368335358
 20
-5.388983486567139
 30
0.0
 70
     8
  0
VERTEX
  5
16EAF
330
16DFB
100
AcDbEntity
  8
0
100
AcDbVertex
100
AcDb2dVertex
 10
6.806957764827213
 20
-5.437916475031929
 30
0.0
 70
     8
  0
VERTEX
  5
16EB0
330
16DFB
100
AcDbEntity
  8
0
100
AcDbVertex
100
AcDb2dVertex
 10
6.773805588962513
 20
-5.482251474144725
 30
0.0
 70
     8
  0
VERTEX
  5
16EB1
330
16DFB
100
AcDbEntity
  8
0
100
AcDbVertex
100
AcDb2dVertex
 10
6.743506933608127
 20
-5.522339373719587
 30
0.0
 70
     8
  0
VERTEX
  5
16EB2
330
16DFB
100
AcDbEntity
  8
0
100
AcDbVertex
100
AcDb2dVertex
 10
6.71581489163094
 20
-5.558531063570575
 30
0.0
 70
     8
  0
VERTEX
  5
16EB3
330
16DFB
100
AcDbEntity
  8
0
100
AcDbVertex
100
AcDb2dVertex
 10
6.690482555897827
 20
-5.591177433511735
 30
0.0
 70
     8
  0
VERTEX
  5
16EB4
330
16DFB
100
AcDbEntity
  8
0
100
AcDbVertex
100
AcDb2dVertex
 10
6.667263019275651
 20
-5.620629373357131
 30
0.0
 70
     8
  0
VERTEX
  5
16EB5
330
16DFB
100
AcDbEntity
  8
0
100
AcDbVertex
100
AcDb2dVertex
 10
6.645909374631294
 20
-5.647237772920818
 30
0.0
 70
     8
  0
VERTEX
  5
16EB6
330
16DFB
100
AcDbEntity
  8
0
100
AcDbVertex
100
AcDb2dVertex
 10
6.626205050151106
 20
-5.671308129354064
 30
0.0
 70
     8
  0
VERTEX
  5
16EB7
330
16DFB
100
AcDbEntity
  8
0
100
AcDbVertex
100
AcDb2dVertex
 10
6.608054815299311
 20
-5.692964369157009
 30
0.0
 70
     8
  0
VERTEX
  5
16EB8
330
16DFB
100
AcDbEntity
  8
0
100
AcDbVertex
100
AcDb2dVertex
 10
6.591393774859603
 20
-5.712285026167004
 30
0.0
 70
     8
  0
VERTEX
  5
16EB9
330
16DFB
100
AcDbEntity
  8
0
100
AcDbVertex
100
AcDb2dVertex
 10
6.576157033615691
 20
-5.729348634221393
 30
0.0
 70
     8
  0
VERTEX
  5
16EBA
330
16DFB
100
AcDbEntity
  8
0
100
AcDbVertex
100
AcDb2dVertex
 10
6.562279696351277
 20
-5.744233727157537
 30
0.0
 70
     8
  0
VERTEX
  5
16EBB
330
16DFB
100
AcDbEntity
  8
0
100
AcDbVertex
100
AcDb2dVertex
 10
6.549696867850053
 20
-5.757018838812777
 30
0.0
 70
     8
  0
VERTEX
  5
16EBC
330
16DFB
100
AcDbEntity
  8
0
100
AcDbVertex
100
AcDb2dVertex
 10
6.538343652895719
 20
-5.767782503024474
 30
0.0
 70
     8
  0
VERTEX
  5
16EBD
330
16DFB
100
AcDbEntity
  8
0
100
AcDbVertex
100
AcDb2dVertex
 10
6.528155156271976
 20
-5.776603253629974
 30
0.0
 70
     8
  0
VERTEX
  5
16EBE
330
16DFB
100
AcDbEntity
  8
0
100
AcDbVertex
100
AcDb2dVertex
 10
6.519068001475209
 20
-5.783571227283244
 30
0.0
 70
     8
  0
VERTEX
  5
16EBF
330
16DFB
100
AcDbEntity
  8
0
100
AcDbVertex
100
AcDb2dVertex
 10
6.511024886852517
 20
-5.788822971904719
 30
0.0
 70
     8
  0
VERTEX
  5
16EC0
330
16DFB
100
AcDbEntity
  8
0
100
AcDbVertex
100
AcDb2dVertex
 10
6.503970029463672
 20
-5.792506638231448
 30
0.0
 70
     8
  0
VERTEX
  5
16EC1
330
16DFB
100
AcDbEntity
  8
0
100
AcDbVertex
100
AcDb2dVertex
 10
6.497847646368439
 20
-5.794770377000475
 30
0.0
 70
     8
  0
VERTEX
  5
16EC2
330
16DFB
100
AcDbEntity
  8
0
100
AcDbVertex
100
AcDb2dVertex
 10
6.492601954626615
 20
-5.795762338948854
 30
0.0
 70
     8
  0
VERTEX
  5
16EC3
330
16DFB
100
AcDbEntity
  8
0
100
AcDbVertex
100
AcDb2dVertex
 10
6.48817717129796
 20
-5.795630674813629
 30
0.0
 70
     8
  0
VERTEX
  5
16EC4
330
16DFB
100
AcDbEntity
  8
0
100
AcDbVertex
100
AcDb2dVertex
 10
6.484517513442265
 20
-5.794523535331856
 30
0.0
 70
     8
  0
VERTEX
  5
16EC5
330
16DFB
100
AcDbEntity
  8
0
100
AcDbVertex
100
AcDb2dVertex
 10
6.474595895799248
 20
-5.799833592546764
 30
0.0
 70
    16
  0
VERTEX
  5
16EC6
330
16DFB
100
AcDbEntity
  8
0
100
AcDbVertex
100
AcDb2dVertex
 10
6.474595895799248
 20
-5.759710086092073
 30
0.0
 70
    16
  0
VERTEX
  5
16EC7
330
16DFB
100
AcDbEntity
  8
0
100
AcDbVertex
100
AcDb2dVertex
 10
6.691939649977158
 20
-5.461977239559739
 30
0.0
 70
    16
  0
VERTEX
  5
16EC8
330
16DFB
100
AcDbEntity
  8
0
100
AcDbVertex
100
AcDb2dVertex
 10
6.938337599340004
 20
-5.05163277268716
 30
0.0
 70
    16
  0
VERTEX
  5
16EC9
330
16DFB
100
AcDbEntity
  8
0
100
AcDbVertex
100
AcDb2dVertex
 10
7.196468858675983
 20
-4.512322894816724
 30
0.0
 70
    16
  0
VERTEX
  5
16ECA
330
16DFB
100
AcDbEntity
  8
0
100
AcDbVertex
100
AcDb2dVertex
 10
7.313801178370838
 20
-3.961288924939464
 30
0.0
 70
    16
  0
VERTEX
  5
16ECB
330
16DFB
100
AcDbEntity
  8
0
100
AcDbVertex
100
AcDb2dVertex
 10
7.431133584736411
 20
-3.257841260319997
 30
0.0
 70
    16
  0
VERTEX
  5
16ECC
330
16DFB
100
AcDbEntity
  8
0
100
AcDbVertex
100
AcDb2dVertex
 10
7.419400274763275
 20
-2.343359291328159
 30
0.0
 70
    16
  0
VERTEX
  5
16ECD
330
16DFB
100
AcDbEntity
  8
0
100
AcDbVertex
100
AcDb2dVertex
 10
7.196468858675983
 20
-1.499222123704011
 30
0.0
 70
    16
  0
VERTEX
  5
16ECE
330
16DFB
100
AcDbEntity
  8
0
100
AcDbVertex
100
AcDb2dVertex
 10
7.028362399054812
 20
-1.101885233108355
 30
0.0
 70
    16
  0
VERTEX
  5
16ECF
330
16DFB
100
AcDbEntity
  8
0
100
AcDbVertex
100
AcDb2dVertex
 10
6.873681235381575
 20
-0.8525932341206903
 30
0.0
 70
    16
  0
VERTEX
  5
16ED0
330
16DFB
100
AcDbEntity
  8
0
100
AcDbVertex
100
AcDb2dVertex
 10
6.851227536247068
 20
-0.7977490272545336
 30
0.0
 70
    16
  0
VERTEX
  5
16ED1
330
16DFB
100
AcDbEntity
  8
0
100
AcDbVertex
100
AcDb2dVertex
 10
6.873681235381575
 20
-0.7703268739561058
 30
0.0
 70
    16
  0
VERTEX
  5
16ED2
330
16DFB
100
AcDbEntity
  8
0
100
AcDbVertex
100
AcDb2dVertex
 10
6.946032140004698
 20
-0.760355199980439
 30
0.0
 70
    16
  0
VERTEX
  5
16ED3
330
16DFB
100
AcDbEntity
  8
0
100
AcDbVertex
100
AcDb2dVertex
 10
7.155600056373942
 20
-0.8251711306876119
 30
0.0
 70
    16
  0
VERTEX
  5
16ED4
330
16DFB
100
AcDbEntity
  8
0
100
AcDbVertex
100
AcDb2dVertex
 10
7.4275394362686
 20
-0.987210932522859
 30
0.0
 70
    16
  0
VERTEX
  5
16ED5
330
16DFB
100
AcDbEntity
  8
0
100
AcDbVertex
100
AcDb2dVertex
 10
7.724427418907558
 20
-1.32126221016903
 30
0.0
 70
    16
  0
VERTEX
  5
16ED6
330
16DFB
100
AcDbEntity
  8
0
100
AcDbVertex
100
AcDb2dVertex
 10
7.889087937007788
 20
-1.735086929485865
 30
0.0
 70
    16
  0
VERTEX
  5
16ED7
330
16DFB
100
AcDbEntity
  8
0
100
AcDbVertex
100
AcDb2dVertex
 10
7.97086246334248
 20
-2.378531667079335
 30
0.0
 70
    16
  0
VERTEX
  5
16ED8
330
16DFB
100
AcDbEntity
  8
0
100
AcDbVertex
100
AcDb2dVertex
 10
7.959129240040072
 20
-3.128875849322141
 30
0.0
 70
    16
  0
VERTEX
  5
16ED9
330
16DFB
100
AcDbEntity
  8
0
100
AcDbVertex
100
AcDb2dVertex
 10
7.736197737282052
 20
-3.914392407316124
 30
0.0
 70
    16
  0
VERTEX
  5
16EDA
330
16DFB
100
AcDbEntity
  8
0
100
AcDbVertex
100
AcDb2dVertex
 10
7.290334731766013
 20
-4.770253716812447
 30
0.0
 70
    16
  0
VERTEX
  5
16EDB
330
16DFB
100
AcDbEntity
  8
0
100
AcDbVertex
100
AcDb2dVertex
 10
6.844471726249974
 20
-5.391632488057398
 30
0.0
 70
    16
  0
VERTEX
  5
16EDC
330
16DFB
100
AcDbEntity
  8
0
100
AcDbVertex
100
AcDb2dVertex
 10
6.628640202954569
 20
-5.673826044575797
 30
0.0
 70
    16
  0
SEQEND
  5
16EDD
330
16DFB
100
AcDbEntity
  8
0
  0
LINE
  5
16EDE
330
16B91
100
AcDbEntity
  8
0
100
AcDbLine
 10
0.0
 20
-0.4717392797747106
 30
0.0
 11
15.75
 21
-0.471739279774708
 31
0.0
  0
LINE
  5
16EDF
330
16B91
100
AcDbEntity
  8
0
100
AcDbLine
 10
0.0
 20
-0.7577735710270396
 30
0.0
 11
15.43973245090151
 21
-0.7577735710270396
 31
0.0
  0
LINE
  5
16EE0
330
16B91
100
AcDbEntity
  8
0
100
AcDbLine
 10
0.0
 20
0.0
 30
0.0
 11
15.75
 21
0.0
 31
0.0
  0
LINE
  5
16EE1
330
16B91
100
AcDbEntity
  8
0
100
AcDbLine
 10
0.0
 20
0.0
 30
0.0
 11
0.0
 21
-9.340715222776307
 31
0.0
  0
LWPOLYLINE
  5
16EE2
330
16B91
100
AcDbEntity
  8
0
100
AcDbPolyline
 90
       75
 70
     0
 43
0.0
 10
4.127894069284412
 20
-9.341934083580497
 10
4.048522289082278
 20
-9.340163010632586
 10
3.971493745823607
 20
-9.337105444157518
 10
3.897130312759555
 20
-9.332787113994669
 10
3.825595072349808
 20
-9.327203731837471
 10
3.756415943888046
 20
-9.320230936795613
 10
3.688962055876484
 20
-9.311714349832818
 10
3.622602536817304
 20
-9.301499591912829
 10
3.55670651521272
 20
-9.289432283999378
 10
3.490643119564929
 20
-9.275358047056204
 10
3.42378147837613
 20
-9.259122502047045
 10
3.35549072014852
 20
-9.240571269935628
 10
3.285357045049953
 20
-9.219663120988148
 10
3.213834939910839
 20
-9.196809422680573
 10
3.141595963227238
 20
-9.17253469179133
 10
3.069311673495203
 20
-9.147363445098843
 10
2.9976536292108
 20
-9.121820199381531
 10
2.92729338887009
 20
-9.096429471417822
 10
2.858902510969121
 20
-9.071715777986135
 10
2.793152554003969
 20
-9.048203635864897
 10
2.730499463198049
 20
-9.026253934542962
 10
2.670536730684269
 20
-9.005573054350907
 10
2.612642235322887
 20
-8.985703748329751
 10
2.556193855974194
 20
-8.966188769520501
 10
2.500569471498446
 20
-8.946570870964166
 10
2.445146960755923
 20
-8.926392805701761
 10
2.389304202606894
 20
-8.905197326774295
 10
2.332419075911627
 20
-8.882527187222788
 10
2.273988510889743
 20
-8.857975127180846
 10
2.213985643198266
 20
-8.831333835152527
 10
2.152502659853582
 20
-8.802445986734477
 10
2.089631747872062
 20
-8.771154257523358
 10
2.025465094270079
 20
-8.737301323115822
 10
1.960094886064016
 20
-8.700729859108518
 10
1.893613310270241
 20
-8.661282541098106
 10
1.826112553905136
 20
-8.61880204468124
 10
1.75774025155585
 20
-8.573208725915918
 10
1.688865828092621
 20
-8.524733662705502
 10
1.619914155956433
 20
-8.473685613414708
 10
1.551310107588317
 20
-8.420373336408232
 10
1.483478555429261
 20
-8.365105590050786
 10
1.416844371920265
 20
-8.308191132707079
 10
1.351832429502354
 20
-8.24993872274182
 10
1.28886760061651
 20
-8.190657118519713
 10
1.228267466648242
 20
-8.130597186193826
 10
1.169920444761009
 20
-8.069778223070644
 10
1.113607661062768
 20
-8.008161634245011
 10
1.059110241661467
 20
-7.945708824811773
 10
1.006209312665073
 20
-7.882381199865775
 10
0.9546860001815238
 20
-7.818140164501856
 10
0.9043214303187859
 20
-7.752947123814867
 10
0.8548967291848068
 20
-7.686763482899644
 10
0.8062595434057282
 20
-7.619597818304391
 10
0.7585236016803745
 20
-7.551647392390718
 10
0.7118691532257698
 20
-7.483156638973578
 10
0.6664764472589332
 20
-7.414369991867934
 10
0.6225257329968677
 20
-7.345531884888753
 10
0.5801972596565977
 20
-7.276886751850991
 10
0.5396712764551368
 20
-7.208679026569606
 10
0.5011280326095042
 20
-7.141153142859567
 10
0.4646383404188966
 20
-7.074282298865721
 10
0.4298352645112904
 20
-7.006954750052489
 10
0.3962424325968401
 20
-6.937787516214184
 10
0.3633834723857001
 20
-6.865397617145116
 10
0.3307820115880298
 20
-6.788402072639595
 10
0.2979616779139833
 20
-6.705417902491932
 10
0.2644460990737207
 20
-6.615062126496441
 10
0.2297589027774121
 20
-6.51595176444743
 10
0.1935907490892075
 20
-6.406652070126183
 10
0.156300427489342
 20
-6.285521233261837
 10
0.1184137598120682
 20
-6.150865677570504
 10
0.0804565678916274
 20
-6.000991826768297
 10
0.042954673562261
 20
-5.834206104571325
 10
0.0064338986582162
 20
-5.648814934695697
 10
-0.0000000000000053
 20
-5.611018734611452
  0
LINE
  5
16F2F
330
16B91
100
AcDbEntity
  8
0
100
AcDbLine
 10
0.0
 20
-9.340715222776307
 30
0.0
 11
4.322457837044786
 21
-9.340715222776307
 31
0.0
  0
LWPOLYLINE
  5
16F30
330
16B91
100
AcDbEntity
  8
0
100
AcDbPolyline
 90
      312
 70
     0
 43
0.0
 10
0.0
 20
-4.119308393752256
 10
0.0526794815874614
 20
-3.951855463864726
 10
0.1063886252195298
 20
-3.780402077970275
 10
0.1577348397937088
 20
-3.616953789729241
 10
0.2066514784816456
 20
-3.462943931956836
 10
0.2530718944549877
 20
-3.319805837468276
 10
0.2969294408853766
 20
-3.188972839078779
 10
0.3381574709444925
 20
-3.071878269603552
 10
0.3768632125468285
 20
-2.969296687702439
 10
0.4138493925784366
 20
-2.87936755541373
 10
0.4500926126682417
 20
-2.79957156062035
 10
0.4865694744451627
 20
-2.727389391205207
 10
0.5242565795381307
 20
-2.660301735051233
 10
0.5641305295760542
 20
-2.595789280041333
 10
0.6071679261878633
 20
-2.531332714058424
 10
0.6543453710024774
 20
-2.464412724985434
 10
0.7064001433471212
 20
-2.393119459254026
 10
0.7631122333422687
 20
-2.317980897490854
 10
0.824022308806677
 20
-2.240134478871329
 10
0.8886710375591302
 20
-2.160717642570864
 10
0.9565990874183862
 20
-2.080867827764866
 10
1.027347126203223
 20
-2.001722473628743
 10
1.100455821732415
 20
-1.924419019337905
 10
1.175465841824731
 20
-1.850094904067762
 10
1.251977243074409
 20
-1.779667975635646
 10
1.32982763717759
 20
-1.713177716426597
 10
1.408914024605859
 20
-1.650444017467583
 10
1.489133405830834
 20
-1.591286769785569
 10
1.570382781324114
 20
-1.535525864407516
 10
1.652559151557291
 20
-1.482981192360395
 10
1.735559517001982
 20
-1.433472644671174
 10
1.819280878129783
 20
-1.386820112366807
 10
1.903757568003972
 20
-1.342871360475046
 10
1.989573250054539
 20
-1.301585650026727
 10
2.07744892030316
 20
-1.262950116053463
 10
2.168105574771499
 20
-1.226951893586865
 10
2.262264209481215
 20
-1.193578117658559
 10
2.360645820453993
 20
-1.162815923300149
 10
2.463971403711478
 20
-1.134652445543254
 10
2.572961955275363
 20
-1.109074819419491
 10
2.688005868858544
 20
-1.086100198122646
 10
2.808161128938937
 20
-1.06586580749519
 10
2.932153117685679
 20
-1.048538891541777
 10
3.058707217267932
 20
-1.034286694267057
 10
3.186548809854846
 20
-1.023276459675679
 10
3.314403277615561
 20
-1.01567543177229
 10
3.44099600271924
 20
-1.01165085456154
 10
3.565052367335019
 20
-1.011369972048077
 10
3.685619626798596
 20
-1.014978586703744
 10
3.803032529111719
 20
-1.022536734869105
 10
3.917947695442713
 20
-1.034083011351933
 10
4.031021746959869
 20
-1.049656010959982
 10
4.142911304831479
 20
-1.069294328501025
 10
4.25427299022585
 20
-1.093036558782815
 10
4.365763424311289
 20
-1.120921296613126
 10
4.478039228256093
 20
-1.152987136799704
 10
4.591490941437977
 20
-1.189214781987378
 10
4.705444776072376
 20
-1.229353366169174
 10
4.818960862584117
 20
-1.273094131175163
 10
4.931099331398059
 20
-1.320128318835424
 10
5.040920312939038
 20
-1.370147170980045
 10
5.147483937631903
 20
-1.4228419294391
 10
5.24985033590149
 20
-1.477903836042664
 10
5.347079638172655
 20
-1.535024132620819
 10
5.438465869375193
 20
-1.593958385602087
 10
5.524238632458734
 20
-1.654719459808764
 10
5.604861424877881
 20
-1.717384544661586
 10
5.680797744087207
 20
-1.782030829581298
 10
5.752511087541334
 20
-1.848735503988635
 10
5.820464952694831
 20
-1.917575757304329
 10
5.885122837002289
 20
-1.988628778949131
 10
5.946948237918315
 20
-2.06197175834377
 10
6.006306290986646
 20
-2.137616774850108
 10
6.063168684107647
 20
-2.215315467594462
 10
6.117408743270839
 20
-2.294754365644275
 10
6.168899794465732
 20
-2.375619998066995
 10
6.21751516368184
 20
-2.457598893930049
 10
6.263128176908693
 20
-2.540377582300888
 10
6.305612160135807
 20
-2.623642592246946
 10
6.34484043935269
 20
-2.707080452835669
 10
6.38072607349199
 20
-2.790420788371348
 10
6.413341053258835
 20
-2.87356560410569
 10
6.442797102301489
 20
-2.956460000527266
 10
6.469205944268217
 20
-3.039049078124639
 10
6.492679302807267
 20
-3.121277937386367
 10
6.513328901566901
 20
-3.203091678801011
 10
6.531266464195382
 20
-3.284435402857147
 10
6.546603714340965
 20
-3.365254210043331
 10
6.559446975856706
 20
-3.445542304307886
 10
6.569880973414846
 20
-3.525490303438164
 10
6.577985031892412
 20
-3.605337928681271
 10
6.583838476166438
 20
-3.68532490128432
 10
6.587520631113974
 20
-3.765690942494422
 10
6.589110821612027
 20
-3.846675773558679
 10
6.588688372537652
 20
-3.928519115724208
 10
6.586332608767879
 20
-4.011460690238109
 10
6.58207744705306
 20
-4.095693832322122
 10
6.575775171636884
 20
-4.181226333096459
 10
6.567232658636377
 20
-4.268019597655976
 10
6.556256784168531
 20
-4.35603503109551
 10
6.542654424350367
 20
-4.445234038509906
 10
6.526232455298897
 20
-4.535578024994011
 10
6.506797753131142
 20
-4.627028395642666
 10
6.484157193964105
 20
-4.719546555550715
 10
6.458130528834697
 20
-4.813014576084779
 10
6.42858900845937
 20
-4.906997193698568
 10
6.395416758474477
 20
-5.000979811117572
 10
6.358497904516386
 20
-5.094447831067276
 10
6.317716572221429
 20
-5.186886656273168
 10
6.272956887225969
 20
-5.277781689460735
 10
6.224102975166359
 20
-5.366618333355462
 10
6.171038961678936
 20
-5.45288199068284
 10
6.113811975693712
 20
-5.536116203758886
 10
6.053121159315178
 20
-5.616097073261761
 10
5.989828657941501
 20
-5.69265883946015
 10
5.924796616970827
 20
-5.765635742622746
 10
5.858887181801321
 20
-5.834862023018239
 10
5.792962497831115
 20
-5.900171920915319
 10
5.727884710458368
 20
-5.961399676582673
 10
5.664515965081242
 20
-6.018379530288991
 10
5.603459000110174
 20
-6.071024313878291
 10
5.544278926004884
 20
-6.119561225495885
 10
5.486281446237343
 20
-6.164296054862405
 10
5.428772264279567
 20
-6.20553459169849
 10
5.371057083603556
 20
-6.243582625724775
 10
5.31244160768131
 20
-6.278745946661893
 10
5.252231539984822
 20
-6.311330344230489
 10
5.189732583986092
 20
-6.341641608151189
 10
5.124447621323032
 20
-6.36993052224729
 10
5.056668246297165
 20
-6.396227846752702
 10
4.986883231375911
 20
-6.420509336003999
 10
4.915581349026708
 20
-6.442750744337744
 10
4.843251371716974
 20
-6.462927826090507
 10
4.77038207191414
 20
-6.48101633559886
 10
4.697462222085635
 20
-6.496992027199367
 10
4.624980594698887
 20
-6.510830655228599
 10
4.553333771029405
 20
-6.522518447451224
 10
4.482549567585017
 20
-6.532083525344295
 10
4.412563609681627
 20
-6.539564483812973
 10
4.34331152263517
 20
-6.54499991776241
 10
4.274728931761539
 20
-6.548428422097764
 10
4.206751462376641
 20
-6.549888591724192
 10
4.139314739796402
 20
-6.549419021546847
 10
4.072354389336725
 20
-6.547058306470888
 10
4.005818911261628
 20
-6.5428471855304
 10
3.939708305627529
 20
-6.536834974275207
 10
3.874035447438975
 20
-6.529073132384067
 10
3.808813211700476
 20
-6.51961311953573
 10
3.744054473416574
 20
-6.508506395408952
 10
3.67977210759179
 20
-6.495804419682484
 10
3.615978989230659
 20
-6.481558652035089
 10
3.552687993337699
 20
-6.465820552145514
 10
3.48992272400326
 20
-6.448605129062385
 10
3.427749701660862
 20
-6.429781589313789
 10
3.366246175829858
 20
-6.409182688797687
 10
3.305489396029578
 20
-6.386641183412034
 10
3.245556611779363
 20
-6.361989829054792
 10
3.18652507259855
 20
-6.335061381623912
 10
3.128472028006487
 20
-6.305688597017355
 10
3.071474727522497
 20
-6.273704231133075
 10
3.015623295585821
 20
-6.239020373613494
 10
2.961059356315248
 20
-6.201866449078855
 10
2.907937408749458
 20
-6.162551215893872
 10
2.856411951927116
 20
-6.121383432423247
 10
2.806637484886912
 20
-6.078671857031691
 10
2.758768506667522
 20
-6.034725248083911
 10
2.71295951630762
 20
-5.989852363944614
 10
2.669365012845894
 20
-5.944361962978509
 10
2.62809228728142
 20
-5.89848775812864
 10
2.589059798454884
 20
-5.852163280651399
 10
2.552138797167403
 20
-5.805247016381513
 10
2.517200534220079
 20
-5.757597451153709
 10
2.484116260413997
 20
-5.709073070802715
 10
2.452757226550278
 20
-5.659532361163263
 10
2.422994683430013
 20
-5.608833808070079
 10
2.394699881854315
 20
-5.556835897357887
 10
2.36778269741215
 20
-5.503416412216606
 10
2.342307504844045
 20
-5.448530325256885
 10
2.318377303678389
 20
-5.392151906444557
 10
2.296095093443592
 20
-5.334255425745463
 10
2.275563873668041
 20
-5.274815153125439
 10
2.256886643880146
 20
-5.213805358550317
 10
2.240166403608284
 20
-5.151200311985935
 10
2.225506152380865
 20
-5.086974283398133
 10
2.213015327143914
 20
-5.02114657007716
 10
2.202829114513953
 20
-4.953916578610953
 10
2.195089138525132
 20
-4.885528742911872
 10
2.18993702321159
 20
-4.816227496892262
 10
2.18751439260749
 20
-4.746257274464483
 10
2.187962870746978
 20
-4.675862509540889
 10
2.191424081664191
 20
-4.605287636033835
 10
2.198039649393299
 20
-4.534777087855671
 10
2.20790184412296
 20
-4.464577443015222
 10
2.220905520659972
 20
-4.394943855907188
 10
2.236896179965658
 20
-4.326133625022735
 10
2.255719323001344
 20
-4.258404048853029
 10
2.277220450728353
 20
-4.192012425889234
 10
2.301245064107998
 20
-4.127216054622519
 10
2.327638664101605
 20
-4.064272233544049
 10
2.356246751670491
 20
-4.003438261144998
 10
2.386972764929597
 20
-3.944911399592174
 10
2.419951890608305
 20
-3.888648765755031
 10
2.455377252589586
 20
-3.83454744017866
 10
2.493441974756434
 20
-3.782504503408168
 10
2.53433918099184
 20
-3.732417035988638
 10
2.578261995178789
 20
-3.684182118465177
 10
2.625403541200262
 20
-3.637696831382875
 10
2.675956942939259
 20
-3.592858255286838
 10
2.730018762337264
 20
-3.549634227853493
 10
2.787299313569792
 20
-3.508275615284602
 10
2.847412348870873
 20
-3.469104040913253
 10
2.909971620474537
 20
-3.432441128072544
 10
2.974590880614813
 20
-3.398608500095564
 10
3.04088388152571
 20
-3.367927780315405
 10
3.108464375441268
 20
-3.340720592065166
 10
3.176946114595507
 20
-3.317308558677936
 10
3.245992205067933
 20
-3.297953267146237
 10
3.315463168319919
 20
-3.282676159100263
 10
3.385268879658318
 20
-3.271438639829657
 10
3.455319214389982
 20
-3.264202114624051
 10
3.52552404782177
 20
-3.260927988773065
 10
3.595793255260536
 20
-3.261577667566335
 10
3.666036712013119
 20
-3.266112556293493
 10
3.736164293386398
 20
-3.274494060244165
 10
3.806021500144177
 20
-3.286666431416809
 10
3.875196334878197
 20
-3.302505308645144
 10
3.943212425637187
 20
-3.321869177471728
 10
4.009593400469853
 20
-3.344616523439104
 10
4.073862887424906
 20
-3.370605832089822
 10
4.135544514551074
 20
-3.399695588966424
 10
4.194161909897053
 20
-3.43174427961147
 10
4.249238701511576
 20
-3.466610389567498
 10
4.300403662580135
 20
-3.504118097957023
 10
4.347706146835339
 20
-3.543954358222396
 10
4.391300653146596
 20
-3.58577181738594
 10
4.431341680383305
 20
-3.629223122469963
 10
4.467983727414854
 20
-3.673960920496785
 10
4.501381293110659
 20
-3.719637858488725
 10
4.531688876340118
 20
-3.765906583468096
 10
4.559060975972621
 20
-3.812419742457215
 10
4.583645653459941
 20
-3.858842847381851
 10
4.605565220583362
 20
-3.904892869781609
 10
4.624935551706529
 20
-3.950299646099535
 10
4.641872521193078
 20
-3.994793012778692
 10
4.656492003406671
 20
-4.038102806262133
 10
4.66890987271095
 20
-4.079958862992914
 10
4.679242003469565
 20
-4.12009101941409
 10
4.68760427004617
 20
-4.158229111968709
 10
4.694121130084322
 20
-4.194180166650428
 10
4.698951374347319
 20
-4.228059967655286
 10
4.702262376878362
 20
-4.260061488729914
 10
4.704221511720663
 20
-4.290377703620946
 10
4.704996152917417
 20
-4.31920158607501
 10
4.704753674511842
 20
-4.346726109838745
 10
4.703661450547149
 20
-4.373144248658785
 10
4.701886855066528
 20
-4.39864897628176
 10
4.699560783159418
 20
-4.423422545760943
 10
4.696668214100029
 20
-4.447604327376154
 10
4.693157648208814
 20
-4.471322970713855
 10
4.688977585806218
 20
-4.494707125360506
 10
4.684076527212664
 20
-4.517885440902562
 10
4.678402972748613
 20
-4.540986566926489
 10
4.671905422734491
 20
-4.564139153018741
 10
4.664532377490751
 20
-4.587471848765781
 10
4.65624521228593
 20
-4.61105541149373
 10
4.647056802180974
 20
-4.634729029487338
 10
4.636992897184957
 20
-4.658273998771028
 10
4.626079247306932
 20
-4.681471615369217
 10
4.614341602555952
 20
-4.704103175306316
 10
4.601805712941081
 20
-4.725949974606742
 10
4.588497328471381
 20
-4.746793309294916
 10
4.574442199155901
 20
-4.766414475395246
 10
4.559694227558107
 20
-4.784654881742679
 10
4.54441992645904
 20
-4.801596388414231
 10
4.528813961194153
 20
-4.817380968297451
 10
4.513070997098898
 20
-4.83215059427988
 10
4.497385699508708
 20
-4.846047239249062
 10
4.481952733759047
 20
-4.859212876092541
 10
4.466966765185348
 20
-4.871789477697866
 10
4.452622459123073
 20
-4.883919016952573
 10
4.439059589925472
 20
-4.895722332909181
 10
4.426198368017097
 20
-4.907235729280085
 10
4.413904112840291
 20
-4.91847437594265
 10
4.402042143837406
 20
-4.929453442774236
 10
4.390477780450797
 20
-4.940188099652211
 10
4.379076342122825
 20
-4.950693516453942
 10
4.367703148295824
 20
-4.960984863056786
 10
4.356223518412167
 20
-4.971077309338115
 10
4.344535212243361
 20
-4.980992291003379
 10
4.332665750877569
 20
-4.99077630707037
 10
4.320675095732135
 20
-5.000482122384969
 10
4.30862320822437
 20
-5.010162501793065
 10
4.296570049771624
 20
-5.019870210140532
 10
4.284575581791217
 20
-5.029658012273258
 10
4.272699765700477
 20
-5.039578673037119
 10
4.261002562916748
 20
-5.049684957278003
 10
4.249553467494922
 20
-5.06001338608195
 10
4.238460104040223
 20
-5.070535505495644
 10
4.227839629795434
 20
-5.081206617805942
 10
4.217809202003354
 20
-5.091982025299688
 10
4.208485977906771
 20
-5.102817030263734
 10
4.199987114748468
 20
-5.113666934984927
 10
4.192429769771241
 20
-5.124487041750116
 10
4.185931100217886
 20
-5.135232652846152
 10
4.180608349494081
 20
-5.145863025229589
 10
4.176579105657078
 20
-5.156353234535804
 10
4.173961042927034
 20
-5.166682311069882
 10
4.172871835524079
 20
-5.17682928513691
 10
4.173429157668381
 20
-5.186773187041967
 10
4.175750683580079
 20
-5.196493047090136
 10
4.179954087479325
 20
-5.205967895586509
 10
4.186157043586255
 20
-5.215176762836158
  0
LWPOLYLINE
  5
1706A
330
16B91
100
AcDbEntity
  8
0
100
AcDbPolyline
 90
      279
 70
     0
 43
0.0
 10
12.95349433534326
 20
-2.667940133391085
 10
12.95808998645261
 20
-2.620193652735891
 10
12.9641629090201
 20
-2.572293747270912
 10
12.97163185813253
 20
-2.52455663806871
 10
12.98041558887671
 20
-2.477298546201846
 10
12.99043285633945
 20
-2.430835692742884
 10
13.00160241560754
 20
-2.38548429876438
 10
13.0138430217678
 20
-2.341560585338902
 10
13.02707342990706
 20
-2.299380773539008
 10
13.04125214426227
 20
-2.259158187253331
 10
13.05649666567121
 20
-2.220694561634784
 10
13.0729642441218
 20
-2.183688734652357
 10
13.09081212960198
 20
-2.147839544275036
 10
13.11019757209969
 20
-2.112845828471807
 10
13.13127782160285
 20
-2.078406425211655
 10
13.15421012809942
 20
-2.044220172463566
 10
13.17915174157732
 20
-2.009985908196531
 10
13.20620167124119
 20
-1.9755021302848
 10
13.23522596316249
 20
-1.940965976223703
 10
13.26603242262941
 20
-1.906674243413837
 10
13.29842885493011
 20
-1.872923729255795
 10
13.33222306535274
 20
-1.840011231150177
 10
13.36722285918549
 20
-1.808233546497578
 10
13.40323604171653
 20
-1.777887472698593
 10
13.44007041823404
 20
-1.749269807153823
 10
13.47760077097633
 20
-1.722613332132511
 10
13.51596978998238
 20
-1.697894769378514
 10
13.55538714224133
 20
-1.675026825504347
 10
13.59606249474232
 20
-1.653922207122516
 10
13.6382055144745
 20
-1.634493620845526
 10
13.68202586842699
 20
-1.616653773285895
 10
13.72773322358893
 20
-1.600315371056128
 10
13.77553724694947
 20
-1.585391120768731
 10
13.82553986001338
 20
-1.57181700727613
 10
13.87741200234799
 20
-1.559622128390383
 10
13.93071686803629
 20
-1.548858860163466
 10
13.98501765116123
 20
-1.539579578647348
 10
14.0398775458058
 20
-1.531836659894009
 10
14.09485974605296
 20
-1.525682479955417
 10
14.1495274459857
 20
-1.521169414883543
 10
14.20344383968698
 20
-1.518349840730366
 10
14.2562522023415
 20
-1.517306686204259
 10
14.30791613354081
 20
-1.518245090639213
 10
14.35847931397817
 20
-1.521400746025627
 10
14.40798542434686
 20
-1.527009344353896
 10
14.45647814534015
 20
-1.535306577614413
 10
14.50400115765131
 20
-1.546528137797574
 10
14.55059814197361
 20
-1.560909716893777
 10
14.59631277900031
 20
-1.578687006893414
 10
14.64113924472363
 20
-1.599988037994255
 10
14.6848736963315
 20
-1.62451019322355
 10
14.72726278631078
 20
-1.651843193815922
 10
14.76805316714835
 20
-1.681576761005995
 10
14.80699149133108
 20
-1.713300616028393
 10
14.84382441134585
 20
-1.746604480117738
 10
14.87829857967952
 20
-1.781078074508652
 10
14.91016064881895
 20
-1.81631112043576
 10
14.93922570422431
 20
-1.851957354281263
 10
14.9655825632488
 20
-1.887926573017691
 10
14.98938847621893
 20
-1.924192588765138
 10
15.01080069346118
 20
-1.960729213643712
 10
15.02997646530205
 20
-1.997510259773516
 10
15.04707304206801
 20
-2.034509539274654
 10
15.06224767408559
 20
-2.071700864267228
 10
15.07565761168126
 20
-2.109058046871342
 10
15.08743826480666
 20
-2.146569448056319
 10
15.09763768191406
 20
-2.184281624188354
 10
15.10628207108086
 20
-2.222255680482859
 10
15.11339764038445
 20
-2.260552722155251
 10
15.11901059790226
 20
-2.299233854420944
 10
15.12314715171166
 20
-2.33836018249535
 10
15.12583350989009
 20
-2.377992811593887
 10
15.12709588051493
 20
-2.418192846931966
 10
15.12693717543491
 20
-2.458960288428427
 10
15.12526712158406
 20
-2.50005071481581
 10
15.1219721496677
 20
-2.541158599530072
 10
15.11693869039117
 20
-2.581978416007184
 10
15.11005317445979
 20
-2.622204637683099
 10
15.10120203257891
 20
-2.661531737993785
 10
15.09027169545387
 20
-2.699654190375205
 10
15.07714859378998
 20
-2.736266468263318
 10
15.06178904714791
 20
-2.771108146632175
 10
15.04442893050956
 20
-2.804099206608173
 10
15.02537400771213
 20
-2.835204730855793
 10
15.00493004259286
 20
-2.864389802039517
 10
14.98340279898896
 20
-2.891619502823827
 10
14.96109804073763
 20
-2.916858915873207
 10
14.93832153167611
 20
-2.940073123852138
 10
14.9153790356416
 20
-2.961227209425104
 10
14.89254805591708
 20
-2.980308061299921
 10
14.86999305356849
 20
-2.997389792357755
 10
14.84785022910754
 20
-3.012568321523104
 10
14.82625578304595
 20
-3.025939567720467
 10
14.8053459158954
 20
-3.037599449874343
 10
14.7852568281676
 20
-3.047643886909231
 10
14.76612472037426
 20
-3.056168797749633
 10
14.74808579302709
 20
-3.063270101320045
 10
14.73123412319632
 20
-3.069050439082532
 10
14.71549529418638
 20
-3.073639342649415
 10
14.70075276586021
 20
-3.077173066170575
 10
14.68688999808079
 20
-3.079787863795901
 10
14.67379045071107
 20
-3.081619989675278
 10
14.66133758361399
 20
-3.082805697958587
 10
14.64941485665254
 20
-3.083481242795715
 10
14.63790572968966
 20
-3.083782878336544
 10
14.62671616834156
 20
-3.08382464042194
 10
14.6158421612375
 20
-3.083631691656679
 10
14.60530220275999
 20
-3.083206976336517
 10
14.59511478729153
 20
-3.082553438757209
 10
14.58529840921463
 20
-3.08167402321451
 10
14.57587156291181
 20
-3.080571674004179
 10
14.56685274276556
 20
-3.07924933542197
 10
14.55826044315841
 20
-3.077709951763635
 10
14.55010252181325
 20
-3.075960093941665
 10
14.54234428981463
 20
-3.074020839335457
 10
14.53494042158751
 20
-3.071916891941144
 10
14.5278455915568
 20
-3.069672955754854
 10
14.52101447414746
 20
-3.067313734772722
 10
14.51440174378443
 20
-3.064863932990873
 10
14.50796207489265
 20
-3.06234825440544
 10
14.50165014189705
 20
-3.059791403012557
 10
14.49543881812903
 20
-3.057210877492377
 10
14.48937377254559
 20
-3.054595355261168
 10
14.4835188730102
 20
-3.051926308419229
 10
14.47793798738632
 20
-3.049185209066853
 10
14.47269498353741
 20
-3.046353529304334
 10
14.46785372932692
 20
-3.043412741231971
 10
14.46347809261831
 20
-3.040344316950057
 10
14.45963194127504
 20
-3.037129728558887
 10
14.45636678163497
 20
-3.033760398309083
 10
14.45368467393355
 20
-3.030267549052556
 10
14.45157531688065
 20
-3.026692353791552
 10
14.45002840918611
 20
-3.023075985528306
 10
14.4490336495598
 20
-3.019459617265061
 10
14.44858073671159
 20
-3.015884422004055
 10
14.44865936935131
 20
-3.012391572747529
 10
14.44925924618885
 20
-3.009022242497723
 10
14.45037281296167
 20
-3.005807311006317
 10
14.45200350351781
 20
-3.002736485022751
 10
14.4541574987329
 20
-2.999789178045904
 10
14.45684097948262
 20
-2.996944803574658
 10
14.4600601266426
 20
-2.994182775107889
 10
14.46382112108851
 20
-2.991482506144482
 10
14.468130143696
 20
-2.988823410183316
 10
14.47299337534071
 20
-2.986184900723269
 10
14.47840841243342
 20
-2.983544675713347
 10
14.4843385135254
 20
-2.980873570903046
 10
14.49073835270302
 20
-2.978140706491993
 10
14.49756260405269
 20
-2.97531520267981
 10
14.50476594166077
 20
-2.972366179666122
 10
14.51230303961365
 20
-2.969262757650549
 10
14.52012857199773
 20
-2.965974056832719
 10
14.52819721289938
 20
-2.96246919741225
 10
14.53647325104402
 20
-2.958721073772527
 10
14.5449594337132
 20
-2.954717677031947
 10
14.5536681228275
 20
-2.950450772492675
 10
14.56261168030753
 20
-2.945912125456865
 10
14.57180246807384
 20
-2.941093501226678
 10
14.58125284804703
 20
-2.93598666510427
 10
14.59097518214768
 20
-2.930583382391803
 10
14.60098183229638
 20
-2.924875418391432
 10
14.61128035306597
 20
-2.918847333138044
 10
14.6218590696384
 20
-2.912454865597416
 10
14.63270149984786
 20
-2.90564654946805
 10
14.64379116152857
 20
-2.898370918448454
 10
14.65511157251473
 20
-2.890576506237127
 10
14.66664625064054
 20
-2.882211846532576
 10
14.67837871374022
 20
-2.873225473033301
 10
14.69029247964797
 20
-2.863565919437807
 10
14.70237052854041
 20
-2.853185526904386
 10
14.71459368996385
 20
-2.842051866430479
 10
14.726942255807
 20
-2.830136316473316
 10
14.73939651795862
 20
-2.817410255490123
 10
14.7519367683074
 20
-2.803845061938135
 10
14.76454329874209
 20
-2.789412114274577
 10
14.77719640115139
 20
-2.774082790956679
 10
14.78987636742405
 20
-2.757828470441674
 10
14.80254807207465
 20
-2.740628825586698
 10
14.81511472012127
 20
-2.722496706848545
 10
14.82746409920785
 20
-2.703453259083911
 10
14.83948399697831
 20
-2.683519627149501
 10
14.8510622010766
 20
-2.662716955902014
 10
14.86208649914666
 20
-2.641066390198151
 10
14.87244467883243
 20
-2.618589074894611
 10
14.88202452777783
 20
-2.5953061548481
 10
14.89071614422557
 20
-2.571251593686829
 10
14.89841886881337
 20
-2.546510630125068
 10
14.90503435277771
 20
-2.521181321648604
 10
14.91046424735501
 20
-2.495361725743217
 10
14.91461020378181
 20
-2.469149899894696
 10
14.91737387329454
 20
-2.442643901588819
 10
14.91865690712968
 20
-2.415941788311377
 10
14.91836095652371
 20
-2.389141617548149
 10
14.91640843221479
 20
-2.362330923426544
 10
14.91280478294791
 20
-2.335555146640456
 10
14.90757621696975
 20
-2.308849204525403
 10
14.900748942527
 20
-2.282248014416902
 10
14.89234916786633
 20
-2.255786493650474
 10
14.88240310123444
 20
-2.229499559561632
 10
14.87093695087801
 20
-2.203422129485896
 10
14.85797692504371
 20
-2.177589120758784
 10
14.84352884771114
 20
-2.152039815394926
 10
14.82751700579146
 20
-2.12683095412541
 10
14.80984530192878
 20
-2.102023642360439
 10
14.79041763876718
 20
-2.077678985510209
 10
14.76913791895073
 20
-2.053858088984924
 10
14.74591004512353
 20
-2.030622058194782
 10
14.72063791992967
 20
-2.008031998549986
 10
14.69322544601321
 20
-1.986149015460737
 10
14.66362894273734
 20
-1.96504439852357
 10
14.63201439634147
 20
-1.944830174080372
 10
14.59860020978414
 20
-1.925628552659368
 10
14.56360478602384
 20
-1.907561744788772
 10
14.5272465280191
 20
-1.890751960996811
 10
14.48974383872842
 20
-1.875321411811706
 10
14.45131512111032
 20
-1.861392307761678
 10
14.41217877812333
 20
-1.849086859374951
 10
14.37252118030217
 20
-1.838506908758374
 10
14.33240056848658
 20
-1.829672824333318
 10
14.29184315109253
 20
-1.822584606099782
 10
14.25087513653597
 20
-1.817242254057767
 10
14.20952273323287
 20
-1.813645768207272
 10
14.16781214959918
 20
-1.8117951485483
 10
14.12576959405087
 20
-1.81169039508085
 10
14.08342127500391
 20
-1.81333150780492
 10
14.04081232909001
 20
-1.816724306308893
 10
13.99806360580405
 20
-1.821897888534693
 10
13.95531488285665
 20
-1.828887172012622
 10
13.91270593795844
 20
-1.837727074272986
 10
13.87037654882004
 20
-1.848452512846083
 10
13.82846649315207
 20
-1.861098405262224
 10
13.78711554866518
 20
-1.875699669051714
 10
13.74646349306998
 20
-1.892291221744849
 10
13.70664136796666
 20
-1.910878883027413
 10
13.66774527051365
 20
-1.931352081207073
 10
13.62986256175892
 20
-1.953571146746972
 10
13.59308060275046
 20
-1.977396410110257
 10
13.55748675453625
 20
-2.002688201760066
 10
13.52316837816428
 20
-2.029306852159544
 10
13.49021283468253
 20
-2.057112691771835
 10
13.45870748513896
 20
-2.085966051060082
 10
13.42873241057889
 20
-2.115731625199006
 10
13.40033857203683
 20
-2.146291568209639
 10
13.37356965054459
 20
-2.177532398824596
 10
13.34846932713403
 20
-2.20934063577649
 10
13.32508128283696
 20
-2.241602797797932
 10
13.30344919868521
 20
-2.274205403621539
 10
13.28361675571058
 20
-2.307034971979919
 10
13.26562763494495
 20
-2.339978021605685
 10
13.2495167811686
 20
-2.372951623887857
 10
13.23528419415584
 20
-2.405995060841064
 10
13.22292113742946
 20
-2.43917816713634
 10
13.21241887451225
 20
-2.472570777444723
 10
13.20376866892698
 20
-2.506242726437247
 10
13.19696178419647
 20
-2.540263848784947
 10
13.19198948384348
 20
-2.574703979158859
 10
13.18884303139082
 20
-2.609632952230015
 10
13.18747508461723
 20
-2.645048976644118
 10
13.18768387832542
 20
-2.68066375694553
 10
13.18922904157403
 20
-2.716117371653274
 10
13.19187020342174
 20
-2.751049899286377
 10
13.1953669929272
 20
-2.785101418363865
 10
13.19947903914907
 20
-2.817912007404761
 10
13.20396597114602
 20
-2.849121744928094
 10
13.2085874179767
 20
-2.87837070945289
 10
13.21316738899826
 20
-2.905417813629191
 10
13.2177874147619
 20
-2.930497306631122
 10
13.22259340611726
 20
-2.953962271763822
 10
13.22773127391402
 20
-2.976165792332435
 10
13.23334692900183
 20
-2.997460951642101
 10
13.23958628223039
 20
-3.018200832997964
 10
13.24659524444933
 20
-3.038738519705164
 10
13.25451972650835
 20
-3.059427095068839
 10
13.26358363735536
 20
-3.080765975772885
 10
13.27432287833135
 20
-3.103839912016179
 10
13.28735134887558
 20
-3.129879987376347
 10
13.3032829484273
 20
-3.160117285431014
 10
13.32273157642575
 20
-3.195782889757816
 10
13.328567506968
 20
-3.20625830869385
  0
POLYLINE
  5
17183
330
16B91
100
AcDbEntity
  8
0
100
AcDb2dPolyline
 66
     1
 10
0.0
 20
0.0
 30
0.0
 70
     5
 75
     6
  0
VERTEX
  5
17184
330
17183
100
AcDbEntity
  8
0
100
AcDbVertex
100
AcDb2dVertex
 10
8.296440710774596
 20
-3.090224018972323
 30
0.0
 70
    16
  0
VERTEX
  5
17185
330
17183
100
AcDbEntity
  8
0
100
AcDbVertex
100
AcDb2dVertex
 10
8.287149695278651
 20
-3.061732345314167
 30
0.0
 70
     8
  0
VERTEX
  5
17186
330
17183
100
AcDbEntity
  8
0
100
AcDbVertex
100
AcDb2dVertex
 10
8.286372522122938
 20
-3.055973733099484
 30
0.0
 70
     8
  0
VERTEX
  5
17187
330
17183
100
AcDbEntity
  8
0
100
AcDbVertex
100
AcDb2dVertex
 10
8.285738017789926
 20
-3.049457309743349
 30
0.0
 70
     8
  0
VERTEX
  5
17188
330
17183
100
AcDbEntity
  8
0
100
AcDbVertex
100
AcDb2dVertex
 10
8.285268709220938
 20
-3.042115547821145
 30
0.0
 70
     8
  0
VERTEX
  5
17189
330
17183
100
AcDbEntity
  8
0
100
AcDbVertex
100
AcDb2dVertex
 10
8.284987123357293
 20
-3.033880919908248
 30
0.0
 70
     8
  0
VERTEX
  5
1718A
330
17183
100
AcDbEntity
  8
0
100
AcDbVertex
100
AcDb2dVertex
 10
8.284915787140294
 20
-3.024685898580051
 30
0.0
 70
     8
  0
VERTEX
  5
1718B
330
17183
100
AcDbEntity
  8
0
100
AcDbVertex
100
AcDb2dVertex
 10
8.285077227511276
 20
-3.014462956411934
 30
0.0
 70
     8
  0
VERTEX
  5
1718C
330
17183
100
AcDbEntity
  8
0
100
AcDbVertex
100
AcDb2dVertex
 10
8.285493971411561
 20
-3.003144565979269
 30
0.0
 70
     8
  0
VERTEX
  5
1718D
330
17183
100
AcDbEntity
  8
0
100
AcDbVertex
100
AcDb2dVertex
 10
8.286188545782431
 20
-2.990663199857454
 30
0.0
 70
     8
  0
VERTEX
  5
1718E
330
17183
100
AcDbEntity
  8
0
100
AcDbVertex
100
AcDb2dVertex
 10
8.28716908539976
 20
-2.977001038423049
 30
0.0
 70
     8
  0
VERTEX
  5
1718F
330
17183
100
AcDbEntity
  8
0
100
AcDbVertex
100
AcDb2dVertex
 10
8.288386156377406
 20
-2.962339093257397
 30
0.0
 70
     8
  0
VERTEX
  5
17190
330
17183
100
AcDbEntity
  8
0
100
AcDbVertex
100
AcDb2dVertex
 10
8.289775932663786
 20
-2.946908083743032
 30
0.0
 70
     8
  0
VERTEX
  5
17191
330
17183
100
AcDbEntity
  8
0
100
AcDbVertex
100
AcDb2dVertex
 10
8.291274588207281
 20
-2.930938729262481
 30
0.0
 70
     8
  0
VERTEX
  5
17192
330
17183
100
AcDbEntity
  8
0
100
AcDbVertex
100
AcDb2dVertex
 10
8.292818296956294
 20
-2.914661749198272
 30
0.0
 70
     8
  0
VERTEX
  5
17193
330
17183
100
AcDbEntity
  8
0
100
AcDbVertex
100
AcDb2dVertex
 10
8.294343232859226
 20
-2.898307862932931
 30
0.0
 70
     8
  0
VERTEX
  5
17194
330
17183
100
AcDbEntity
  8
0
100
AcDbVertex
100
AcDb2dVertex
 10
8.295785569864484
 20
-2.882107789848998
 30
0.0
 70
     8
  0
VERTEX
  5
17195
330
17183
100
AcDbEntity
  8
0
100
AcDbVertex
100
AcDb2dVertex
 10
8.297081481920454
 20
-2.866292249328994
 30
0.0
 70
     8
  0
VERTEX
  5
17196
330
17183
100
AcDbEntity
  8
0
100
AcDbVertex
100
AcDb2dVertex
 10
8.298185169415104
 20
-2.85102110115017
 30
0.0
 70
     8
  0
VERTEX
  5
17197
330
17183
100
AcDbEntity
  8
0
100
AcDbVertex
100
AcDb2dVertex
 10
8.299122938494663
 20
-2.836170766668669
 30
0.0
 70
     8
  0
VERTEX
  5
17198
330
17183
100
AcDbEntity
  8
0
100
AcDbVertex
100
AcDb2dVertex
 10
8.299939121744957
 20
-2.821546807635347
 30
0.0
 70
     8
  0
VERTEX
  5
17199
330
17183
100
AcDbEntity
  8
0
100
AcDbVertex
100
AcDb2dVertex
 10
8.300678051751768
 20
-2.806954785801067
 30
0.0
 70
     8
  0
VERTEX
  5
1719A
330
17183
100
AcDbEntity
  8
0
100
AcDbVertex
100
AcDb2dVertex
 10
8.301384061100918
 20
-2.792200262916687
 30
0.0
 70
     8
  0
VERTEX
  5
1719B
330
17183
100
AcDbEntity
  8
0
100
AcDbVertex
100
AcDb2dVertex
 10
8.302101482378205
 20
-2.777088800733072
 30
0.0
 70
     8
  0
VERTEX
  5
1719C
330
17183
100
AcDbEntity
  8
0
100
AcDbVertex
100
AcDb2dVertex
 10
8.302874648169437
 20
-2.761425961001076
 30
0.0
 70
     8
  0
VERTEX
  5
1719D
330
17183
100
AcDbEntity
  8
0
100
AcDbVertex
100
AcDb2dVertex
 10
8.30374789106041
 20
-2.745017305471561
 30
0.0
 70
     8
  0
VERTEX
  5
1719E
330
17183
100
AcDbEntity
  8
0
100
AcDbVertex
100
AcDb2dVertex
 10
8.304749397715204
 20
-2.72768945223784
 30
0.0
 70
     8
  0
VERTEX
  5
1719F
330
17183
100
AcDbEntity
  8
0
100
AcDbVertex
100
AcDb2dVertex
 10
8.305842771110953
 20
-2.70935324476306
 30
0.0
 70
     8
  0
VERTEX
  5
171A0
330
17183
100
AcDbEntity
  8
0
100
AcDbVertex
100
AcDb2dVertex
 10
8.306975468303038
 20
-2.689940582852822
 30
0.0
 70
     8
  0
VERTEX
  5
171A1
330
17183
100
AcDbEntity
  8
0
100
AcDbVertex
100
AcDb2dVertex
 10
8.308094946346862
 20
-2.669383366312715
 30
0.0
 70
     8
  0
VERTEX
  5
171A2
330
17183
100
AcDbEntity
  8
0
100
AcDbVertex
100
AcDb2dVertex
 10
8.309148662297813
 20
-2.647613494948347
 30
0.0
 70
     8
  0
VERTEX
  5
171A3
330
17183
100
AcDbEntity
  8
0
100
AcDbVertex
100
AcDb2dVertex
 10
8.310084073211291
 20
-2.624562868565311
 30
0.0
 70
     8
  0
VERTEX
  5
171A4
330
17183
100
AcDbEntity
  8
0
100
AcDbVertex
100
AcDb2dVertex
 10
8.310848636142679
 20
-2.600163386969208
 30
0.0
 70
     8
  0
VERTEX
  5
171A5
330
17183
100
AcDbEntity
  8
0
100
AcDbVertex
100
AcDb2dVertex
 10
8.31138980814739
 20
-2.574346949965638
 30
0.0
 70
     8
  0
VERTEX
  5
171A6
330
17183
100
AcDbEntity
  8
0
100
AcDbVertex
100
AcDb2dVertex
 10
8.311691169833821
 20
-2.547071545347064
 30
0.0
 70
     8
  0
VERTEX
  5
171A7
330
17183
100
AcDbEntity
  8
0
100
AcDbVertex
100
AcDb2dVertex
 10
8.311880796022478
 20
-2.518399512853453
 30
0.0
 70
     8
  0
VERTEX
  5
171A8
330
17183
100
AcDbEntity
  8
0
100
AcDbVertex
100
AcDb2dVertex
 10
8.312122885086887
 20
-2.488419280211641
 30
0.0
 70
     8
  0
VERTEX
  5
171A9
330
17183
100
AcDbEntity
  8
0
100
AcDbVertex
100
AcDb2dVertex
 10
8.312581635400563
 20
-2.457219275148454
 30
0.0
 70
     8
  0
VERTEX
  5
171AA
330
17183
100
AcDbEntity
  8
0
100
AcDbVertex
100
AcDb2dVertex
 10
8.313421245337032
 20
-2.424887925390731
 30
0.0
 70
     8
  0
VERTEX
  5
171AB
330
17183
100
AcDbEntity
  8
0
100
AcDbVertex
100
AcDb2dVertex
 10
8.314805913269816
 20
-2.391513658665302
 30
0.0
 70
     8
  0
VERTEX
  5
171AC
330
17183
100
AcDbEntity
  8
0
100
AcDbVertex
100
AcDb2dVertex
 10
8.316899837572435
 20
-2.357184902699002
 30
0.0
 70
     8
  0
VERTEX
  5
171AD
330
17183
100
AcDbEntity
  8
0
100
AcDbVertex
100
AcDb2dVertex
 10
8.319867216618401
 20
-2.321990085218662
 30
0.0
 70
     8
  0
VERTEX
  5
171AE
330
17183
100
AcDbEntity
  8
0
100
AcDbVertex
100
AcDb2dVertex
 10
8.323848485286751
 20
-2.286006496122408
 30
0.0
 70
     8
  0
VERTEX
  5
171AF
330
17183
100
AcDbEntity
  8
0
100
AcDbVertex
100
AcDb2dVertex
 10
8.328889024478474
 20
-2.249266873993514
 30
0.0
 70
     8
  0
VERTEX
  5
171B0
330
17183
100
AcDbEntity
  8
0
100
AcDbVertex
100
AcDb2dVertex
 10
8.335010451600069
 20
-2.211792819586557
 30
0.0
 70
     8
  0
VERTEX
  5
171B1
330
17183
100
AcDbEntity
  8
0
100
AcDbVertex
100
AcDb2dVertex
 10
8.342234384058039
 20
-2.173605933656097
 30
0.0
 70
     8
  0
VERTEX
  5
171B2
330
17183
100
AcDbEntity
  8
0
100
AcDbVertex
100
AcDb2dVertex
 10
8.350582439258872
 20
-2.134727816956706
 30
0.0
 70
     8
  0
VERTEX
  5
171B3
330
17183
100
AcDbEntity
  8
0
100
AcDbVertex
100
AcDb2dVertex
 10
8.360076234609076
 20
-2.095180070242954
 30
0.0
 70
     8
  0
VERTEX
  5
171B4
330
17183
100
AcDbEntity
  8
0
100
AcDbVertex
100
AcDb2dVertex
 10
8.370737387515138
 20
-2.054984294269401
 30
0.0
 70
     8
  0
VERTEX
  5
171B5
330
17183
100
AcDbEntity
  8
0
100
AcDbVertex
100
AcDb2dVertex
 10
8.382587515383576
 20
-2.01416208979063
 30
0.0
 70
     8
  0
VERTEX
  5
171B6
330
17183
100
AcDbEntity
  8
0
100
AcDbVertex
100
AcDb2dVertex
 10
8.395650037170153
 20
-1.972774659382842
 30
0.0
 70
     8
  0
VERTEX
  5
171B7
330
17183
100
AcDbEntity
  8
0
100
AcDbVertex
100
AcDb2dVertex
 10
8.409955578027808
 20
-1.931041612908833
 30
0.0
 70
     8
  0
VERTEX
  5
171B8
330
17183
100
AcDbEntity
  8
0
100
AcDbVertex
100
AcDb2dVertex
 10
8.425536564658768
 20
-1.88922216205305
 30
0.0
 70
     8
  0
VERTEX
  5
171B9
330
17183
100
AcDbEntity
  8
0
100
AcDbVertex
100
AcDb2dVertex
 10
8.442425423765254
 20
-1.847575518499922
 30
0.0
 70
     8
  0
VERTEX
  5
171BA
330
17183
100
AcDbEntity
  8
0
100
AcDbVertex
100
AcDb2dVertex
 10
8.460654582049484
 20
-1.806360893933893
 30
0.0
 70
     8
  0
VERTEX
  5
171BB
330
17183
100
AcDbEntity
  8
0
100
AcDbVertex
100
AcDb2dVertex
 10
8.48025646621369
 20
-1.76583750003941
 30
0.0
 70
     8
  0
VERTEX
  5
171BC
330
17183
100
AcDbEntity
  8
0
100
AcDbVertex
100
AcDb2dVertex
 10
8.501263502960082
 20
-1.726264548500897
 30
0.0
 70
     8
  0
VERTEX
  5
171BD
330
17183
100
AcDbEntity
  8
0
100
AcDbVertex
100
AcDb2dVertex
 10
8.52370811899089
 20
-1.687901251002802
 30
0.0
 70
     8
  0
VERTEX
  5
171BE
330
17183
100
AcDbEntity
  8
0
100
AcDbVertex
100
AcDb2dVertex
 10
8.547626343937634
 20
-1.650931215825657
 30
0.0
 70
     8
  0
VERTEX
  5
171BF
330
17183
100
AcDbEntity
  8
0
100
AcDbVertex
100
AcDb2dVertex
 10
8.573068619149005
 20
-1.615235637634391
 30
0.0
 70
     8
  0
VERTEX
  5
171C0
330
17183
100
AcDbEntity
  8
0
100
AcDbVertex
100
AcDb2dVertex
 10
8.600088988903012
 20
-1.580620107690013
 30
0.0
 70
     8
  0
VERTEX
  5
171C1
330
17183
100
AcDbEntity
  8
0
100
AcDbVertex
100
AcDb2dVertex
 10
8.628741497477653
 20
-1.546890217253553
 30
0.0
 70
     8
  0
VERTEX
  5
171C2
330
17183
100
AcDbEntity
  8
0
100
AcDbVertex
100
AcDb2dVertex
 10
8.659080189150925
 20
-1.513851557586024
 30
0.0
 70
     8
  0
VERTEX
  5
171C3
330
17183
100
AcDbEntity
  8
0
100
AcDbVertex
100
AcDb2dVertex
 10
8.691159108200828
 20
-1.481309719948441
 30
0.0
 70
     8
  0
VERTEX
  5
171C4
330
17183
100
AcDbEntity
  8
0
100
AcDbVertex
100
AcDb2dVertex
 10
8.725032298905347
 20
-1.449070295601834
 30
0.0
 70
     8
  0
VERTEX
  5
171C5
330
17183
100
AcDbEntity
  8
0
100
AcDbVertex
100
AcDb2dVertex
 10
8.760753805542504
 20
-1.416938875807211
 30
0.0
 70
     8
  0
VERTEX
  5
171C6
330
17183
100
AcDbEntity
  8
0
100
AcDbVertex
100
AcDb2dVertex
 10
8.798368665067043
 20
-1.384787654793351
 30
0.0
 70
     8
  0
VERTEX
  5
171C7
330
17183
100
AcDbEntity
  8
0
100
AcDbVertex
100
AcDb2dVertex
 10
8.837885885140762
 20
-1.352755238660072
 30
0.0
 70
     8
  0
VERTEX
  5
171C8
330
17183
100
AcDbEntity
  8
0
100
AcDbVertex
100
AcDb2dVertex
 10
8.879305466102218
 20
-1.321046836474933
 30
0.0
 70
     8
  0
VERTEX
  5
171C9
330
17183
100
AcDbEntity
  8
0
100
AcDbVertex
100
AcDb2dVertex
 10
8.922627408289972
 20
-1.289867657305511
 30
0.0
 70
     8
  0
VERTEX
  5
171CA
330
17183
100
AcDbEntity
  8
0
100
AcDbVertex
100
AcDb2dVertex
 10
8.967851712042589
 20
-1.259422910219368
 30
0.0
 70
     8
  0
VERTEX
  5
171CB
330
17183
100
AcDbEntity
  8
0
100
AcDbVertex
100
AcDb2dVertex
 10
9.014978377698602
 20
-1.229917804284078
 30
0.0
 70
     8
  0
VERTEX
  5
171CC
330
17183
100
AcDbEntity
  8
0
100
AcDbVertex
100
AcDb2dVertex
 10
9.064007405596603
 20
-1.201557548567202
 30
0.0
 70
     8
  0
VERTEX
  5
171CD
330
17183
100
AcDbEntity
  8
0
100
AcDbVertex
100
AcDb2dVertex
 10
9.114938796075113
 20
-1.17454735213632
 30
0.0
 70
     8
  0
VERTEX
  5
171CE
330
17183
100
AcDbEntity
  8
0
100
AcDbVertex
100
AcDb2dVertex
 10
9.167745527164438
 20
-1.149063622809415
 30
0.0
 70
     8
  0
VERTEX
  5
171CF
330
17183
100
AcDbEntity
  8
0
100
AcDbVertex
100
AcDb2dVertex
 10
9.222292487661741
 20
-1.125167563406188
 30
0.0
 70
     8
  0
VERTEX
  5
171D0
330
17183
100
AcDbEntity
  8
0
100
AcDbVertex
100
AcDb2dVertex
 10
9.278417544055901
 20
-1.102891575496767
 30
0.0
 70
     8
  0
VERTEX
  5
171D1
330
17183
100
AcDbEntity
  8
0
100
AcDbVertex
100
AcDb2dVertex
 10
9.335958562835811
 20
-1.082268060651263
 30
0.0
 70
     8
  0
VERTEX
  5
171D2
330
17183
100
AcDbEntity
  8
0
100
AcDbVertex
100
AcDb2dVertex
 10
9.394753410490373
 20
-1.063329420439809
 30
0.0
 70
     8
  0
VERTEX
  5
171D3
330
17183
100
AcDbEntity
  8
0
100
AcDbVertex
100
AcDb2dVertex
 10
9.454639953508458
 20
-1.046108056432523
 30
0.0
 70
     8
  0
VERTEX
  5
171D4
330
17183
100
AcDbEntity
  8
0
100
AcDbVertex
100
AcDb2dVertex
 10
9.515456058378969
 20
-1.03063637019952
 30
0.0
 70
     8
  0
VERTEX
  5
171D5
330
17183
100
AcDbEntity
  8
0
100
AcDbVertex
100
AcDb2dVertex
 10
9.5770395915908
 20
-1.016946763310935
 30
0.0
 70
     8
  0
VERTEX
  5
171D6
330
17183
100
AcDbEntity
  8
0
100
AcDbVertex
100
AcDb2dVertex
 10
9.639242831603919
 20
-1.005050036338837
 30
0.0
 70
     8
  0
VERTEX
  5
171D7
330
17183
100
AcDbEntity
  8
0
100
AcDbVertex
100
AcDb2dVertex
 10
9.70197570476275
 20
-0.9948705858630814
 30
0.0
 70
     8
  0
VERTEX
  5
171D8
330
17183
100
AcDbEntity
  8
0
100
AcDbVertex
100
AcDb2dVertex
 10
9.765162549382774
 20
-0.9863112074654873
 30
0.0
 70
     8
  0
VERTEX
  5
171D9
330
17183
100
AcDbEntity
  8
0
100
AcDbVertex
100
AcDb2dVertex
 10
9.82872770377952
 20
-0.9792746967278635
 30
0.0
 70
     8
  0
VERTEX
  5
171DA
330
17183
100
AcDbEntity
  8
0
100
AcDbVertex
100
AcDb2dVertex
 10
9.892595506268484
 20
-0.9736638492320288
 30
0.0
 70
     8
  0
VERTEX
  5
171DB
330
17183
100
AcDbEntity
  8
0
100
AcDbVertex
100
AcDb2dVertex
 10
9.956690295165156
 20
-0.9693814605597971
 30
0.0
 70
     8
  0
VERTEX
  5
171DC
330
17183
100
AcDbEntity
  8
0
100
AcDbVertex
100
AcDb2dVertex
 10
10.02093640878506
 20
-0.9663303262929716
 30
0.0
 70
     8
  0
VERTEX
  5
171DD
330
17183
100
AcDbEntity
  8
0
100
AcDbVertex
100
AcDb2dVertex
 10
10.08525818544368
 20
-0.9644132420133711
 30
0.0
 70
     8
  0
VERTEX
  5
171DE
330
17183
100
AcDbEntity
  8
0
100
AcDbVertex
100
AcDb2dVertex
 10
10.14956375004899
 20
-0.9635438038099524
 30
0.0
 70
     8
  0
VERTEX
  5
171DF
330
17183
100
AcDbEntity
  8
0
100
AcDbVertex
100
AcDb2dVertex
 10
10.21369637387882
 20
-0.9636788098002339
 30
0.0
 70
     8
  0
VERTEX
  5
171E0
330
17183
100
AcDbEntity
  8
0
100
AcDbVertex
100
AcDb2dVertex
 10
10.27748311480344
 20
-0.9647858586088769
 30
0.0
 70
     8
  0
VERTEX
  5
171E1
330
17183
100
AcDbEntity
  8
0
100
AcDbVertex
100
AcDb2dVertex
 10
10.34075103069313
 20
-0.9668325488605532
 30
0.0
 70
     8
  0
VERTEX
  5
171E2
330
17183
100
AcDbEntity
  8
0
100
AcDbVertex
100
AcDb2dVertex
 10
10.40332717941816
 20
-0.9697864791799293
 30
0.0
 70
     8
  0
VERTEX
  5
171E3
330
17183
100
AcDbEntity
  8
0
100
AcDbVertex
100
AcDb2dVertex
 10
10.46503861884883
 20
-0.973615248191656
 30
0.0
 70
     8
  0
VERTEX
  5
171E4
330
17183
100
AcDbEntity
  8
0
100
AcDbVertex
100
AcDb2dVertex
 10
10.52571240685541
 20
-0.9782864545204105
 30
0.0
 70
     8
  0
VERTEX
  5
171E5
330
17183
100
AcDbEntity
  8
0
100
AcDbVertex
100
AcDb2dVertex
 10
10.58517560130818
 20
-0.9837676967908489
 30
0.0
 70
     8
  0
VERTEX
  5
171E6
330
17183
100
AcDbEntity
  8
0
100
AcDbVertex
100
AcDb2dVertex
 10
10.64323451939387
 20
-0.9900016434681203
 30
0.0
 70
     8
  0
VERTEX
  5
171E7
330
17183
100
AcDbEntity
  8
0
100
AcDbVertex
100
AcDb2dVertex
 10
10.69961251556504
 20
-0.9968312423792793
 30
0.0
 70
     8
  0
VERTEX
  5
171E8
330
17183
100
AcDbEntity
  8
0
100
AcDbVertex
100
AcDb2dVertex
 10
10.75401220359069
 20
-1.004074511191863
 30
0.0
 70
     8
  0
VERTEX
  5
171E9
330
17183
100
AcDbEntity
  8
0
100
AcDbVertex
100
AcDb2dVertex
 10
10.80613619723982
 20
-1.011549467573409
 30
0.0
 70
     8
  0
VERTEX
  5
171EA
330
17183
100
AcDbEntity
  8
0
100
AcDbVertex
100
AcDb2dVertex
 10
10.85568711028146
 20
-1.01907412919146
 30
0.0
 70
     8
  0
VERTEX
  5
171EB
330
17183
100
AcDbEntity
  8
0
100
AcDbVertex
100
AcDb2dVertex
 10
10.9023675564846
 20
-1.026466513713552
 30
0.0
 70
     8
  0
VERTEX
  5
171EC
330
17183
100
AcDbEntity
  8
0
100
AcDbVertex
100
AcDb2dVertex
 10
10.94588014961825
 20
-1.033544638807218
 30
0.0
 70
     8
  0
VERTEX
  5
171ED
330
17183
100
AcDbEntity
  8
0
100
AcDbVertex
100
AcDb2dVertex
 10
10.98592750345142
 20
-1.04012652214
 30
0.0
 70
     8
  0
VERTEX
  5
171EE
330
17183
100
AcDbEntity
  8
0
100
AcDbVertex
100
AcDb2dVertex
 10
11.02228972288967
 20
-1.046072488899574
 30
0.0
 70
     8
  0
VERTEX
  5
171EF
330
17183
100
AcDbEntity
  8
0
100
AcDbVertex
100
AcDb2dVertex
 10
11.05505687738486
 20
-1.051412094354157
 30
0.0
 70
     8
  0
VERTEX
  5
171F0
330
17183
100
AcDbEntity
  8
0
100
AcDbVertex
100
AcDb2dVertex
 10
11.08439652752539
 20
-1.056217201292111
 30
0.0
 70
     8
  0
VERTEX
  5
171F1
330
17183
100
AcDbEntity
  8
0
100
AcDbVertex
100
AcDb2dVertex
 10
11.11047623389968
 20
-1.060559672501797
 30
0.0
 70
     8
  0
VERTEX
  5
171F2
330
17183
100
AcDbEntity
  8
0
100
AcDbVertex
100
AcDb2dVertex
 10
11.13346355709612
 20
-1.064511370771571
 30
0.0
 70
     8
  0
VERTEX
  5
171F3
330
17183
100
AcDbEntity
  8
0
100
AcDbVertex
100
AcDb2dVertex
 10
11.15352605770314
 20
-1.068144158889789
 30
0.0
 70
     8
  0
VERTEX
  5
171F4
330
17183
100
AcDbEntity
  8
0
100
AcDbVertex
100
AcDb2dVertex
 10
11.17083129630914
 20
-1.071529899644819
 30
0.0
 70
     8
  0
VERTEX
  5
171F5
330
17183
100
AcDbEntity
  8
0
100
AcDbVertex
100
AcDb2dVertex
 10
11.18554683350252
 20
-1.074740455825015
 30
0.0
 70
     8
  0
VERTEX
  5
171F6
330
17183
100
AcDbEntity
  8
0
100
AcDbVertex
100
AcDb2dVertex
 10
11.19784139123691
 20
-1.07783896084427
 30
0.0
 70
     8
  0
VERTEX
  5
171F7
330
17183
100
AcDbEntity
  8
0
100
AcDbVertex
100
AcDb2dVertex
 10
11.20788833692671
 20
-1.080853630618657
 30
0.0
 70
     8
  0
VERTEX
  5
171F8
330
17183
100
AcDbEntity
  8
0
100
AcDbVertex
100
AcDb2dVertex
 10
11.21586219935154
 20
-1.083803951689766
 30
0.0
 70
     8
  0
VERTEX
  5
171F9
330
17183
100
AcDbEntity
  8
0
100
AcDbVertex
100
AcDb2dVertex
 10
11.221937507291
 20
-1.086709410599194
 30
0.0
 70
     8
  0
VERTEX
  5
171FA
330
17183
100
AcDbEntity
  8
0
100
AcDbVertex
100
AcDb2dVertex
 10
11.22628878952471
 20
-1.089589493888552
 30
0.0
 70
     8
  0
VERTEX
  5
171FB
330
17183
100
AcDbEntity
  8
0
100
AcDbVertex
100
AcDb2dVertex
 10
11.22909057483229
 20
-1.092463688099427
 30
0.0
 70
     8
  0
VERTEX
  5
171FC
330
17183
100
AcDbEntity
  8
0
100
AcDbVertex
100
AcDb2dVertex
 10
11.23051739199332
 20
-1.095351479773424
 30
0.0
 70
     8
  0
VERTEX
  5
171FD
330
17183
100
AcDbEntity
  8
0
100
AcDbVertex
100
AcDb2dVertex
 10
11.23074376978745
 20
-1.098272355452148
 30
0.0
 70
     8
  0
VERTEX
  5
171FE
330
17183
100
AcDbEntity
  8
0
100
AcDbVertex
100
AcDb2dVertex
 10
11.22985760590454
 20
-1.101250767954491
 30
0.0
 70
     8
  0
VERTEX
  5
171FF
330
17183
100
AcDbEntity
  8
0
100
AcDbVertex
100
AcDb2dVertex
 10
11.22760027367561
 20
-1.104331035208577
 30
0.0
 70
     8
  0
VERTEX
  5
17200
330
17183
100
AcDbEntity
  8
0
100
AcDbVertex
100
AcDb2dVertex
 10
11.22362651534193
 20
-1.10756244141983
 30
0.0
 70
     8
  0
VERTEX
  5
17201
330
17183
100
AcDbEntity
  8
0
100
AcDbVertex
100
AcDb2dVertex
 10
11.21759107314478
 20
-1.110994270793673
 30
0.0
 70
     8
  0
VERTEX
  5
17202
330
17183
100
AcDbEntity
  8
0
100
AcDbVertex
100
AcDb2dVertex
 10
11.20914868932545
 20
-1.114675807535529
 30
0.0
 70
     8
  0
VERTEX
  5
17203
330
17183
100
AcDbEntity
  8
0
100
AcDbVertex
100
AcDb2dVertex
 10
11.19795410612521
 20
-1.118656335850822
 30
0.0
 70
     8
  0
VERTEX
  5
17204
330
17183
100
AcDbEntity
  8
0
100
AcDbVertex
100
AcDb2dVertex
 10
11.18366206578534
 20
-1.122985139944969
 30
0.0
 70
     8
  0
VERTEX
  5
17205
330
17183
100
AcDbEntity
  8
0
100
AcDbVertex
100
AcDb2dVertex
 10
11.16592731054713
 20
-1.127711504023394
 30
0.0
 70
     8
  0
VERTEX
  5
17206
330
17183
100
AcDbEntity
  8
0
100
AcDbVertex
100
AcDb2dVertex
 10
11.14453062914594
 20
-1.132875403053805
 30
0.0
 70
     8
  0
VERTEX
  5
17207
330
17183
100
AcDbEntity
  8
0
100
AcDbVertex
100
AcDb2dVertex
 10
11.1197569962935
 20
-1.138479575053022
 30
0.0
 70
     8
  0
VERTEX
  5
17208
330
17183
100
AcDbEntity
  8
0
100
AcDbVertex
100
AcDb2dVertex
 10
11.09201743319563
 20
-1.144517448800151
 30
0.0
 70
     8
  0
VERTEX
  5
17209
330
17183
100
AcDbEntity
  8
0
100
AcDbVertex
100
AcDb2dVertex
 10
11.06172296105816
 20
-1.150982453074286
 30
0.0
 70
     8
  0
VERTEX
  5
1720A
330
17183
100
AcDbEntity
  8
0
100
AcDbVertex
100
AcDb2dVertex
 10
11.02928460108692
 20
-1.157868016654542
 30
0.0
 70
     8
  0
VERTEX
  5
1720B
330
17183
100
AcDbEntity
  8
0
100
AcDbVertex
100
AcDb2dVertex
 10
10.99511337448769
 20
-1.16516756832002
 30
0.0
 70
     8
  0
VERTEX
  5
1720C
330
17183
100
AcDbEntity
  8
0
100
AcDbVertex
100
AcDb2dVertex
 10
10.95962030246633
 20
-1.172874536849814
 30
0.0
 70
     8
  0
VERTEX
  5
1720D
330
17183
100
AcDbEntity
  8
0
100
AcDbVertex
100
AcDb2dVertex
 10
10.92321640622866
 20
-1.180982351023035
 30
0.0
 70
     8
  0
VERTEX
  5
1720E
330
17183
100
AcDbEntity
  8
0
100
AcDbVertex
100
AcDb2dVertex
 10
10.88618718671765
 20
-1.189504323849548
 30
0.0
 70
     8
  0
VERTEX
  5
1720F
330
17183
100
AcDbEntity
  8
0
100
AcDbVertex
100
AcDb2dVertex
 10
10.84831606382499
 20
-1.198533305262246
 30
0.0
 70
     8
  0
VERTEX
  5
17210
330
17183
100
AcDbEntity
  8
0
100
AcDbVertex
100
AcDb2dVertex
 10
10.80926093717955
 20
-1.208182029424801
 30
0.0
 70
     8
  0
VERTEX
  5
17211
330
17183
100
AcDbEntity
  8
0
100
AcDbVertex
100
AcDb2dVertex
 10
10.76867970641018
 20
-1.218563230500861
 30
0.0
 70
     8
  0
VERTEX
  5
17212
330
17183
100
AcDbEntity
  8
0
100
AcDbVertex
100
AcDb2dVertex
 10
10.72623027114574
 20
-1.229789642654099
 30
0.0
 70
     8
  0
VERTEX
  5
17213
330
17183
100
AcDbEntity
  8
0
100
AcDbVertex
100
AcDb2dVertex
 10
10.6815705310151
 20
-1.241974000048173
 30
0.0
 70
     8
  0
VERTEX
  5
17214
330
17183
100
AcDbEntity
  8
0
100
AcDbVertex
100
AcDb2dVertex
 10
10.63435838564711
 20
-1.255229036846741
 30
0.0
 70
     8
  0
VERTEX
  5
17215
330
17183
100
AcDbEntity
  8
0
100
AcDbVertex
100
AcDb2dVertex
 10
10.58425173467062
 20
-1.269667487213465
 30
0.0
 70
     8
  0
VERTEX
  5
17216
330
17183
100
AcDbEntity
  8
0
100
AcDbVertex
100
AcDb2dVertex
 10
10.53105166760547
 20
-1.285388156517005
 30
0.0
 70
     8
  0
VERTEX
  5
17217
330
17183
100
AcDbEntity
  8
0
100
AcDbVertex
100
AcDb2dVertex
 10
10.47513203353535
 20
-1.302434134945999
 30
0.0
 70
     8
  0
VERTEX
  5
17218
330
17183
100
AcDbEntity
  8
0
100
AcDbVertex
100
AcDb2dVertex
 10
10.41700987143488
 20
-1.320834583894067
 30
0.0
 70
     8
  0
VERTEX
  5
17219
330
17183
100
AcDbEntity
  8
0
100
AcDbVertex
100
AcDb2dVertex
 10
10.35720222027874
 20
-1.34061866475485
 30
0.0
 70
     8
  0
VERTEX
  5
1721A
330
17183
100
AcDbEntity
  8
0
100
AcDbVertex
100
AcDb2dVertex
 10
10.29622611904156
 20
-1.361815538921981
 30
0.0
 70
     8
  0
VERTEX
  5
1721B
330
17183
100
AcDbEntity
  8
0
100
AcDbVertex
100
AcDb2dVertex
 10
10.23459860669801
 20
-1.384454367789087
 30
0.0
 70
     8
  0
VERTEX
  5
1721C
330
17183
100
AcDbEntity
  8
0
100
AcDbVertex
100
AcDb2dVertex
 10
10.17283672222271
 20
-1.408564312749797
 30
0.0
 70
     8
  0
VERTEX
  5
1721D
330
17183
100
AcDbEntity
  8
0
100
AcDbVertex
100
AcDb2dVertex
 10
10.11145750459035
 20
-1.434174535197749
 30
0.0
 70
     8
  0
VERTEX
  5
1721E
330
17183
100
AcDbEntity
  8
0
100
AcDbVertex
100
AcDb2dVertex
 10
10.0508730757419
 20
-1.461304474179089
 30
0.0
 70
     8
  0
VERTEX
  5
1721F
330
17183
100
AcDbEntity
  8
0
100
AcDbVertex
100
AcDb2dVertex
 10
9.99107588948383
 20
-1.489934679350047
 30
0.0
 70
     8
  0
VERTEX
  5
17220
330
17183
100
AcDbEntity
  8
0
100
AcDbVertex
100
AcDb2dVertex
 10
9.931953482588932
 20
-1.520035978019379
 30
0.0
 70
     8
  0
VERTEX
  5
17221
330
17183
100
AcDbEntity
  8
0
100
AcDbVertex
100
AcDb2dVertex
 10
9.873393391830024
 20
-1.551579197495833
 30
0.0
 70
     8
  0
VERTEX
  5
17222
330
17183
100
AcDbEntity
  8
0
100
AcDbVertex
100
AcDb2dVertex
 10
9.815283153979885
 20
-1.58453516508815
 30
0.0
 70
     8
  0
VERTEX
  5
17223
330
17183
100
AcDbEntity
  8
0
100
AcDbVertex
100
AcDb2dVertex
 10
9.757510305811344
 20
-1.618874708105093
 30
0.0
 70
     8
  0
VERTEX
  5
17224
330
17183
100
AcDbEntity
  8
0
100
AcDbVertex
100
AcDb2dVertex
 10
9.699962384097192
 20
-1.654568653855405
 30
0.0
 70
     8
  0
VERTEX
  5
17225
330
17183
100
AcDbEntity
  8
0
100
AcDbVertex
100
AcDb2dVertex
 10
9.642526925610237
 20
-1.691587829647831
 30
0.0
 70
     8
  0
VERTEX
  5
17226
330
17183
100
AcDbEntity
  8
0
100
AcDbVertex
100
AcDb2dVertex
 10
9.585124622824514
 20
-1.729900724573658
 30
0.0
 70
     8
  0
VERTEX
  5
17227
330
17183
100
AcDbEntity
  8
0
100
AcDbVertex
100
AcDb2dVertex
 10
9.527808791019012
 20
-1.769466474854251
 30
0.0
 70
     8
  0
VERTEX
  5
17228
330
17183
100
AcDbEntity
  8
0
100
AcDbVertex
100
AcDb2dVertex
 10
9.470665901173957
 20
-1.810241878493503
 30
0.0
 70
     8
  0
VERTEX
  5
17229
330
17183
100
AcDbEntity
  8
0
100
AcDbVertex
100
AcDb2dVertex
 10
9.413782424269557
 20
-1.85218373349532
 30
0.0
 70
     8
  0
VERTEX
  5
1722A
330
17183
100
AcDbEntity
  8
0
100
AcDbVertex
100
AcDb2dVertex
 10
9.357244831286051
 20
-1.895248837863593
 30
0.0
 70
     8
  0
VERTEX
  5
1722B
330
17183
100
AcDbEntity
  8
0
100
AcDbVertex
100
AcDb2dVertex
 10
9.301139593203638
 20
-1.939393989602218
 30
0.0
 70
     8
  0
VERTEX
  5
1722C
330
17183
100
AcDbEntity
  8
0
100
AcDbVertex
100
AcDb2dVertex
 10
9.245553181002547
 20
-1.984575986715093
 30
0.0
 70
     8
  0
VERTEX
  5
1722D
330
17183
100
AcDbEntity
  8
0
100
AcDbVertex
100
AcDb2dVertex
 10
9.190572065663006
 20
-2.030751627206122
 30
0.0
 70
     8
  0
VERTEX
  5
1722E
330
17183
100
AcDbEntity
  8
0
100
AcDbVertex
100
AcDb2dVertex
 10
9.136295328502399
 20
-2.077852508004073
 30
0.0
 70
     8
  0
VERTEX
  5
1722F
330
17183
100
AcDbEntity
  8
0
100
AcDbVertex
100
AcDb2dVertex
 10
9.08287249218684
 20
-2.125709421737272
 30
0.0
 70
     8
  0
VERTEX
  5
17230
330
17183
100
AcDbEntity
  8
0
100
AcDbVertex
100
AcDb2dVertex
 10
9.030465689719598
 20
-2.174127959958908
 30
0.0
 70
     8
  0
VERTEX
  5
17231
330
17183
100
AcDbEntity
  8
0
100
AcDbVertex
100
AcDb2dVertex
 10
8.979237054103938
 20
-2.222913714222186
 30
0.0
 70
     8
  0
VERTEX
  5
17232
330
17183
100
AcDbEntity
  8
0
100
AcDbVertex
100
AcDb2dVertex
 10
8.929348718343138
 20
-2.271872276080307
 30
0.0
 70
     8
  0
VERTEX
  5
17233
330
17183
100
AcDbEntity
  8
0
100
AcDbVertex
100
AcDb2dVertex
 10
8.880962815440478
 20
-2.320809237086466
 30
0.0
 70
     8
  0
VERTEX
  5
17234
330
17183
100
AcDbEntity
  8
0
100
AcDbVertex
100
AcDb2dVertex
 10
8.834241478399233
 20
-2.369530188793855
 30
0.0
 70
     8
  0
VERTEX
  5
17235
330
17183
100
AcDbEntity
  8
0
100
AcDbVertex
100
AcDb2dVertex
 10
8.789346840222666
 20
-2.417840722755688
 30
0.0
 70
     8
  0
VERTEX
  5
17236
330
17183
100
AcDbEntity
  8
0
100
AcDbVertex
100
AcDb2dVertex
 10
8.746436126804713
 20
-2.465517820085217
 30
0.0
 70
     8
  0
VERTEX
  5
17237
330
17183
100
AcDbEntity
  8
0
100
AcDbVertex
100
AcDb2dVertex
 10
8.705646935601896
 20
-2.512224020135941
 30
0.0
 70
     8
  0
VERTEX
  5
17238
330
17183
100
AcDbEntity
  8
0
100
AcDbVertex
100
AcDb2dVertex
 10
8.667111956961383
 20
-2.557593251821441
 30
0.0
 70
     8
  0
VERTEX
  5
17239
330
17183
100
AcDbEntity
  8
0
100
AcDbVertex
100
AcDb2dVertex
 10
8.63096388123035
 20
-2.601259444055275
 30
0.0
 70
     8
  0
VERTEX
  5
1723A
330
17183
100
AcDbEntity
  8
0
100
AcDbVertex
100
AcDb2dVertex
 10
8.597335398755964
 20
-2.642856525751013
 30
0.0
 70
     8
  0
VERTEX
  5
1723B
330
17183
100
AcDbEntity
  8
0
100
AcDbVertex
100
AcDb2dVertex
 10
8.566359199885404
 20
-2.682018425822224
 30
0.0
 70
     8
  0
VERTEX
  5
1723C
330
17183
100
AcDbEntity
  8
0
100
AcDbVertex
100
AcDb2dVertex
 10
8.538167974965846
 20
-2.718379073182477
 30
0.0
 70
     8
  0
VERTEX
  5
1723D
330
17183
100
AcDbEntity
  8
0
100
AcDbVertex
100
AcDb2dVertex
 10
8.512894414344451
 20
-2.751572396745335
 30
0.0
 70
     8
  0
VERTEX
  5
1723E
330
17183
100
AcDbEntity
  8
0
100
AcDbVertex
100
AcDb2dVertex
 10
8.490585931198475
 20
-2.781374533370556
 30
0.0
 70
     8
  0
VERTEX
  5
1723F
330
17183
100
AcDbEntity
  8
0
100
AcDbVertex
100
AcDb2dVertex
 10
8.470948830025481
 20
-2.808130451702636
 30
0.0
 70
     8
  0
VERTEX
  5
17240
330
17183
100
AcDbEntity
  8
0
100
AcDbVertex
100
AcDb2dVertex
 10
8.453604138153094
 20
-2.832327328332258
 30
0.0
 70
     8
  0
VERTEX
  5
17241
330
17183
100
AcDbEntity
  8
0
100
AcDbVertex
100
AcDb2dVertex
 10
8.438172882908958
 20
-2.854452339850101
 30
0.0
 70
     8
  0
VERTEX
  5
17242
330
17183
100
AcDbEntity
  8
0
100
AcDbVertex
100
AcDb2dVertex
 10
8.424276091620697
 20
-2.874992662846865
 30
0.0
 70
     8
  0
VERTEX
  5
17243
330
17183
100
AcDbEntity
  8
0
100
AcDbVertex
100
AcDb2dVertex
 10
8.411534791615947
 20
-2.894435473913216
 30
0.0
 70
     8
  0
VERTEX
  5
17244
330
17183
100
AcDbEntity
  8
0
100
AcDbVertex
100
AcDb2dVertex
 10
8.399570010222348
 20
-2.913267949639844
 30
0.0
 70
     8
  0
VERTEX
  5
17245
330
17183
100
AcDbEntity
  8
0
100
AcDbVertex
100
AcDb2dVertex
 10
8.388002774767526
 20
-2.931977266617439
 30
0.0
 70
     8
  0
VERTEX
  5
17246
330
17183
100
AcDbEntity
  8
0
100
AcDbVertex
100
AcDb2dVertex
 10
8.37654318703858
 20
-2.95090216725277
 30
0.0
 70
     8
  0
VERTEX
  5
17247
330
17183
100
AcDbEntity
  8
0
100
AcDbVertex
100
AcDb2dVertex
 10
8.365257646660428
 20
-2.969787657216965
 30
0.0
 70
     8
  0
VERTEX
  5
17248
330
17183
100
AcDbEntity
  8
0
100
AcDbVertex
100
AcDb2dVertex
 10
8.354301627717445
 20
-2.988230307997249
 30
0.0
 70
     8
  0
VERTEX
  5
17249
330
17183
100
AcDbEntity
  8
0
100
AcDbVertex
100
AcDb2dVertex
 10
8.343830604294023
 20
-3.005826691080846
 30
0.0
 70
     8
  0
VERTEX
  5
1724A
330
17183
100
AcDbEntity
  8
0
100
AcDbVertex
100
AcDb2dVertex
 10
8.33400005047455
 20
-3.022173377954965
 30
0.0
 70
     8
  0
VERTEX
  5
1724B
330
17183
100
AcDbEntity
  8
0
100
AcDbVertex
100
AcDb2dVertex
 10
8.324965440343394
 20
-3.036866940106837
 30
0.0
 70
     8
  0
VERTEX
  5
1724C
330
17183
100
AcDbEntity
  8
0
100
AcDbVertex
100
AcDb2dVertex
 10
8.316882247984938
 20
-3.049503949023674
 30
0.0
 70
     8
  0
VERTEX
  5
1724D
330
17183
100
AcDbEntity
  8
0
100
AcDbVertex
100
AcDb2dVertex
 10
8.309905947483558
 20
-3.059680976192709
 30
0.0
 70
     8
  0
VERTEX
  5
1724E
330
17183
100
AcDbEntity
  8
0
100
AcDbVertex
100
AcDb2dVertex
 10
8.304142304241668
 20
-3.067107104656273
 30
0.0
 70
     8
  0
VERTEX
  5
1724F
330
17183
100
AcDbEntity
  8
0
100
AcDbVertex
100
AcDb2dVertex
 10
8.299498248933739
 20
-3.071941463677221
 30
0.0
 70
     8
  0
VERTEX
  5
17250
330
17183
100
AcDbEntity
  8
0
100
AcDbVertex
100
AcDb2dVertex
 10
8.295831003552249
 20
-3.074455694073515
 30
0.0
 70
     8
  0
VERTEX
  5
17251
330
17183
100
AcDbEntity
  8
0
100
AcDbVertex
100
AcDb2dVertex
 10
8.292997790089696
 20
-3.074921436663132
 30
0.0
 70
     8
  0
VERTEX
  5
17252
330
17183
100
AcDbEntity
  8
0
100
AcDbVertex
100
AcDb2dVertex
 10
8.290855830538573
 20
-3.073610332264036
 30
0.0
 70
     8
  0
VERTEX
  5
17253
330
17183
100
AcDbEntity
  8
0
100
AcDbVertex
100
AcDb2dVertex
 10
8.289262346891362
 20
-3.070794021694194
 30
0.0
 70
     8
  0
VERTEX
  5
17254
330
17183
100
AcDbEntity
  8
0
100
AcDbVertex
100
AcDb2dVertex
 10
8.288074561140559
 20
-3.066744145771583
 30
0.0
 70
     8
  0
VERTEX
  5
17255
330
17183
100
AcDbEntity
  8
0
100
AcDbVertex
100
AcDb2dVertex
 10
8.285868181877193
 20
-3.069095371627072
 30
0.0
 70
    16
  0
VERTEX
  5
17256
330
17183
100
AcDbEntity
  8
0
100
AcDbVertex
100
AcDb2dVertex
 10
8.28298473338854
 20
-3.003788566404391
 30
0.0
 70
    16
  0
VERTEX
  5
17257
330
17183
100
AcDbEntity
  8
0
100
AcDbVertex
100
AcDb2dVertex
 10
8.299324159263251
 20
-2.859729561900077
 30
0.0
 70
    16
  0
VERTEX
  5
17258
330
17183
100
AcDbEntity
  8
0
100
AcDbVertex
100
AcDb2dVertex
 10
8.302207521081168
 20
-2.755046681969254
 30
0.0
 70
    16
  0
VERTEX
  5
17259
330
17183
100
AcDbEntity
  8
0
100
AcDbVertex
100
AcDb2dVertex
 10
8.314333102774527
 20
-2.590187543052262
 30
0.0
 70
    16
  0
VERTEX
  5
1725A
330
17183
100
AcDbEntity
  8
0
100
AcDbVertex
100
AcDb2dVertex
 10
8.308798916705034
 20
-2.330284845615516
 30
0.0
 70
    16
  0
VERTEX
  5
1725B
330
17183
100
AcDbEntity
  8
0
100
AcDbVertex
100
AcDb2dVertex
 10
8.369674530115744
 20
-2.020613585797644
 30
0.0
 70
    16
  0
VERTEX
  5
1725C
330
17183
100
AcDbEntity
  8
0
100
AcDbVertex
100
AcDb2dVertex
 10
8.508028055133438
 20
-1.672233349937673
 30
0.0
 70
    16
  0
VERTEX
  5
1725D
330
17183
100
AcDbEntity
  8
0
100
AcDbVertex
100
AcDb2dVertex
 10
8.740461963295844
 20
-1.417860520468466
 30
0.0
 70
    16
  0
VERTEX
  5
1725E
330
17183
100
AcDbEntity
  8
0
100
AcDbVertex
100
AcDb2dVertex
 10
9.094646924938214
 20
-1.15795782303172
 30
0.0
 70
    16
  0
VERTEX
  5
1725F
330
17183
100
AcDbEntity
  8
0
100
AcDbVertex
100
AcDb2dVertex
 10
9.570583113402003
 20
-0.9975923002225664
 30
0.0
 70
    16
  0
VERTEX
  5
17260
330
17183
100
AcDbEntity
  8
0
100
AcDbVertex
100
AcDb2dVertex
 10
10.08525817099856
 20
-0.9533535559436392
 30
0.0
 70
    16
  0
VERTEX
  5
17261
330
17183
100
AcDbEntity
  8
0
100
AcDbVertex
100
AcDb2dVertex
 10
10.59993331526583
 20
-0.9754729280831028
 30
0.0
 70
    16
  0
VERTEX
  5
17262
330
17183
100
AcDbEntity
  8
0
100
AcDbVertex
100
AcDb2dVertex
 10
11.02606217578716
 20
-1.047360912469042
 30
0.0
 70
    16
  0
VERTEX
  5
17263
330
17183
100
AcDbEntity
  8
0
100
AcDbVertex
100
AcDb2dVertex
 10
11.21138300229398
 20
-1.075842554880744
 30
0.0
 70
    16
  0
VERTEX
  5
17264
330
17183
100
AcDbEntity
  8
0
100
AcDbVertex
100
AcDb2dVertex
 10
11.24168681605205
 20
-1.09771160295806
 30
0.0
 70
    16
  0
VERTEX
  5
17265
330
17183
100
AcDbEntity
  8
0
100
AcDbVertex
100
AcDb2dVertex
 10
11.20633235222252
 20
-1.122945165999894
 30
0.0
 70
    16
  0
VERTEX
  5
17266
330
17183
100
AcDbEntity
  8
0
100
AcDbVertex
100
AcDb2dVertex
 10
10.92854763834067
 20
-1.176776757182731
 30
0.0
 70
    16
  0
VERTEX
  5
17267
330
17183
100
AcDbEntity
  8
0
100
AcDbVertex
100
AcDb2dVertex
 10
10.6187755317867
 20
-1.255841911407402
 30
0.0
 70
    16
  0
VERTEX
  5
17268
330
17183
100
AcDbEntity
  8
0
100
AcDbVertex
100
AcDb2dVertex
 10
10.10186064253629
 20
-1.417860520468466
 30
0.0
 70
    16
  0
VERTEX
  5
17269
330
17183
100
AcDbEntity
  8
0
100
AcDbVertex
100
AcDb2dVertex
 10
9.642526925610232
 20
-1.677763217905222
 30
0.0
 70
    16
  0
VERTEX
  5
1726A
330
17183
100
AcDbEntity
  8
0
100
AcDbVertex
100
AcDb2dVertex
 10
9.183193208684173
 20
-2.020613585797644
 30
0.0
 70
    16
  0
VERTEX
  5
1726B
330
17183
100
AcDbEntity
  8
0
100
AcDbVertex
100
AcDb2dVertex
 10
8.768132633631093
 20
-2.424292202140919
 30
0.0
 70
    16
  0
VERTEX
  5
1726C
330
17183
100
AcDbEntity
  8
0
100
AcDbVertex
100
AcDb2dVertex
 10
8.48035729812746
 20
-2.789261942172805
 30
0.0
 70
    16
  0
VERTEX
  5
1726D
330
17183
100
AcDbEntity
  8
0
100
AcDbVertex
100
AcDb2dVertex
 10
8.387804659925775
 20
-2.928094409639879
 30
0.0
 70
    16
  0
SEQEND
  5
1726E
330
17183
100
AcDbEntity
  8
0
  0
LWPOLYLINE
  5
1726F
330
16B91
100
AcDbEntity
  8
0
100
AcDbPolyline
 90
       95
 70
     0
 43
0.0
 10
15.75
 20
-0.4717392797747106
 10
15.74541838652299
 20
-0.4834454450113411
 10
15.73885562774597
 20
-0.4980227998259104
 10
15.73262889180913
 20
-0.5099043084188014
 10
15.72672032242627
 20
-0.5194889951794153
 10
15.7211120633112
 20
-0.527175884497137
 10
15.71578625817773
 20
-0.5333640007613676
 10
15.71072505073967
 20
-0.5384523683614923
 10
15.70590571481458
 20
-0.542789187401815
 10
15.70128604463511
 20
-0.5465193608462098
 10
15.69681896453764
 20
-0.5497369673734588
 10
15.69245739885859
 20
-0.5525360856623499
 10
15.68815427193436
 20
-0.5550107943916542
 10
15.68386250810134
 20
-0.5572551722401653
 10
15.67953503169594
 20
-0.5593632978866491
 10
15.67512476705454
 20
-0.5614292500098986
 10
15.67059356665666
 20
-0.5635341309186476
 10
15.66593899555417
 20
-0.5657071374414351
 10
15.66116754694206
 20
-0.5679644900367677
 10
15.65628571401529
 20
-0.5703224091631469
 10
15.65129998996886
 20
-0.5727971152790682
 10
15.64621686799774
 20
-0.5754048288430331
 10
15.64104284129691
 20
-0.5781617703135426
 10
15.63578440306136
 20
-0.5810841601491036
 10
15.63045345751007
 20
-0.5841806492901239
 10
15.6250835529582
 20
-0.587429610604703
 10
15.61971364874487
 20
-0.5908018474428417
 10
15.61438270420927
 20
-0.5942681631545464
 10
15.60912967869053
 20
-0.5977993610898231
 10
15.6039935315278
 20
-0.6013662445986835
 10
15.59901322206026
 20
-0.6049396170311339
 10
15.59422770962703
 20
-0.6084902817371804
 10
15.58965485054256
 20
-0.6120041811029943
 10
15.58522808902222
 20
-0.6155278136594068
 10
15.5808597662567
 20
-0.6191228169734088
 10
15.57646222343666
 20
-0.6228508286119913
 10
15.57194780175276
 20
-0.6267734861421556
 10
15.56722884239568
 20
-0.6309524271308929
 10
15.56221768655606
 20
-0.6354492891451939
 10
15.55682667542458
 20
-0.6403257097520548
 10
15.55099682872365
 20
-0.6456222399678686
 10
15.54478388030265
 20
-0.6512950846066256
 10
15.53827224254269
 20
-0.6572793619317232
 10
15.5315463278249
 20
-0.663510190206543
 10
15.52469054853043
 20
-0.6699226876944877
 10
15.51778931704037
 20
-0.6764519726589393
 10
15.51092704573587
 20
-0.6830331633632949
 10
15.50418814699803
 20
-0.6896013780709416
 10
15.49764080002305
 20
-0.6961020079731123
 10
15.49128825126735
 20
-0.7025215359723493
 10
15.48511751400242
 20
-0.7088567178990413
 10
15.47911560149973
 20
-0.7151043095835819
 10
15.47326952703078
 20
-0.7212610668563436
 10
15.46756630386705
 20
-0.7273237455477146
 10
15.46199294528001
 20
-0.7332891014880891
 10
15.45653646454116
 20
-0.7391538905078445
 10
15.45118982710201
 20
-0.744925141430131
 10
15.44596980713424
 20
-0.7506509750491336
 10
15.44089913098955
 20
-0.7563897851518094
 10
15.43600052501964
 20
-0.7621999655251104
 10
15.43129671557623
 20
-0.7681399099559884
 10
15.42681042901101
 20
-0.7742680122313953
 10
15.42256439167571
 20
-0.7806426661382831
 10
15.41858132992201
 20
-0.7873222654636036
 10
15.41487910020539
 20
-0.7943527682704993
 10
15.41145607939639
 20
-0.8017303897268865
 10
15.40830577446931
 20
-0.8094389092768723
 10
15.40542169239844
 20
-0.8174621063645638
 10
15.4027973401581
 20
-0.8257837604340673
 10
15.40042622472256
 20
-0.8343876509294853
 10
15.39830185306614
 20
-0.8432575572949241
 10
15.39641773216313
 20
-0.8523772589744909
 10
15.3947641222775
 20
-0.8617251285927977
 10
15.39331829683182
 20
-0.8712579114964441
 10
15.39205428253836
 20
-0.8809269462125344
 10
15.39094610610934
 20
-0.8906835712681786
 10
15.38996779425703
 20
-0.900479125190481
 10
15.38909337369367
 20
-0.9102649465065411
 10
15.3882968711315
 20
-0.9199923737434739
 10
15.38755231328276
 20
-0.9296127454283785
 10
15.38683589139911
 20
-0.9391003791442829
 10
15.38613245488974
 20
-0.9485215086978916
 10
15.38542901770326
 20
-0.9579653469518436
 10
15.38471259378826
 20
-0.9675211067687563
 10
15.38397019709334
 20
-0.9772780010112628
 10
15.3831888415671
 20
-0.9873252425419915
 10
15.38235554115815
 20
-0.9977520442235757
 10
15.38145730981509
 20
-1.008647618918637
 10
15.3804687159422
 20
-1.020134701699287
 10
15.37931454576661
 20
-1.032470116475553
 10
15.37790713997116
 20
-1.045944209366934
 10
15.37615883923869
 20
-1.060847326492935
 10
15.373981984252
 20
-1.07746981397306
 10
15.37128891569394
 20
-1.096102017926819
 10
15.36984592439344
 20
-1.10526356326091
  0
LINE
  5
172D0
330
16B91
100
AcDbEntity
  8
0
100
AcDbLine
 10
15.75
 20
0.0
 30
0.0
 11
15.75
 21
-0.471739279774708
 31
0.0
  0
ENDBLK
  5
16B93
330
16B91
100
AcDbEntity
  8
0
100
AcDbBlockEnd
  0
BLOCK
  5
172D4
330
172D3
100
AcDbEntity
  8
0
100
AcDbBlockBegin
  2
2219f
 70
     0
 10
0.0
 20
0.0
 30
0.0
  3
2219f
  1

  0
LINE
  5
172D6
330
172D3
100
AcDbEntity
  8
0
100
AcDbLine
 10
-0.0000000000000036
 20
-9.340715222776307
 30
0.0
 11
-0.0000000000000036
 21
-3.448303349577709
 31
0.0
  0
ARC
  5
172D7
330
172D3
100
AcDbEntity
  8
0
100
AcDbCircle
 10
1.805664365745776
 20
-9.164902535796258
 30
0.0
 40
2.10102408010406
100
AcDbArc
 50
105.3356470717284
 51
149.2516428243024
  0
ARC
  5
172D8
330
172D3
100
AcDbEntity
  8
0
100
AcDbCircle
 10
-1.805664365745775
 20
-9.164902535796258
 30
0.0
 40
2.10102408010406
100
AcDbArc
 50
30.74835717569758
 51
74.66435292827156
  0
ARC
  5
172D9
330
172D3
100
AcDbEntity
  8
0
100
AcDbCircle
 10
1.805664365745776
 20
-9.414902535796258
 30
0.0
 40
2.10102408010406
100
AcDbArc
 50
105.3356470717284
 51
149.2516428243024
  0
ARC
  5
172DA
330
172D3
100
AcDbEntity
  8
0
100
AcDbCircle
 10
-1.805664365745775
 20
-9.414902535796258
 30
0.0
 40
2.10102408010406
100
AcDbArc
 50
30.74835717569758
 51
74.66435292827156
  0
ARC
  5
172DB
330
172D3
100
AcDbEntity
  8
0
100
AcDbCircle
 10
1.805664365745776
 20
-9.664902535796258
 30
0.0
 40
2.10102408010406
100
AcDbArc
 50
105.3356470717284
 51
149.2516428243024
  0
ARC
  5
172DC
330
172D3
100
AcDbEntity
  8
0
100
AcDbCircle
 10
-1.805664365745775
 20
-9.664902535796258
 30
0.0
 40
2.10102408010406
100
AcDbArc
 50
30.74835717569758
 51
74.66435292827156
  0
ARC
  5
172DD
330
172D3
100
AcDbEntity
  8
0
100
AcDbCircle
 10
1.805664365745776
 20
-9.914902535796258
 30
0.0
 40
2.10102408010406
100
AcDbArc
 50
105.3356470717284
 51
149.2516428243024
  0
ARC
  5
172DE
330
172D3
100
AcDbEntity
  8
0
100
AcDbCircle
 10
-1.805664365745775
 20
-9.914902535796258
 30
0.0
 40
2.10102408010406
100
AcDbArc
 50
30.74835717569758
 51
74.66435292827156
  0
LINE
  5
172DF
330
172D3
100
AcDbEntity
  8
0
100
AcDbLine
 10
1.25
 20
-0.7577735710270401
 30
0.0
 11
1.25
 21
-9.340715222776307
 31
0.0
  0
LINE
  5
172E0
330
172D3
100
AcDbEntity
  8
0
100
AcDbLine
 10
-1.249999999999998
 20
-0.7577735710270401
 30
0.0
 11
-1.250000000000001
 21
-9.340715222776307
 31
0.0
  0
LINE
  5
172E1
330
172D3
100
AcDbEntity
  8
0
100
AcDbLine
 10
-1.875000000000001
 20
-0.7577735710270395
 30
0.0
 11
-1.875000000000003
 21
-9.340715222776307
 31
0.0
  0
LINE
  5
172E2
330
172D3
100
AcDbEntity
  8
0
100
AcDbLine
 10
1.875000000000003
 20
-0.7577735710270424
 30
0.0
 11
1.874999999999996
 21
-9.340715222776307
 31
0.0
  0
LINE
  5
172E3
330
172D3
100
AcDbEntity
  8
0
100
AcDbLine
 10
-1.875000000000003
 20
-9.340715222776307
 30
0.0
 11
1.874999999999996
 21
-9.340715222776307
 31
0.0
  0
ARC
  5
172E4
330
172D3
100
AcDbEntity
  8
0
100
AcDbCircle
 10
1.805664365745776
 20
-10.41490253579626
 30
0.0
 40
2.10102408010406
100
AcDbArc
 50
105.3356470717284
 51
149.2516428243024
  0
ARC
  5
172E5
330
172D3
100
AcDbEntity
  8
0
100
AcDbCircle
 10
-1.805664365745775
 20
-10.41490253579626
 30
0.0
 40
2.10102408010406
100
AcDbArc
 50
30.74835717569758
 51
74.66435292827156
  0
ARC
  5
172E6
330
172D3
100
AcDbEntity
  8
0
100
AcDbCircle
 10
1.805664365745776
 20
-10.16490253579626
 30
0.0
 40
2.10102408010406
100
AcDbArc
 50
105.3356470717284
 51
149.2516428243024
  0
ARC
  5
172E7
330
172D3
100
AcDbEntity
  8
0
100
AcDbCircle
 10
-1.805664365745775
 20
-10.16490253579626
 30
0.0
 40
2.10102408010406
100
AcDbArc
 50
30.74835717569758
 51
74.66435292827156
  0
LINE
  5
172E8
330
172D3
100
AcDbEntity
  8
0
100
AcDbLine
 10
-1.5625
 20
-0.7577735710270398
 30
0.0
 11
1.562499999999996
 21
-0.7577735710270421
 31
0.0
  0
LINE
  5
172E9
330
172D3
100
AcDbEntity
  8
0
100
AcDbLine
 10
-1.750000000000001
 20
-3.63106256790761
 30
0.0
 11
-1.375
 21
-3.63106256790761
 31
0.0
  0
LINE
  5
172EA
330
172D3
100
AcDbEntity
  8
0
100
AcDbLine
 10
-1.874999999999998
 20
-0.471739279774708
 30
0.0
 11
1.875000000000003
 21
-0.4717392797747109
 31
0.0
  0
LINE
  5
172EB
330
172D3
100
AcDbEntity
  8
0
100
AcDbLine
 10
-1.875
 20
0.0
 30
0.0
 11
1.875000000000003
 21
0.0
 31
0.0
  0
ARC
  5
172EC
330
172D3
100
AcDbEntity
  8
0
100
AcDbCircle
 10
-1.750000000000001
 20
-3.50606256790761
 30
0.0
 40
0.125
100
AcDbArc
 50
180.0
 51
270.0
  0
LINE
  5
172ED
330
172D3
100
AcDbEntity
  8
0
100
AcDbLine
 10
-1.875
 20
0.0
 30
0.0
 11
-1.875000000000001
 21
-0.471739279774708
 31
0.0
  0
ARC
  5
172EE
330
172D3
100
AcDbEntity
  8
0
100
AcDbCircle
 10
-2.008606097580484
 20
-0.9314318495163444
 30
0.0
 40
0.4787147877247547
100
AcDbArc
 50
21.2697558707232
 51
73.79390155663613
  0
ARC
  5
172EF
330
172D3
100
AcDbEntity
  8
0
100
AcDbCircle
 10
-1.428893902419515
 20
-0.9314318495163444
 30
0.0
 40
0.4787147877247547
100
AcDbArc
 50
127.2639719101909
 51
158.7302441292768
  0
LINE
  5
172F0
330
172D3
100
AcDbEntity
  8
0
100
AcDbLine
 10
0.1249999999999964
 20
-0.7577735710270411
 30
0.0
 11
0.1249999999999929
 21
-3.506062567907608
 31
0.0
  0
LINE
  5
172F1
330
172D3
100
AcDbEntity
  8
0
100
AcDbLine
 10
1.875
 20
-0.7577735710270395
 30
0.0
 11
1.875
 21
-3.50606256790761
 31
0.0
  0
LINE
  5
172F2
330
172D3
100
AcDbEntity
  8
0
100
AcDbLine
 10
-0.1249999999999964
 20
-0.7577735710270411
 30
0.0
 11
-0.1249999999999929
 21
-3.506062567907608
 31
0.0
  0
ARC
  5
172F3
330
172D3
100
AcDbEntity
  8
0
100
AcDbCircle
 10
-1.805664365745775
 20
-6.212978252399953
 30
0.0
 40
2.10102408010406
100
AcDbArc
 50
30.74835717569758
 51
74.66435292827156
  0
ARC
  5
172F4
330
172D3
100
AcDbEntity
  8
0
100
AcDbCircle
 10
1.805664365745776
 20
-6.212978252399953
 30
0.0
 40
2.10102408010406
100
AcDbArc
 50
105.3356470717284
 51
149.2516428243024
  0
ARC
  5
172F5
330
172D3
100
AcDbEntity
  8
0
100
AcDbCircle
 10
-1.805664365745775
 20
-6.967967837072079
 30
0.0
 40
2.10102408010406
100
AcDbArc
 50
30.74835717569758
 51
74.66435292827156
  0
ARC
  5
172F6
330
172D3
100
AcDbEntity
  8
0
100
AcDbCircle
 10
1.805664365745776
 20
-6.967967837072079
 30
0.0
 40
2.10102408010406
100
AcDbArc
 50
105.3356470717284
 51
149.2516428243024
  0
ARC
  5
172F7
330
172D3
100
AcDbEntity
  8
0
100
AcDbCircle
 10
1.805664365745776
 20
-7.815029323471692
 30
0.0
 40
2.10102408010406
100
AcDbArc
 50
105.3356470717284
 51
149.2516428243024
  0
ARC
  5
172F8
330
172D3
100
AcDbEntity
  8
0
100
AcDbCircle
 10
-1.805664365745775
 20
-7.815029323471692
 30
0.0
 40
2.10102408010406
100
AcDbArc
 50
30.74835717569758
 51
74.66435292827156
  0
ARC
  5
172F9
330
172D3
100
AcDbEntity
  8
0
100
AcDbCircle
 10
1.805664365745776
 20
-8.164902535796258
 30
0.0
 40
2.10102408010406
100
AcDbArc
 50
105.3356470717284
 51
149.2516428243024
  0
ARC
  5
172FA
330
172D3
100
AcDbEntity
  8
0
100
AcDbCircle
 10
-1.805664365745775
 20
-8.164902535796258
 30
0.0
 40
2.10102408010406
100
AcDbArc
 50
30.74835717569758
 51
74.66435292827156
  0
ARC
  5
172FB
330
172D3
100
AcDbEntity
  8
0
100
AcDbCircle
 10
1.805664365745776
 20
-8.414902535796258
 30
0.0
 40
2.10102408010406
100
AcDbArc
 50
105.3356470717284
 51
149.2516428243024
  0
ARC
  5
172FC
330
172D3
100
AcDbEntity
  8
0
100
AcDbCircle
 10
-1.805664365745775
 20
-8.414902535796258
 30
0.0
 40
2.10102408010406
100
AcDbArc
 50
30.74835717569758
 51
74.66435292827156
  0
ARC
  5
172FD
330
172D3
100
AcDbEntity
  8
0
100
AcDbCircle
 10
1.805664365745776
 20
-8.664902535796258
 30
0.0
 40
2.10102408010406
100
AcDbArc
 50
105.3356470717284
 51
149.2516428243024
  0
ARC
  5
172FE
330
172D3
100
AcDbEntity
  8
0
100
AcDbCircle
 10
-1.805664365745775
 20
-8.664902535796258
 30
0.0
 40
2.10102408010406
100
AcDbArc
 50
30.74835717569758
 51
74.66435292827156
  0
ARC
  5
172FF
330
172D3
100
AcDbEntity
  8
0
100
AcDbCircle
 10
1.805664365745776
 20
-8.914902535796258
 30
0.0
 40
2.10102408010406
100
AcDbArc
 50
105.3356470717284
 51
149.2516428243024
  0
ARC
  5
17300
330
172D3
100
AcDbEntity
  8
0
100
AcDbCircle
 10
-1.805664365745775
 20
-8.914902535796258
 30
0.0
 40
2.10102408010406
100
AcDbArc
 50
30.74835717569758
 51
74.66435292827156
  0
ARC
  5
17301
330
172D3
100
AcDbEntity
  8
0
100
AcDbCircle
 10
-1.805664365745775
 20
-7.501984852851616
 30
0.0
 40
2.10102408010406
100
AcDbArc
 50
30.74835717569758
 51
74.66435292827156
  0
ARC
  5
17302
330
172D3
100
AcDbEntity
  8
0
100
AcDbCircle
 10
1.805664365745776
 20
-7.501984852851616
 30
0.0
 40
2.10102408010406
100
AcDbArc
 50
105.3356470717284
 51
149.2516428243024
  0
ARC
  5
17303
330
172D3
100
AcDbEntity
  8
0
100
AcDbCircle
 10
1.375
 20
-3.50606256790761
 30
0.0
 40
0.125
100
AcDbArc
 50
180.0
 51
270.0
  0
ARC
  5
17304
330
172D3
100
AcDbEntity
  8
0
100
AcDbCircle
 10
-1.805664365745775
 20
-5.38433118431885
 30
0.0
 40
2.10102408010406
100
AcDbArc
 50
30.74835717569758
 51
71.29127808424418
  0
ARC
  5
17305
330
172D3
100
AcDbEntity
  8
0
100
AcDbCircle
 10
1.805664365745776
 20
-5.38433118431885
 30
0.0
 40
2.10102408010406
100
AcDbArc
 50
108.7087219157558
 51
149.2516428243024
  0
ARC
  5
17306
330
172D3
100
AcDbEntity
  8
0
100
AcDbCircle
 10
0.0000000000000036
 20
-3.612442753211781
 30
0.0
 40
0.1641394036340724
100
AcDbArc
 50
40.39916176224932
 51
139.6008382377537
  0
ARC
  5
17307
330
172D3
100
AcDbEntity
  8
0
100
AcDbCircle
 10
-0.6874999999999965
 20
-3.982908748387405
 30
0.0
 40
0.7374201854019004
100
AcDbArc
 50
40.28882933916245
 51
139.7111706608376
  0
ARC
  5
17308
330
172D3
100
AcDbEntity
  8
0
100
AcDbCircle
 10
-1.375
 20
-3.50606256790761
 30
0.0
 40
0.125
100
AcDbArc
 50
270.0
 51
0.0
  0
ARC
  5
17309
330
172D3
100
AcDbEntity
  8
0
100
AcDbCircle
 10
0.6874999999999965
 20
-3.982908748387405
 30
0.0
 40
0.7374201854019004
100
AcDbArc
 50
40.28882933916235
 51
139.7111706608375
  0
LINE
  5
1730A
330
172D3
100
AcDbEntity
  8
0
100
AcDbLine
 10
1.75
 20
-3.63106256790761
 30
0.0
 11
1.375
 21
-3.63106256790761
 31
0.0
  0
ARC
  5
1730B
330
172D3
100
AcDbEntity
  8
0
100
AcDbCircle
 10
1.75
 20
-3.50606256790761
 30
0.0
 40
0.125
100
AcDbArc
 50
270.0
 51
0.0000000000000127
  0
LINE
  5
1730C
330
172D3
100
AcDbEntity
  8
0
100
AcDbLine
 10
1.875000000000003
 20
0.0
 30
0.0
 11
1.875000000000003
 21
-0.4717392797747109
 31
0.0
  0
ARC
  5
1730D
330
172D3
100
AcDbEntity
  8
0
100
AcDbCircle
 10
2.008606097580482
 20
-0.9314318495163444
 30
0.0
 40
0.4787147877247547
100
AcDbArc
 50
106.2060984433639
 51
158.7302441292768
  0
ARC
  5
1730E
330
172D3
100
AcDbEntity
  8
0
100
AcDbCircle
 10
1.428893902419517
 20
-0.9314318495163444
 30
0.0
 40
0.4787147877247547
100
AcDbArc
 50
21.26975587072321
 51
52.73602808980905
  0
ENDBLK
  5
172D5
330
172D3
100
AcDbEntity
  8
0
100
AcDbBlockEnd
  0
BLOCK
  5
17F6B
330
17F60
100
AcDbEntity
  8
0
100
AcDbBlockBegin
  2
*D2
 70
     1
 10
0.0
 20
0.0
 30
0.0
  3
*D2
  1

  0
LINE
  5
17F99
330
17F60
100
AcDbEntity
  8
DIM
 62
     0
370
    -2
100
AcDbLine
 10
82.51777447867262
 20
20.24908076408137
 30
0.0
 11
78.29510810615755
 21
20.24908076408137
 31
0.0
  0
LINE
  5
17F9A
330
17F60
100
AcDbEntity
  8
DIM
 62
     0
370
    -2
100
AcDbLine
 10
82.5177744786726
 20
31.24908076408137
 30
0.0
 11
78.29510810615755
 21
31.24908076408137
 31
0.0
  0
LINE
  5
17F9B
330
17F60
100
AcDbEntity
  8
DIM
 62
     0
370
    -2
100
AcDbLine
 10
78.47510810615756
 20
20.42908076408137
 30
0.0
 11
78.47510810615756
 21
25.28408076408136
 31
0.0
  0
LINE
  5
17F9C
330
17F60
100
AcDbEntity
  8
DIM
 62
     0
370
    -2
100
AcDbLine
 10
78.47510810615756
 20
31.06908076408137
 30
0.0
 11
78.47510810615756
 21
26.21408076408136
 31
0.0
  0
SOLID
  5
17F9D
330
17F60
100
AcDbEntity
  8
DIM
 62
     0
100
AcDbTrace
 10
78.44510810615756
 20
20.42908076408137
 30
0.0
 11
78.50510810615756
 21
20.42908076408137
 31
0.0
 12
78.47510810615756
 22
20.24908076408137
 32
0.0
 13
78.47510810615756
 23
20.24908076408137
 33
0.0
  0
SOLID
  5
17F9E
330
17F60
100
AcDbEntity
  8
DIM
 62
     0
100
AcDbTrace
 10
78.44510810615756
 20
31.06908076408137
 30
0.0
 11
78.50510810615756
 21
31.06908076408137
 31
0.0
 12
78.47510810615756
 22
31.24908076408137
 32
0.0
 13
78.47510810615756
 23
31.24908076408137
 33
0.0
  0
MTEXT
  5
17F9F
330
17F60
100
AcDbEntity
  8
DIM
 62
     0
100
AcDbMText
 10
78.47510810615756
 20
25.74908076408138
 30
0.0
 40
0.75
 41
0.0
 71
     5
 72
     1
  1
\A1;11
 73
     1
 44
1.0
  0
POINT
  5
17FA0
330
17F60
100
AcDbEntity
  8
Defpoints
 62
     0
100
AcDbPoint
 10
82.58027447867261
 20
20.24908076408137
 30
0.0
  0
POINT
  5
17FA1
330
17F60
100
AcDbEntity
  8
Defpoints
 62
     0
100
AcDbPoint
 10
82.58027447867261
 20
31.24908076408137
 30
0.0
  0
POINT
  5
17FA2
330
17F60
100
AcDbEntity
  8
Defpoints
 62
     0
100
AcDbPoint
 10
78.47510810615756
 20
31.24908076408137
 30
0.0
  0
ENDBLK
  5
17F6C
330
17F60
100
AcDbEntity
  8
0
100
AcDbBlockEnd
  0
BLOCK
  5
17F79
330
17F6E
100
AcDbEntity
  8
0
100
AcDbBlockBegin
  2
*D3
 70
     1
 10
0.0
 20
0.0
 30
0.0
  3
*D3
  1

  0
LINE
  5
17FA3
330
17F6E
100
AcDbEntity
  8
DIM
 62
     0
370
    -2
100
AcDbLine
 10
84.16982762166844
 20
29.41274537256177
 30
0.0
 11
84.16982762166844
 21
34.35857444623621
 31
0.0
  0
LINE
  5
17FA4
330
17F6E
100
AcDbEntity
  8
DIM
 62
     0
370
    -2
100
AcDbLine
 10
81.04482762166844
 20
29.41274537256177
 30
0.0
 11
81.04482762166844
 21
34.35857444623621
 31
0.0
  0
LINE
  5
17FA5
330
17F6E
100
AcDbEntity
  8
DIM
 62
     0
370
    -2
100
AcDbLine
 10
83.98982762166843
 20
34.17857444623621
 30
0.0
 11
83.32232762166844
 21
34.17857444623621
 31
0.0
  0
LINE
  5
17FA6
330
17F6E
100
AcDbEntity
  8
DIM
 62
     0
370
    -2
100
AcDbLine
 10
81.22482762166844
 20
34.17857444623621
 30
0.0
 11
81.89232762166843
 21
34.17857444623621
 31
0.0
  0
SOLID
  5
17FA7
330
17F6E
100
AcDbEntity
  8
DIM
 62
     0
100
AcDbTrace
 10
83.98982762166843
 20
34.20857444623621
 30
0.0
 11
83.98982762166843
 21
34.14857444623621
 31
0.0
 12
84.16982762166844
 22
34.17857444623621
 32
0.0
 13
84.16982762166844
 23
34.17857444623621
 33
0.0
  0
SOLID
  5
17FA8
330
17F6E
100
AcDbEntity
  8
DIM
 62
     0
100
AcDbTrace
 10
81.22482762166844
 20
34.20857444623621
 30
0.0
 11
81.22482762166844
 21
34.14857444623621
 31
0.0
 12
81.04482762166844
 22
34.17857444623621
 32
0.0
 13
81.04482762166844
 23
34.17857444623621
 33
0.0
  0
MTEXT
  5
17FA9
330
17F6E
100
AcDbEntity
  8
DIM
 62
     0
100
AcDbMText
 10
82.60732762166844
 20
34.17857444623621
 30
0.0
 40
0.75
 41
0.0
 71
     5
 72
     1
  1
\A1;3{\H1.000000x;\S1/8;}
 73
     1
 44
1.0
  0
POINT
  5
17FAA
330
17F6E
100
AcDbEntity
  8
Defpoints
 62
     0
100
AcDbPoint
 10
84.16982762166844
 20
29.35024537256177
 30
0.0
  0
POINT
  5
17FAB
330
17F6E
100
AcDbEntity
  8
Defpoints
 62
     0
100
AcDbPoint
 10
81.04482762166844
 20
29.35024537256177
 30
0.0
  0
POINT
  5
17FAC
330
17F6E
100
AcDbEntity
  8
Defpoints
 62
     0
100
AcDbPoint
 10
81.04482762166844
 20
34.17857444623621
 30
0.0
  0
ENDBLK
  5
17F7A
330
17F6E
100
AcDbEntity
  8
0
100
AcDbBlockEnd
  0
BLOCK
  5
18030
330
18025
100
AcDbEntity
  8
0
100
AcDbBlockBegin
  2
*D6
 70
     1
 10
0.0
 20
0.0
 30
0.0
  3
*D6
  1

  0
LINE
  5
18034
330
18025
100
AcDbEntity
  8
DIM
 62
     0
370
    -2
100
AcDbLine
 10
92.37041483053047
 20
31.31158076408137
 30
0.0
 11
92.37041483053047
 21
34.00760739747759
 31
0.0
  0
LINE
  5
18035
330
18025
100
AcDbEntity
  8
DIM
 62
     0
370
    -2
100
AcDbLine
 10
88.99541483053047
 20
28.62200567445626
 30
0.0
 11
88.99541483053047
 21
34.00760739747759
 31
0.0
  0
LINE
  5
18036
330
18025
100
AcDbEntity
  8
DIM
 62
     0
370
    -2
100
AcDbLine
 10
92.19041483053047
 20
33.82760739747759
 30
0.0
 11
91.39791483053048
 21
33.82760739747759
 31
0.0
  0
LINE
  5
18037
330
18025
100
AcDbEntity
  8
DIM
 62
     0
370
    -2
100
AcDbLine
 10
89.17541483053048
 20
33.82760739747759
 30
0.0
 11
89.96791483053048
 21
33.82760739747759
 31
0.0
  0
SOLID
  5
18038
330
18025
100
AcDbEntity
  8
DIM
 62
     0
100
AcDbTrace
 10
92.19041483053047
 20
33.85760739747759
 30
0.0
 11
92.19041483053047
 21
33.79760739747759
 31
0.0
 12
92.37041483053047
 22
33.82760739747759
 32
0.0
 13
92.37041483053047
 23
33.82760739747759
 33
0.0
  0
SOLID
  5
18039
330
18025
100
AcDbEntity
  8
DIM
 62
     0
100
AcDbTrace
 10
89.17541483053048
 20
33.85760739747759
 30
0.0
 11
89.17541483053048
 21
33.79760739747759
 31
0.0
 12
88.99541483053047
 22
33.82760739747759
 32
0.0
 13
88.99541483053047
 23
33.82760739747759
 33
0.0
  0
MTEXT
  5
1803A
330
18025
100
AcDbEntity
  8
DIM
 62
     0
100
AcDbMText
 10
90.68291483053048
 20
33.82760739747759
 30
0.0
 40
0.75
 41
0.0
 71
     5
 72
     1
  1
\A1;3{\H1.000000x;\S3/8;}
 73
     1
 44
1.0
  0
POINT
  5
1803B
330
18025
100
AcDbEntity
  8
Defpoints
 62
     0
100
AcDbPoint
 10
92.37041483053047
 20
31.24908076408137
 30
0.0
  0
POINT
  5
1803C
330
18025
100
AcDbEntity
  8
Defpoints
 62
     0
100
AcDbPoint
 10
88.99541483053047
 20
28.55950567445626
 30
0.0
  0
POINT
  5
1803D
330
18025
100
AcDbEntity
  8
Defpoints
 62
     0
100
AcDbPoint
 10
88.99541483053047
 20
33.82760739747759
 30
0.0
  0
ENDBLK
  5
18031
330
18025
100
AcDbEntity
  8
0
100
AcDbBlockEnd
  0
ENDSEC
  0
SECTION
  2
ENTITIES
  0
ARC
  5
17EE5
330
18
100
AcDbEntity
  8
0
100
AcDbCircle
 10
81.43793985667254
 20
30.92179306735471
 30
0.0
 40
0.3371977525943005
100
AcDbArc
 50
103.9252423869228
 51
270.5100120017842
  0
LINE
  5
17EE7
330
18
100
AcDbEntity
  8
0
100
AcDbLine
 10
81.44094134528486
 20
30.58460867355697
 30
0.0
 11
81.44094134528486
 21
30.36580559920671
 31
0.0
  0
LINE
  5
17EE8
330
18
100
AcDbEntity
  8
0
100
AcDbLine
 10
81.44050336126168
 20
30.36580559920671
 30
0.0
 11
82.60732762166844
 21
30.36580559920671
 31
0.0
  0
LINE
  5
17EE9
330
18
100
AcDbEntity
  8
0
100
AcDbLine
 10
81.44094134528486
 20
30.58460867355697
 30
0.0
 11
82.60732762166844
 21
30.58460867355697
 31
0.0
  0
ARC
  5
17EEE
330
18
100
AcDbEntity
  8
0
100
AcDbCircle
 10
81.41549434981866
 20
30.0803901814617
 30
0.0
 40
0.2865090074324294
100
AcDbArc
 50
253.7914345615552
 51
84.9923504282021
  0
LINE
  5
17EEF
330
18
100
AcDbEntity
  8
0
100
AcDbLine
 10
81.33551975483342
 20
29.80526934347071
 30
0.0
 11
81.33551975483342
 21
29.35024537256177
 31
0.0
  0
LINE
  5
17EF0
330
18
100
AcDbEntity
  8
0
100
AcDbLine
 10
81.33551975483342
 20
29.35024537256177
 30
0.0
 11
81.04482762166844
 21
29.35024537256177
 31
0.0
  0
SPLINE
  5
17EF1
330
18
100
AcDbEntity
  8
0
100
AcDbSpline
210
0.0
220
0.0
230
1.0
 70
     8
 71
     3
 72
    12
 73
     8
 74
     6
 42
0.0000000001
 43
0.0000000001
 44
0.0000000001
 40
0.0
 40
0.0
 40
0.0
 40
0.0
 40
0.9337415053658421
 40
1.920110568516063
 40
3.670417899012659
 40
5.208877962948436
 40
6.386912094114196
 40
6.386912094114196
 40
6.386912094114196
 40
6.386912094114196
 10
81.04482762166844
 20
29.35024537256177
 30
0.0
 10
81.03936080394186
 20
29.03894480904169
 30
0.0
 10
81.02811904759645
 20
28.39879815328633
 30
0.0
 10
81.09864158672502
 20
27.17651942529371
 30
0.0
 10
81.23326261242036
 20
25.75797793560491
 30
0.0
 10
81.34488848858714
 20
24.27302409207413
 30
0.0
 10
81.39154343225715
 20
23.36871417724934
 30
0.0
 10
81.41177580239437
 20
22.97655138642276
 30
0.0
 11
81.04482762166844
 21
29.35024537256177
 31
0.0
 11
81.03981013771104
 21
28.41651734808269
 31
0.0
 11
81.0883275681788
 21
27.43134224299698
 31
0.0
 11
81.23387937124361
 21
25.68709729924203
 31
0.0
 11
81.34708605788345
 21
24.15280801282134
 31
0.0
 11
81.41177580239437
 21
22.97655138642276
 31
0.0
  0
SPLINE
  5
17EF2
330
18
100
AcDbEntity
  8
0
100
AcDbSpline
210
0.0
220
0.0
230
1.0
 70
     8
 71
     3
 72
    16
 73
    12
 74
     0
 42
0.0000000001
 43
0.0000000001
 40
0.0
 40
0.0
 40
0.0
 40
0.0
 40
0.7320552022535939
 40
0.7320552022535939
 40
1.917424212941731
 40
1.917424212941731
 40
3.102793223629868
 40
3.102793223629868
 40
5.473531245006142
 40
5.473531245006142
 40
6.151121584776159
 40
6.151121584776159
 40
6.151121584776159
 40
6.151121584776159
 10
81.33551975483342
 20
29.34585574434676
 30
0.0
 10
81.33123375883398
 20
29.10179548175828
 30
0.0
 10
81.32700170462829
 20
28.8596064798382
 30
0.0
 10
81.33009493247051
 20
28.23038982375465
 30
0.0
 10
81.35043875335968
 20
27.84328125099376
 30
0.0
 10
81.40604132237724
 20
27.06017595934657
 30
0.0
 10
81.44021982946529
 20
26.66792305344983
 30
0.0
 10
81.54362827630409
 20
25.48734589073856
 30
0.0
 10
81.60746916693566
 20
24.69460786412732
 30
0.0
 10
81.66623040634247
 20
23.67679219575968
 30
0.0
 10
81.67824907707133
 20
23.45077024004857
 30
0.0
 10
81.68998841836044
 20
23.22501333199294
 30
0.0
  0
SPLINE
  5
17EF3
330
18
100
AcDbEntity
  8
0
100
AcDbSpline
210
0.0
220
0.0
230
1.0
 70
     8
 71
     3
 72
    18
 73
    14
 74
     0
 42
0.0000000001
 43
0.0000000001
 40
0.0737228983358115
 40
0.0737228983358115
 40
0.0737228983358115
 40
0.0737228983358115
 40
0.736525501857202
 40
0.736525501857202
 40
1.473051003714403
 40
1.473051003714403
 40
2.946102007428807
 40
2.946102007428807
 40
4.419153011143212
 40
4.419153011143212
 40
5.892204014857616
 40
5.892204014857616
 40
5.975419791925542
 40
5.975419791925542
 40
5.975419791925542
 40
5.975419791925542
 10
81.66844559055961
 20
29.26563989950578
 30
0.0
 10
81.66463580537273
 20
29.04528756579482
 30
0.0
 10
81.66135717927266
 20
28.82783722049325
 30
0.0
 10
81.66370491853564
 20
28.38261416130382
 30
0.0
 10
81.6718374083007
 20
28.14765180628938
 30
0.0
 10
81.70963682268997
 20
27.43600475800951
 30
0.0
 10
81.75136129365261
 20
26.95081746863249
 30
0.0
 10
81.83644079762178
 20
25.97511330318941
 30
0.0
 10
81.87879842183329
 20
25.48135032662687
 30
0.0
 10
81.95279971986627
 20
24.49320402126229
 30
0.0
 10
81.98380345022323
 20
23.99646410311408
 30
0.0
 10
82.01158771880177
 20
23.47609122572862
 30
0.0
 10
82.01306441320319
 20
23.44827623741101
 30
0.0
 10
82.01453355791779
 20
23.42047141968623
 30
0.0
  0
SPLINE
  5
17EF4
330
18
100
AcDbEntity
  8
0
100
AcDbSpline
210
0.0
220
0.0
230
1.0
 70
     8
 71
     3
 72
    16
 73
    12
 74
     0
 42
0.0000000001
 43
0.0000000001
 40
0.087712929707857
 40
0.087712929707857
 40
0.087712929707857
 40
0.087712929707857
 40
0.6826955681066744
 40
0.6826955681066744
 40
1.681402450228719
 40
1.681402450228719
 40
2.680109332350764
 40
2.680109332350764
 40
4.677523096594855
 40
4.677523096594855
 40
5.8119131438939
 40
5.8119131438939
 40
5.8119131438939
 40
5.8119131438939
 10
81.7931869428917
 20
29.23172478752389
 30
0.0
 10
81.78979315492609
 20
29.05203613578118
 30
0.0
 10
81.78690482986873
 20
28.85751055383262
 30
0.0
 10
81.78791731231433
 20
28.35180777139214
 30
0.0
 10
81.80089708017723
 20
28.03822356074973
 30
0.0
 10
81.84077968060242
 20
27.39422883584663
 30
0.0
 10
81.86730965910962
 20
27.06716250523851
 30
0.0
 10
81.95209546328793
 20
26.07852319041001
 30
0.0
 10
82.01194450439791
 20
25.4081563611905
 30
0.0
 10
82.0863696286162
 20
24.35409632122105
 30
0.0
 10
82.10926060360256
 20
23.97185431613595
 30
0.0
 10
82.13019039839011
 20
23.59159247593752
 30
0.0
  0
LINE
  5
17EF6
330
18
100
AcDbEntity
  8
0
100
AcDbLine
 10
81.33551975483342
 20
29.80526934347071
 30
0.0
 11
82.60732762166844
 21
29.80526934347071
 31
0.0
  0
ARC
  5
17EF7
330
18
100
AcDbEntity
  8
0
100
AcDbCircle
 10
81.5374514898572
 20
29.45015748179411
 30
0.0
 40
0.2272779752731201
100
AcDbArc
 50
207.3172486305402
 51
305.5925748901617
  0
LINE
  5
17EF8
330
18
100
AcDbEntity
  8
0
100
AcDbLine
 10
81.66973127006221
 20
29.26534044309594
 30
0.0
 11
81.79471199974095
 21
29.23623032624875
 31
0.0
  0
ARC
  5
17EF9
330
18
100
AcDbEntity
  8
0
100
AcDbCircle
 10
82.61491870783151
 20
28.83997092668432
 30
0.0
 40
0.910911936325284
100
AcDbArc
 50
90.47748000226656
 51
154.2138184554419
  0
SPLINE
  5
17EFD
330
18
100
AcDbEntity
  8
0
100
AcDbSpline
210
0.0
220
0.0
230
1.0
 70
     8
 71
     3
 72
    17
 73
    13
 74
    11
 42
0.0000000001
 43
0.0000000001
 44
0.0000000001
 40
0.0
 40
0.0
 40
0.0
 40
0.0
 40
0.1600996157653413
 40
0.3731044174517732
 40
0.5350710399391932
 40
0.6007434616216897
 40
0.7987245844352396
 40
0.9057943983720065
 40
1.11280897968527
 40
1.301898529412604
 40
1.420858650469905
 40
1.584208330730836
 40
1.584208330730836
 40
1.584208330730836
 40
1.584208330730836
 10
82.60520076691125
 20
29.59768287251569
 30
0.0
 10
82.55507106892366
 20
29.57992145627068
 30
0.0
 10
82.43824623036747
 20
29.53852933406265
 30
0.0
 10
82.28959374239741
 20
29.41795864982939
 30
0.0
 10
82.25331667663926
 20
29.27283343526095
 30
0.0
 10
82.17155920166181
 20
29.15109013295209
 30
0.0
 10
82.03277211244619
 20
29.13912636958441
 30
0.0
 10
81.88720191505352
 20
29.05490390859937
 30
0.0
 10
81.75504468823689
 20
28.92298150086917
 30
0.0
 10
81.80310812878444
 20
28.72341566928073
 30
0.0
 10
81.94910276360365
 20
28.64252763217626
 30
0.0
 10
82.04474331406084
 20
28.65046676075714
 30
0.0
 10
82.10008270810318
 20
28.65506048761034
 30
0.0
 11
82.60520076691125
 21
29.59768287251569
 31
0.0
 11
82.45723657047234
 21
29.5365397327501
 31
0.0
 11
82.29906853606712
 21
29.3938725731307
 31
0.0
 11
82.23273992674581
 21
29.24611025592674
 31
0.0
 11
82.19399268944334
 21
29.19308650114579
 31
0.0
 11
82.01031335093693
 21
29.11920534254387
 31
0.0
 11
81.91640385793538
 21
29.06777624396489
 31
0.0
 11
81.78884880244527
 21
28.90472795450677
 31
0.0
 11
81.8347682708179
 21
28.72129878496043
 31
0.0
 11
81.93681251054545
 21
28.66015564519484
 31
0.0
 11
82.10008270810318
 21
28.65506048761034
 31
0.0
  0
SPLINE
  5
17EFF
330
18
100
AcDbEntity
  8
0
100
AcDbSpline
210
0.0
220
0.0
230
1.0
 70
     8
 71
     3
 72
    12
 73
     8
 74
     6
 42
0.0000000001
 43
0.0000000001
 44
0.0000000001
 40
0.0
 40
0.0
 40
0.0
 40
0.0
 40
0.071179353959671
 40
0.1732119012230596
 40
0.317137197534475
 40
0.4757103722137675
 40
0.5628975378319013
 40
0.5628975378319013
 40
0.5628975378319013
 40
0.5628975378319013
 10
82.10008270810318
 20
28.65506048761034
 30
0.0
 10
82.080770824557
 20
28.63965589481324
 30
0.0
 10
82.03377618525292
 20
28.6021694797572
 30
0.0
 10
82.04323909757299
 20
28.47613640107036
 30
0.0
 10
82.18977050339512
 20
28.40007737117252
 30
0.0
 10
82.31156088468837
 20
28.48320436997148
 30
0.0
 10
82.35834741103404
 20
28.54947187989966
 30
0.0
 10
82.37494563276607
 20
28.57298127265284
 30
0.0
 11
82.10008270810318
 21
28.65506048761034
 31
0.0
 11
82.05095583088814
 21
28.60355271766042
 31
0.0
 11
82.05605799404066
 21
28.50164781771827
 31
0.0
 11
82.18106196795451
 21
28.43031411303338
 31
0.0
 11
82.32137243132592
 21
28.50419527163536
 31
0.0
 11
82.37494563276607
 21
28.57298127265284
 31
0.0
  0
SPLINE
  5
17F00
330
18
100
AcDbEntity
  8
0
100
AcDbSpline
210
0.0
220
0.0
230
1.0
 70
     8
 71
     3
 72
     9
 73
     5
 74
     3
 42
0.0000000001
 43
0.0000000001
 44
0.0000000001
 40
0.0
 40
0.0
 40
0.0
 40
0.0
 40
0.2982394590638102
 40
0.9770544075439248
 40
0.9770544075439248
 40
0.9770544075439248
 40
0.9770544075439248
 10
82.37494563276607
 20
28.57298127265284
 30
0.0
 10
82.41209881111037
 20
28.48034455464386
 30
0.0
 10
82.53381535649813
 20
28.17685985173033
 30
0.0
 10
82.55447551627019
 20
27.84838138696617
 30
0.0
 10
82.5688292975775
 20
27.62016882232894
 30
0.0
 11
82.37494563276607
 21
28.57298127265284
 31
0.0
 11
82.47698938415487
 21
28.29274236074878
 31
0.0
 11
82.5688292975775
 21
27.62016882232894
 31
0.0
  0
SPLINE
  5
17F04
330
18
100
AcDbEntity
  8
0
100
AcDbSpline
210
0.0
220
0.0
230
1.0
 70
     8
 71
     3
 72
    14
 73
    10
 74
     8
 42
0.0000000001
 43
0.0000000001
 44
0.0000000001
 40
0.0
 40
0.0
 40
0.0
 40
0.0
 40
0.2194153106555702
 40
0.4573904470549807
 40
0.609066830972165
 40
0.6641331462258792
 40
0.7347990934773395
 40
0.8892941051433183
 40
0.9798655716213907
 40
0.9798655716213907
 40
0.9798655716213907
 40
0.9798655716213907
 10
82.56882929757749
 20
27.62016882232894
 30
0.0
 10
82.53369198615965
 20
27.68429958365876
 30
0.0
 10
82.46044518068513
 20
27.81798577678259
 30
0.0
 10
82.32287936697003
 20
27.97337191649504
 30
0.0
 10
82.18354572918855
 20
28.03772638252837
 30
0.0
 10
82.08301819175941
 20
28.02448812056076
 30
0.0
 10
82.04621790891028
 20
27.92191114662384
 30
0.0
 10
82.09591720732259
 20
27.82439031810004
 30
0.0
 10
82.11780184074511
 20
27.74595017585813
 30
0.0
 10
82.1258899454807
 20
27.71696033290857
 30
0.0
 11
82.56882929757749
 21
27.62016882232894
 31
0.0
 11
82.45649966731411
 21
27.80864994264334
 31
0.0
 11
82.29067838818014
 21
27.9793410933533
 31
0.0
 11
82.14781635489373
 21
28.03029366819959
 31
0.0
 11
82.09424364179245
 21
28.01755539961283
 31
0.0
 11
82.06363017453861
 21
27.95386480593021
 31
0.0
 11
82.09934580494495
 21
27.80355478505885
 31
0.0
 11
82.1258899454807
 21
27.71696033290857
 31
0.0
  0
SPLINE
  5
17F05
330
18
100
AcDbEntity
  8
0
100
AcDbSpline
210
0.0
220
0.0
230
1.0
 70
     8
 71
     3
 72
    20
 73
    16
 74
     0
 42
0.0000000001
 43
0.0000000001
 40
0.9228479565907914
 40
0.9228479565907914
 40
0.9228479565907914
 40
0.9228479565907914
 40
0.9484240189987096
 40
1.000453380871134
 40
1.094527607686859
 40
1.263251532649724
 40
1.479430734717784
 40
1.525016641699639
 40
1.649935414174007
 40
1.857792645472517
 40
1.991243897208459
 40
2.073512584848472
 40
2.301679814085611
 40
2.497537402126038
 40
3.348320959398626
 40
3.348320959398626
 40
3.348320959398626
 40
3.348320959398626
 10
82.1258899454807
 20
27.71696033290858
 30
0.0
 10
82.1258899454807
 20
27.71696033290858
 30
0.0
 10
82.09144985586249
 20
27.71186492557371
 30
0.0
 10
82.0412645088969
 20
27.70576855755251
 30
0.0
 10
81.93623946517723
 20
27.69723898679387
 30
0.0
 10
81.85773023532725
 20
27.51155318686429
 30
0.0
 10
81.96130156392705
 20
27.3697567707862
 30
0.0
 10
81.88906350062401
 20
27.25688895040146
 30
0.0
 10
81.87260233425737
 20
27.129474018551
 30
0.0
 10
81.89117984046779
 20
26.97056502880853
 30
0.0
 10
81.99771026628368
 20
26.85362405290436
 30
0.0
 10
82.14857683087535
 20
26.85040713518349
 30
0.0
 10
82.33283077211099
 20
26.84749491080197
 30
0.0
 10
82.58309624431737
 20
26.46040843597639
 30
0.0
 10
82.55838764360388
 20
26.10277490083993
 30
0.0
 10
82.5383027546194
 20
25.81206520288288
 30
0.0
  0
SPLINE
  5
17F06
330
18
100
AcDbEntity
  8
0
100
AcDbSpline
210
0.0
220
0.0
230
1.0
 70
     8
 71
     3
 72
    10
 73
     6
 74
     4
 42
0.0000000001
 43
0.0000000001
 44
0.0000000001
 40
0.0
 40
0.0
 40
0.0
 40
0.0
 40
0.2869989109625194
 40
0.5217041286986566
 40
0.7741913562175812
 40
0.7741913562175812
 40
0.7741913562175812
 40
0.7741913562175812
 10
82.49579921573115
 20
26.76032595245795
 30
0.0
 10
82.47531127716559
 20
26.85483118099816
 30
0.0
 10
82.438068480312
 20
27.02662196496905
 30
0.0
 10
82.28389019044886
 20
27.24050137832007
 30
0.0
 10
82.16133942782628
 20
27.34708920876842
 30
0.0
 10
82.09782755980313
 20
27.40232829562058
 30
0.0
 11
82.49579921573115
 21
26.76032595245795
 31
0.0
 11
82.41416411695229
 21
27.03546970677746
 31
0.0
 11
82.28150689830966
 21
27.22908944124316
 31
0.0
 11
82.09782755980313
 21
27.40232829562058
 31
0.0
  0
SPLINE
  5
17F07
330
18
100
AcDbEntity
  8
0
100
AcDbSpline
210
0.0
220
0.0
230
1.0
 70
     8
 71
     3
 72
    10
 73
     6
 74
     4
 42
0.0000000001
 43
0.0000000001
 44
0.0000000001
 40
0.0
 40
0.0
 40
0.0
 40
0.0
 40
0.3328124368155116
 40
0.5717758377640189
 40
0.7428118640683085
 40
0.7428118640683085
 40
0.7428118640683085
 40
0.7428118640683085
 10
82.56722998820498
 20
28.47233211764154
 30
0.0
 10
82.52495938886383
 20
28.57595264307148
 30
0.0
 10
82.45233798209687
 20
28.75397397335636
 30
0.0
 10
82.25732274175749
 20
28.92643893642363
 30
0.0
 10
82.12317561425376
 20
28.95835351433211
 30
0.0
 10
82.06721458088816
 20
28.97166705143439
 30
0.0
 11
82.56722998820498
 21
28.47233211764154
 31
0.0
 11
82.41416411695229
 21
28.76785700179977
 31
0.0
 11
82.23048477844576
 21
28.92071447658816
 31
0.0
 11
82.06721458088816
 21
28.97166705143439
 31
0.0
  0
SPLINE
  5
17F08
330
18
100
AcDbEntity
  8
0
100
AcDbSpline
210
0.0
220
0.0
230
1.0
 70
     8
 71
     3
 72
    13
 73
     9
 74
     7
 42
0.0000000001
 43
0.0000000001
 44
0.0000000001
 40
0.0
 40
0.0
 40
0.0
 40
0.0
 40
0.1538785338840858
 40
0.3524525504206544
 40
0.5126591930058942
 40
0.6298125723654041
 40
0.8234323068311029
 40
1.085765550880901
 40
1.085765550880901
 40
1.085765550880901
 40
1.085765550880901
 10
82.5383027546194
 20
25.81206520288288
 30
0.0
 10
82.50856226224886
 20
25.85401297303009
 30
0.0
 10
82.44044286884042
 20
25.95009264184198
 30
0.0
 10
82.35050862637676
 20
26.09269367247574
 30
0.0
 10
82.15375463963505
 20
26.15006841785076
 30
0.0
 10
82.07864851066032
 20
25.98423544605753
 30
0.0
 10
82.08196973811721
 20
25.7893668939462
 30
0.0
 10
82.17649845983148
 20
25.66395834549755
 30
0.0
 10
82.23088570455116
 20
25.591804345203
 30
0.0
 11
82.5383027546194
 21
25.81206520288288
 31
0.0
 11
82.45028018512504
 21
25.93828180420747
 31
0.0
 11
82.31762296648241
 21
26.08604412141136
 31
0.0
 11
82.15945493207732
 21
26.11152040883445
 31
0.0
 11
82.09814107327407
 21
26.01169293258664
 31
0.0
 11
82.09814107327407
 21
25.81807319812094
 31
0.0
 11
82.23088570455116
 21
25.591804345203
 31
0.0
  0
SPLINE
  5
17F09
330
18
100
AcDbEntity
  8
0
100
AcDbSpline
210
0.0
220
0.0
230
1.0
 70
     8
 71
     3
 72
    16
 73
    12
 74
    10
 42
0.0000000001
 43
0.0000000001
 44
0.0000000001
 40
0.0
 40
0.0
 40
0.0
 40
0.0
 40
0.1387885432091208
 40
0.235019797155546
 40
0.3626309356839605
 40
0.5269339409630862
 40
0.6885049235541083
 40
0.9770324421127359
 40
1.359721359810994
 40
1.692929217364366
 40
1.871335951579573
 40
1.871335951579573
 40
1.871335951579573
 40
1.871335951579573
 10
82.23088570455116
 20
25.591804345203
 30
0.0
 10
82.19605203410003
 20
25.63331086865087
 30
0.0
 10
82.13706588168204
 20
25.70359660330732
 30
0.0
 10
82.01167745046191
 20
25.6221259546745
 30
0.0
 10
82.01306527803652
 20
25.47178596197968
 30
0.0
 10
82.14794843614523
 20
25.36984628229523
 30
0.0
 10
82.35308626324671
 20
25.35251404095033
 30
0.0
 10
82.58405605819694
 20
25.12859024782556
 30
0.0
 10
82.52790056501856
 20
24.77358624256209
 30
0.0
 10
82.52985316142165
 20
24.48014745957038
 30
0.0
 10
82.5352248459376
 20
24.30933737554946
 30
0.0
 10
82.53709802294849
 20
24.2497736536551
 30
0.0
 11
82.23088570455116
 21
25.591804345203
 31
0.0
 11
82.11861565161393
 21
25.67339904441553
 31
0.0
 11
82.03698055283508
 21
25.62244646956924
 31
0.0
 11
82.0293273081063
 21
25.49506503245363
 31
0.0
 11
82.15178020044403
 21
25.3855170215092
 31
0.0
 11
82.30741864017749
 21
25.3421366285562
 31
0.0
 11
82.51660879444647
 21
25.14342173650601
 31
0.0
 11
82.53701793539518
 21
24.76127742515911
 31
0.0
 11
82.53199585979599
 21
24.42810741586658
 31
0.0
 11
82.53709802294849
 21
24.2497736536551
 31
0.0
  0
SPLINE
  5
17F0A
330
18
100
AcDbEntity
  8
0
100
AcDbSpline
210
0.0
220
0.0
230
1.0
 70
     8
 71
     3
 72
     9
 73
     5
 74
     3
 42
0.0000000001
 43
0.0000000001
 44
0.0000000001
 40
0.0
 40
0.0
 40
0.0
 40
0.0
 40
0.3126465805893289
 40
0.6446714717060681
 40
0.6446714717060681
 40
0.6446714717060681
 40
0.6446714717060681
 10
82.53709802294849
 20
25.40130174528031
 30
0.0
 10
82.51347541272711
 20
25.50663344460982
 30
0.0
 10
82.46476602697837
 20
25.72382546217826
 30
0.0
 10
82.28350386560711
 20
25.85398288388759
 30
0.0
 10
82.19014848688436
 20
25.92101780891181
 30
0.0
 11
82.53709802294849
 21
25.40130174528031
 31
0.0
 11
82.4350542715597
 21
25.69682662943848
 31
0.0
 11
82.19014848688436
 21
25.92101780891181
 31
0.0
  0
SPLINE
  5
17F0B
330
18
100
AcDbEntity
  8
0
100
AcDbSpline
210
0.0
220
0.0
230
1.0
 70
     8
 71
     3
 72
     9
 73
     5
 74
     3
 42
0.0000000001
 43
0.0000000001
 44
0.0000000001
 40
0.0
 40
0.0
 40
0.0
 40
0.0
 40
0.3293275673953604
 40
0.5817950704501693
 40
0.5817950704501693
 40
0.5817950704501693
 40
0.5817950704501693
 10
82.50668916962672
 20
27.35500459385423
 30
0.0
 10
82.47566749125468
 20
27.4631782219053
 30
0.0
 10
82.42086412420986
 20
27.65427939224026
 30
0.0
 10
82.27434333854013
 20
27.78669013311473
 30
0.0
 10
82.21076126508762
 20
27.8441492124781
 30
0.0
 11
82.50668916962672
 21
27.35500459385423
 31
0.0
 11
82.384236277289
 21
27.66072004293176
 31
0.0
 11
82.21076126508762
 21
27.8441492124781
 31
0.0
  0
SPLINE
  5
17F0C
330
18
100
AcDbEntity
  8
0
100
AcDbSpline
210
0.0
220
0.0
230
1.0
 70
     8
 71
     3
 72
     9
 73
     5
 74
     3
 42
0.0000000001
 43
0.0000000001
 44
0.0000000001
 40
0.0
 40
0.0
 40
0.0
 40
0.0
 40
0.2352958822282105
 40
0.3724982592398311
 40
0.3724982592398311
 40
0.3724982592398311
 40
0.3724982592398311
 10
82.51711178334835
 20
28.92841403117723
 30
0.0
 10
82.5042051621102
 20
29.01018815769057
 30
0.0
 10
82.48377261608196
 20
29.13964524588361
 30
0.0
 10
82.38135921363069
 20
29.21614344452964
 30
0.0
 10
82.3436372594856
 20
29.24432004517405
 30
0.0
 11
82.51711178334835
 21
28.92841403117723
 31
0.0
 11
82.44568101087452
 21
29.15260546040088
 31
0.0
 11
82.3436372594856
 21
29.24432004517405
 31
0.0
  0
SPLINE
  5
17F0D
330
18
100
AcDbEntity
  8
0
100
AcDbSpline
210
0.0
220
0.0
230
1.0
 70
     8
 71
     3
 72
    12
 73
     8
 74
     6
 42
0.0000000001
 43
0.0000000001
 44
0.0000000001
 40
0.0
 40
0.0
 40
0.0
 40
0.0
 40
0.0970758818733589
 40
0.2888069876211048
 40
0.4418020179305618
 40
0.7375030415990859
 40
0.8506389680497486
 40
0.8506389680497486
 40
0.8506389680497486
 40
0.8506389680497486
 10
82.60915582236407
 20
24.23192524246082
 30
0.0
 10
82.57660910893925
 20
24.23618712121404
 30
0.0
 10
82.4797805447295
 20
24.24886648441499
 30
0.0
 10
82.34110885941792
 20
24.16413506768069
 30
0.0
 10
82.22952254064685
 20
23.972844615925
 30
0.0
 10
82.27078274218904
 20
23.77658947761021
 30
0.0
 10
82.28804292038907
 20
23.64235467030551
 30
0.0
 10
82.29281926521503
 20
23.60520837205161
 30
0.0
 11
82.60915582236407
 21
24.23192524246082
 31
0.0
 11
82.51221374578904
 21
24.23702040004531
 31
0.0
 11
82.34384138507881
 21
24.14530581527214
 31
0.0
 11
82.26730796111372
 21
24.0128289708216
 31
0.0
 11
82.27751277575748
 21
23.71730408666343
 31
0.0
 11
82.29281926521503
 21
23.60520837205161
 31
0.0
  0
SPLINE
  5
17F0E
330
18
100
AcDbEntity
  8
0
100
AcDbSpline
210
0.0
220
0.0
230
1.0
 70
     8
 71
     3
 72
    11
 73
     7
 74
     5
 42
0.0000000001
 43
0.0000000001
 44
0.0000000001
 40
0.0
 40
0.0
 40
0.0
 40
0.0
 40
0.0816355871176029
 40
0.1757092830846028
 40
0.2421694040556641
 40
0.3801190880059337
 40
0.3801190880059337
 40
0.3801190880059337
 40
0.3801190880059337
 10
82.29281926521503
 20
23.6052083720516
 30
0.0
 10
82.26615214180776
 20
23.60544380525323
 30
0.0
 10
82.20875485587814
 20
23.60595054257861
 30
0.0
 10
82.11921334060033
 20
23.60213928671393
 30
0.0
 10
82.06483994539119
 20
23.50606175556261
 30
0.0
 10
82.08215085456039
 20
23.43748680992205
 30
0.0
 10
82.09383343725107
 20
23.39120775749762
 30
0.0
 11
82.29281926521503
 21
23.6052083720516
 31
0.0
 11
82.21118367809742
 21
23.60520837205161
 31
0.0
 11
82.11934425301365
 21
23.58482749196332
 31
0.0
 11
82.08362911094605
 21
23.52877950978217
 31
0.0
 11
82.09383343725107
 21
23.39120775749762
 31
0.0
  0
SPLINE
  5
17F0F
330
18
100
AcDbEntity
  8
0
100
AcDbSpline
210
0.0
220
0.0
230
1.0
 70
     8
 71
     3
 72
    10
 73
     6
 74
     4
 42
0.0000000001
 43
0.0000000001
 44
0.0000000001
 40
0.0
 40
0.0
 40
0.0
 40
0.0
 40
0.1659893026194517
 40
0.2312752670717846
 40
0.3490676320775312
 40
0.3490676320775312
 40
0.3490676320775312
 40
0.3490676320775312
 10
82.39996517975635
 20
24.18097266761459
 30
0.0
 10
82.41184637460898
 20
24.12735609338457
 30
0.0
 10
82.42840061316121
 20
24.05265135441143
 30
0.0
 10
82.49844644708316
 20
23.94838546642452
 30
0.0
 10
82.56581255436689
 20
23.95659463032933
 30
0.0
 10
82.60915582236407
 20
23.96187639597537
 30
0.0
 11
82.39996517975635
 21
24.18097266761459
 31
0.0
 11
82.45098729962023
 21
24.02301953574096
 31
0.0
 11
82.49180509317898
 21
23.97206696089467
 31
0.0
 11
82.60915582236407
 21
23.96187639597537
 31
0.0
  0
SPLINE
  5
17F10
330
18
100
AcDbEntity
  8
0
100
AcDbSpline
210
0.0
220
0.0
230
1.0
 70
     8
 71
     3
 72
    15
 73
    11
 74
     9
 42
0.0000000001
 43
0.0000000001
 44
0.0000000001
 40
0.0
 40
0.0
 40
0.0
 40
0.0
 40
0.3548294235738838
 40
0.5985136557317342
 40
0.837564851181728
 40
1.056708867809589
 40
1.194064182652009
 40
1.276224356023748
 40
1.345589164085013
 40
1.417019936558845
 40
1.417019936558845
 40
1.417019936558845
 40
1.417019936558845
 10
82.50686399489552
 20
22.72177907591339
 30
0.0
 10
82.49390440441386
 20
22.84225697126542
 30
0.0
 10
82.47204462796734
 20
23.04547480155621
 30
0.0
 10
82.29153156905624
 20
23.27031036290056
 30
0.0
 10
82.09366693635105
 20
23.40350305269052
 30
0.0
 10
81.90345841743388
 20
23.45478669167285
 30
0.0
 10
81.73650068031422
 20
23.42216156049093
 30
0.0
 10
81.71407796618982
 20
23.30387837752253
 30
0.0
 10
81.78808117301015
 20
23.25810334318592
 30
0.0
 10
81.83505356856317
 20
23.26398678862225
 30
0.0
 10
81.85888439113979
 20
23.26697167671836
 30
0.0
 11
82.50686399489552
 21
22.72177907591339
 31
0.0
 11
82.43033105926917
 21
23.06825653491785
 31
0.0
 11
82.28236686283025
 21
23.26187626938349
 31
0.0
 11
82.0833810348663
 21
23.39435311383403
 31
0.0
 11
81.86908871744481
 21
23.44021053109577
 31
0.0
 11
81.74153366195469
 21
23.38925770649916
 31
0.0
 11
81.73132933564966
 21
23.30773368664529
 31
0.0
 11
81.78745361866594
 21
23.26697167671836
 31
0.0
 11
81.85888439113979
 21
23.26697167671836
 31
0.0
  0
SPLINE
  5
17F12
330
18
100
AcDbEntity
  8
0
100
AcDbSpline
210
0.0
220
0.0
230
1.0
 70
     8
 71
     3
 72
    14
 73
    10
 74
     8
 42
0.0000000001
 43
0.0000000001
 44
0.0000000001
 40
0.0
 40
0.0
 40
0.0
 40
0.0
 40
0.1300743379839062
 40
0.3059499633703686
 40
0.4645850168115833
 40
0.5422100525294246
 40
0.5744398026947053
 40
0.6502329753820897
 40
0.7245145054532212
 40
0.7245145054532212
 40
0.7245145054532212
 40
0.7245145054532212
 10
81.85888439113979
 20
23.26697167671836
 30
0.0
 10
81.81565240613869
 20
23.26104395528981
 30
0.0
 10
81.71396575193373
 20
23.24710126542457
 30
0.0
 10
81.5775403219964
 20
23.1612991593613
 30
0.0
 10
81.4823017167931
 20
23.07074706996951
 30
0.0
 10
81.42639151436748
 20
22.98612620998087
 30
0.0
 10
81.45022191139522
 20
22.92635574052631
 30
0.0
 10
81.49212250987387
 20
22.87702434674431
 30
0.0
 10
81.5429171478355
 20
22.86861069013435
 30
0.0
 10
81.5680586497532
 20
22.8644462355328
 30
0.0
 11
81.85888439113979
 21
23.26697167671836
 31
0.0
 11
81.73132933564966
 21
23.24149538929527
 31
0.0
 11
81.57826297605822
 21
23.15487596210653
 31
0.0
 11
81.4660148983644
 21
23.0427802474947
 31
0.0
 11
81.43540143111057
 21
22.97144679256019
 31
0.0
 11
81.44560575741559
 21
22.94087509780218
 31
0.0
 11
81.49662787727937
 21
22.88482736537145
 31
0.0
 11
81.5680586497532
 21
22.8644462355328
 31
0.0
  0
SPLINE
  5
17F13
330
18
100
AcDbEntity
  8
0
100
AcDbSpline
210
0.0
220
0.0
230
1.0
 70
     8
 71
     3
 72
    24
 73
    20
 74
    18
 42
0.0000000001
 43
0.0000000001
 44
0.0000000001
 40
0.0
 40
0.0
 40
0.0
 40
0.0
 40
0.2875168147229592
 40
0.5293569407157542
 40
0.7040250835794191
 40
0.8695220870092777
 40
1.016591882308
 40
1.146528927334528
 40
1.307803546286535
 40
1.461279278466051
 40
1.501096861099874
 40
1.552094123687008
 40
1.627404207809474
 40
1.648414023182453
 40
1.720285371478223
 40
1.789212163164201
 40
2.094946839393071
 40
2.394071256009157
 40
2.669640687541675
 40
2.669640687541675
 40
2.669640687541675
 40
2.669640687541675
 10
82.30277600377906
 20
22.77782680834412
 30
0.0
 10
82.25184635333764
 20
22.85935496963874
 30
0.0
 10
82.1580780498199
 20
23.0094592273208
 30
0.0
 10
81.94011126797205
 20
23.1401252159747
 30
0.0
 10
81.74207444931473
 20
23.10978124560122
 30
0.0
 10
81.59029981875928
 20
23.02747348424796
 30
0.0
 10
81.54948997689263
 20
22.86562600475934
 30
0.0
 10
81.62216481924138
 20
22.73387406764153
 30
0.0
 10
81.75123691577729
 20
22.63057667739571
 30
0.0
 10
81.86848083940306
 20
22.66310136792171
 30
0.0
 10
81.94673382244754
 20
22.73116775893591
 30
0.0
 10
81.87779008108822
 20
22.76624024287915
 30
0.0
 10
81.82822220598463
 20
22.77114624100986
 30
0.0
 10
81.80938332200149
 20
22.83432654455055
 30
0.0
 10
81.89293636010491
 20
22.83631019489305
 30
0.0
 10
82.02496119453327
 20
22.83621274947218
 30
0.0
 10
82.23982394715511
 20
22.68071858524905
 30
0.0
 10
82.3439945124789
 20
22.40084227365259
 30
0.0
 10
82.34372333862342
 20
22.20794083002409
 30
0.0
 10
82.34359330899906
 20
22.11544333534277
 30
0.0
 11
82.30277600377906
 21
22.77782680834412
 31
0.0
 11
82.12930099157757
 21
23.00711339515226
 31
0.0
 11
81.91500867415607
 21
23.11920910976409
 31
0.0
 11
81.74153366195469
 21
23.0988282296758
 31
0.0
 11
81.60377428015953
 21
23.00711339515226
 31
0.0
 11
81.5680586497532
 21
22.8644462355328
 31
0.0
 11
81.62418293276948
 21
22.74725536333648
 31
0.0
 11
81.75684015141213
 21
22.65554077856331
 31
0.0
 11
81.9048038595123
 21
22.69630278849025
 31
0.0
 11
81.93031516361362
 21
22.72687423349783
 31
0.0
 11
81.88949737005486
 21
22.75744592825583
 31
0.0
 11
81.82316876073343
 21
22.79311278059828
 31
0.0
 11
81.81806659758104
 21
22.81349366068656
 31
0.0
 11
81.88635979365221
 21
22.83588852787159
 31
0.0
 11
81.9552394845498
 21
22.83334082420418
 31
0.0
 11
82.21093609035643
 21
22.66573134348266
 31
0.0
 11
82.32828681954151
 21
22.39058733941272
 31
0.0
 11
82.34359330899906
 21
22.11544333534277
 31
0.0
  0
SPLINE
  5
17F14
330
18
100
AcDbEntity
  8
0
100
AcDbSpline
210
0.0
220
0.0
230
1.0
 70
     8
 71
     3
 72
    11
 73
     7
 74
     5
 42
0.0000000001
 43
0.0000000001
 44
0.0000000001
 40
0.0
 40
0.0
 40
0.0
 40
0.0
 40
0.2269093631504858
 40
0.4785974909449611
 40
0.6965274761102225
 40
0.8231626368065064
 40
0.8231626368065064
 40
0.8231626368065064
 40
0.8231626368065064
 10
82.34359330899906
 20
22.11544333534277
 30
0.0
 10
82.33255991201824
 20
22.19709140595186
 30
0.0
 10
82.30928825835745
 20
22.36930361082281
 30
0.0
 10
82.03996949440508
 20
22.43262913886942
 30
0.0
 10
81.8421654514017
 20
22.36390342384245
 30
0.0
 10
81.77374603178428
 20
22.26938537633615
 30
0.0
 10
81.74860041185707
 20
22.23464794488547
 30
0.0
 11
82.34359330899906
 21
22.11544333534277
 31
0.0
 11
82.2741271232751
 21
22.3314579369935
 31
0.0
 11
82.03432399009102
 21
22.40788679926288
 31
0.0
 11
81.83023551063582
 21
22.3314579369935
 31
0.0
 11
81.74860041185707
 21
22.23464794488547
 31
0.0
  0
SPLINE
  5
17F15
330
18
100
AcDbEntity
  8
0
100
AcDbSpline
210
0.0
220
0.0
230
1.0
 70
     8
 71
     3
 72
    13
 73
     9
 74
     7
 42
0.0000000001
 43
0.0000000001
 44
0.0000000001
 40
0.0
 40
0.0
 40
0.0
 40
0.0
 40
0.0594417308086042
 40
0.2437560078101875
 40
0.3622987255096084
 40
0.5082395554846297
 40
0.6970898097723829
 40
0.7406755110192124
 40
0.7406755110192124
 40
0.7406755110192124
 40
0.7406755110192124
 10
81.74860041185707
 20
22.23464794488547
 30
0.0
 10
81.7400680520477
 20
22.25353487179575
 30
0.0
 10
81.70507893016251
 20
22.33098554223936
 30
0.0
 10
81.52770560436524
 20
22.30342975922952
 30
0.0
 10
81.46323480167948
 20
22.15681643452674
 30
0.0
 10
81.53561387665567
 20
21.98779482544648
 30
0.0
 10
81.68969738479331
 20
22.00757073740336
 30
0.0
 10
81.76078170638767
 20
22.03574504735071
 30
0.0
 10
81.77411122761952
 20
22.04102821041977
 30
0.0
 11
81.74860041185707
 21
22.23464794488547
 31
0.0
 11
81.71798743294198
 21
22.28560051973176
 31
0.0
 11
81.53430809443557
 21
22.27031479722791
 31
0.0
 11
81.48328597457169
 21
22.16331424020058
 31
0.0
 11
81.54451242074049
 21
22.03083764550047
 31
0.0
 11
81.73329392239953
 21
22.02574223816561
 31
0.0
 11
81.77411122761952
 21
22.04102821041977
 31
0.0
  0
LINE
  5
17F16
330
18
100
AcDbEntity
  8
0
100
AcDbLine
 10
81.41177580239437
 20
22.97655138642276
 30
0.0
 11
81.07427102638405
 21
22.97655138642276
 31
0.0
  0
LINE
  5
17F17
330
18
100
AcDbEntity
  8
0
100
AcDbLine
 10
81.07427102638405
 20
22.97655138642276
 30
0.0
 11
81.07427102638405
 21
22.33548566143668
 31
0.0
  0
LINE
  5
17F18
330
18
100
AcDbEntity
  8
0
100
AcDbLine
 10
81.07427102638405
 20
22.33548566143668
 30
0.0
 11
81.26815469119549
 21
22.33548566143668
 31
0.0
  0
LINE
  5
17F19
330
18
100
AcDbEntity
  8
0
100
AcDbLine
 10
81.26815469119549
 20
22.97655138642276
 30
0.0
 11
81.26815469119549
 21
22.12657995471682
 31
0.0
  0
LINE
  5
17F1A
330
18
100
AcDbEntity
  8
0
100
AcDbLine
 10
81.26815469119549
 20
22.12657995471682
 30
0.0
 11
81.42883943875284
 21
22.12657995471682
 31
0.0
  0
SPLINE
  5
17F1C
330
18
100
AcDbEntity
  8
0
100
AcDbSpline
210
0.0
220
0.0
230
1.0
 70
     8
 71
     3
 72
     9
 73
     5
 74
     3
 42
0.0000000001
 43
0.0000000001
 44
0.0000000001
 40
0.0
 40
0.0
 40
0.0
 40
0.0
 40
0.5855413735510892
 40
0.8594662577332321
 40
0.8594662577332321
 40
0.8594662577332321
 40
0.8594662577332321
 10
81.41177580239437
 20
22.97655138642276
 30
0.0
 10
81.41169135604121
 20
22.78066396924949
 30
0.0
 10
81.4115674044395
 20
22.4931375313585
 30
0.0
 10
81.46531639355643
 20
22.21130809679817
 30
0.0
 10
81.48244700861699
 20
22.12148479713233
 30
0.0
 11
81.41177580239437
 21
22.97655138642276
 31
0.0
 11
81.43652754024447
 21
22.3915333938674
 31
0.0
 11
81.48244700861699
 21
22.12148479713233
 31
0.0
  0
ARC
  5
17F1D
330
18
100
AcDbEntity
  8
0
100
AcDbCircle
 10
81.5378548232236
 20
22.06516670991089
 30
0.0
 40
0.1251237015473189
100
AcDbArc
 50
152.0759295002816
 51
266.099383216524
  0
ARC
  5
17F1E
330
18
100
AcDbEntity
  8
0
100
AcDbCircle
 10
81.63232243197738
 20
21.66963169323214
 30
0.0
 40
0.289627085630936
100
AcDbArc
 50
110.8276574044986
 51
285.1304783464536
  0
SPLINE
  5
17F1F
330
18
100
AcDbEntity
  8
0
100
AcDbSpline
210
0.0
220
0.0
230
1.0
 70
     8
 71
     3
 72
    12
 73
     8
 74
     6
 42
0.0000000001
 43
0.0000000001
 44
0.0000000001
 40
0.0
 40
0.0
 40
0.0
 40
0.0
 40
0.142667159619478
 40
0.2768809000171362
 40
0.5586563776995942
 40
0.6959869681169161
 40
0.8475030574188831
 40
0.8475030574188831
 40
0.8475030574188831
 40
0.8475030574188831
 10
81.70792032982285
 20
21.39004484344765
 30
0.0
 10
81.69528110166552
 20
21.33191414456666
 30
0.0
 10
81.67075155417149
 20
21.21909714962737
 30
0.0
 10
81.90941740495594
 20
21.23256510458327
 30
0.0
 10
82.07169829222786
 20
21.22020562452957
 30
0.0
 10
82.26055099007202
 20
21.31436937739005
 30
0.0
 10
82.27958626681076
 20
21.41413900665691
 30
0.0
 10
82.28957132425728
 20
21.46647370571702
 30
0.0
 11
81.70792032982285
 21
21.39004484344765
 31
0.0
 11
81.70792032982285
 21
21.24737768382818
 31
0.0
 11
81.84057754846561
 21
21.22699655398952
 31
0.0
 11
82.12119896354705
 21
21.25247284141267
 31
0.0
 11
82.23854969273224
 21
21.32380654609756
 31
0.0
 11
82.28957132425728
 21
21.46647370571702
 31
0.0
  0
SPLINE
  5
17F20
330
18
100
AcDbEntity
  8
0
100
AcDbSpline
210
0.0
220
0.0
230
1.0
 70
     8
 71
     3
 72
    12
 73
     8
 74
     6
 42
0.0000000001
 43
0.0000000001
 44
0.0000000001
 40
0.0
 40
0.0
 40
0.0
 40
0.0
 40
0.1145462888199314
 40
0.297233611936231
 40
0.496013994246342
 40
0.6697880497940904
 40
0.7663229927787935
 40
0.7663229927787935
 40
0.7663229927787935
 40
0.7663229927787935
 10
82.09568765944585
 20
21.24737768382818
 30
0.0
 10
82.07440500831124
 20
21.21495960805374
 30
0.0
 10
82.01917913121398
 20
21.13083866573665
 30
0.0
 10
81.95647642570071
 20
20.99545194833776
 30
0.0
 10
81.9149697070695
 20
20.73334241835249
 30
0.0
 10
82.12330034742397
 20
20.78687401458749
 30
0.0
 10
82.2046447457275
 20
20.81339248038936
 30
0.0
 10
82.23369511732073
 20
20.82286297008125
 30
0.0
 11
82.09568765944585
 21
21.24737768382818
 31
0.0
 11
82.03446121327704
 21
21.15056769172014
 31
0.0
 11
81.96303044080321
 21
20.98242399492722
 31
0.0
 11
81.96813260395572
 21
20.78370910287703
 31
0.0
 11
82.1416076161571
 21
20.79389941804601
 31
0.0
 11
82.23369511732073
 21
20.82286297008125
 31
0.0
  0
SPLINE
  5
17F23
330
18
100
AcDbEntity
  8
0
100
AcDbSpline
210
0.0
220
0.0
230
1.0
 70
     8
 71
     3
 72
    13
 73
     9
 74
     7
 42
0.0000000001
 43
0.0000000001
 44
0.0000000001
 40
0.0
 40
0.0
 40
0.0
 40
0.0
 40
0.1971656579843396
 40
0.3929616617250812
 40
0.5322361932506299
 40
0.6291677945130246
 40
0.6976805137510543
 40
0.7780855145805079
 40
0.7780855145805079
 40
0.7780855145805079
 40
0.7780855145805079
 10
82.23369511732073
 20
20.82286297008125
 30
0.0
 10
82.23236776762343
 20
20.75673467175221
 30
0.0
 10
82.22972228895297
 20
20.62493744974059
 30
0.0
 10
82.28810792375512
 20
20.45376307662685
 30
0.0
 10
82.36626871331068
 20
20.33098410307339
 30
0.0
 10
82.4496455843249
 20
20.26765043055368
 30
0.0
 10
82.53078742174791
 20
20.24871420320259
 30
0.0
 10
82.5804911406864
 20
20.24895224071636
 30
0.0
 10
82.60732762166844
 20
20.24908076408137
 30
0.0
 11
82.23369511732073
 21
20.82286297008125
 31
0.0
 11
82.24123116075203
 21
20.62584138563477
 31
0.0
 11
82.30245760692083
 21
20.43986451242097
 31
0.0
 11
82.38154162412342
 21
20.32522109414168
 31
0.0
 11
82.46062612966477
 21
20.26917311196058
 31
0.0
 11
82.52697964426181
 21
20.25210841747139
 31
0.0
 11
82.60732762166844
 21
20.24908076408137
 31
0.0
  0
SPLINE
  5
17F24
330
18
100
AcDbEntity
  8
0
100
AcDbSpline
210
0.0
220
0.0
230
1.0
 70
     8
 71
     3
 72
    10
 73
     6
 74
     4
 42
0.0000000001
 43
0.0000000001
 44
0.0000000001
 40
0.0
 40
0.0
 40
0.0
 40
0.0
 40
0.2507220323660024
 40
0.4571474214110395
 40
0.8295596676074891
 40
0.8295596676074891
 40
0.8295596676074891
 40
0.8295596676074891
 10
81.70053957811092
 20
21.89929286948313
 30
0.0
 10
81.64133240607277
 20
21.82752267321088
 30
0.0
 10
81.5333785666321
 20
21.69666237405644
 30
0.0
 10
81.73186272874362
 20
21.40562123141824
 30
0.0
 10
81.93634108216324
 20
21.50139004068813
 30
0.0
 10
82.06789825512386
 20
21.56300572564766
 30
0.0
 11
81.70053957811092
 21
21.89929286948313
 31
0.0
 11
81.58829101207823
 21
21.67510144025948
 31
0.0
 11
81.70053957811092
 21
21.50186258588207
 31
0.0
 11
82.06789825512386
 21
21.56300572564766
 31
0.0
  0
ARC
  5
17F25
330
18
100
AcDbEntity
  8
0
100
AcDbCircle
 10
82.60407368109998
 20
21.24046734045265
 30
0.0
 40
0.0715159387333052
100
AcDbArc
 50
87.3921694681276
 51
272.6078305318724
  0
ELLIPSE
  5
17F26
330
18
100
AcDbEntity
  8
0
100
AcDbEllipse
 10
82.59897176211689
 20
21.44937304717251
 30
0.0
 11
0.0
 21
-0.1377175576642597
 31
0.0
210
0.0
220
0.0
230
1.0
 40
0.7409657656506324
 41
3.059615995862118
 42
6.36516196490726
  0
ELLIPSE
  5
17F27
330
18
100
AcDbEntity
  8
0
100
AcDbEllipse
 10
82.60732762166844
 20
21.85660403788618
 30
0.0
 11
0.0
 21
-0.2699759168306386
 31
0.0
210
0.0
220
0.0
230
1.0
 40
0.552399612584868
 41
3.141592653589793
 42
6.283185307179586
  0
LINE
  5
17F2B
330
18
100
AcDbEntity
  8
0
100
AcDbLine
 10
81.35679130199653
 20
31.24908076408137
 30
0.0
 11
83.85786394134033
 21
31.24908076408137
 31
0.0
  0
ARC
  5
17F2D
330
18
100
AcDbEntity
  8
0
100
AcDbCircle
 10
83.77671538666431
 20
30.92179306735471
 30
0.0
 40
0.3371977525943005
100
AcDbArc
 50
269.4899879982158
 51
76.07475761307717
  0
LINE
  5
17F2E
330
18
100
AcDbEntity
  8
0
100
AcDbLine
 10
83.77371389805199
 20
30.58460867355697
 30
0.0
 11
83.77371389805199
 21
30.36580559920671
 31
0.0
  0
LINE
  5
17F2F
330
18
100
AcDbEntity
  8
0
100
AcDbLine
 10
83.77415188207519
 20
30.36580559920671
 30
0.0
 11
82.60732762166844
 21
30.36580559920671
 31
0.0
  0
LINE
  5
17F30
330
18
100
AcDbEntity
  8
0
100
AcDbLine
 10
83.77371389805199
 20
30.58460867355697
 30
0.0
 11
82.60732762166844
 21
30.58460867355697
 31
0.0
  0
ARC
  5
17F31
330
18
100
AcDbEntity
  8
0
100
AcDbCircle
 10
83.79916089351821
 20
30.0803901814617
 30
0.0
 40
0.2865090074324294
100
AcDbArc
 50
95.00764957179789
 51
286.2085654384448
  0
LINE
  5
17F32
330
18
100
AcDbEntity
  8
0
100
AcDbLine
 10
83.87913548850344
 20
29.80526934347071
 30
0.0
 11
83.87913548850344
 21
29.35024537256177
 31
0.0
  0
LINE
  5
17F33
330
18
100
AcDbEntity
  8
0
100
AcDbLine
 10
83.87913548850344
 20
29.35024537256177
 30
0.0
 11
84.16982762166844
 21
29.35024537256177
 31
0.0
  0
SPLINE
  5
17F34
330
18
100
AcDbEntity
  8
0
100
AcDbSpline
210
0.0
220
0.0
230
1.0
 70
     8
 71
     3
 72
    12
 73
     8
 74
     6
 42
0.0000000001
 43
0.0000000001
 44
0.0000000001
 40
0.0
 40
0.0
 40
0.0
 40
0.0
 40
0.9337415053658421
 40
1.920110568516063
 40
3.670417899012659
 40
5.208877962948436
 40
6.386912094114196
 40
6.386912094114196
 40
6.386912094114196
 40
6.386912094114196
 10
84.16982762166844
 20
29.35024537256177
 30
0.0
 10
84.17529443939498
 20
29.03894480904169
 30
0.0
 10
84.1865361957404
 20
28.39879815328633
 30
0.0
 10
84.11601365661182
 20
27.17651942529371
 30
0.0
 10
83.98139263091648
 20
25.75797793560491
 30
0.0
 10
83.86976675474972
 20
24.27302409207413
 30
0.0
 10
83.8231118110797
 20
23.36871417724934
 30
0.0
 10
83.80287944094249
 20
22.97655138642276
 30
0.0
 11
84.16982762166844
 21
29.35024537256177
 31
0.0
 11
84.17484510562582
 21
28.41651734808269
 31
0.0
 11
84.12632767515805
 21
27.43134224299698
 31
0.0
 11
83.98077587209327
 21
25.68709729924203
 31
0.0
 11
83.86756918545342
 21
24.15280801282134
 31
0.0
 11
83.80287944094249
 21
22.97655138642276
 31
0.0
  0
SPLINE
  5
17F35
330
18
100
AcDbEntity
  8
0
100
AcDbSpline
210
0.0
220
0.0
230
1.0
 70
     8
 71
     3
 72
    16
 73
    12
 74
     0
 42
0.0000000001
 43
0.0000000001
 40
0.0
 40
0.0
 40
0.0
 40
0.0
 40
0.7320552022535939
 40
0.7320552022535939
 40
1.917424212941731
 40
1.917424212941731
 40
3.102793223629868
 40
3.102793223629868
 40
5.473531245006142
 40
5.473531245006142
 40
6.151121584776166
 40
6.151121584776166
 40
6.151121584776166
 40
6.151121584776166
 10
83.87913548850344
 20
29.34585574434676
 30
0.0
 10
83.88342148450288
 20
29.10179548175828
 30
0.0
 10
83.88765353870857
 20
28.8596064798382
 30
0.0
 10
83.88456031086635
 20
28.23038982375465
 30
0.0
 10
83.86421648997718
 20
27.84328125099376
 30
0.0
 10
83.80861392095962
 20
27.06017595934657
 30
0.0
 10
83.77443541387156
 20
26.66792305344983
 30
0.0
 10
83.67102696703277
 20
25.48734589073856
 30
0.0
 10
83.60718607640119
 20
24.69460786412732
 30
0.0
 10
83.54842483699441
 20
23.67679219575968
 30
0.0
 10
83.53640616626554
 20
23.45077024004857
 30
0.0
 10
83.52466682497643
 20
23.22501333199293
 30
0.0
  0
SPLINE
  5
17F36
330
18
100
AcDbEntity
  8
0
100
AcDbSpline
210
0.0
220
0.0
230
1.0
 70
     8
 71
     3
 72
    18
 73
    14
 74
     0
 42
0.0000000001
 43
0.0000000001
 40
0.0737228983358115
 40
0.0737228983358115
 40
0.0737228983358115
 40
0.0737228983358115
 40
0.736525501857202
 40
0.736525501857202
 40
1.473051003714403
 40
1.473051003714403
 40
2.946102007428807
 40
2.946102007428807
 40
4.419153011143212
 40
4.419153011143212
 40
5.892204014857616
 40
5.892204014857616
 40
5.975419791925542
 40
5.975419791925542
 40
5.975419791925542
 40
5.975419791925542
 10
83.54620965277725
 20
29.26563989950578
 30
0.0
 10
83.55001943796414
 20
29.04528756579482
 30
0.0
 10
83.5532980640642
 20
28.82783722049325
 30
0.0
 10
83.55095032480122
 20
28.38261416130382
 30
0.0
 10
83.54281783503616
 20
28.14765180628938
 30
0.0
 10
83.50501842064689
 20
27.43600475800951
 30
0.0
 10
83.46329394968426
 20
26.95081746863249
 30
0.0
 10
83.37821444571508
 20
25.97511330318941
 30
0.0
 10
83.33585682150356
 20
25.48135032662687
 30
0.0
 10
83.26185552347061
 20
24.49320402126229
 30
0.0
 10
83.23085179311362
 20
23.99646410311408
 30
0.0
 10
83.20306752453509
 20
23.47609122572862
 30
0.0
 10
83.20159083013367
 20
23.44827623741101
 30
0.0
 10
83.20012168541907
 20
23.42047141968623
 30
0.0
  0
SPLINE
  5
17F37
330
18
100
AcDbEntity
  8
0
100
AcDbSpline
210
0.0
220
0.0
230
1.0
 70
     8
 71
     3
 72
    16
 73
    12
 74
     0
 42
0.0000000001
 43
0.0000000001
 40
0.087712929707857
 40
0.087712929707857
 40
0.087712929707857
 40
0.087712929707857
 40
0.6826955681066744
 40
0.6826955681066744
 40
1.681402450228719
 40
1.681402450228719
 40
2.680109332350764
 40
2.680109332350764
 40
4.677523096594855
 40
4.677523096594855
 40
5.8119131438939
 40
5.8119131438939
 40
5.8119131438939
 40
5.8119131438939
 10
83.42146830044516
 20
29.23172478752389
 30
0.0
 10
83.42486208841078
 20
29.05203613578118
 30
0.0
 10
83.42775041346813
 20
28.85751055383262
 30
0.0
 10
83.42673793102255
 20
28.35180777139214
 30
0.0
 10
83.41375816315963
 20
28.03822356074973
 30
0.0
 10
83.37387556273446
 20
27.39422883584663
 30
0.0
 10
83.34734558422724
 20
27.06716250523851
 30
0.0
 10
83.26255978004892
 20
26.07852319041001
 30
0.0
 10
83.20271073893895
 20
25.4081563611905
 30
0.0
 10
83.12828561472066
 20
24.35409632122105
 30
0.0
 10
83.1053946397343
 20
23.97185431613595
 30
0.0
 10
83.08446484494675
 20
23.59159247593752
 30
0.0
  0
LINE
  5
17F38
330
18
100
AcDbEntity
  8
0
100
AcDbLine
 10
83.87913548850344
 20
29.80526934347071
 30
0.0
 11
82.60732762166844
 21
29.80526934347071
 31
0.0
  0
ARC
  5
17F39
330
18
100
AcDbEntity
  8
0
100
AcDbCircle
 10
83.67720375347966
 20
29.45015748179411
 30
0.0
 40
0.2272779752731201
100
AcDbArc
 50
234.4074251098383
 51
332.6827513694599
  0
LINE
  5
17F3A
330
18
100
AcDbEntity
  8
0
100
AcDbLine
 10
83.54492397327467
 20
29.26534044309594
 30
0.0
 11
83.41994324359591
 21
29.23623032624875
 31
0.0
  0
ARC
  5
17F3B
330
18
100
AcDbEntity
  8
0
100
AcDbCircle
 10
82.59973653550535
 20
28.83997092668432
 30
0.0
 40
0.910911936325284
100
AcDbArc
 50
25.7861815445581
 51
89.52251999773345
  0
SPLINE
  5
17F3C
330
18
100
AcDbEntity
  8
0
100
AcDbSpline
210
0.0
220
0.0
230
1.0
 70
     8
 71
     3
 72
    17
 73
    13
 74
    11
 42
0.0000000001
 43
0.0000000001
 44
0.0000000001
 40
0.0
 40
0.0
 40
0.0
 40
0.0
 40
0.1600996157653413
 40
0.3731044174517732
 40
0.5350710399391932
 40
0.6007434616216897
 40
0.7987245844352396
 40
0.9057943983720065
 40
1.11280897968527
 40
1.301898529412604
 40
1.420858650469905
 40
1.584208330730836
 40
1.584208330730836
 40
1.584208330730836
 40
1.584208330730836
 10
82.6094544764256
 20
29.59768287251569
 30
0.0
 10
82.65958417441323
 20
29.57992145627068
 30
0.0
 10
82.77640901296942
 20
29.53852933406265
 30
0.0
 10
82.92506150093942
 20
29.41795864982939
 30
0.0
 10
82.96133856669767
 20
29.27283343526095
 30
0.0
 10
83.04309604167501
 20
29.15109013295209
 30
0.0
 10
83.18188313089072
 20
29.13912636958441
 30
0.0
 10
83.32745332828334
 20
29.05490390859937
 30
0.0
 10
83.45961055509997
 20
28.92298150086917
 30
0.0
 10
83.41154711455246
 20
28.72341566928073
 30
0.0
 10
83.2655524797332
 20
28.64252763217626
 30
0.0
 10
83.16991192927602
 20
28.65046676075714
 30
0.0
 10
83.1145725352337
 20
28.65506048761034
 30
0.0
 11
82.6094544764256
 21
29.59768287251569
 31
0.0
 11
82.75741867286454
 21
29.5365397327501
 31
0.0
 11
82.91558670726974
 21
29.3938725731307
 31
0.0
 11
82.98191531659105
 21
29.24611025592674
 31
0.0
 11
83.02066255389352
 21
29.19308650114579
 31
0.0
 11
83.20434189239993
 21
29.11920534254387
 31
0.0
 11
83.29825138540147
 21
29.06777624396489
 31
0.0
 11
83.42580644089158
 21
28.90472795450677
 31
0.0
 11
83.37988697251896
 21
28.72129878496043
 31
0.0
 11
83.2778427327914
 21
28.66015564519484
 31
0.0
 11
83.1145725352337
 21
28.65506048761034
 31
0.0
  0
SPLINE
  5
17F3D
330
18
100
AcDbEntity
  8
0
100
AcDbSpline
210
0.0
220
0.0
230
1.0
 70
     8
 71
     3
 72
    12
 73
     8
 74
     6
 42
0.0000000001
 43
0.0000000001
 44
0.0000000001
 40
0.0
 40
0.0
 40
0.0
 40
0.0
 40
0.071179353959671
 40
0.1732119012230596
 40
0.317137197534475
 40
0.4757103722137675
 40
0.5628975378319013
 40
0.5628975378319013
 40
0.5628975378319013
 40
0.5628975378319013
 10
83.11457253523368
 20
28.65506048761034
 30
0.0
 10
83.13388441877986
 20
28.63965589481324
 30
0.0
 10
83.18087905808395
 20
28.6021694797572
 30
0.0
 10
83.17141614576391
 20
28.47613640107036
 30
0.0
 10
83.02488473994172
 20
28.40007737117252
 30
0.0
 10
82.90309435864847
 20
28.48320436997148
 30
0.0
 10
82.85630783230283
 20
28.54947187989966
 30
0.0
 10
82.83970961057079
 20
28.57298127265284
 30
0.0
 11
83.11457253523368
 21
28.65506048761034
 31
0.0
 11
83.16369941244872
 21
28.60355271766042
 31
0.0
 11
83.15859724929621
 21
28.50164781771827
 31
0.0
 11
83.03359327538235
 21
28.43031411303338
 31
0.0
 11
82.89328281201093
 21
28.50419527163536
 31
0.0
 11
82.83970961057079
 21
28.57298127265284
 31
0.0
  0
SPLINE
  5
17F3E
330
18
100
AcDbEntity
  8
0
100
AcDbSpline
210
0.0
220
0.0
230
1.0
 70
     8
 71
     3
 72
     9
 73
     5
 74
     3
 42
0.0000000001
 43
0.0000000001
 44
0.0000000001
 40
0.0
 40
0.0
 40
0.0
 40
0.0
 40
0.2982394590638102
 40
0.9770544075439248
 40
0.9770544075439248
 40
0.9770544075439248
 40
0.9770544075439248
 10
82.83970961057079
 20
28.57298127265284
 30
0.0
 10
82.8025564322265
 20
28.48034455464386
 30
0.0
 10
82.68083988683875
 20
28.17685985173033
 30
0.0
 10
82.66017972706668
 20
27.84838138696617
 30
0.0
 10
82.64582594575935
 20
27.62016882232894
 30
0.0
 11
82.83970961057079
 21
28.57298127265284
 31
0.0
 11
82.73766585918199
 21
28.29274236074878
 31
0.0
 11
82.64582594575935
 21
27.62016882232894
 31
0.0
  0
SPLINE
  5
17F3F
330
18
100
AcDbEntity
  8
0
100
AcDbSpline
210
0.0
220
0.0
230
1.0
 70
     8
 71
     3
 72
    14
 73
    10
 74
     8
 42
0.0000000001
 43
0.0000000001
 44
0.0000000001
 40
0.0
 40
0.0
 40
0.0
 40
0.0
 40
0.2194153106555702
 40
0.4573904470549807
 40
0.609066830972165
 40
0.6641331462258792
 40
0.7347990934773395
 40
0.8892941051433183
 40
0.9798655716213907
 40
0.9798655716213907
 40
0.9798655716213907
 40
0.9798655716213907
 10
82.64582594575937
 20
27.62016882232894
 30
0.0
 10
82.68096325717721
 20
27.68429958365876
 30
0.0
 10
82.75421006265174
 20
27.81798577678259
 30
0.0
 10
82.89177587636684
 20
27.97337191649504
 30
0.0
 10
83.03110951414835
 20
28.03772638252837
 30
0.0
 10
83.13163705157746
 20
28.02448812056076
 30
0.0
 10
83.16843733442658
 20
27.92191114662384
 30
0.0
 10
83.11873803601434
 20
27.82439031810004
 30
0.0
 10
83.09685340259175
 20
27.74595017585813
 30
0.0
 10
83.08876529785615
 20
27.71696033290857
 30
0.0
 11
82.64582594575937
 21
27.62016882232894
 31
0.0
 11
82.75815557602275
 21
27.80864994264334
 31
0.0
 11
82.92397685515672
 21
27.9793410933533
 31
0.0
 11
83.06683888844313
 21
28.03029366819959
 31
0.0
 11
83.12041160154441
 21
28.01755539961283
 31
0.0
 11
83.15102506879824
 21
27.95386480593021
 31
0.0
 11
83.11530943839191
 21
27.80355478505885
 31
0.0
 11
83.08876529785615
 21
27.71696033290857
 31
0.0
  0
SPLINE
  5
17F40
330
18
100
AcDbEntity
  8
0
100
AcDbSpline
210
0.0
220
0.0
230
1.0
 70
     8
 71
     3
 72
    20
 73
    16
 74
     0
 42
0.0000000001
 43
0.0000000001
 40
0.9228479565907914
 40
0.9228479565907914
 40
0.9228479565907914
 40
0.9228479565907914
 40
0.9484240189987096
 40
1.000453380871134
 40
1.094527607686859
 40
1.263251532649724
 40
1.479430734717784
 40
1.525016641699639
 40
1.649935414174007
 40
1.857792645472517
 40
1.991243897208459
 40
2.073512584848472
 40
2.301679814085611
 40
2.497537402126038
 40
3.348320959398626
 40
3.348320959398626
 40
3.348320959398626
 40
3.348320959398626
 10
83.08876529785615
 20
27.71696033290858
 30
0.0
 10
83.08876529785615
 20
27.71696033290858
 30
0.0
 10
83.12320538747437
 20
27.71186492557371
 30
0.0
 10
83.17339073443996
 20
27.70576855755251
 30
0.0
 10
83.27841577815965
 20
27.69723898679387
 30
0.0
 10
83.35692500800961
 20
27.51155318686429
 30
0.0
 10
83.25335367940981
 20
27.3697567707862
 30
0.0
 10
83.32559174271287
 20
27.25688895040146
 30
0.0
 10
83.3420529090795
 20
27.129474018551
 30
0.0
 10
83.32347540286907
 20
26.97056502880853
 30
0.0
 10
83.21694497705317
 20
26.85362405290436
 30
0.0
 10
83.06607841246151
 20
26.85040713518349
 30
0.0
 10
82.88182447122586
 20
26.84749491080197
 30
0.0
 10
82.63155899901951
 20
26.46040843597639
 30
0.0
 10
82.65626759973297
 20
26.10277490083993
 30
0.0
 10
82.67635248871746
 20
25.81206520288288
 30
0.0
  0
SPLINE
  5
17F41
330
18
100
AcDbEntity
  8
0
100
AcDbSpline
210
0.0
220
0.0
230
1.0
 70
     8
 71
     3
 72
    10
 73
     6
 74
     4
 42
0.0000000001
 43
0.0000000001
 44
0.0000000001
 40
0.0
 40
0.0
 40
0.0
 40
0.0
 40
0.2869989109625194
 40
0.5217041286986566
 40
0.7741913562175812
 40
0.7741913562175812
 40
0.7741913562175812
 40
0.7741913562175812
 10
82.71885602760571
 20
26.76032595245795
 30
0.0
 10
82.73934396617127
 20
26.85483118099816
 30
0.0
 10
82.77658676302484
 20
27.02662196496905
 30
0.0
 10
82.93076505288803
 20
27.24050137832007
 30
0.0
 10
83.0533158155106
 20
27.34708920876842
 30
0.0
 10
83.11682768353373
 20
27.40232829562058
 30
0.0
 11
82.71885602760571
 21
26.76032595245795
 31
0.0
 11
82.80049112638456
 21
27.03546970677746
 31
0.0
 11
82.93314834502721
 21
27.22908944124316
 31
0.0
 11
83.11682768353373
 21
27.40232829562058
 31
0.0
  0
SPLINE
  5
17F42
330
18
100
AcDbEntity
  8
0
100
AcDbSpline
210
0.0
220
0.0
230
1.0
 70
     8
 71
     3
 72
    10
 73
     6
 74
     4
 42
0.0000000001
 43
0.0000000001
 44
0.0000000001
 40
0.0
 40
0.0
 40
0.0
 40
0.0
 40
0.3328124368155116
 40
0.5717758377640189
 40
0.7428118640683085
 40
0.7428118640683085
 40
0.7428118640683085
 40
0.7428118640683085
 10
82.64742525513188
 20
28.47233211764154
 30
0.0
 10
82.68969585447306
 20
28.57595264307148
 30
0.0
 10
82.76231726124001
 20
28.75397397335636
 30
0.0
 10
82.95733250157935
 20
28.92643893642363
 30
0.0
 10
83.09147962908308
 20
28.95835351433211
 30
0.0
 10
83.1474406624487
 20
28.97166705143439
 30
0.0
 11
82.64742525513188
 21
28.47233211764154
 31
0.0
 11
82.80049112638456
 21
28.76785700179977
 31
0.0
 11
82.9841704648911
 21
28.92071447658816
 31
0.0
 11
83.1474406624487
 21
28.97166705143439
 31
0.0
  0
SPLINE
  5
17F43
330
18
100
AcDbEntity
  8
0
100
AcDbSpline
210
0.0
220
0.0
230
1.0
 70
     8
 71
     3
 72
    13
 73
     9
 74
     7
 42
0.0000000001
 43
0.0000000001
 44
0.0000000001
 40
0.0
 40
0.0
 40
0.0
 40
0.0
 40
0.1538785338840858
 40
0.3524525504206544
 40
0.5126591930058942
 40
0.6298125723654041
 40
0.8234323068311029
 40
1.085765550880901
 40
1.085765550880901
 40
1.085765550880901
 40
1.085765550880901
 10
82.67635248871746
 20
25.81206520288288
 30
0.0
 10
82.70609298108801
 20
25.85401297303009
 30
0.0
 10
82.77421237449644
 20
25.95009264184198
 30
0.0
 10
82.86414661696012
 20
26.09269367247574
 30
0.0
 10
83.06090060370179
 20
26.15006841785076
 30
0.0
 10
83.13600673267655
 20
25.98423544605753
 30
0.0
 10
83.13268550521959
 20
25.7893668939462
 30
0.0
 10
83.03815678350535
 20
25.66395834549755
 30
0.0
 10
82.98376953878571
 20
25.591804345203
 30
0.0
 11
82.67635248871746
 21
25.81206520288288
 31
0.0
 11
82.76437505821181
 21
25.93828180420747
 31
0.0
 11
82.89703227685444
 21
26.08604412141136
 31
0.0
 11
83.05520031125954
 21
26.11152040883445
 31
0.0
 11
83.11651417006279
 21
26.01169293258664
 31
0.0
 11
83.11651417006279
 21
25.81807319812094
 31
0.0
 11
82.98376953878571
 21
25.591804345203
 31
0.0
  0
SPLINE
  5
17F44
330
18
100
AcDbEntity
  8
0
100
AcDbSpline
210
0.0
220
0.0
230
1.0
 70
     8
 71
     3
 72
    16
 73
    12
 74
    10
 42
0.0000000001
 43
0.0000000001
 44
0.0000000001
 40
0.0
 40
0.0
 40
0.0
 40
0.0
 40
0.1387885432091208
 40
0.235019797155546
 40
0.3626309356839605
 40
0.5269339409630862
 40
0.6885049235541083
 40
0.9770324421127359
 40
1.359721359810994
 40
1.692929217364366
 40
1.871335951579573
 40
1.871335951579573
 40
1.871335951579573
 40
1.871335951579573
 10
82.98376953878571
 20
25.591804345203
 30
0.0
 10
83.01860320923685
 20
25.63331086865087
 30
0.0
 10
83.07758936165486
 20
25.70359660330732
 30
0.0
 10
83.20297779287491
 20
25.6221259546745
 30
0.0
 10
83.20158996530034
 20
25.47178596197968
 30
0.0
 10
83.06670680719163
 20
25.36984628229523
 30
0.0
 10
82.86156898009016
 20
25.35251404095033
 30
0.0
 10
82.6305991851399
 20
25.12859024782556
 30
0.0
 10
82.6867546783183
 20
24.77358624256209
 30
0.0
 10
82.68480208191524
 20
24.48014745957038
 30
0.0
 10
82.67943039739924
 20
24.30933737554946
 30
0.0
 10
82.67755722038836
 20
24.2497736536551
 30
0.0
 11
82.98376953878571
 21
25.591804345203
 31
0.0
 11
83.09603959172292
 21
25.67339904441553
 31
0.0
 11
83.17767469050179
 21
25.62244646956924
 31
0.0
 11
83.18532793523056
 21
25.49506503245363
 31
0.0
 11
83.06287504289285
 21
25.3855170215092
 31
0.0
 11
82.90723660315936
 21
25.3421366285562
 31
0.0
 11
82.69804644889038
 21
25.14342173650601
 31
0.0
 11
82.6776373079417
 21
24.76127742515911
 31
0.0
 11
82.68265938354089
 21
24.42810741586658
 31
0.0
 11
82.67755722038836
 21
24.2497736536551
 31
0.0
  0
SPLINE
  5
17F45
330
18
100
AcDbEntity
  8
0
100
AcDbSpline
210
0.0
220
0.0
230
1.0
 70
     8
 71
     3
 72
     9
 73
     5
 74
     3
 42
0.0000000001
 43
0.0000000001
 44
0.0000000001
 40
0.0
 40
0.0
 40
0.0
 40
0.0
 40
0.3126465805893289
 40
0.6446714717060681
 40
0.6446714717060681
 40
0.6446714717060681
 40
0.6446714717060681
 10
82.67755722038836
 20
25.40130174528031
 30
0.0
 10
82.70117983060975
 20
25.50663344460982
 30
0.0
 10
82.74988921635852
 20
25.72382546217826
 30
0.0
 10
82.93115137772975
 20
25.85398288388759
 30
0.0
 10
83.0245067564525
 20
25.92101780891181
 30
0.0
 11
82.67755722038836
 21
25.40130174528031
 31
0.0
 11
82.77960097177716
 21
25.69682662943848
 31
0.0
 11
83.0245067564525
 21
25.92101780891181
 31
0.0
  0
SPLINE
  5
17F46
330
18
100
AcDbEntity
  8
0
100
AcDbSpline
210
0.0
220
0.0
230
1.0
 70
     8
 71
     3
 72
     9
 73
     5
 74
     3
 42
0.0000000001
 43
0.0000000001
 44
0.0000000001
 40
0.0
 40
0.0
 40
0.0
 40
0.0
 40
0.3293275673953604
 40
0.5817950704501693
 40
0.5817950704501693
 40
0.5817950704501693
 40
0.5817950704501693
 10
82.70796607371014
 20
27.35500459385423
 30
0.0
 10
82.73898775208216
 20
27.4631782219053
 30
0.0
 10
82.79379111912698
 20
27.65427939224026
 30
0.0
 10
82.94031190479675
 20
27.78669013311473
 30
0.0
 10
83.00389397824924
 20
27.8441492124781
 30
0.0
 11
82.70796607371014
 21
27.35500459385423
 31
0.0
 11
82.83041896604785
 21
27.66072004293176
 31
0.0
 11
83.00389397824924
 21
27.8441492124781
 31
0.0
  0
SPLINE
  5
17F47
330
18
100
AcDbEntity
  8
0
100
AcDbSpline
210
0.0
220
0.0
230
1.0
 70
     8
 71
     3
 72
     9
 73
     5
 74
     3
 42
0.0000000001
 43
0.0000000001
 44
0.0000000001
 40
0.0
 40
0.0
 40
0.0
 40
0.0
 40
0.2352958822282105
 40
0.3724982592398311
 40
0.3724982592398311
 40
0.3724982592398311
 40
0.3724982592398311
 10
82.69754345998851
 20
28.92841403117723
 30
0.0
 10
82.71045008122667
 20
29.01018815769057
 30
0.0
 10
82.73088262725488
 20
29.13964524588361
 30
0.0
 10
82.83329602970621
 20
29.21614344452964
 30
0.0
 10
82.87101798385126
 20
29.24432004517405
 30
0.0
 11
82.69754345998851
 21
28.92841403117723
 31
0.0
 11
82.76897423246234
 21
29.15260546040088
 31
0.0
 11
82.87101798385126
 21
29.24432004517405
 31
0.0
  0
SPLINE
  5
17F48
330
18
100
AcDbEntity
  8
0
100
AcDbSpline
210
0.0
220
0.0
230
1.0
 70
     8
 71
     3
 72
    12
 73
     8
 74
     6
 42
0.0000000001
 43
0.0000000001
 44
0.0000000001
 40
0.0
 40
0.0
 40
0.0
 40
0.0
 40
0.0970758818733589
 40
0.2888069876211048
 40
0.4418020179305618
 40
0.7375030415990859
 40
0.8506389680497486
 40
0.8506389680497486
 40
0.8506389680497486
 40
0.8506389680497486
 10
82.60549942097279
 20
24.23192524246082
 30
0.0
 10
82.63804613439763
 20
24.23618712121404
 30
0.0
 10
82.73487469860738
 20
24.24886648441499
 30
0.0
 10
82.87354638391896
 20
24.16413506768069
 30
0.0
 10
82.98513270269001
 20
23.972844615925
 30
0.0
 10
82.94387250114787
 20
23.77658947761021
 30
0.0
 10
82.92661232294781
 20
23.64235467030551
 30
0.0
 10
82.92183597812183
 20
23.60520837205161
 30
0.0
 11
82.60549942097279
 21
24.23192524246082
 31
0.0
 11
82.70244149754782
 21
24.23702040004531
 31
0.0
 11
82.87081385825805
 21
24.14530581527214
 31
0.0
 11
82.94734728222314
 21
24.0128289708216
 31
0.0
 11
82.93714246757938
 21
23.71730408666343
 31
0.0
 11
82.92183597812183
 21
23.60520837205161
 31
0.0
  0
SPLINE
  5
17F49
330
18
100
AcDbEntity
  8
0
100
AcDbSpline
210
0.0
220
0.0
230
1.0
 70
     8
 71
     3
 72
    11
 73
     7
 74
     5
 42
0.0000000001
 43
0.0000000001
 44
0.0000000001
 40
0.0
 40
0.0
 40
0.0
 40
0.0
 40
0.0816355871176029
 40
0.1757092830846028
 40
0.2421694040556641
 40
0.3801190880059337
 40
0.3801190880059337
 40
0.3801190880059337
 40
0.3801190880059337
 10
82.92183597812183
 20
23.6052083720516
 30
0.0
 10
82.94850310152909
 20
23.60544380525323
 30
0.0
 10
83.00590038745871
 20
23.60595054257861
 30
0.0
 10
83.09544190273653
 20
23.60213928671393
 30
0.0
 10
83.14981529794565
 20
23.50606175556261
 30
0.0
 10
83.13250438877648
 20
23.43748680992205
 30
0.0
 10
83.12082180608578
 20
23.39120775749762
 30
0.0
 11
82.92183597812183
 21
23.6052083720516
 31
0.0
 11
83.00347156523944
 21
23.60520837205161
 31
0.0
 11
83.09531099032321
 21
23.58482749196332
 31
0.0
 11
83.13102613239081
 21
23.52877950978217
 31
0.0
 11
83.12082180608578
 21
23.39120775749762
 31
0.0
  0
SPLINE
  5
17F4A
330
18
100
AcDbEntity
  8
0
100
AcDbSpline
210
0.0
220
0.0
230
1.0
 70
     8
 71
     3
 72
    10
 73
     6
 74
     4
 42
0.0000000001
 43
0.0000000001
 44
0.0000000001
 40
0.0
 40
0.0
 40
0.0
 40
0.0
 40
0.1659893026194517
 40
0.2312752670717846
 40
0.3490676320775312
 40
0.3490676320775312
 40
0.3490676320775312
 40
0.3490676320775312
 10
82.81469006358051
 20
24.18097266761459
 30
0.0
 10
82.80280886872786
 20
24.12735609338457
 30
0.0
 10
82.78625463017567
 20
24.05265135441143
 30
0.0
 10
82.71620879625368
 20
23.94838546642452
 30
0.0
 10
82.64884268896997
 20
23.95659463032933
 30
0.0
 10
82.60549942097279
 20
23.96187639597537
 30
0.0
 11
82.81469006358051
 21
24.18097266761459
 31
0.0
 11
82.76366794371663
 21
24.02301953574096
 31
0.0
 11
82.72285015015787
 21
23.97206696089467
 31
0.0
 11
82.60549942097279
 21
23.96187639597537
 31
0.0
  0
SPLINE
  5
17F4B
330
18
100
AcDbEntity
  8
0
100
AcDbSpline
210
0.0
220
0.0
230
1.0
 70
     8
 71
     3
 72
    15
 73
    11
 74
     9
 42
0.0000000001
 43
0.0000000001
 44
0.0000000001
 40
0.0
 40
0.0
 40
0.0
 40
0.0
 40
0.3548294235738838
 40
0.5985136557317342
 40
0.837564851181728
 40
1.056708867809589
 40
1.194064182652009
 40
1.276224356023748
 40
1.345589164085013
 40
1.417019936558845
 40
1.417019936558845
 40
1.417019936558845
 40
1.417019936558845
 10
82.70779124844134
 20
22.72177907591339
 30
0.0
 10
82.72075083892302
 20
22.84225697126542
 30
0.0
 10
82.74261061536956
 20
23.04547480155621
 30
0.0
 10
82.9231236742806
 20
23.27031036290056
 30
0.0
 10
83.12098830698579
 20
23.40350305269052
 30
0.0
 10
83.31119682590296
 20
23.45478669167285
 30
0.0
 10
83.47815456302265
 20
23.42216156049093
 30
0.0
 10
83.50057727714704
 20
23.30387837752253
 30
0.0
 10
83.42657407032675
 20
23.25810334318592
 30
0.0
 10
83.37960167477367
 20
23.26398678862225
 30
0.0
 10
83.35577085219709
 20
23.26697167671836
 30
0.0
 11
82.70779124844134
 21
22.72177907591339
 31
0.0
 11
82.78432418406769
 21
23.06825653491785
 31
0.0
 11
82.9322883805066
 21
23.26187626938349
 31
0.0
 11
83.13127420847056
 21
23.39435311383403
 31
0.0
 11
83.34556652589204
 21
23.44021053109577
 31
0.0
 11
83.47312158138217
 21
23.38925770649916
 31
0.0
 11
83.4833259076872
 21
23.30773368664529
 31
0.0
 11
83.42720162467092
 21
23.26697167671836
 31
0.0
 11
83.35577085219709
 21
23.26697167671836
 31
0.0
  0
SPLINE
  5
17F4C
330
18
100
AcDbEntity
  8
0
100
AcDbSpline
210
0.0
220
0.0
230
1.0
 70
     8
 71
     3
 72
    14
 73
    10
 74
     8
 42
0.0000000001
 43
0.0000000001
 44
0.0000000001
 40
0.0
 40
0.0
 40
0.0
 40
0.0
 40
0.1300743379839062
 40
0.3059499633703686
 40
0.4645850168115833
 40
0.5422100525294246
 40
0.5744398026947053
 40
0.6502329753820897
 40
0.7245145054532212
 40
0.7245145054532212
 40
0.7245145054532212
 40
0.7245145054532212
 10
83.35577085219709
 20
23.26697167671836
 30
0.0
 10
83.39900283719817
 20
23.26104395528981
 30
0.0
 10
83.50068949140313
 20
23.24710126542457
 30
0.0
 10
83.63711492134042
 20
23.1612991593613
 30
0.0
 10
83.73235352654381
 20
23.07074706996951
 30
0.0
 10
83.78826372896936
 20
22.98612620998087
 30
0.0
 10
83.76443333194171
 20
22.92635574052631
 30
0.0
 10
83.72253273346299
 20
22.87702434674431
 30
0.0
 10
83.67173809550136
 20
22.86861069013435
 30
0.0
 10
83.64659659358366
 20
22.8644462355328
 30
0.0
 11
83.35577085219709
 21
23.26697167671836
 31
0.0
 11
83.4833259076872
 21
23.24149538929527
 31
0.0
 11
83.63639226727864
 21
23.15487596210653
 31
0.0
 11
83.74864034497248
 21
23.0427802474947
 31
0.0
 11
83.77925381222629
 21
22.97144679256019
 31
0.0
 11
83.76904948592127
 21
22.94087509780218
 31
0.0
 11
83.71802736605749
 21
22.88482736537145
 31
0.0
 11
83.64659659358366
 21
22.8644462355328
 31
0.0
  0
SPLINE
  5
17F4D
330
18
100
AcDbEntity
  8
0
100
AcDbSpline
210
0.0
220
0.0
230
1.0
 70
     8
 71
     3
 72
    24
 73
    20
 74
    18
 42
0.0000000001
 43
0.0000000001
 44
0.0000000001
 40
0.0
 40
0.0
 40
0.0
 40
0.0
 40
0.2875168147229592
 40
0.5293569407157542
 40
0.7040250835794191
 40
0.8695220870092777
 40
1.016591882308
 40
1.146528927334528
 40
1.307803546286535
 40
1.461279278466051
 40
1.501096861099874
 40
1.552094123687008
 40
1.627404207809474
 40
1.648414023182453
 40
1.720285371478223
 40
1.789212163164201
 40
2.094946839393071
 40
2.394071256009157
 40
2.669640687541675
 40
2.669640687541675
 40
2.669640687541675
 40
2.669640687541675
 10
82.9118792395578
 20
22.77782680834412
 30
0.0
 10
82.96280888999923
 20
22.85935496963874
 30
0.0
 10
83.056577193517
 20
23.0094592273208
 30
0.0
 10
83.27454397536477
 20
23.1401252159747
 30
0.0
 10
83.47258079402214
 20
23.10978124560122
 30
0.0
 10
83.62435542457758
 20
23.02747348424796
 30
0.0
 10
83.66516526644423
 20
22.86562600475934
 30
0.0
 10
83.59249042409548
 20
22.73387406764153
 30
0.0
 10
83.46341832755959
 20
22.63057667739571
 30
0.0
 10
83.34617440393374
 20
22.66310136792171
 30
0.0
 10
83.26792142088931
 20
22.73116775893591
 30
0.0
 10
83.3368651622486
 20
22.76624024287915
 30
0.0
 10
83.38643303735223
 20
22.77114624100986
 30
0.0
 10
83.40527192133537
 20
22.83432654455055
 30
0.0
 10
83.32171888323195
 20
22.83631019489305
 30
0.0
 10
83.18969404880364
 20
22.83621274947218
 30
0.0
 10
82.97483129618175
 20
22.68071858524905
 30
0.0
 10
82.87066073085799
 20
22.40084227365259
 30
0.0
 10
82.87093190471344
 20
22.20794083002409
 30
0.0
 10
82.8710619343378
 20
22.11544333534277
 30
0.0
 11
82.9118792395578
 21
22.77782680834412
 31
0.0
 11
83.0853542517593
 21
23.00711339515226
 31
0.0
 11
83.29964656918079
 21
23.11920910976409
 31
0.0
 11
83.47312158138217
 21
23.0988282296758
 31
0.0
 11
83.61088096317732
 21
23.00711339515226
 31
0.0
 11
83.64659659358366
 21
22.8644462355328
 31
0.0
 11
83.59047231056738
 21
22.74725536333648
 31
0.0
 11
83.45781509192475
 21
22.65554077856331
 31
0.0
 11
83.30985138382457
 21
22.69630278849025
 31
0.0
 11
83.28434007972324
 21
22.72687423349783
 31
0.0
 11
83.32515787328199
 21
22.75744592825583
 31
0.0
 11
83.39148648260342
 21
22.79311278059828
 31
0.0
 11
83.39658864575582
 21
22.81349366068656
 31
0.0
 11
83.32829544968465
 21
22.83588852787159
 31
0.0
 11
83.25941575878706
 21
22.83334082420418
 31
0.0
 11
83.00371915298043
 21
22.66573134348266
 31
0.0
 11
82.88636842379535
 21
22.39058733941272
 31
0.0
 11
82.8710619343378
 21
22.11544333534277
 31
0.0
  0
SPLINE
  5
17F4E
330
18
100
AcDbEntity
  8
0
100
AcDbSpline
210
0.0
220
0.0
230
1.0
 70
     8
 71
     3
 72
    11
 73
     7
 74
     5
 42
0.0000000001
 43
0.0000000001
 44
0.0000000001
 40
0.0
 40
0.0
 40
0.0
 40
0.0
 40
0.2269093631504858
 40
0.4785974909449611
 40
0.6965274761102225
 40
0.8231626368065064
 40
0.8231626368065064
 40
0.8231626368065064
 40
0.8231626368065064
 10
82.8710619343378
 20
22.11544333534277
 30
0.0
 10
82.88209533131862
 20
22.19709140595186
 30
0.0
 10
82.90536698497936
 20
22.36930361082281
 30
0.0
 10
83.17468574893185
 20
22.43262913886942
 30
0.0
 10
83.3724897919351
 20
22.36390342384245
 30
0.0
 10
83.44090921155256
 20
22.26938537633615
 30
0.0
 10
83.4660548314798
 20
22.23464794488547
 30
0.0
 11
82.8710619343378
 21
22.11544333534277
 31
0.0
 11
82.94052812006176
 21
22.3314579369935
 31
0.0
 11
83.18033125324584
 21
22.40788679926288
 31
0.0
 11
83.38441973270105
 21
22.3314579369935
 31
0.0
 11
83.4660548314798
 21
22.23464794488547
 31
0.0
  0
SPLINE
  5
17F4F
330
18
100
AcDbEntity
  8
0
100
AcDbSpline
210
0.0
220
0.0
230
1.0
 70
     8
 71
     3
 72
    13
 73
     9
 74
     7
 42
0.0000000001
 43
0.0000000001
 44
0.0000000001
 40
0.0
 40
0.0
 40
0.0
 40
0.0
 40
0.0594417308086042
 40
0.2437560078101875
 40
0.3622987255096084
 40
0.5082395554846297
 40
0.6970898097723829
 40
0.7406755110192124
 40
0.7406755110192124
 40
0.7406755110192124
 40
0.7406755110192124
 10
83.4660548314798
 20
22.23464794488547
 30
0.0
 10
83.47458719128914
 20
22.25353487179575
 30
0.0
 10
83.50957631317433
 20
22.33098554223936
 30
0.0
 10
83.68694963897164
 20
22.30342975922952
 30
0.0
 10
83.75142044165738
 20
22.15681643452674
 30
0.0
 10
83.67904136668119
 20
21.98779482544648
 30
0.0
 10
83.52495785854356
 20
22.00757073740336
 30
0.0
 10
83.45387353694921
 20
22.03574504735071
 30
0.0
 10
83.44054401571733
 20
22.04102821041977
 30
0.0
 11
83.4660548314798
 21
22.23464794488547
 31
0.0
 11
83.49666781039488
 21
22.28560051973176
 31
0.0
 11
83.68034714890129
 21
22.27031479722791
 31
0.0
 11
83.73136926876517
 21
22.16331424020058
 31
0.0
 11
83.67014282259637
 21
22.03083764550047
 31
0.0
 11
83.48136132093733
 21
22.02574223816561
 31
0.0
 11
83.44054401571733
 21
22.04102821041977
 31
0.0
  0
LINE
  5
17F50
330
18
100
AcDbEntity
  8
0
100
AcDbLine
 10
83.80287944094249
 20
22.97655138642276
 30
0.0
 11
84.14038421695281
 21
22.97655138642276
 31
0.0
  0
LINE
  5
17F51
330
18
100
AcDbEntity
  8
0
100
AcDbLine
 10
84.14038421695281
 20
22.97655138642276
 30
0.0
 11
84.14038421695281
 21
22.33548566143668
 31
0.0
  0
LINE
  5
17F52
330
18
100
AcDbEntity
  8
0
100
AcDbLine
 10
84.14038421695281
 20
22.33548566143668
 30
0.0
 11
83.94650055214137
 21
22.33548566143668
 31
0.0
  0
LINE
  5
17F53
330
18
100
AcDbEntity
  8
0
100
AcDbLine
 10
83.94650055214137
 20
22.97655138642276
 30
0.0
 11
83.94650055214137
 21
22.12657995471682
 31
0.0
  0
LINE
  5
17F54
330
18
100
AcDbEntity
  8
0
100
AcDbLine
 10
83.94650055214137
 20
22.12657995471682
 30
0.0
 11
83.78581580458401
 21
22.12657995471682
 31
0.0
  0
SPLINE
  5
17F55
330
18
100
AcDbEntity
  8
0
100
AcDbSpline
210
0.0
220
0.0
230
1.0
 70
     8
 71
     3
 72
     9
 73
     5
 74
     3
 42
0.0000000001
 43
0.0000000001
 44
0.0000000001
 40
0.0
 40
0.0
 40
0.0
 40
0.0
 40
0.5855413735510892
 40
0.8594662577332321
 40
0.8594662577332321
 40
0.8594662577332321
 40
0.8594662577332321
 10
83.80287944094249
 20
22.97655138642276
 30
0.0
 10
83.80296388729567
 20
22.78066396924949
 30
0.0
 10
83.8030878388974
 20
22.4931375313585
 30
0.0
 10
83.74933884978043
 20
22.21130809679817
 30
0.0
 10
83.73220823471987
 20
22.12148479713233
 30
0.0
 11
83.80287944094249
 21
22.97655138642276
 31
0.0
 11
83.77812770309239
 21
22.3915333938674
 31
0.0
 11
83.73220823471987
 21
22.12148479713233
 31
0.0
  0
ARC
  5
17F56
330
18
100
AcDbEntity
  8
0
100
AcDbCircle
 10
83.67680042011325
 20
22.06516670991089
 30
0.0
 40
0.1251237015473189
100
AcDbArc
 50
273.9006167834761
 51
27.92407049971841
  0
ARC
  5
17F57
330
18
100
AcDbEntity
  8
0
100
AcDbCircle
 10
83.5823328113595
 20
21.66963169323214
 30
0.0
 40
0.289627085630936
100
AcDbArc
 50
254.8695216535464
 51
69.17234259550133
  0
SPLINE
  5
17F58
330
18
100
AcDbEntity
  8
0
100
AcDbSpline
210
0.0
220
0.0
230
1.0
 70
     8
 71
     3
 72
    12
 73
     8
 74
     6
 42
0.0000000001
 43
0.0000000001
 44
0.0000000001
 40
0.0
 40
0.0
 40
0.0
 40
0.0
 40
0.142667159619478
 40
0.2768809000171362
 40
0.5586563776995942
 40
0.6959869681169161
 40
0.8475030574188831
 40
0.8475030574188831
 40
0.8475030574188831
 40
0.8475030574188831
 10
83.506734913514
 20
21.39004484344765
 30
0.0
 10
83.51937414167135
 20
21.33191414456666
 30
0.0
 10
83.54390368916538
 20
21.21909714962737
 30
0.0
 10
83.30523783838094
 20
21.23256510458327
 30
0.0
 10
83.14295695110898
 20
21.22020562452957
 30
0.0
 10
82.95410425326481
 20
21.31436937739005
 30
0.0
 10
82.9350689765261
 20
21.41413900665691
 30
0.0
 10
82.92508391907958
 20
21.46647370571702
 30
0.0
 11
83.506734913514
 21
21.39004484344765
 31
0.0
 11
83.506734913514
 21
21.24737768382818
 31
0.0
 11
83.37407769487127
 21
21.22699655398952
 31
0.0
 11
83.09345627978983
 21
21.25247284141267
 31
0.0
 11
82.97610555060462
 21
21.32380654609756
 31
0.0
 11
82.92508391907958
 21
21.46647370571702
 31
0.0
  0
SPLINE
  5
17F59
330
18
100
AcDbEntity
  8
0
100
AcDbSpline
210
0.0
220
0.0
230
1.0
 70
     8
 71
     3
 72
    12
 73
     8
 74
     6
 42
0.0000000001
 43
0.0000000001
 44
0.0000000001
 40
0.0
 40
0.0
 40
0.0
 40
0.0
 40
0.1145462888199314
 40
0.297233611936231
 40
0.496013994246342
 40
0.6697880497940904
 40
0.7663229927787935
 40
0.7663229927787935
 40
0.7663229927787935
 40
0.7663229927787935
 10
83.11896758389101
 20
21.24737768382818
 30
0.0
 10
83.14025023502564
 20
21.21495960805374
 30
0.0
 10
83.19547611212291
 20
21.13083866573665
 30
0.0
 10
83.25817881763612
 20
20.99545194833776
 30
0.0
 10
83.2996855362674
 20
20.73334241835249
 30
0.0
 10
83.09135489591289
 20
20.78687401458749
 30
0.0
 10
83.01001049760934
 20
20.81339248038936
 30
0.0
 10
82.98096012601613
 20
20.82286297008125
 30
0.0
 11
83.11896758389101
 21
21.24737768382818
 31
0.0
 11
83.18019403005981
 21
21.15056769172014
 31
0.0
 11
83.25162480253366
 21
20.98242399492722
 31
0.0
 11
83.24652263938114
 21
20.78370910287703
 31
0.0
 11
83.07304762717976
 21
20.79389941804601
 31
0.0
 11
82.98096012601613
 21
20.82286297008125
 31
0.0
  0
SPLINE
  5
17F5A
330
18
100
AcDbEntity
  8
0
100
AcDbSpline
210
0.0
220
0.0
230
1.0
 70
     8
 71
     3
 72
    13
 73
     9
 74
     7
 42
0.0000000001
 43
0.0000000001
 44
0.0000000001
 40
0.0
 40
0.0
 40
0.0
 40
0.0
 40
0.1971656579843396
 40
0.3929616617250812
 40
0.5322361932506299
 40
0.6291677945130246
 40
0.6976805137510543
 40
0.7780855145805079
 40
0.7780855145805079
 40
0.7780855145805079
 40
0.7780855145805079
 10
82.98096012601613
 20
20.82286297008125
 30
0.0
 10
82.98228747571343
 20
20.75673467175221
 30
0.0
 10
82.98493295438388
 20
20.62493744974059
 30
0.0
 10
82.92654731958178
 20
20.45376307662685
 30
0.0
 10
82.84838653002614
 20
20.33098410307339
 30
0.0
 10
82.76500965901195
 20
20.26765043055368
 30
0.0
 10
82.68386782158893
 20
20.24871420320259
 30
0.0
 10
82.63416410265044
 20
20.24895224071636
 30
0.0
 10
82.60732762166844
 20
20.24908076408137
 30
0.0
 11
82.98096012601613
 21
20.82286297008125
 31
0.0
 11
82.97342408258485
 21
20.62584138563477
 31
0.0
 11
82.91219763641604
 21
20.43986451242097
 31
0.0
 11
82.83311361921343
 21
20.32522109414168
 31
0.0
 11
82.75402911367208
 21
20.26917311196058
 31
0.0
 11
82.68767559907505
 21
20.25210841747139
 31
0.0
 11
82.60732762166844
 21
20.24908076408137
 31
0.0
  0
SPLINE
  5
17F5B
330
18
100
AcDbEntity
  8
0
100
AcDbSpline
210
0.0
220
0.0
230
1.0
 70
     8
 71
     3
 72
    10
 73
     6
 74
     4
 42
0.0000000001
 43
0.0000000001
 44
0.0000000001
 40
0.0
 40
0.0
 40
0.0
 40
0.0
 40
0.2507220323660024
 40
0.4571474214110395
 40
0.8295596676074891
 40
0.8295596676074891
 40
0.8295596676074891
 40
0.8295596676074891
 10
83.51411566522594
 20
21.89929286948313
 30
0.0
 10
83.5733228372641
 20
21.82752267321088
 30
0.0
 10
83.68127667670476
 20
21.69666237405644
 30
0.0
 10
83.48279251459326
 20
21.40562123141824
 30
0.0
 10
83.27831416117358
 20
21.50139004068813
 30
0.0
 10
83.14675698821302
 20
21.56300572564766
 30
0.0
 11
83.51411566522594
 21
21.89929286948313
 31
0.0
 11
83.62636423125863
 21
21.67510144025948
 31
0.0
 11
83.51411566522594
 21
21.50186258588207
 31
0.0
 11
83.14675698821302
 21
21.56300572564766
 31
0.0
  0
ARC
  5
17F5C
330
18
100
AcDbEntity
  8
0
100
AcDbCircle
 10
82.61058156223688
 20
21.24046734045265
 30
0.0
 40
0.0715159387333052
100
AcDbArc
 50
267.3921694681276
 51
92.60783053187239
  0
ELLIPSE
  5
17F5D
330
18
100
AcDbEntity
  8
0
100
AcDbEllipse
 10
82.61568348121997
 20
21.44937304717251
 30
0.0
 11
0.0
 21
-0.1377175576642597
 31
0.0
210
0.0
220
0.0
230
-1.0
 40
0.7409657656506324
 41
3.059615995862118
 42
6.36516196490726
  0
ELLIPSE
  5
17F5E
330
18
100
AcDbEntity
  8
0
100
AcDbEllipse
 10
82.60732762166844
 20
21.85660403788618
 30
0.0
 11
0.0
 21
-0.2699759168306386
 31
0.0
210
0.0
220
0.0
230
-1.0
 40
0.552399612584868
 41
3.141592653589793
 42
6.283185307179586
  0
DIMENSION
  5
17F5F
330
18
100
AcDbEntity
  8
DIM
100
AcDbDimension
  2
*D2
 10
78.47510810615756
 20
31.24908076408137
 30
0.0
 11
78.47510810615756
 21
25.74908076408138
 31
0.0
 70
   160
 71
     5
 42
11.0
  3
STANDARD
100
AcDbAlignedDimension
 13
82.58027447867261
 23
20.24908076408137
 33
0.0
 14
82.58027447867261
 24
31.24908076408137
 34
0.0
 50
90.0
100
AcDbRotatedDimension
  0
DIMENSION
  5
17F6D
330
18
100
AcDbEntity
  8
DIM
100
AcDbDimension
  2
*D3
 10
81.04482762166844
 20
34.17857444623621
 30
0.0
 11
82.60732762166844
 21
34.17857444623621
 31
0.0
 70
    32
 71
     5
 42
3.125
  3
STANDARD
100
AcDbAlignedDimension
 13
84.16982762166844
 23
29.35024537256177
 33
0.0
 14
81.04482762166844
 24
29.35024537256177
 34
0.0
100
AcDbRotatedDimension
  0
LINE
  5
17FB0
330
18
100
AcDbEntity
  8
0
100
AcDbLine
 10
92.37041483053047
 20
31.24908076408137
 30
0.0
 11
92.37041483053047
 21
20.24908076408137
 31
0.0
  0
ARC
  5
17FD4
330
18
100
AcDbEntity
  8
0
100
AcDbCircle
 10
90.44706178011782
 20
30.92179306735471
 30
0.0
 40
0.3371977525943005
100
AcDbArc
 50
103.9252423869224
 51
270.5100120017845
  0
LINE
  5
17FD5
330
18
100
AcDbEntity
  8
0
100
AcDbLine
 10
90.5014604327461
 20
30.58460867355697
 30
0.0
 11
90.5014604327461
 21
30.36580559920671
 31
0.0
  0
LINE
  5
17FD6
330
18
100
AcDbEntity
  8
0
100
AcDbLine
 10
90.5010224487229
 20
30.36580559920671
 30
0.0
 11
92.37041483053047
 21
30.36580559920671
 31
0.0
  0
LINE
  5
17FD7
330
18
100
AcDbEntity
  8
0
100
AcDbLine
 10
90.45006326873014
 20
30.58460867355697
 30
0.0
 11
92.37041483053047
 21
30.58460867355697
 31
0.0
  0
LINE
  5
17FD9
330
18
100
AcDbEntity
  8
0
100
AcDbLine
 10
90.68728846170738
 20
29.80526934347071
 30
0.0
 11
90.68728846170738
 21
29.55764744926641
 31
0.0
  0
LINE
  5
17FDA
330
18
100
AcDbEntity
  8
0
100
AcDbLine
 10
90.68728846170738
 20
29.80526934347071
 30
0.0
 11
92.37041483053047
 21
29.80526934347071
 31
0.0
  0
LINE
  5
17FDB
330
18
100
AcDbEntity
  8
0
100
AcDbLine
 10
90.36591322544181
 20
31.24908076408137
 30
0.0
 11
92.37041483053047
 21
31.24908076408137
 31
0.0
  0
SPLINE
  5
17FF4
330
18
100
AcDbEntity
  8
0
100
AcDbSpline
210
0.0
220
0.0
230
1.0
 70
     8
 71
     3
 72
    11
 73
     7
 74
     5
 42
0.0000000001
 43
0.0000000001
 44
0.0000000001
 40
0.0
 40
0.0
 40
0.0
 40
0.0
 40
0.413527645023679
 40
0.6168834865491688
 40
0.8238588291080025
 40
0.9784627722257415
 40
0.9784627722257415
 40
0.9784627722257415
 40
0.9784627722257415
 10
90.5014604327461
 20
30.36580559920671
 30
0.0
 10
90.65554043696812
 20
30.34594181702916
 30
0.0
 10
90.88539063285173
 20
30.31630984597911
 30
0.0
 10
90.96871439618995
 20
30.02065685792954
 30
0.0
 10
90.86607938871145
 20
29.8254372593712
 30
0.0
 10
90.74083879183545
 20
29.81130991036393
 30
0.0
 10
90.68728846170738
 20
29.80526934347071
 30
0.0
 11
90.5014604327461
 21
30.36580559920671
 31
0.0
 11
90.88844935041795
 21
30.22005001338577
 31
0.0
 11
90.93984602609504
 21
30.02329641110139
 31
0.0
 11
90.83705218640199
 21
29.8436517091241
 31
0.0
 11
90.68728846170738
 21
29.80526934347071
 31
0.0
  0
SPLINE
  5
17FF6
330
18
100
AcDbEntity
  8
0
100
AcDbSpline
210
0.0
220
0.0
230
1.0
 70
     8
 71
     3
 72
    21
 73
    17
 74
    15
 42
0.0000000001
 43
0.0000000001
 44
0.0000000001
 40
0.0
 40
0.0
 40
0.0
 40
0.0
 40
0.5062918260944524
 40
1.156842316180772
 40
1.800585523953235
 40
2.181622569369813
 40
2.947539484347084
 40
3.555110521966762
 40
4.221610405488032
 40
4.975963434769735
 40
5.902793854100711
 40
6.824555785576484
 40
7.602287261455361
 40
8.309273908078713
 40
9.139571573459216
 40
10.1928024094395
 40
10.1928024094395
 40
10.1928024094395
 40
10.1928024094395
 10
92.37646388249931
 20
28.70502322483377
 30
0.0
 10
92.29490963644279
 20
28.85557240662087
 30
0.0
 10
92.10856374255349
 20
29.19956702628757
 30
0.0
 10
91.55535251818321
 20
29.50839404623263
 30
0.0
 10
90.99231763597467
 20
29.57884812730985
 30
0.0
 10
90.3969459896659
 20
29.47916734441442
 30
0.0
 10
89.89520132043763
 20
29.11117039015657
 30
0.0
 10
89.58123312633521
 20
28.49064372603224
 30
0.0
 10
89.53843049209488
 20
27.79368311260496
 30
0.0
 10
89.8408081258996
 20
27.04770797875389
 30
0.0
 10
90.42385772720871
 20
26.39491446919287
 30
0.0
 10
91.06111691248589
 20
25.79787478593109
 30
0.0
 10
91.5960344972396
 20
25.19339960626287
 30
0.0
 10
91.96119845803291
 20
24.50686376460833
 30
0.0
 10
92.18472906046548
 20
23.65966434764599
 30
0.0
 10
92.14749515384765
 20
23.02910545446388
 30
0.0
 10
92.12667471042692
 20
22.67650974395501
 30
0.0
 11
92.37646388249931
 21
28.70502322483377
 31
0.0
 11
92.09941564197611
 21
29.12878693917593
 31
0.0
 11
91.54383265780637
 21
29.46722967857595
 31
0.0
 11
90.90548211732022
 21
29.55037957342982
 31
0.0
 11
90.5307983592117
 21
29.48108807763508
 31
0.0
 11
89.90632494069194
 21
29.03762255449878
 31
0.0
 11
89.62878103634812
 21
28.49714873744948
 31
0.0
 11
89.58714967044892
 21
27.83195032786988
 31
0.0
 11
89.8508159644877
 21
27.12517697086331
 31
0.0
 11
90.43365801710825
 21
26.40454546454798
 31
0.0
 11
91.0858856795607
 21
25.75320520427708
 31
0.0
 11
91.5854645120442
 21
25.15714544325714
 31
0.0
 11
91.91851690425364
 21
24.53352198110444
 31
0.0
 11
92.12667471042692
 21
23.7297405799353
 31
0.0
 11
92.12667471042692
 21
22.67650974395501
 31
0.0
  0
SPLINE
  5
17FF8
330
18
100
AcDbEntity
  8
0
100
AcDbSpline
210
0.0
220
0.0
230
1.0
 70
     8
 71
     3
 72
    10
 73
     6
 74
     4
 42
0.0000000001
 43
0.0000000001
 44
0.0000000001
 40
0.0
 40
0.0
 40
0.0
 40
0.0
 40
0.3433624420510792
 40
0.7600368175344928
 40
1.054216141716336
 40
1.054216141716336
 40
1.054216141716336
 40
1.054216141716336
 10
91.51657407769432
 20
27.27177470202649
 30
0.0
 10
91.42111134699534
 20
27.20440428139891
 30
0.0
 10
91.20980346602797
 20
27.05527906029469
 30
0.0
 10
91.16543690376738
 20
26.62090219136266
 30
0.0
 10
91.36471771328682
 20
26.47354318035333
 30
0.0
 10
91.44718797952368
 20
26.41256020412173
 30
0.0
 11
91.51657407769432
 21
27.27177470202649
 31
0.0
 11
91.26678490562204
 21
27.03618366627443
 31
0.0
 11
91.23903017335051
 21
26.62043469150596
 31
0.0
 11
91.44718797952368
 21
26.41256020412173
 31
0.0
  0
SPLINE
  5
17FF9
330
18
100
AcDbEntity
  8
0
100
AcDbSpline
210
0.0
220
0.0
230
1.0
 70
     8
 71
     3
 72
    11
 73
     7
 74
     5
 42
0.0000000001
 43
0.0000000001
 44
0.0000000001
 40
0.0
 40
0.0
 40
0.0
 40
0.0
 40
0.3972124985353821
 40
0.9238279165255539
 40
1.428528812289724
 40
1.762732497203346
 40
1.762732497203346
 40
1.762732497203346
 40
1.762732497203346
 10
91.1696445635186
 20
27.41035769361598
 30
0.0
 10
91.09392213712744
 20
27.29872642592909
 30
0.0
 10
90.91780861687032
 20
27.03909692830114
 30
0.0
 10
90.92055797458948
 20
26.54090488911859
 30
0.0
 10
91.20128275276924
 20
26.08511349694333
 30
0.0
 10
91.49621786220039
 20
26.10124942476157
 30
0.0
 10
91.61371441979776
 20
26.10767767257492
 30
0.0
 11
91.1696445635186
 21
27.41035769361598
 31
0.0
 11
90.97536387931171
 21
27.06390021464226
 31
0.0
 11
90.97536387931171
 21
26.53728479665209
 31
0.0
 11
91.28066202758834
 21
26.1353942209427
 31
0.0
 11
91.61371441979776
 21
26.10767767257492
 31
0.0
  0
SPLINE
  5
17FFA
330
18
100
AcDbEntity
  8
0
100
AcDbSpline
210
0.0
220
0.0
230
1.0
 70
     8
 71
     3
 72
    13
 73
     9
 74
     7
 42
0.0000000001
 43
0.0000000001
 44
0.0000000001
 40
0.0
 40
0.0
 40
0.0
 40
0.0
 40
0.2663510049082125
 40
0.6658421364095437
 40
1.042825903685252
 40
1.582996497573857
 40
2.012900789405032
 40
2.41860694172216
 40
2.41860694172216
 40
2.41860694172216
 40
2.41860694172216
 10
92.36308242435365
 20
26.12153582188363
 30
0.0
 10
92.31312249874145
 20
26.04569583677664
 30
0.0
 10
92.18822932022325
 20
25.85610594682558
 30
0.0
 10
91.8296944291206
 20
25.7514560136755
 30
0.0
 10
91.37647975752303
 20
25.785119427881
 30
0.0
 10
91.03916337942772
 20
26.12996398721015
 30
0.0
 10
90.84650038513604
 20
26.56804769464276
 30
0.0
 10
90.91456355753182
 20
26.84586467829955
 30
0.0
 10
90.94760963537892
 20
26.98075056953876
 30
0.0
 11
92.36308242435365
 21
26.12153582188363
 31
0.0
 11
92.19655598407957
 21
25.9136613344994
 31
0.0
 11
91.82187222597105
 21
25.77507834290991
 31
0.0
 11
91.44718797952368
 21
25.81665329033682
 31
0.0
 11
91.04474948914361
 21
26.17696916836967
 31
0.0
 11
90.89210065917468
 21
26.578859744079
 31
0.0
 11
90.94760963537892
 21
26.98075056953876
 31
0.0
  0
SPLINE
  5
17FFB
330
18
100
AcDbEntity
  8
0
100
AcDbSpline
210
0.0
220
0.0
230
1.0
 70
     8
 71
     3
 72
    11
 73
     7
 74
     5
 42
0.0000000001
 43
0.0000000001
 44
0.0000000001
 40
0.0
 40
0.0
 40
0.0
 40
0.0
 40
0.3226940658482253
 40
0.6391159307870558
 40
0.8939479974323372
 40
1.002271933924058
 40
1.002271933924058
 40
1.002271933924058
 40
1.002271933924058
 10
91.7802403717331
 20
25.92751973355847
 30
0.0
 10
91.88330745292066
 20
25.96192447373626
 30
0.0
 10
92.08743830160406
 20
26.03006522954601
 30
0.0
 10
92.27540697222254
 20
26.31943273562205
 30
0.0
 10
92.16996903929812
 20
26.55452956499345
 30
0.0
 10
92.07287025200155
 20
26.62664137802901
 30
0.0
 10
92.04390715411063
 20
26.64815123987374
 30
0.0
 11
91.7802403717331
 21
25.92751973355847
 31
0.0
 11
92.07166139804343
 21
26.06610272514796
 31
0.0
 11
92.22431071635112
 21
26.34326870832693
 31
0.0
 11
92.12717037424766
 21
26.578859744079
 31
0.0
 11
92.04390715411063
 21
26.64815123987374
 31
0.0
  0
SPLINE
  5
17FFC
330
18
100
AcDbEntity
  8
0
100
AcDbSpline
210
0.0
220
0.0
230
1.0
 70
     8
 71
     3
 72
     9
 73
     5
 74
     3
 42
0.0000000001
 43
0.0000000001
 44
0.0000000001
 40
0.0
 40
0.0
 40
0.0
 40
0.0
 40
0.1986433338609892
 40
0.4083624976699318
 40
0.4083624976699318
 40
0.4083624976699318
 40
0.4083624976699318
 10
91.97452105593999
 20
26.62043469150596
 30
0.0
 10
91.90189218334026
 20
26.60193981813265
 30
0.0
 10
91.75258484318797
 20
26.56391884588045
 30
0.0
 10
91.76168814599581
 20
26.40898059466798
 30
0.0
 10
91.76636324976669
 20
26.32941030926786
 30
0.0
 11
91.97452105593999
 21
26.62043469150596
 31
0.0
 11
91.79411798203824
 21
26.53728479665209
 31
0.0
 11
91.76636324976669
 21
26.32941030926786
 31
0.0
  0
SPLINE
  5
17FFD
330
18
100
AcDbEntity
  8
0
100
AcDbSpline
210
0.0
220
0.0
230
1.0
 70
     8
 71
     3
 72
     9
 73
     5
 74
     3
 42
0.0000000001
 43
0.0000000001
 44
0.0000000001
 40
0.0
 40
0.0
 40
0.0
 40
0.0
 40
0.1932526337792703
 40
0.3481997198913249
 40
0.3481997198913249
 40
0.3481997198913249
 40
0.3481997198913249
 10
91.76636324976668
 20
26.32941030926786
 30
0.0
 10
91.68633948366878
 20
26.31749054794611
 30
0.0
 10
91.54215385268912
 20
26.29601369936588
 30
0.0
 10
91.59167691260957
 20
26.1656768851566
 30
0.0
 10
91.61371441979774
 20
26.10767767257492
 30
0.0
 11
91.76636324976668
 21
26.32941030926786
 31
0.0
 11
91.58596017586507
 21
26.26011881347312
 31
0.0
 11
91.61371441979774
 21
26.10767767257492
 31
0.0
  0
SPLINE
  5
17FFE
330
18
100
AcDbEntity
  8
0
100
AcDbSpline
210
0.0
220
0.0
230
1.0
 70
     8
 71
     3
 72
    11
 73
     7
 74
     5
 42
0.0000000001
 43
0.0000000001
 44
0.0000000001
 40
0.0
 40
0.0
 40
0.0
 40
0.0
 40
0.289248346352859
 40
0.8196082429513809
 40
1.282767768680596
 40
1.630164391221387
 40
1.630164391221387
 40
1.630164391221387
 40
1.630164391221387
 10
91.61371441979774
 20
26.10767767257492
 30
0.0
 10
91.55789839283315
 20
26.19087851688022
 30
0.0
 10
91.39973923180141
 20
26.42663474046098
 30
0.0
 10
91.68171628847897
 20
26.93500559301384
 30
0.0
 10
92.24169673459991
 20
26.83494134273103
 30
0.0
 10
92.33637944225066
 20
26.56838055774665
 30
0.0
 10
92.37695954632005
 20
26.45413515154864
 30
0.0
 11
91.61371441979774
 21
26.10767767257492
 31
0.0
 11
91.48840328081661
 21
26.36837236817711
 31
0.0
 11
91.75248612780041
 21
26.82830917889019
 31
0.0
 11
92.21043310604597
 21
26.75901768309545
 31
0.0
 11
92.37695954632005
 21
26.45413515154864
 31
0.0
  0
SPLINE
  5
17FFF
330
18
100
AcDbEntity
  8
0
100
AcDbSpline
210
0.0
220
0.0
230
1.0
 70
     8
 71
     3
 72
    13
 73
     9
 74
     7
 42
0.0000000001
 43
0.0000000001
 44
0.0000000001
 40
0.0
 40
0.0
 40
0.0
 40
0.0
 40
0.1843341052872202
 40
0.5410893296716539
 40
0.8542826534589821
 40
1.251989229423153
 40
1.583324374502592
 40
1.792039823860509
 40
1.792039823860509
 40
1.792039823860509
 40
1.792039823860509
 10
92.36266635974748
 20
26.90884593547598
 30
0.0
 10
92.30650042416746
 20
26.88355369247962
 30
0.0
 10
92.14163246125835
 20
26.80931152884165
 30
0.0
 10
91.8137663922276
 20
26.87594540142166
 30
0.0
 10
91.65816539151997
 20
27.24185017454261
 30
0.0
 10
91.80807944467016
 20
27.60540887476961
 30
0.0
 10
92.13946385514105
 20
27.72683534123128
 30
0.0
 10
92.31045851271209
 20
27.66161335886898
 30
0.0
 10
92.37654348171378
 20
27.63640676619603
 30
0.0
 11
92.36266635974748
 21
26.90884593547598
 31
0.0
 11
92.18920160265957
 21
26.84648376408602
 31
0.0
 11
91.84227160014501
 21
26.92963340918947
 31
0.0
 11
91.71043869729492
 21
27.21372871677316
 31
0.0
 11
91.86308752726398
 21
27.58097366946036
 31
0.0
 11
92.17532399235443
 21
27.69184011268207
 31
0.0
 11
92.37654348171378
 21
27.63640676619603
 31
0.0
  0
SPLINE
  5
18000
330
18
100
AcDbEntity
  8
0
100
AcDbSpline
210
0.0
220
0.0
230
1.0
 70
     8
 71
     3
 72
    10
 73
     6
 74
     4
 42
0.0000000001
 43
0.0000000001
 44
0.0000000001
 40
0.0
 40
0.0
 40
0.0
 40
0.0
 40
0.1901768991112463
 40
0.3538552534057352
 40
0.5021779367195589
 40
0.5021779367195589
 40
0.5021779367195589
 40
0.5021779367195589
 10
91.51657407769432
 20
27.27177470202649
 30
0.0
 10
91.50857971591552
 20
27.20313042032117
 30
0.0
 10
91.49370489712168
 20
27.07540649690457
 30
0.0
 10
91.65656708273941
 20
26.97390185839408
 30
0.0
 10
91.75892056283442
 20
26.96268337870603
 30
0.0
 10
91.80757855105964
 20
26.95735020730767
 30
0.0
 11
91.51657407769432
 21
27.27177470202649
 31
0.0
 11
91.53003513505456
 21
27.08207479983803
 31
0.0
 11
91.66186852624326
 21
26.9850667556755
 31
0.0
 11
91.80757855105964
 21
26.95735020730767
 31
0.0
  0
SPLINE
  5
18001
330
18
100
AcDbEntity
  8
0
100
AcDbSpline
210
0.0
220
0.0
230
1.0
 70
     8
 71
     3
 72
    18
 73
    14
 74
    12
 42
0.0000000001
 43
0.0000000001
 44
0.0000000001
 40
0.0
 40
0.0
 40
0.0
 40
0.0
 40
0.7747211991082069
 40
1.624513267625653
 40
2.369546205634481
 40
3.138506047793728
 40
3.773746783992967
 40
4.481483422649764
 40
5.124088482986328
 40
5.643562043827697
 40
6.10851030147784
 40
6.456545206134976
 40
6.714553054569402
 40
6.714553054569402
 40
6.714553054569402
 40
6.714553054569402
 10
90.97494781470544
 20
26.2505768503011
 30
0.0
 10
90.78963845498689
 20
26.43068171301171
 30
0.0
 10
90.4010631664515
 20
26.80834368918337
 30
0.0
 10
89.92867033105442
 20
27.44910965569697
 30
0.0
 10
89.73998788456361
 20
28.26708089854603
 30
0.0
 10
90.12604236992713
 20
28.93677466068639
 30
0.0
 10
90.74494914005908
 20
29.32796706106709
 30
0.0
 10
91.42813819479567
 20
29.32100177402454
 30
0.0
 10
92.05245851109797
 20
28.99714810006547
 30
0.0
 10
92.11225183209698
 20
28.42024337931425
 30
0.0
 10
91.95215533511372
 20
27.93662192365018
 30
0.0
 10
91.52131349382187
 20
27.90506415483991
 30
0.0
 10
91.37169613178334
 20
28.04711459437697
 30
0.0
 10
91.30800020691486
 20
28.10758908745054
 30
0.0
 11
90.97494781470544
 21
26.2505768503011
 31
0.0
 11
90.43373712798411
 21
26.80490881665905
 31
0.0
 11
89.96191302777214
 21
27.51168217366562
 31
0.0
 11
89.83701844173589
 21
28.24617207904002
 31
0.0
 11
90.19782507787812
 21
28.92522863792839
 31
0.0
 11
90.73903527626072
 21
29.2578279675934
 31
0.0
 11
91.44677191491751
 21
29.2578279675934
 31
0.0
 11
91.98798211330013
 21
28.91137048861968
 31
0.0
 11
92.07124533343716
 21
28.39861321993827
 31
0.0
 11
91.86308752726398
 21
27.98286424516975
 31
0.0
 11
91.51615801308816
 21
27.95514769680192
 31
0.0
 11
91.30800020691486
 21
28.10758908745054
 31
0.0
  0
SPLINE
  5
18002
330
18
100
AcDbEntity
  8
0
100
AcDbSpline
210
0.0
220
0.0
230
1.0
 70
     8
 71
     3
 72
    18
 73
    14
 74
    12
 42
0.0000000001
 43
0.0000000001
 44
0.0000000001
 40
0.0
 40
0.0
 40
0.0
 40
0.0
 40
0.1738266935600231
 40
0.315161556966663
 40
0.4844782648670076
 40
0.7947681092944924
 40
1.075490513431551
 40
1.488954273521837
 40
1.861581684626781
 40
2.348073086687477
 40
2.782379636894231
 40
3.241283114701829
 40
3.631542483872759
 40
3.631542483872759
 40
3.631542483872759
 40
3.631542483872759
 10
91.25249123071062
 20
28.3431801232026
 30
0.0
 10
91.31096102634884
 20
28.36121787049235
 30
0.0
 10
91.41697139478804
 20
28.39392173434422
 30
0.0
 10
91.46492121626385
 20
28.59092610536688
 30
0.0
 10
91.24385304729235
 20
28.70209809194567
 30
0.0
 10
90.97418578114023
 20
28.64822053989773
 30
0.0
 10
90.77285176809647
 20
28.33263971709516
 30
0.0
 10
90.90407497710192
 20
27.96508093921776
 30
0.0
 10
91.20232537380399
 20
27.63192777260275
 30
0.0
 10
91.67626753243876
 20
27.64513724562877
 30
0.0
 10
92.11362308874118
 20
27.83267070598763
 30
0.0
 10
92.31029919859045
 20
28.26646605904448
 30
0.0
 10
92.2511006908387
 20
28.54689812027146
 30
0.0
 10
92.22389416340609
 20
28.67577945286761
 30
0.0
 11
91.25249123071062
 21
28.3431801232026
 31
0.0
 11
91.40514054901831
 21
28.42633001805648
 31
0.0
 11
91.43289479295111
 21
28.56491300964597
 31
0.0
 11
91.29412308494847
 21
28.66192105380849
 31
0.0
 11
90.98882493667185
 21
28.60648795707287
 31
0.0
 11
90.83617561836417
 21
28.37089667157044
 31
0.0
 11
90.93331596046761
 21
27.96900609586105
 31
0.0
 11
91.19698274284514
 21
27.70569826199078
 31
0.0
 11
91.6826839650235
 21
27.67798171362294
 31
0.0
 11
92.07124533343716
 21
27.8719978019481
 31
0.0
 11
92.26552601764405
 21
28.28774702646693
 31
0.0
 11
92.22389416340609
 21
28.67577945286761
 31
0.0
  0
SPLINE
  5
18003
330
18
100
AcDbEntity
  8
0
100
AcDbSpline
210
0.0
220
0.0
230
1.0
 70
     8
 71
     3
 72
    11
 73
     7
 74
     5
 42
0.0000000001
 43
0.0000000001
 44
0.0000000001
 40
0.0
 40
0.0
 40
0.0
 40
0.0
 40
0.1755098882732185
 40
0.3441095980993722
 40
0.4451267598190497
 40
0.5984038605362813
 40
0.5984038605362813
 40
0.5984038605362813
 40
0.5984038605362813
 10
91.30800020691486
 20
28.10758908745054
 30
0.0
 10
91.37032734899618
 20
28.11183195011173
 30
0.0
 10
91.49252768781066
 20
28.12015062536985
 30
0.0
 10
91.54888584579607
 20
28.34326074066588
 30
0.0
 10
91.38116933246076
 20
28.36344259694819
 30
0.0
 10
91.30088375321127
 20
28.35080031811779
 30
0.0
 10
91.25249123071062
 20
28.3431801232026
 30
0.0
 11
91.30800020691486
 21
28.10758908745054
 31
0.0
 11
91.4745261588502
 21
28.1630221841862
 31
0.0
 11
91.50228089112175
 21
28.32932172414347
 31
0.0
 11
91.40514054901831
 21
28.35703852226167
 31
0.0
 11
91.25249123071062
 21
28.3431801232026
 31
0.0
  0
SPLINE
  5
18004
330
18
100
AcDbEntity
  8
0
100
AcDbSpline
210
0.0
220
0.0
230
1.0
 70
     8
 71
     3
 72
    15
 73
    11
 74
     9
 42
0.0000000001
 43
0.0000000001
 44
0.0000000001
 40
0.0
 40
0.0
 40
0.0
 40
0.0
 40
0.3537815698927067
 40
0.6775139368884688
 40
1.296176913545063
 40
1.769031307365112
 40
2.506152591929844
 40
2.998287758232523
 40
3.550152395164129
 40
4.021470871212661
 40
4.021470871212661
 40
4.021470871212661
 40
4.021470871212661
 10
91.30800020691486
 20
28.10758908745054
 30
0.0
 10
91.42766154048212
 20
28.05687339186624
 30
0.0
 10
91.65682051341294
 20
27.95974964800423
 30
0.0
 10
92.01065433655035
 20
28.35528360738223
 30
0.0
 10
91.72023707649255
 20
28.89665280318332
 30
0.0
 10
91.08916697091061
 20
29.0405704386001
 30
0.0
 10
90.52890874563166
 20
28.65793108529577
 30
0.0
 10
90.44327278287955
 20
28.0487869160401
 30
0.0
 10
90.65194889243967
 20
27.50964370377862
 30
0.0
 10
91.0063797422959
 20
27.44166935721428
 30
0.0
 10
91.16964456351862
 20
27.41035769361598
 30
0.0
 11
91.30800020691486
 21
28.10758908745054
 31
0.0
 11
91.65492972109069
 21
28.03829759165579
 31
0.0
 11
91.87696464923027
 21
28.27388862740786
 31
0.0
 11
91.64126063142743
 21
28.84589168218746
 31
0.0
 11
91.18331365318187
 21
28.96368744981383
 31
0.0
 11
90.57250932432538
 21
28.55105461058683
 31
0.0
 11
90.48924610418835
 21
28.06601414002363
 31
0.0
 11
90.72515815429431
 21
27.56711527040129
 31
0.0
 11
91.16964456351862
 21
27.41035769361598
 31
0.0
  0
SPLINE
  5
18005
330
18
100
AcDbEntity
  8
0
100
AcDbSpline
210
0.0
220
0.0
230
1.0
 70
     8
 71
     3
 72
    11
 73
     7
 74
     5
 42
0.0000000001
 43
0.0000000001
 44
0.0000000001
 40
0.0
 40
0.0
 40
0.0
 40
0.0
 40
0.403159823390502
 40
0.8805401378307472
 40
1.338074571376397
 40
1.671289257288521
 40
1.671289257288521
 40
1.671289257288521
 40
1.671289257288521
 10
90.94038319870874
 20
26.93778201496899
 30
0.0
 10
90.8307945001683
 20
27.01837020449169
 30
0.0
 10
90.59144215869254
 20
27.19438262287475
 30
0.0
 10
90.39783869912552
 20
27.61801644753022
 30
0.0
 10
90.38062784076208
 20
28.05278734992452
 30
0.0
 10
90.47177982453911
 20
28.30182117441849
 30
0.0
 10
90.51019046439586
 20
28.4067618257178
 30
0.0
 11
90.94038319870874
 21
26.93778201496899
 31
0.0
 11
90.635085050432
 21
27.20108959908889
 31
0.0
 11
90.42692773259757
 21
27.63069697291648
 31
0.0
 11
90.41305012229242
 21
28.08802089511186
 31
0.0
 11
90.51019046439586
 21
28.4067618257178
 31
0.0
  0
SPLINE
  5
18006
330
18
100
AcDbEntity
  8
0
100
AcDbSpline
210
0.0
220
0.0
230
1.0
 70
     8
 71
     3
 72
     9
 73
     5
 74
     3
 42
0.0000000001
 43
0.0000000001
 44
0.0000000001
 40
0.0
 40
0.0
 40
0.0
 40
0.0
 40
0.1885822232114797
 40
0.630617006855755
 40
0.630617006855755
 40
0.630617006855755
 40
0.630617006855755
 10
92.16213005628487
 20
25.89107390976828
 30
0.0
 10
92.20245600860192
 20
25.84179714447924
 30
0.0
 10
92.33730557668803
 20
25.6770161502534
 30
0.0
 10
92.36077537284279
 20
25.46067266333903
 30
0.0
 10
92.37722666761072
 20
25.30902539504244
 30
0.0
 11
92.16213005628487
 21
25.89107390976828
 31
0.0
 11
92.27314752035471
 21
25.73863251911966
 31
0.0
 11
92.37722666761072
 21
25.30902539504244
 31
0.0
  0
SPLINE
  5
18007
330
18
100
AcDbEntity
  8
0
100
AcDbSpline
210
0.0
220
0.0
230
1.0
 70
     8
 71
     3
 72
    12
 73
     8
 74
     6
 42
0.0000000001
 43
0.0000000001
 44
0.0000000001
 40
0.0
 40
0.0
 40
0.0
 40
0.0
 40
0.1675972547861073
 40
0.423148057470669
 40
0.7242398648645146
 40
0.9532152641806101
 40
1.056301285115528
 40
1.056301285115528
 40
1.056301285115528
 40
1.056301285115528
 10
91.6764288341065
 20
25.77327839189222
 30
0.0
 10
91.66704421742249
 20
25.71864150170557
 30
0.0
 10
91.64335002073043
 20
25.58069476756469
 30
0.0
 10
91.68285590348309
 20
25.31852823275062
 30
0.0
 10
91.93161810521868
 20
25.184915953144
 30
0.0
 10
92.10463576506635
 20
25.06905779132554
 30
0.0
 10
92.1855736556435
 20
24.99308285106327
 30
0.0
 10
92.21070022733664
 20
24.96949699072307
 30
0.0
 11
91.6764288341065
 21
25.77327839189222
 31
0.0
 11
91.65561290698752
 21
25.6069788519349
 31
0.0
 11
91.71112139485314
 21
25.35752941712376
 31
0.0
 11
91.94703393329787
 21
25.17044240345295
 31
0.0
 11
92.13437581235217
 21
25.03878848651782
 31
0.0
 11
92.21070022733664
 21
24.96949699072307
 31
0.0
  0
SPLINE
  5
18008
330
18
100
AcDbEntity
  8
0
100
AcDbSpline
210
0.0
220
0.0
230
1.0
 70
     8
 71
     3
 72
    12
 73
     8
 74
     6
 42
0.0000000001
 43
0.0000000001
 44
0.0000000001
 40
0.0
 40
0.0
 40
0.0
 40
0.0
 40
0.1024156112434236
 40
0.2203364524725331
 40
0.4506766739201078
 40
0.61747251751861
 40
0.8006131904993846
 40
0.8006131904993846
 40
0.8006131904993846
 40
0.8006131904993846
 10
92.21070022733664
 20
24.96949699072308
 30
0.0
 10
92.18181987239026
 20
24.9924711018784
 30
0.0
 10
92.11968681593743
 20
25.04189749390219
 30
0.0
 10
91.95889221086188
 20
24.94969119605477
 30
0.0
 10
91.99981181439886
 20
24.71371664759315
 30
0.0
 10
92.21667164250492
 20
24.66200258585558
 30
0.0
 10
92.31751243245671
 20
24.72739770609094
 30
0.0
 10
92.37028786245815
 20
24.76162250333884
 30
0.0
 11
92.21070022733664
 21
24.96949699072308
 31
0.0
 11
92.12049869038578
 21
25.01800101280439
 31
0.0
 11
92.01641954312975
 21
24.96256766631835
 31
0.0
 11
92.0441742754013
 21
24.73390570522064
 31
0.0
 11
92.20376191052281
 21
24.68540168313938
 31
0.0
 11
92.37028786245815
 21
24.76162250333884
 31
0.0
  0
SPLINE
  5
18009
330
18
100
AcDbEntity
  8
0
100
AcDbSpline
210
0.0
220
0.0
230
1.0
 70
     8
 71
     3
 72
    21
 73
    17
 74
    15
 42
0.0000000001
 43
0.0000000001
 44
0.0000000001
 40
0.0
 40
0.0
 40
0.0
 40
0.0
 40
0.2345011268577181
 40
0.4896318111862677
 40
0.8104033390098077
 40
1.229727226441779
 40
1.5212536491191
 40
1.912314035062686
 40
2.277467438678166
 40
2.610438096767737
 40
2.896643633996061
 40
3.113238202253818
 40
3.322431393668508
 40
3.499998628501915
 40
3.735301592100209
 40
3.957768588615265
 40
3.957768588615265
 40
3.957768588615265
 40
3.957768588615265
 10
92.36292273758584
 20
22.39825934460855
 30
0.0
 10
92.3435406576101
 20
22.32130456338261
 30
0.0
 10
92.30307141530735
 20
22.16062512692958
 30
0.0
 10
92.1049206215221
 20
21.96057212559404
 30
0.0
 10
91.79257329077213
 20
21.82640045811281
 30
0.0
 10
91.40402644701145
 20
21.92445075823085
 30
0.0
 10
91.2404425544201
 20
22.26458153386316
 30
0.0
 10
91.23927164232979
 20
22.68863657776933
 30
0.0
 10
91.68449723393731
 20
22.77792038988936
 30
0.0
 10
91.97528010845363
 20
22.56675829163527
 30
0.0
 10
92.02386196392579
 20
22.26231536121138
 30
0.0
 10
91.86155540446597
 20
22.04168050811667
 30
0.0
 10
91.62906019834013
 20
22.07447458566957
 30
0.0
 10
91.48555000632617
 20
22.24084809845523
 30
0.0
 10
91.54266598877558
 20
22.52293766589966
 30
0.0
 10
91.71644399507197
 20
22.49499083659481
 30
0.0
 10
91.80089661208416
 20
22.48140923946242
 30
0.0
 11
92.36292273758584
 21
22.39825934460855
 31
0.0
 11
92.28659832260126
 21
22.17652670791562
 31
0.0
 11
92.11313356551347
 21
21.98943944449444
 31
0.0
 11
91.81477373405057
 21
21.87164392661843
 31
0.0
 11
91.4123352436705
 21
21.98943944449444
 31
0.0
 11
91.27356353566796
 21
22.24581820371036
 31
0.0
 11
91.32213370671962
 21
22.63385063011098
 31
0.0
 11
91.67600202604802
 21
22.72392959961921
 31
0.0
 11
91.94660712523939
 21
22.52991326154369
 31
0.0
 11
91.98130017432465
 21
22.24581820371036
 31
0.0
 11
91.8425284663221
 21
22.07951841400266
 31
0.0
 11
91.63437066014882
 21
22.10030588771609
 31
0.0
 11
91.52335319607908
 21
22.23888887930563
 31
0.0
 11
91.57886168394458
 21
22.46755084040329
 31
0.0
 11
91.80089661208416
 21
22.48140923946242
 31
0.0
  0
SPLINE
  5
1800B
330
18
100
AcDbEntity
  8
0
100
AcDbSpline
210
0.0
220
0.0
230
1.0
 70
     8
 71
     3
 72
     9
 73
     5
 74
     3
 42
0.0000000001
 43
0.0000000001
 44
0.0000000001
 40
0.0
 40
0.0
 40
0.0
 40
0.0
 40
0.1234340996441836
 40
0.2550880165793194
 40
0.2550880165793194
 40
0.2550880165793194
 40
0.2550880165793194
 10
91.80089661208416
 20
22.48140923946242
 30
0.0
 10
91.76929972553828
 20
22.5116140444612
 30
0.0
 10
91.70400182858518
 20
22.57403507576871
 30
0.0
 10
91.7175696733156
 20
22.66376205453422
 30
0.0
 10
91.72457219709968
 20
22.71007120056014
 30
0.0
 11
91.80089661208416
 21
22.48140923946242
 31
0.0
 11
91.72457219709968
 21
22.578417283625
 31
0.0
 11
91.72457219709968
 21
22.71007120056014
 31
0.0
  0
SPLINE
  5
1800C
330
18
100
AcDbEntity
  8
0
100
AcDbSpline
210
0.0
220
0.0
230
1.0
 70
    24
 71
     3
 72
     8
 73
     4
 74
     2
 42
0.0000000001
 43
0.0000000001
 44
0.0000000001
 40
0.0
 40
0.0
 40
0.0
 40
0.0
 40
0.2640926343751075
 40
0.2640926343751075
 40
0.2640926343751075
 40
0.2640926343751075
 10
92.12725272984014
 20
22.68629937928283
 30
0.0
 10
92.06262310887913
 20
22.74606933492862
 30
0.0
 10
91.99799348791811
 20
22.80583929057442
 30
0.0
 10
91.9333638669571
 20
22.86560924622022
 30
0.0
 11
92.12725272984014
 21
22.68629937928283
 31
0.0
 11
91.9333638669571
 21
22.86560924622022
 31
0.0
  0
SPLINE
  5
1800D
330
18
100
AcDbEntity
  8
0
100
AcDbSpline
210
0.0
220
0.0
230
1.0
 70
     8
 71
     3
 72
    11
 73
     7
 74
     5
 42
0.0000000001
 43
0.0000000001
 44
0.0000000001
 40
0.0
 40
0.0
 40
0.0
 40
0.0
 40
0.4028480279770651
 40
1.16619057805072
 40
1.902812314272247
 40
2.40528106164176
 40
2.40528106164176
 40
2.40528106164176
 40
2.40528106164176
 10
91.93336386695712
 20
22.86560924622021
 30
0.0
 10
91.94512311256548
 20
22.99955047338461
 30
0.0
 10
91.97916453881326
 20
23.38729221787332
 30
0.0
 10
91.93183489536519
 20
24.02086828996399
 30
0.0
 10
91.82180282063134
 20
24.68731104636104
 30
0.0
 10
91.63459503149239
 20
25.05753207946633
 30
0.0
 10
91.55867962050974
 20
25.20766195393291
 30
0.0
 11
91.93336386695712
 21
22.86560924622021
 31
0.0
 11
91.96111811088991
 21
23.26750007167998
 31
0.0
 11
91.91948674499071
 21
24.02970652542221
 31
0.0
 11
91.76683742668302
 21
24.75033803173749
 31
0.0
 11
91.55867962050974
 21
25.20766195393291
 31
0.0
  0
SPLINE
  5
1800E
330
18
100
AcDbEntity
  8
0
100
AcDbSpline
210
0.0
220
0.0
230
1.0
 70
     8
 71
     3
 72
    12
 73
     8
 74
     6
 42
0.0000000001
 43
0.0000000001
 44
0.0000000001
 40
0.0
 40
0.0
 40
0.0
 40
0.0
 40
0.2430111659020869
 40
0.4736562993672683
 40
0.6014973118000482
 40
0.7683751357450065
 40
0.9577561978949169
 40
0.9577561978949169
 40
0.9577561978949169
 40
0.9577561978949169
 10
92.37041483053047
 20
20.24908076408137
 30
0.0
 10
92.29106342947762
 20
20.25591313559258
 30
0.0
 10
92.13639855705173
 20
20.2692302018841
 30
0.0
 10
91.9177104936376
 20
20.24916323012604
 30
0.0
 10
91.79196940527623
 20
20.3870429194028
 30
0.0
 10
91.80000815063786
 20
20.59999188808603
 30
0.0
 10
91.94150693611989
 20
20.58736578815184
 30
0.0
 10
92.01672524318093
 20
20.58065397180234
 30
0.0
 11
92.37041483053047
 21
20.24908076408137
 31
0.0
 11
92.12774270725066
 21
20.26191304119639
 31
0.0
 11
91.89876897395851
 21
20.28962958956423
 31
0.0
 11
91.81550575382146
 21
20.38663763372681
 31
0.0
 11
91.82938336412661
 21
20.5529374234345
 31
0.0
 11
92.01672524318093
 21
20.58065397180234
 31
0.0
  0
SPLINE
  5
18011
330
18
100
AcDbEntity
  8
0
100
AcDbSpline
210
0.0
220
0.0
230
1.0
 70
     8
 71
     3
 72
    12
 73
     8
 74
     6
 42
0.0000000001
 43
0.0000000001
 44
0.0000000001
 40
0.0
 40
0.0
 40
0.0
 40
0.0
 40
0.1538557904668018
 40
0.4702776385859894
 40
0.7509998331245238
 40
1.044695642246039
 40
1.407408673787317
 40
1.407408673787317
 40
1.407408673787317
 40
1.407408673787317
 10
92.01672524318093
 20
20.58065397180234
 30
0.0
 10
92.01276685383941
 20
20.63237310377903
 30
0.0
 10
92.00066758876474
 20
20.7904584847837
 30
0.0
 10
91.84795052051754
 20
21.00238325218998
 30
0.0
 10
91.68044895722587
 20
21.24210200056761
 30
0.0
 10
91.55699690329223
 20
21.54374292223284
 30
0.0
 10
91.60730425483032
 20
21.7624711734627
 30
0.0
 10
91.63510267991972
 20
21.88333424259382
 30
0.0
 11
92.01672524318093
 21
20.58065397180234
 31
0.0
 11
91.99590931606195
 21
20.73309511270053
 31
0.0
 11
91.84326048609301
 21
21.01026134562993
 31
0.0
 11
91.69061116778534
 21
21.24585238138199
 31
0.0
 11
91.59347082568189
 21
21.52301836456097
 31
0.0
 11
91.63510267991972
 21
21.88333424259382
 31
0.0
  0
SPLINE
  5
18012
330
18
100
AcDbEntity
  8
0
100
AcDbSpline
210
0.0
220
0.0
230
1.0
 70
     8
 71
     3
 72
    11
 73
     7
 74
     5
 42
0.0000000001
 43
0.0000000001
 44
0.0000000001
 40
0.0
 40
0.0
 40
0.0
 40
0.0
 40
0.1010170931940655
 40
0.2223490296844631
 40
0.3148017378074686
 40
0.4148296941061414
 40
0.4148296941061414
 40
0.4148296941061414
 40
0.4148296941061414
 10
91.71142709490419
 20
21.19041903489595
 30
0.0
 10
91.68051848777095
 20
21.17601303258499
 30
0.0
 10
91.61248545902632
 20
21.14430393728048
 30
0.0
 10
91.48588358357423
 20
21.20574004972293
 30
0.0
 10
91.52345875812015
 20
21.32936570641118
 30
0.0
 10
91.58322668127118
 20
21.3564841281888
 30
0.0
 10
91.61428675280086
 20
21.37057697391235
 30
0.0
 11
91.71142709490419
 21
21.19041903489595
 31
0.0
 11
91.61428675280086
 21
21.16270248652812
 31
0.0
 11
91.51020809388359
 21
21.22506490766851
 31
0.0
 11
91.53102353266381
 21
21.31514387717674
 31
0.0
 11
91.61428675280086
 21
21.37057697391235
 31
0.0
  0
SPLINE
  5
18013
330
18
100
AcDbEntity
  8
0
100
AcDbSpline
210
0.0
220
0.0
230
1.0
 70
     8
 71
     3
 72
    12
 73
     8
 74
     6
 42
0.0000000001
 43
0.0000000001
 44
0.0000000001
 40
0.0
 40
0.0
 40
0.0
 40
0.0
 40
0.1148259874770654
 40
0.2206346222235216
 40
0.3390598059561272
 40
0.4140807407599495
 40
0.5322398782846611
 40
0.5322398782846611
 40
0.5322398782846611
 40
0.5322398782846611
 10
91.53102353266381
 20
21.32900227623581
 30
0.0
 10
91.49428322174383
 20
21.34109749289203
 30
0.0
 10
91.42368783825689
 20
21.36433808168462
 30
0.0
 10
91.350050204568
 20
21.46937690196449
 30
0.0
 10
91.39681495690673
 20
21.57477255944592
 30
0.0
 10
91.4862126748571
 20
21.63462646846761
 30
0.0
 10
91.55276432231557
 20
21.62986692273495
 30
0.0
 10
91.59347082568189
 20
21.62695573312827
 30
0.0
 11
91.53102353266381
 21
21.32900227623581
 31
0.0
 11
91.42694487374654
 21
21.37750629831713
 31
0.0
 11
91.3714358975422
 21
21.4675852678253
 31
0.0
 11
91.41306775178014
 21
21.57845146129658
 31
0.0
 11
91.47551504479821
 21
21.62002640872355
 31
0.0
 11
91.59347082568189
 21
21.62695573312827
 31
0.0
  0
SPLINE
  5
18014
330
18
100
AcDbEntity
  8
0
100
AcDbSpline
210
0.0
220
0.0
230
1.0
 70
     8
 71
     3
 72
    11
 73
     7
 74
     5
 42
0.0000000001
 43
0.0000000001
 44
0.0000000001
 40
0.0
 40
0.0
 40
0.0
 40
0.0
 40
0.109694065874754
 40
0.2361440129043365
 40
0.3151558992341996
 40
0.4672966040041775
 40
0.4672966040041775
 40
0.4672966040041775
 40
0.4672966040041775
 10
91.47551504479821
 20
21.62695573312827
 30
0.0
 10
91.43447896278887
 20
21.63249559792693
 30
0.0
 10
91.34613849512289
 20
21.64442154755848
 30
0.0
 10
91.34593402029171
 20
21.77182788881517
 30
0.0
 10
91.36737581770331
 20
21.89489246793284
 30
0.0
 10
91.45351364241227
 20
21.91299464493855
 30
0.0
 10
91.51020809388359
 20
21.92490919002073
 30
0.0
 11
91.47551504479821
 21
21.62695573312827
 31
0.0
 11
91.3714358975422
 21
21.66160135615045
 31
0.0
 11
91.35061997042333
 21
21.78632619843124
 31
0.0
 11
91.3714358975422
 21
21.86254676888033
 31
0.0
 11
91.51020809388359
 21
21.92490919002073
 31
0.0
  0
SPLINE
  5
18017
330
18
100
AcDbEntity
  8
0
100
AcDbSpline
210
0.0
220
0.0
230
1.0
 70
     8
 71
     3
 72
    13
 73
     9
 74
     7
 42
0.0000000001
 43
0.0000000001
 44
0.0000000001
 40
0.0
 40
0.0
 40
0.0
 40
0.0
 40
0.1325597651424006
 40
0.3094151487629056
 40
0.472517935317999
 40
0.5628637209854162
 40
0.7417665726007096
 40
0.8538417415524827
 40
0.8538417415524827
 40
0.8538417415524827
 40
0.8538417415524827
 10
91.36994890607985
 20
21.87237894199858
 30
0.0
 10
91.32685458745555
 20
21.87519876040727
 30
0.0
 10
91.22626573235576
 20
21.8817806559883
 30
0.0
 10
91.05143295924209
 20
21.9367505716035
 30
0.0
 10
91.04274020939291
 20
22.09955927513506
 30
0.0
 10
91.04457123461527
 20
22.24148001442975
 30
0.0
 10
91.12892106338319
 20
22.36031711176574
 30
0.0
 10
91.22278004678728
 20
22.38823955332326
 30
0.0
 10
91.25893144201
 20
22.39899435998875
 30
0.0
 11
91.36994890607985
 21
21.87237894199858
 31
0.0
 11
91.23811551489103
 21
21.88623709130734
 31
0.0
 11
91.07852787976952
 21
21.9624579115068
 31
0.0
 11
91.043835319023
 21
22.12182837680977
 31
0.0
 11
91.05077363583683
 21
22.21190734631794
 31
0.0
 11
91.15485278309273
 21
22.35741941256184
 31
0.0
 11
91.25893144201
 21
22.39899435998875
 31
0.0
  0
SPLINE
  5
18018
330
18
100
AcDbEntity
  8
0
100
AcDbSpline
210
0.0
220
0.0
230
1.0
 70
     8
 71
     3
 72
    10
 73
     6
 74
     4
 42
0.0000000001
 43
0.0000000001
 44
0.0000000001
 40
0.0
 40
0.0
 40
0.0
 40
0.0
 40
0.1775672348334328
 40
0.3527062445729854
 40
0.4376463140276319
 40
0.4376463140276319
 40
0.4376463140276319
 40
0.4376463140276319
 10
91.05087228026224
 20
22.20231643207068
 30
0.0
 10
91.01248495160957
 20
22.2472125213962
 30
0.0
 10
90.93623523954434
 20
22.33639074775575
 30
0.0
 10
90.86191292683228
 20
22.46611243750172
 30
0.0
 10
90.84744093033298
 20
22.5519283496053
 30
0.0
 10
90.84271447408895
 20
22.5799552464898
 30
0.0
 11
91.05087228026224
 21
22.20231643207068
 31
0.0
 11
90.9398548161924
 21
22.34089942366016
 31
0.0
 11
90.86006124280102
 21
22.49680535163593
 31
0.0
 11
90.84271447408895
 21
22.5799552464898
 31
0.0
  0
SPLINE
  5
18019
330
18
100
AcDbEntity
  8
0
100
AcDbSpline
210
0.0
220
0.0
230
1.0
 70
     8
 71
     3
 72
    15
 73
    11
 74
     9
 42
0.0000000001
 43
0.0000000001
 44
0.0000000001
 40
0.0
 40
0.0
 40
0.0
 40
0.0
 40
0.1437339358432536
 40
0.3097453619437707
 40
0.4665624433007518
 40
0.5783289537471962
 40
0.7169119453366836
 40
0.8640065590552854
 40
1.071463601865449
 40
1.291370269045685
 40
1.291370269045685
 40
1.291370269045685
 40
1.291370269045685
 10
91.24515296446901
 20
22.52452214975413
 30
0.0
 10
91.20085043273496
 20
22.50307197009268
 30
0.0
 10
91.10537886823294
 20
22.45684702242102
 30
0.0
 10
90.94481918317971
 20
22.49806616800282
 30
0.0
 10
90.8214194012684
 20
22.57881989216776
 30
0.0
 10
90.74939580130054
 20
22.6993349187073
 30
0.0
 10
90.74903915674923
 20
22.83998045138895
 30
0.0
 10
90.85036830532946
 20
22.98441946162963
 30
0.0
 10
91.045776833355
 20
23.03397762925906
 30
0.0
 10
91.18657842820374
 20
23.04530756993443
 30
0.0
 10
91.25903008643541
 20
23.05113756774431
 30
0.0
 11
91.24515296446901
 21
22.52452214975413
 31
0.0
 11
91.10985041487339
 21
22.4760178779225
 31
0.0
 11
90.94679362134497
 21
22.50719921336786
 31
0.0
 11
90.81842938856317
 21
22.59727818287608
 31
0.0
 11
90.76292090069756
 21
22.69428622703866
 31
0.0
 11
90.76292090069756
 21
22.83286921862815
 31
0.0
 11
90.84618412083461
 21
22.95412952358173
 31
0.0
 11
91.0404648050415
 21
23.02688555670368
 31
0.0
 11
91.25903008643541
 21
23.05113756774431
 31
0.0
  0
SPLINE
  5
1801A
330
18
100
AcDbEntity
  8
0
100
AcDbSpline
210
0.0
220
0.0
230
1.0
 70
     8
 71
     3
 72
    10
 73
     6
 74
     4
 42
0.0000000001
 43
0.0000000001
 44
0.0000000001
 40
0.0
 40
0.0
 40
0.0
 40
0.0
 40
0.1319371740561939
 40
0.3312252917164598
 40
0.4661811926345397
 40
0.4661811926345397
 40
0.4661811926345397
 40
0.4661811926345397
 10
90.88810311825142
 20
22.97984232461856
 30
0.0
 10
90.89532358562221
 20
23.02361833126282
 30
0.0
 10
90.91345040566613
 20
23.13351700595135
 30
0.0
 10
91.02378179725011
 20
23.26035224501397
 30
0.0
 10
91.12731367448287
 20
23.30239542936892
 30
0.0
 10
91.16911618100226
 20
23.3193709786883
 30
0.0
 11
90.88810311825142
 21
22.97984232461856
 31
0.0
 11
90.91932652059114
 21
23.10803170422649
 31
0.0
 11
91.04769075337305
 21
23.26047309487511
 31
0.0
 11
91.16911618100226
 21
23.3193709786883
 31
0.0
  0
SPLINE
  5
1801B
330
18
100
AcDbEntity
  8
0
100
AcDbSpline
210
0.0
220
0.0
230
1.0
 70
     8
 71
     3
 72
    10
 73
     6
 74
     4
 42
0.0000000001
 43
0.0000000001
 44
0.0000000001
 40
0.0
 40
0.0
 40
0.0
 40
0.0
 40
0.2210080787111488
 40
0.5081739415725267
 40
0.7279807189367816
 40
0.7279807189367816
 40
0.7279807189367816
 40
0.7279807189367816
 10
91.18323600732225
 20
22.57726468560269
 30
0.0
 10
91.1930108845992
 20
22.65007706161838
 30
0.0
 10
91.21548670513567
 20
22.81749787415581
 30
0.0
 10
91.28834378977506
 20
23.0560550913804
 30
0.0
 10
91.4013682387787
 20
23.18366923394696
 30
0.0
 10
91.45037194810669
 20
23.2389985578552
 30
0.0
 11
91.18323600732225
 21
22.57726468560269
 31
0.0
 11
91.21792905640763
 21
22.79553278496847
 31
0.0
 11
91.31506939851107
 21
23.06576969349309
 31
0.0
 11
91.45037194810669
 21
23.2389985578552
 31
0.0
  0
SPLINE
  5
1801C
330
18
100
AcDbEntity
  8
0
100
AcDbSpline
210
0.0
220
0.0
230
1.0
 70
     8
 71
     3
 72
    12
 73
     8
 74
     6
 42
0.0000000001
 43
0.0000000001
 44
0.0000000001
 40
0.0
 40
0.0
 40
0.0
 40
0.0
 40
0.2458101090706523
 40
0.3138842003527575
 40
0.5932671229594316
 40
0.8236438609055147
 40
0.9672084211665762
 40
0.9672084211665762
 40
0.9672084211665762
 40
0.9672084211665762
 10
91.06909610535074
 20
23.03963031880043
 30
0.0
 10
91.10319184046007
 20
23.1144824716451
 30
0.0
 10
91.14672997072936
 20
23.21006400907315
 30
0.0
 10
91.19177367265535
 20
23.40337382567515
 30
0.0
 10
91.27523769322968
 20
23.57424506408829
 30
0.0
 10
91.39241182357428
 20
23.77495356163976
 30
0.0
 10
91.36184461424473
 20
23.89952375940299
 30
0.0
 10
91.35010916810159
 20
23.94734908853688
 30
0.0
 11
91.06909610535074
 21
23.03963031880043
 31
0.0
 11
91.15929764230163
 21
23.26829227989809
 31
0.0
 11
91.17664392267494
 21
23.33411923836569
 31
0.0
 11
91.28766138674478
 21
23.59049774783118
 31
0.0
 11
91.37092460688183
 21
23.80530155962019
 31
0.0
 11
91.35010916810159
 21
23.94734908853688
 31
0.0
  0
SPLINE
  5
1801F
330
18
100
AcDbEntity
  8
0
100
AcDbSpline
210
0.0
220
0.0
230
1.0
 70
     8
 71
     3
 72
    16
 73
    12
 74
    10
 42
0.0000000001
 43
0.0000000001
 44
0.0000000001
 40
0.0
 40
0.0
 40
0.0
 40
0.0
 40
0.2286619610977141
 40
0.4270945946710801
 40
0.5699541523238052
 40
0.7857639599931641
 40
0.9451344252961344
 40
1.150347169014626
 40
1.277591157626679
 40
1.319795217883948
 40
1.465670389587328
 40
1.465670389587328
 40
1.465670389587328
 40
1.465670389587328
 10
92.16655831197664
 20
22.03169845822321
 30
0.0
 10
92.17075410294389
 20
21.9550678039253
 30
0.0
 10
92.17859099734418
 20
21.81193714030454
 30
0.0
 10
92.13044742778249
 20
21.62665687370366
 30
0.0
 10
92.07939962333741
 20
21.44762581546212
 30
0.0
 10
92.06971120690132
 20
21.27539365084559
 30
0.0
 10
92.06242070150452
 20
21.07777560602579
 30
0.0
 10
92.10157681927693
 20
20.93063640190544
 30
0.0
 10
92.14106390334938
 20
20.78307749048211
 30
0.0
 10
92.25175050820372
 20
20.77394896407818
 30
0.0
 10
92.31318787453242
 20
20.77986374847542
 30
0.0
 10
92.36083899618353
 20
20.78445128416739
 30
0.0
 11
92.16655831197664
 21
22.03169845822321
 31
0.0
 11
92.16655831197664
 21
21.80303649712549
 31
0.0
 11
92.12492694607755
 21
21.60902015904996
 31
0.0
 11
92.09023389699217
 21
21.47043716746047
 31
0.0
 11
92.06941796987321
 21
21.25563360542189
 31
0.0
 11
92.06941796987321
 21
21.09626314011892
 31
0.0
 11
92.11104982411114
 21
20.89531772738904
 31
0.0
 11
92.17349711712921
 21
20.78445128416739
 31
0.0
 11
92.21512848302841
 21
20.77752220951304
 31
0.0
 11
92.36083899618353
 21
20.78445128416739
 31
0.0
  0
SPLINE
  5
18020
330
18
100
AcDbEntity
  8
0
100
AcDbSpline
210
0.0
220
0.0
230
1.0
 70
     8
 71
     3
 72
    10
 73
     6
 74
     4
 42
0.0000000001
 43
0.0000000001
 44
0.0000000001
 40
0.0
 40
0.0
 40
0.0
 40
0.0
 40
0.1744750477001976
 40
0.3423000242022161
 40
0.5505023146341937
 40
0.5505023146341937
 40
0.5505023146341937
 40
0.5505023146341937
 10
91.80575167583453
 20
21.52587051394652
 30
0.0
 10
91.78808012731312
 20
21.46585823673166
 30
0.0
 10
91.75341057675963
 20
21.3481210346856
 30
0.0
 10
91.89696754020545
 20
21.20091293330064
 30
0.0
 10
92.00796169127498
 20
21.14693668647985
 30
0.0
 10
92.06941796987321
 20
21.1170506138324
 30
0.0
 11
91.80575167583453
 21
21.52587051394652
 31
0.0
 11
91.78493574871556
 21
21.35264164958447
 31
0.0
 11
91.88901489597157
 21
21.22098773264934
 31
0.0
 11
92.06941796987321
 21
21.1170506138324
 31
0.0
  0
SPLINE
  5
18021
330
18
100
AcDbEntity
  8
0
100
AcDbSpline
210
0.0
220
0.0
230
1.0
 70
     8
 71
     3
 72
    11
 73
     7
 74
     5
 42
0.0000000001
 43
0.0000000001
 44
0.0000000001
 40
0.0
 40
0.0
 40
0.0
 40
0.0
 40
0.1112977876114709
 40
0.1969508295767001
 40
0.3301344843772189
 40
0.4641240553660595
 40
0.4641240553660595
 40
0.4641240553660595
 40
0.4641240553660595
 10
92.36083899618353
 20
20.42413540613454
 30
0.0
 10
92.32349052497005
 20
20.42180637918563
 30
0.0
 10
92.25739925265656
 20
20.41768496941155
 30
0.0
 10
92.1512829379945
 20
20.47691496412902
 30
0.0
 10
92.1459232567928
 20
20.60757847880049
 30
0.0
 10
92.14108953239726
 20
20.69450266837229
 30
0.0
 10
92.13866537984182
 20
20.73809586463987
 30
0.0
 11
92.36083899618353
 21
20.42413540613454
 31
0.0
 11
92.24968284391167
 21
20.42974854601549
 31
0.0
 11
92.17682758733412
 21
20.4747880307696
 31
0.0
 11
92.14574287319653
 21
20.60429334515093
 31
0.0
 11
92.13866537984182
 21
20.73809586463987
 31
0.0
  0
SPLINE
  5
18022
330
18
100
AcDbEntity
  8
0
100
AcDbSpline
210
0.0
220
0.0
230
1.0
 70
     8
 71
     3
 72
    14
 73
    10
 74
     0
 42
0.0000000001
 43
0.0000000001
 40
0.0
 40
0.0
 40
0.0
 40
0.0
 40
0.7206317560656999
 40
1.545030230498882
 40
2.134814915819506
 40
2.949202405353143
 40
3.851352357363929
 40
4.508999855231542
 40
4.576084119724398
 40
4.576084119724398
 40
4.576084119724398
 40
4.576084119724398
 10
91.65809855117283
 20
23.20593735126924
 30
0.0
 10
91.67241023067902
 20
23.44757032867054
 30
0.0
 10
91.7030943870462
 20
23.96563000565266
 30
0.0
 10
91.47279341043946
 20
24.65434610021203
 30
0.0
 10
91.11507002725703
 20
25.31050643264415
 30
0.0
 10
90.55533990514721
 20
25.84872312842868
 30
0.0
 10
89.97323380412728
 20
26.38381189828816
 30
0.0
 10
89.64931166655949
 20
26.82443415896536
 30
0.0
 10
89.54255864090859
 20
27.04346584019781
 30
0.0
 10
89.42210631492747
 20
27.3482717461507
 30
0.0
  0
DIMENSION
  5
18024
330
18
100
AcDbEntity
  8
DIM
100
AcDbDimension
  2
*D6
 10
88.99541483053047
 20
33.82760739747759
 30
0.0
 11
90.68291483053048
 21
33.82760739747759
 31
0.0
 70
    32
 71
     5
 42
3.375
  3
STANDARD
100
AcDbAlignedDimension
 13
92.37041483053047
 23
31.24908076408137
 33
0.0
 14
88.99541483053047
 24
28.55950567445626
 34
0.0
100
AcDbRotatedDimension
  0
SPLINE
  5
18049
330
18
100
AcDbEntity
  8
0
100
AcDbSpline
210
0.0
220
0.0
230
1.0
 70
     8
 71
     3
 72
    13
 73
     9
 74
     7
 42
0.0000000001
 43
0.0000000001
 44
0.0000000001
 40
0.0
 40
0.0
 40
0.0
 40
0.0
 40
0.2054433696949064
 40
0.3252803259878255
 40
0.4292715499803526
 40
0.5629656110737252
 40
0.7718668329479112
 40
0.861491408337671
 40
0.861491408337671
 40
0.861491408337671
 40
0.861491408337671
 10
91.35010916810159
 20
23.94734908853688
 30
0.0
 10
91.2842447724083
 20
23.94150192079429
 30
0.0
 10
91.17996108521055
 20
23.93224404777441
 30
0.0
 10
91.01652926626945
 20
23.96322591188159
 30
0.0
 10
91.00819576095421
 20
24.11691445866939
 30
0.0
 10
91.16583588398347
 20
24.18030312691077
 30
0.0
 10
91.30189430977582
 20
24.20443754533863
 30
0.0
 10
91.39213079145386
 20
24.24828820306851
 30
0.0
 10
91.41922193878249
 20
24.26145321800398
 30
0.0
 11
91.35010916810159
 21
23.94734908853688
 31
0.0
 11
91.14471472986762
 21
23.94286546342417
 31
0.0
 11
91.03342804301837
 21
23.9873195906079
 31
0.0
 11
91.02600886653503
 21
24.09104581915098
 31
0.0
 11
91.13729563341768
 21
24.16513601748007
 31
0.0
 11
91.33761171776638
 21
24.2244081597708
 31
0.0
 11
91.41922193878249
 21
24.26145321800398
 31
0.0
  0
SPLINE
  5
1804A
330
18
100
AcDbEntity
  8
0
100
AcDbSpline
210
0.0
220
0.0
230
1.0
 70
     8
 71
     3
 72
    23
 73
    19
 74
    17
 42
0.0000000001
 43
0.0000000001
 44
0.0000000001
 40
0.0
 40
0.0
 40
0.0
 40
0.0
 40
0.5638050063960964
 40
1.512387476440534
 40
2.272958730259992
 40
3.138026809511223
 40
3.568005747792827
 40
3.775692954127033
 40
3.836076424015248
 40
3.976964539151263
 40
4.212507647795189
 40
4.297044554756337
 40
5.069292232051233
 40
5.322438856243352
 40
5.555720402498028
 40
6.046544662143519
 40
6.884333610281052
 40
7.331342928177744
 40
7.331342928177744
 40
7.331342928177744
 40
7.331342928177744
 10
91.41922193878249
 20
24.26145321800398
 30
0.0
 10
91.33364989846299
 20
24.43072349542165
 30
0.0
 10
91.10410585283645
 20
24.88478517418623
 30
0.0
 10
90.48832905213339
 20
25.35677590267698
 30
0.0
 10
89.90268460135544
 20
25.98035521780178
 30
0.0
 10
89.44479552393195
 20
26.49237260823146
 30
0.0
 10
89.14098656505391
 20
26.88975098468738
 30
0.0
 10
89.03388464069989
 20
27.10132143711911
 30
0.0
 10
89.02746565542022
 20
27.24246585047561
 30
0.0
 10
89.13434161406799
 20
27.35548013197014
 30
0.0
 10
89.20186690080848
 20
27.50002687481498
 30
0.0
 10
89.18993906422269
 20
27.86703447575371
 30
0.0
 10
89.07867216074768
 20
28.21700603267493
 30
0.0
 10
88.96723633978821
 20
28.63532631333106
 30
0.0
 10
89.10514556223759
 20
28.95260231911321
 30
0.0
 10
89.56628960567158
 20
29.23748464907287
 30
0.0
 10
90.12496979539587
 20
29.42438782350166
 30
0.0
 10
90.54214434419639
 20
29.52325084829931
 30
0.0
 10
90.68728846170738
 20
29.55764744926641
 30
0.0
 11
91.41922193878249
 21
24.26145321800398
 31
0.0
 11
91.13746514416506
 21
24.74980677222901
 31
0.0
 11
90.4602483395134
 21
25.41402518658758
 31
0.0
 11
89.92814946158954
 21
25.95747657930699
 31
0.0
 11
89.35977112199207
 21
26.60961831606046
 31
0.0
 11
89.11017727096945
 21
26.95973943352908
 31
0.0
 11
89.03344596622828
 21
27.15273239336861
 31
0.0
 11
89.03344596622828
 21
27.21311586325683
 31
0.0
 11
89.10600488957545
 21
27.33388284396462
 31
0.0
 11
89.19670354375943
 21
27.55126340923866
 31
0.0
 11
89.19670354375943
 21
27.63580031619981
 31
0.0
 11
89.03344596622828
 21
28.39059395585638
 31
0.0
 11
88.99573270614151
 21
28.64091559565905
 31
0.0
 11
89.08038475670208
 21
28.85829616093309
 31
0.0
 11
89.4673657879316
 21
29.1602135922369
 31
0.0
 11
90.2534208975706
 21
29.45005438686698
 31
0.0
 11
90.68728846170738
 21
29.55764744926641
 31
0.0
  0
VIEWPORT
  5
17709
330
15
100
AcDbEntity
 67
     1
  8
0
100
AcDbViewport
 10
5.249999639556163
 20
3.999999883606677
 30
0.0
 40
17.58407771518677
 41
8.992999745766947
 68
     2
 69
     1
 12
5.249999639556163
 22
3.999999883606677
 13
0.0
 23
0.0
 14
10.0
 24
10.0
 15
10.0
 25
10.0
 16
0.0
 26
0.0
 36
1.0
 17
0.0
 27
0.0
 37
0.0
 42
50.0
 43
0.0
 44
0.0
 45
8.992999745766947
 50
0.0
 51
0.0
 72
   100
 90
    32800
  1

281
     0
 71
     1
 74
     0
110
0.0
120
0.0
130
0.0
111
1.0
121
0.0
131
0.0
112
0.0
122
1.0
132
0.0
 79
     0
146
0.0
170
     0
  0
VIEWPORT
  5
1770B
330
15
100
AcDbEntity
 67
     1
  8
0
100
AcDbViewport
 10
5.24999976158142
 20
3.99999976158142
 30
0.0
 40
8.399999618530271
 41
6.399999618530272
 68
     1
 69
     2
 12
86.87815357497569
 22
25.6452316379946
 13
0.0
 23
0.0
 14
0.5
 24
0.5
 15
0.5
 25
0.5
 16
0.0
 26
0.0
 36
1.0
 17
0.0
 27
0.0
 37
0.0
 42
50.0
 43
0.0
 44
0.0
 45
11.85250796330272
 50
0.0
 51
0.0
 72
   100
 90
    32800
  1

281
     0
 71
     1
 74
     0
110
0.0
120
0.0
130
0.0
111
1.0
121
0.0
131
0.0
112
0.0
122
1.0
132
0.0
 79
     0
146
0.0
170
     0
  0
ENDSEC
  0
SECTION
  2
OBJECTS
  0
DICTIONARY
  5
C
330
0
100
AcDbDictionary
281
     1
  3
ACAD_COLOR
350
1733F
  3
ACAD_GROUP
350
D
  3
ACAD_IMAGE_DICT
350
21
  3
ACAD_IMAGE_VARS
350
20
  3
ACAD_LAYOUT
350
1544A
  3
ACAD_MATERIAL
350
1733E
  3
ACAD_MLINESTYLE
350
1B
  3
ACAD_PLOTSETTINGS
350
1544B
  3
ACAD_PLOTSTYLENAME
350
15448
  0
DICTIONARY
  5
15481
330
18
100
AcDbDictionary
280
     1
281
     1
  3
ACAD_LAYOUTSELFREF
360
17338
  3
ACAD_SORTENTS
360
17370
  0
DICTIONARY
  5
1547F
330
15
100
AcDbDictionary
280
     1
281
     1
  3
ACAD_LAYOUTSELFREF
360
17337
  0
DICTIONARY
  5
1733F
102
{ACAD_REACTORS
330
C
102
}
330
C
100
AcDbDictionary
281
     1
  0
DICTIONARY
  5
D
102
{ACAD_REACTORS
330
C
102
}
330
C
100
AcDbDictionary
281
     1
  0
DICTIONARY
  5
21
102
{ACAD_REACTORS
330
C
102
}
330
C
100
AcDbDictionary
281
     1
  3
1001T
350
14E25
  3
2219
350
15451
  3
rien 004
350
175D9
  3
rien 005
350
1734C
  3
rien 005_2
350
17351
  3
rien 006
350
17343
  3
rien 007
350
17EC7
  3
rien 008
350
17ED1
  3
rien 009
350
17ECA
  3
rien 011
350
17FB4
  3
rien 013
350
1736B
  3
rien 018
350
175DE
  3
rien 019
350
175E1
  0
RASTERVARIABLES
  5
20
102
{ACAD_REACTORS
330
C
102
}
330
C
100
AcDbRasterVariables
 90
        0
 70
     1
 71
     1
 72
     0
  0
DICTIONARY
  5
1544A
102
{ACAD_REACTORS
330
C
102
}
330
C
100
AcDbDictionary
281
     1
  3
Layout1
350
1544D
  3
Model
350
1544C
  0
DICTIONARY
  5
1733E
102
{ACAD_REACTORS
330
C
102
}
330
C
100
AcDbDictionary
281
     1
  0
DICTIONARY
  5
1B
102
{ACAD_REACTORS
330
C
102
}
330
C
100
AcDbDictionary
281
     1
  3
STANDARD
350
1C
  0
DICTIONARY
  5
1544B
102
{ACAD_REACTORS
330
C
102
}
330
C
100
AcDbDictionary
281
     1
  0
ACDBDICTIONARYWDFLT
  5
15448
102
{ACAD_REACTORS
330
C
102
}
330
C
100
AcDbDictionary
281
     1
  3
Normal
350
15449
100
AcDbDictionaryWithDefault
340
15449
  0
XRECORD
  5
17338
102
{ACAD_REACTORS
330
15481
102
}
330
15481
100
AcDbXrecord
280
     1
340
18
  0
SORTENTSTABLE
  5
17370
102
{ACAD_REACTORS
330
15481
102
}
330
15481
100
AcDbSortentsTable
330
18
331
17F41
  5
17F42
331
17F0A
  5
17F0B
331
17F12
  5
17F13
331
17F49
  5
17F4A
331
17FB0
  5
17FB1
331
17F1A
  5
17F1C
331
17F51
  5
17F52
331
17F59
  5
17F5A
331
17F32
  5
17F33
331
17EF3
  5
17EF4
331
17F3A
  5
17F3B
331
17F42
  5
17F43
331
17F0B
  5
17F0C
331
17F13
  5
17F14
331
17F4A
  5
17F4B
331
17F52
  5
17F53
331
17F5A
  5
17F5B
331
17F23
  5
17F24
331
17F2B
  5
17F2D
331
17F33
  5
17F34
331
17EF4
  5
17EF6
331
17F3B
  5
17F3C
331
17F04
  5
17F05
331
17F43
  5
17F44
331
17F0C
  5
17F0D
331
17F14
  5
17F15
331
17F4B
  5
17F4C
331
17F1C
  5
17F1D
331
17F53
  5
17F54
331
17F5B
  5
17F5C
331
17EE5
  5
17EE7
331
17F24
  5
17F25
331
17F34
  5
17F35
331
17F3C
  5
17F3D
331
17EFD
  5
17EFF
331
17F05
  5
17F06
331
17F44
  5
17F45
331
17F0D
  5
17F0E
331
17F15
  5
17F16
331
17F4C
  5
17F4D
331
17F1D
  5
17F1E
331
17F54
  5
17F55
331
17F25
  5
17F26
331
17F5C
  5
17F5D
331
17F2D
  5
17F2E
331
17EEE
  5
17EEF
331
17F35
  5
17F36
331
17EF6
  5
17EF7
331
17F3D
  5
17F3E
331
17F06
  5
17F07
331
17F45
  5
17F46
331
17F0E
  5
17F0F
331
17F16
  5
17F17
331
17F4D
  5
17F4E
331
17F1E
  5
17F1F
331
17F55
  5
17F56
331
17F5D
  5
17F5E
331
17EE7
  5
17EE8
331
17F26
  5
17F27
331
17F2E
  5
17F2F
331
17EEF
  5
17EF0
331
17F36
  5
17F37
331
17EF7
  5
17EF8
331
17F6D
  5
17FAF
331
17F3E
  5
17F3F
331
17EFF
  5
17F00
331
17F07
  5
17F08
331
17F46
  5
17F47
331
17F0F
  5
17F10
331
17F17
  5
17F18
331
17F4E
  5
17F4F
331
17F1F
  5
17F20
331
17F56
  5
17F57
331
17F27
  5
17F2B
331
17EE8
  5
17EE9
331
17F5E
  5
17F5F
331
17F2F
  5
17F30
331
17EF0
  5
17EF1
331
17F37
  5
17F38
331
17EF8
  5
17EF9
331
17F3F
  5
17F40
331
17F00
  5
17F04
331
17F08
  5
17F09
331
17F47
  5
17F48
331
17F10
  5
17F12
331
17F18
  5
17F19
331
17F4F
  5
17F50
331
17F57
  5
17F58
331
17F20
  5
17F23
331
17F5F
  5
17F6D
331
17EE9
  5
17EEE
331
17F30
  5
17F31
331
17EF1
  5
17EF2
331
17F38
  5
17F39
331
17EF9
  5
17EFD
331
17F40
  5
17F41
331
17F09
  5
17F0A
331
17F48
  5
17F49
331
17F19
  5
17F1A
331
17F50
  5
17F51
331
17F58
  5
17F59
331
17F31
  5
17F32
331
17EF2
  5
17EF3
331
17F39
  5
17F3A
  0
XRECORD
  5
17337
102
{ACAD_REACTORS
330
1547F
102
}
330
1547F
100
AcDbXrecord
280
     1
340
15
  0
IMAGEDEF
  5
14E25
102
{ACAD_REACTORS
330
21
102
}
330
21
100
AcDbRasterImageDef
 90
        0
  1
U:\TPDWG\MichelQ\1001t.tif
 10
3054.0
 20
3298.0
 11
0.0705555555555556
 21
0.0705555555555556
280
     1
281
     5
  0
IMAGEDEF
  5
15451
102
{ACAD_REACTORS
330
21
102
}
330
21
100
AcDbRasterImageDef
 90
        0
  1
C:\Michel\TEMP\GPL\TIF\2219.tif
 10
1792.0
 20
2510.0
 11
0.1693333333333333
 21
0.1693333333333333
280
     1
281
     5
  0
IMAGEDEF
  5
175D9
102
{ACAD_REACTORS
330
21
102
}
330
21
100
AcDbRasterImageDef
 90
        0
  1
C:\Documents and Settings\USAGER\Mes documents\Mes images\rien\rien 004.jpg
 10
2272.0
 20
1704.0
 11
0.0004401408450704
 21
0.0004401408450704
280
     1
281
     0
  0
IMAGEDEF
  5
1734C
102
{ACAD_REACTORS
330
21
102
}
330
21
100
AcDbRasterImageDef
 90
        0
  1
C:\Documents and Settings\USAGER\Mes documents\Mes images\rien\rien 005.jpg
 10
2272.0
 20
1704.0
 11
0.0004401408450704
 21
0.0004401408450704
280
     1
281
     0
  0
IMAGEDEF
  5
17351
102
{ACAD_REACTORS
330
21
102
}
330
21
100
AcDbRasterImageDef
 90
        0
  1
C:\Documents and Settings\USAGER\Mes documents\Mes images\rien\rien 005_2.jpg
 10
2181.0
 20
1636.0
 11
0.0846666666666667
 21
0.0846666666666667
280
     1
281
     5
  0
IMAGEDEF
  5
17343
102
{ACAD_REACTORS
330
21
102
}
330
21
100
AcDbRasterImageDef
 90
        0
  1
C:\Documents and Settings\USAGER\Mes documents\Mes images\rien\rien 006.jpg
 10
2272.0
 20
1704.0
 11
0.0004401408450704
 21
0.0004401408450704
280
     1
281
     0
  0
IMAGEDEF
  5
17EC7
102
{ACAD_REACTORS
330
21
102
}
330
21
100
AcDbRasterImageDef
 90
        0
  1
C:\Documents and Settings\USAGER\Mes documents\Mes images\rien\rien 007.jpg
 10
2272.0
 20
1704.0
 11
0.0004401408450704
 21
0.0004401408450704
280
     1
281
     0
  0
IMAGEDEF
  5
17ED1
102
{ACAD_REACTORS
330
21
330
17ED2
102
}
330
21
100
AcDbRasterImageDef
 90
        0
  1
C:\Documents and Settings\USAGER\Mes documents\Mes images\rien\rien 008.jpg
 10
2272.0
 20
1704.0
 11
0.0004401408450704
 21
0.0004401408450704
280
     1
281
     0
  0
IMAGEDEF
  5
17ECA
102
{ACAD_REACTORS
330
21
102
}
330
21
100
AcDbRasterImageDef
 90
        0
  1
C:\Documents and Settings\USAGER\Mes documents\Mes images\rien\rien 009.jpg
 10
2272.0
 20
1704.0
 11
0.0004401408450704
 21
0.0004401408450704
280
     1
281
     0
  0
IMAGEDEF
  5
17FB4
102
{ACAD_REACTORS
330
21
330
17FB5
102
}
330
21
100
AcDbRasterImageDef
 90
        0
  1
C:\Documents and Settings\USAGER\Mes documents\Mes images\rien\rien 011.jpg
 10
2272.0
 20
1704.0
 11
0.0004401408450704
 21
0.0004401408450704
280
     1
281
     0
  0
IMAGEDEF
  5
1736B
102
{ACAD_REACTORS
330
21
102
}
330
21
100
AcDbRasterImageDef
 90
        0
  1
C:\Documents and Settings\USAGER\Mes documents\Mes images\rien\rien 013.jpg
 10
2272.0
 20
1704.0
 11
0.0004401408450704
 21
0.0004401408450704
280
     1
281
     0
  0
IMAGEDEF
  5
175DE
102
{ACAD_REACTORS
330
21
102
}
330
21
100
AcDbRasterImageDef
 90
        0
  1
C:\Documents and Settings\USAGER\Mes documents\Mes images\rien\rien 018.jpg
 10
2272.0
 20
1704.0
 11
0.0004401408450704
 21
0.0004401408450704
280
     1
281
     0
  0
IMAGEDEF
  5
175E1
102
{ACAD_REACTORS
330
21
102
}
330
21
100
AcDbRasterImageDef
 90
        0
  1
C:\Documents and Settings\USAGER\Mes documents\Mes images\rien\rien 019.jpg
 10
2272.0
 20
1704.0
 11
0.0004401408450704
 21
0.0004401408450704
280
     1
281
     0
  0
LAYOUT
  5
1544D
102
{ACAD_REACTORS
330
1544A
102
}
330
1544A
100
AcDbPlotSettings
  1

  2
none_device
  4
Letter_(8.50_x_11.00_Inches)
  6

 40
6.349999904632568
 41
6.349999904632568
 42
6.350006103515625
 43
6.350006103515625
 44
215.8999938964844
 45
279.3999938964844
 46
0.0
 47
0.0
 48
0.0
 49
0.0
140
0.0
141
0.0
142
1.0
143
1.0
 70
   688
 72
     0
 73
     1
 74
     5
  7
pen2000.ctb
 75
    16
147
1.0
 76
     0
 77
     2
 78
   300
148
0.0
149
0.0
100
AcDbLayout
  1
Layout1
 70
     1
 71
     1
 10
-0.2500002402958907
 20
-0.2499999962453767
 11
10.74999951940821
 21
8.249999763458731
 12
0.0
 22
0.0
 32
0.0
 14
1.049636599258096
 24
0.7996597240971113
 34
-0.0000000000112498
 15
9.450362731076971
 25
7.200340082697458
 35
0.0000000000002956
146
0.0
 13
0.0
 23
0.0
 33
0.0
 16
1.0
 26
0.0
 36
0.0
 17
0.0
 27
1.0
 37
0.0
 76
     0
330
15
331
1770B
  0
LAYOUT
  5
1544C
102
{ACAD_REACTORS
330
1544A
102
}
330
1544A
100
AcDbPlotSettings
  1

  2
C:\Program Files\AutoCAD 2000i\plotters\HP DesignJet 430 (D_A1) by HP.pc3
  4

  6

 40
0.0
 41
0.0
 42
0.0
 43
0.0
 44
0.0
 45
0.0
 46
0.0
 47
0.0
 48
0.0
 49
0.0
140
0.0
141
0.0
142
1.0
143
1.0
 70
  1712
 72
     0
 73
     0
 74
     0
  7
pen2000.ctb
 75
     0
147
1.0
 76
     0
 77
     2
 78
   300
148
0.0
149
0.0
100
AcDbLayout
  1
Model
 70
     1
 71
     0
 10
0.0
 20
0.0
 11
12.0
 21
9.0
 12
0.0
 22
0.0
 32
0.0
 14
0.0
 24
0.0
 34
0.0
 15
0.0
 25
0.0
 35
0.0
146
0.0
 13
0.0
 23
0.0
 33
0.0
 16
1.0
 26
0.0
 36
0.0
 17
0.0
 27
1.0
 37
0.0
 76
     0
330
18
  0
MLINESTYLE
  5
1C
102
{ACAD_REACTORS
330
1B
102
}
330
1B
100
AcDbMlineStyle
  2
STANDARD
 70
     0
  3

 62
   256
 51
90.0
 52
90.0
 71
     2
 49
0.5
 62
   256
  6
BYLAYER
 49
-0.5
 62
   256
  6
BYLAYER
  0
ACDBPLACEHOLDER
  5
15449
102
{ACAD_REACTORS
330
15448
102
}
330
15448
  0
ENDSEC
  0
EOF
