  0
SECTION
  2
HEADER
  9
$ACADVER
  1
AC1018
  9
$ACADMAINTVER
 70
     0
  9
$DWGCODEPAGE
  3
ANSI_1252
  9
$INSBASE
 10
0.0
 20
0.0
 30
0.0
  9
$EXTMIN
 10
13.08750369584038
 20
43.19308995775277
 30
0.0
  9
$EXTMAX
 10
94.05325630849489
 20
82.38024844549519
 30
0.0
  9
$LIMMIN
 10
0.0
 20
0.0
  9
$LIMMAX
 10
420.0
 20
297.0
  9
$ORTHOMODE
 70
     0
  9
$REGENMODE
 70
     1
  9
$FILLMODE
 70
     1
  9
$QTEXTMODE
 70
     0
  9
$MIRRTEXT
 70
     1
  9
$LTSCALE
 40
0.04
  9
$ATTMODE
 70
     1
  9
$TEXTSIZE
 40
0.09375
  9
$TRACEWID
 40
1.0
  9
$TEXTSTYLE
  7
STYLE1
  9
$CLAYER
  8
Defpoints
  9
$CELTYPE
  6
BYLAYER
  9
$CECOLOR
 62
   256
  9
$CELTSCALE
 40
1.0
  9
$DISPSILH
 70
     0
  9
$DIMSCALE
 40
1.0
  9
$DIMASZ
 40
0.18
  9
$DIMEXO
 40
0.0625
  9
$DIMDLI
 40
0.38
  9
$DIMRND
 40
0.0
  9
$DIMDLE
 40
0.0
  9
$DIMEXE
 40
0.18
  9
$DIMTP
 40
0.0
  9
$DIMTM
 40
0.0
  9
$DIMTXT
 40
2.0
  9
$DIMCEN
 40
0.09
  9
$DIMTSZ
 40
0.0
  9
$DIMTOL
 70
     0
  9
$DIMLIM
 70
     0
  9
$DIMTIH
 70
     0
  9
$DIMTOH
 70
     0
  9
$DIMSE1
 70
     0
  9
$DIMSE2
 70
     0
  9
$DIMTAD
 70
     0
  9
$DIMZIN
 70
     0
  9
$DIMBLK
  1

  9
$DIMASO
 70
     1
  9
$DIMSHO
 70
     1
  9
$DIMPOST
  1

  9
$DIMAPOST
  1

  9
$DIMALT
 70
     0
  9
$DIMALTD
 70
     2
  9
$DIMALTF
 40
25.4
  9
$DIMLFAC
 40
1.0
  9
$DIMTOFL
 70
     0
  9
$DIMTVP
 40
0.0
  9
$DIMTIX
 70
     0
  9
$DIMSOXD
 70
     0
  9
$DIMSAH
 70
     0
  9
$DIMBLK1
  1

  9
$DIMBLK2
  1

  9
$DIMSTYLE
  2
STANDARD
  9
$DIMCLRD
 70
     0
  9
$DIMCLRE
 70
     0
  9
$DIMCLRT
 70
     0
  9
$DIMTFAC
 40
1.0
  9
$DIMGAP
 40
0.09
  9
$DIMJUST
 70
     0
  9
$DIMSD1
 70
     0
  9
$DIMSD2
 70
     0
  9
$DIMTOLJ
 70
     1
  9
$DIMTZIN
 70
     0
  9
$DIMALTZ
 70
     0
  9
$DIMALTTZ
 70
     0
  9
$DIMUPT
 70
     0
  9
$DIMDEC
 70
     4
  9
$DIMTDEC
 70
     4
  9
$DIMALTU
 70
     2
  9
$DIMALTTD
 70
     2
  9
$DIMTXSTY
  7
STANDARD
  9
$DIMAUNIT
 70
     0
  9
$DIMADEC
 70
     0
  9
$DIMALTRND
 40
0.0
  9
$DIMAZIN
 70
     0
  9
$DIMDSEP
 70
    46
  9
$DIMATFIT
 70
     3
  9
$DIMFRAC
 70
     0
  9
$DIMLDRBLK
  1

  9
$DIMLUNIT
 70
     2
  9
$DIMLWD
 70
    -2
  9
$DIMLWE
 70
    -2
  9
$DIMTMOVE
 70
     0
  9
$LUNITS
 70
     4
  9
$LUPREC
 70
     4
  9
$SKETCHINC
 40
1.0
  9
$FILLETRAD
 40
0.375
  9
$AUNITS
 70
     0
  9
$AUPREC
 70
     0
  9
$MENU
  1
.
  9
$ELEVATION
 40
0.0
  9
$PELEVATION
 40
0.0
  9
$THICKNESS
 40
0.0
  9
$LIMCHECK
 70
     0
  9
$CHAMFERA
 40
10.0
  9
$CHAMFERB
 40
10.0
  9
$CHAMFERC
 40
20.0
  9
$CHAMFERD
 40
0.0
  9
$SKPOLY
 70
     0
  9
$TDCREATE
 40
2451158.474098033
  9
$TDUCREATE
 40
2451158.640764699
  9
$TDUPDATE
 40
2453488.687699190
  9
$TDUUPDATE
 40
2453488.854365856
  9
$TDINDWG
 40
0.8964916319
  9
$TDUSRTIMER
 40
0.8964916319
  9
$USRTIMER
 70
     1
  9
$ANGBASE
 50
0.0
  9
$ANGDIR
 70
     0
  9
$PDMODE
 70
     3
  9
$PDSIZE
 40
0.25
  9
$PLINEWID
 40
0.0
  9
$SPLFRAME
 70
     0
  9
$SPLINETYPE
 70
     6
  9
$SPLINESEGS
 70
     8
  9
$HANDSEED
  5
4709
  9
$SURFTAB1
 70
     6
  9
$SURFTAB2
 70
     6
  9
$SURFTYPE
 70
     6
  9
$SURFU
 70
     6
  9
$SURFV
 70
     6
  9
$UCSBASE
  2

  9
$UCSNAME
  2

  9
$UCSORG
 10
0.0
 20
0.0
 30
0.0
  9
$UCSXDIR
 10
1.0
 20
0.0
 30
0.0
  9
$UCSYDIR
 10
0.0
 20
1.0
 30
0.0
  9
$UCSORTHOREF
  2

  9
$UCSORTHOVIEW
 70
     0
  9
$UCSORGTOP
 10
0.0
 20
0.0
 30
0.0
  9
$UCSORGBOTTOM
 10
0.0
 20
0.0
 30
0.0
  9
$UCSORGLEFT
 10
0.0
 20
0.0
 30
0.0
  9
$UCSORGRIGHT
 10
0.0
 20
0.0
 30
0.0
  9
$UCSORGFRONT
 10
0.0
 20
0.0
 30
0.0
  9
$UCSORGBACK
 10
0.0
 20
0.0
 30
0.0
  9
$PUCSBASE
  2

  9
$PUCSNAME
  2

  9
$PUCSORG
 10
0.0
 20
0.0
 30
0.0
  9
$PUCSXDIR
 10
1.0
 20
0.0
 30
0.0
  9
$PUCSYDIR
 10
0.0
 20
1.0
 30
0.0
  9
$PUCSORTHOREF
  2

  9
$PUCSORTHOVIEW
 70
     0
  9
$PUCSORGTOP
 10
0.0
 20
0.0
 30
0.0
  9
$PUCSORGBOTTOM
 10
0.0
 20
0.0
 30
0.0
  9
$PUCSORGLEFT
 10
0.0
 20
0.0
 30
0.0
  9
$PUCSORGRIGHT
 10
0.0
 20
0.0
 30
0.0
  9
$PUCSORGFRONT
 10
0.0
 20
0.0
 30
0.0
  9
$PUCSORGBACK
 10
0.0
 20
0.0
 30
0.0
  9
$USERI1
 70
     0
  9
$USERI2
 70
     0
  9
$USERI3
 70
     0
  9
$USERI4
 70
     0
  9
$USERI5
 70
     0
  9
$USERR1
 40
0.0
  9
$USERR2
 40
0.0
  9
$USERR3
 40
0.0
  9
$USERR4
 40
0.0
  9
$USERR5
 40
0.0
  9
$WORLDVIEW
 70
     1
  9
$SHADEDGE
 70
     3
  9
$SHADEDIF
 70
    70
  9
$TILEMODE
 70
     1
  9
$MAXACTVP
 70
    48
  9
$PINSBASE
 10
0.0
 20
0.0
 30
0.0
  9
$PLIMCHECK
 70
     0
  9
$PEXTMIN
 10
26.66999878883363
 20
20.31999878883363
 30
0.0
  9
$PEXTMAX
 10
240.0299890995026
 20
182.8799890995025
 30
0.0
  9
$PLIMMIN
 10
-6.350006103515625
 20
-6.349999904632568
  9
$PLIMMAX
 10
273.0499877929688
 20
209.5499939918518
  9
$UNITMODE
 70
     0
  9
$VISRETAIN
 70
     1
  9
$PLINEGEN
 70
     0
  9
$PSLTSCALE
 70
     1
  9
$TREEDEPTH
 70
  3020
  9
$CMLSTYLE
  2
STANDARD
  9
$CMLJUST
 70
     0
  9
$CMLSCALE
 40
20.0
  9
$PROXYGRAPHICS
 70
     1
  9
$MEASUREMENT
 70
     1
  9
$CELWEIGHT
370
    -1
  9
$ENDCAPS
280
     0
  9
$JOINSTYLE
280
     0
  9
$LWDISPLAY
290
     0
  9
$INSUNITS
 70
     0
  9
$HYPERLINKBASE
  1

  9
$STYLESHEET
  1

  9
$XEDIT
290
     1
  9
$CEPSNTYPE
380
     0
  9
$PSTYLEMODE
290
     1
  9
$FINGERPRINTGUID
  2
{D9A0EA57-ACFE-4C24-92E0-F27F11621814}
  9
$VERSIONGUID
  2
{595A0E59-5B92-43FC-BD65-F23D7A77D64A}
  9
$EXTNAMES
290
     1
  9
$PSVPSCALE
 40
0.0
  9
$OLESTARTUP
290
     0
  9
$SORTENTS
280
    96
  9
$INDEXCTL
280
     0
  9
$HIDETEXT
280
     0
  9
$XCLIPFRAME
290
     0
  9
$HALOGAP
280
     0
  9
$OBSCOLOR
 70
   257
  9
$OBSLTYPE
280
     0
  9
$INTERSECTIONDISPLAY
280
     0
  9
$INTERSECTIONCOLOR
 70
   257
  9
$DIMASSOC
280
     1
  9
$PROJECTNAME
  1

  0
ENDSEC
  0
SECTION
  2
CLASSES
  0
CLASS
  1
RASTERVARIABLES
  2
AcDbRasterVariables
  3
ISM
 90
        0
 91
        1
280
     0
281
     0
  0
CLASS
  1
IMAGEDEF
  2
AcDbRasterImageDef
  3
ISM
 90
        0
 91
        6
280
     0
281
     0
  0
CLASS
  1
IMAGEDEF_REACTOR
  2
AcDbRasterImageDefReactor
  3
ISM
 90
        1
 91
        0
280
     0
281
     0
  0
CLASS
  1
IMAGE
  2
AcDbRasterImage
  3
ISM
 90
      127
 91
        0
280
     0
281
     1
  0
CLASS
  1
DICTIONARYVAR
  2
AcDbDictionaryVar
  3
ObjectDBX Classes
 90
        0
 91
        1
280
     0
281
     0
  0
CLASS
  1
ACDBDICTIONARYWDFLT
  2
AcDbDictionaryWithDefault
  3
ObjectDBX Classes
 90
        0
 91
        1
280
     0
281
     0
  0
ENDSEC
  0
SECTION
  2
TABLES
  0
TABLE
  2
VPORT
  5
8
330
0
100
AcDbSymbolTable
 70
     2
  0
VPORT
  5
4708
330
8
100
AcDbSymbolTableRecord
100
AcDbViewportTableRecord
  2
*Active
 70
     0
 10
0.0
 20
0.0
 11
1.0
 21
1.0
 12
51.33003660277211
 22
62.62928352187234
 13
0.0
 23
0.0
 14
10.0
 24
10.0
 15
10.0
 25
10.0
 16
0.0
 26
0.0
 36
1.0
 17
0.0
 27
0.0
 37
0.0
 40
46.09095907140903
 41
1.977142857142857
 42
50.0
 43
0.0
 44
0.0
 50
0.0
 51
0.0
 71
     0
 72
   100
 73
     1
 74
     1
 75
     0
 76
     0
 77
     0
 78
     0
281
     0
 65
     1
110
0.0
120
0.0
130
0.0
111
1.0
121
0.0
131
0.0
112
0.0
122
1.0
132
0.0
 79
     0
146
0.0
  0
ENDTAB
  0
TABLE
  2
LTYPE
  5
5
330
0
100
AcDbSymbolTable
 70
     2
  0
LTYPE
  5
12
330
5
100
AcDbSymbolTableRecord
100
AcDbLinetypeTableRecord
  2
BYBLOCK
 70
     0
  3

 72
    65
 73
     0
 40
0.0
  0
LTYPE
  5
13
330
5
100
AcDbSymbolTableRecord
100
AcDbLinetypeTableRecord
  2
BYLAYER
 70
     0
  3

 72
    65
 73
     0
 40
0.0
  0
LTYPE
  5
14
330
5
100
AcDbSymbolTableRecord
100
AcDbLinetypeTableRecord
  2
CONTINUOUS
 70
     0
  3
Solid line
 72
    65
 73
     0
 40
0.0
  0
LTYPE
  5
3F94
330
5
100
AcDbSymbolTableRecord
100
AcDbLinetypeTableRecord
  2
DASHED
 70
     0
  3
Dashed __ __ __ __ __ __ __ __ __ __ __ __ __ _
 72
    65
 73
     2
 40
19.05
 49
12.7
 74
     0
 49
-6.349999999999999
 74
     0
  0
ENDTAB
  0
TABLE
  2
LAYER
  5
2
330
0
100
AcDbSymbolTable
 70
     4
  0
LAYER
  5
E
330
2
100
AcDbSymbolTableRecord
100
AcDbLayerTableRecord
  2
0
 70
     0
 62
     7
  6
CONTINUOUS
370
    -3
390
3BB6
  0
LAYER
  5
3BC1
330
2
100
AcDbSymbolTableRecord
100
AcDbLayerTableRecord
  2
Defpoints
 70
     0
 62
     7
  6
CONTINUOUS
290
     0
370
    -3
390
3BB6
  0
LAYER
  5
46C0
330
2
100
AcDbSymbolTableRecord
100
AcDbLayerTableRecord
  2
DIM
 70
     0
 62
    -3
  6
CONTINUOUS
370
    -3
390
3BB6
  0
LAYER
  5
46C1
330
2
100
AcDbSymbolTableRecord
100
AcDbLayerTableRecord
  2
TITRES
 70
     0
 62
     6
  6
CONTINUOUS
370
    -3
390
3BB6
  0
ENDTAB
  0
TABLE
  2
STYLE
  5
3
330
0
100
AcDbSymbolTable
 70
     3
  0
STYLE
  5
F
330
3
100
AcDbSymbolTableRecord
100
AcDbTextStyleTableRecord
  2
STANDARD
 70
     0
 40
0.0
 41
1.0
 50
0.0
 71
     0
 42
2.5
  3
txt
  4

  0
STYLE
  5
36AA
330
3
100
AcDbSymbolTableRecord
100
AcDbTextStyleTableRecord
  2
STYLE1
 70
     0
 40
0.09375
 41
1.0
 50
0.0
 71
     0
 42
0.09375
  3
simplex.shx
  4

  0
STYLE
  5
3F93
330
3
100
AcDbSymbolTableRecord
100
AcDbTextStyleTableRecord
  2

 70
     1
 40
0.0
 41
1.0
 50
0.0
 71
     0
 42
0.09375
  3
ltypeshp.shx
  4

  0
ENDTAB
  0
TABLE
  2
VIEW
  5
6
330
0
100
AcDbSymbolTable
 70
     0
  0
ENDTAB
  0
TABLE
  2
UCS
  5
7
330
0
100
AcDbSymbolTable
 70
     0
  0
ENDTAB
  0
TABLE
  2
APPID
  5
9
330
0
100
AcDbSymbolTable
 70
     1
  0
APPID
  5
10
330
9
100
AcDbSymbolTableRecord
100
AcDbRegAppTableRecord
  2
ACAD
 70
     0
  0
ENDTAB
  0
TABLE
  2
DIMSTYLE
  5
A
330
0
100
AcDbSymbolTable
 70
     1
100
AcDbDimStyleTable
 71
     1
340
1D
  0
DIMSTYLE
105
1D
102
{ACAD_REACTORS
330
45BE
330
4668
330
4676
102
}
330
A
100
AcDbSymbolTableRecord
100
AcDbDimStyleTableRecord
  2
STANDARD
 70
     0
 73
     0
 74
     0
140
2.0
340
F
  0
ENDTAB
  0
TABLE
  2
BLOCK_RECORD
  5
1
330
0
100
AcDbSymbolTable
 70
     4
  0
BLOCK_RECORD
  5
18
330
1
100
AcDbSymbolTableRecord
100
AcDbBlockTableRecord
  2
*MODEL_SPACE
340
3BBB
  0
BLOCK_RECORD
  5
464D
330
1
100
AcDbSymbolTableRecord
100
AcDbBlockTableRecord
  2
*Paper_Space
340
464E
  0
BLOCK_RECORD
  5
3B56
330
1
100
AcDbSymbolTableRecord
100
AcDbBlockTableRecord
  2
1097-7_E
340
0
  0
BLOCK_RECORD
  5
45BF
330
1
100
AcDbSymbolTableRecord
100
AcDbBlockTableRecord
  2
*D1
340
0
  0
BLOCK_RECORD
  5
4669
330
1
100
AcDbSymbolTableRecord
100
AcDbBlockTableRecord
  2
*D2
340
0
  0
BLOCK_RECORD
  5
4677
330
1
100
AcDbSymbolTableRecord
100
AcDbBlockTableRecord
  2
*D3
340
0
  0
ENDTAB
  0
ENDSEC
  0
SECTION
  2
BLOCKS
  0
BLOCK
  5
19
330
18
100
AcDbEntity
  8
0
100
AcDbBlockBegin
  2
*MODEL_SPACE
 70
     0
 10
0.0
 20
0.0
 30
0.0
  3
*MODEL_SPACE
  1

  0
ENDBLK
  5
1A
330
18
100
AcDbEntity
  8
0
100
AcDbBlockEnd
  0
BLOCK
  5
464F
330
464D
100
AcDbEntity
 67
     1
  8
0
100
AcDbBlockBegin
  2
*Paper_Space
 70
     0
 10
0.0
 20
0.0
 30
0.0
  3
*Paper_Space
  1

  0
ENDBLK
  5
4650
330
464D
100
AcDbEntity
 67
     1
  8
0
100
AcDbBlockEnd
  0
BLOCK
  5
3B57
330
3B56
100
AcDbEntity
  8
0
100
AcDbBlockBegin
  2
1097-7_E
 70
     0
 10
0.0
 20
0.0
 30
0.0
  3
1097-7_E
  1

  0
LINE
  5
3B58
330
3B56
100
AcDbEntity
  8
0
100
AcDbLine
 10
3.5
 20
0.0000000000000053
 30
0.0
 11
3.499999999999998
 21
89.43749999999999
 31
0.0
  0
LINE
  5
3B59
330
3B56
100
AcDbEntity
  8
0
100
AcDbLine
 10
-3.5
 20
-0.0000000000000053
 30
0.0
 11
-3.5
 21
89.43749999999999
 31
0.0
  0
LINE
  5
3B5A
330
3B56
100
AcDbEntity
  8
0
100
AcDbLine
 10
-2.500000000000001
 20
14.125
 30
0.0
 11
-2.5
 21
82.62500000000001
 31
0.0
  0
LINE
  5
3B5B
330
3B56
100
AcDbEntity
  8
0
100
AcDbLine
 10
2.499999999999996
 20
14.12500000000001
 30
0.0
 11
2.500000000000001
 21
82.62500000000001
 31
0.0
  0
LINE
  5
3B5C
330
3B56
100
AcDbEntity
  8
0
100
AcDbLine
 10
1.499999999999998
 20
15.12500000000001
 30
0.0
 11
1.5
 21
81.62500000000001
 31
0.0
  0
LINE
  5
3B5D
330
3B56
100
AcDbEntity
  8
0
100
AcDbLine
 10
0.5
 20
15.125
 30
0.0
 11
0.5000000000000018
 21
81.62500000000001
 31
0.0
  0
LINE
  5
3B5E
330
3B56
100
AcDbEntity
  8
0
100
AcDbLine
 10
-0.5000000000000018
 20
15.125
 30
0.0
 11
-0.5
 21
81.62500000000001
 31
0.0
  0
LINE
  5
3B5F
330
3B56
100
AcDbEntity
  8
0
100
AcDbLine
 10
-1.500000000000001
 20
15.125
 30
0.0
 11
-1.5
 21
81.62500000000001
 31
0.0
  0
LINE
  5
3B60
330
3B56
100
AcDbEntity
  8
0
100
AcDbLine
 10
-3.5
 20
-0.0000000000000053
 30
0.0
 11
3.5
 21
0.0000000000000053
 31
0.0
  0
LINE
  5
3B61
330
3B56
100
AcDbEntity
  8
0
100
AcDbLine
 10
-2.937500000000005
 20
13.24999999999999
 30
0.0
 11
2.9375
 21
13.25
 31
0.0
  0
LINE
  5
3B62
330
3B56
100
AcDbEntity
  8
0
100
AcDbLine
 10
-2.500000000000001
 20
14.125
 30
0.0
 11
2.499999999999996
 21
14.12500000000001
 31
0.0
  0
LINE
  5
3B63
330
3B56
100
AcDbEntity
  8
0
100
AcDbLine
 10
-3.187500000000003
 20
12.99999999999999
 30
0.0
 11
3.1875
 21
13.00000000000001
 31
0.0
  0
LINE
  5
3B64
330
3B56
100
AcDbEntity
  8
0
100
AcDbLine
 10
-3.187500000000001
 20
-0.0000000000000053
 30
0.0
 11
-3.187500000000003
 21
12.99999999999999
 31
0.0
  0
ARC
  5
3B65
330
3B56
100
AcDbEntity
  8
0
100
AcDbCircle
 10
-3.778028086576522
 20
14.21713904328827
 30
0.0
 40
1.281345149979709
100
AcDbArc
 50
310.9934848747234
 51
355.8764127711199
  0
LINE
  5
3B66
330
3B56
100
AcDbEntity
  8
0
100
AcDbLine
 10
-2.937500000000005
 20
13.0
 30
0.0
 11
-2.937500000000005
 21
13.24999999999999
 31
0.0
  0
LINE
  5
3B67
330
3B56
100
AcDbEntity
  8
0
100
AcDbLine
 10
3.187500000000001
 20
0.0000000000000053
 30
0.0
 11
3.1875
 21
13.00000000000001
 31
0.0
  0
ARC
  5
3B68
330
3B56
100
AcDbEntity
  8
0
100
AcDbCircle
 10
3.778028086576519
 20
14.21713904328827
 30
0.0
 40
1.281345149979709
100
AcDbArc
 50
184.12358722888
 51
229.0065151252766
  0
LINE
  5
3B69
330
3B56
100
AcDbEntity
  8
0
100
AcDbLine
 10
2.937500000000001
 20
13.0
 30
0.0
 11
2.9375
 21
13.25
 31
0.0
  0
LINE
  5
3B6A
330
3B56
100
AcDbEntity
  8
0
100
AcDbLine
 10
-3.5
 20
89.43749999999999
 30
0.0
 11
3.499999999999998
 21
89.43749999999999
 31
0.0
  0
LINE
  5
3B6B
330
3B56
100
AcDbEntity
  8
0
100
AcDbLine
 10
-2.500000000000001
 20
83.68750000000002
 30
0.0
 11
2.499999999999998
 21
83.6875
 31
0.0
  0
LINE
  5
3B6C
330
3B56
100
AcDbEntity
  8
0
100
AcDbLine
 10
2.733133811154942
 20
82.81419568654792
 30
0.0
 11
-2.733133811154946
 21
82.8141956865479
 31
0.0
  0
LINE
  5
3B6D
330
3B56
100
AcDbEntity
  8
0
100
AcDbLine
 10
-3.062500000000001
 20
83.375
 30
0.0
 11
3.062499999999996
 21
83.375
 31
0.0
  0
LINE
  5
3B6E
330
3B56
100
AcDbEntity
  8
0
100
AcDbLine
 10
-2.75
 20
82.62500000000001
 30
0.0
 11
2.733133811154942
 21
82.62500000000001
 31
0.0
  0
LINE
  5
3B6F
330
3B56
100
AcDbEntity
  8
0
100
AcDbLine
 10
-3.500000000000001
 20
89.18750000000001
 30
0.0
 11
3.499999999999992
 21
89.18750000000001
 31
0.0
  0
LINE
  5
3B70
330
3B56
100
AcDbEntity
  8
0
100
AcDbLine
 10
-2.75
 20
87.8125
 30
0.0
 11
2.749999999999994
 21
87.8125
 31
0.0
  0
LINE
  5
3B71
330
3B56
100
AcDbEntity
  8
0
100
AcDbLine
 10
-2.75
 20
88.3125
 30
0.0
 11
2.749999999999994
 21
88.3125
 31
0.0
  0
ARC
  5
3B72
330
3B56
100
AcDbEntity
  8
0
100
AcDbCircle
 10
-2.75
 20
88.0625
 30
0.0
 40
0.25
100
AcDbArc
 50
90.0
 51
270.0
  0
ARC
  5
3B73
330
3B56
100
AcDbEntity
  8
0
100
AcDbCircle
 10
-2.501273046897312
 20
83.37542135397564
 30
0.0
 40
0.5612271112732353
100
AcDbArc
 50
180.0430161092873
 51
270.1299657044769
  0
LINE
  5
3B74
330
3B56
100
AcDbEntity
  8
0
100
AcDbLine
 10
-2.500000000000001
 20
83.6875
 30
0.0
 11
-2.500000000000001
 21
87.8125
 31
0.0
  0
ARC
  5
3B75
330
3B56
100
AcDbEntity
  8
0
100
AcDbCircle
 10
-2.500000000000001
 20
83.375
 30
0.0
 40
0.3125000000000071
100
AcDbArc
 50
90.0
 51
180.0
  0
ARC
  5
3B76
330
3B56
100
AcDbEntity
  8
0
100
AcDbCircle
 10
-2.733133811154946
 20
82.71959784327396
 30
0.0
 40
0.0945978432739558
100
AcDbArc
 50
90.0
 51
270.0
  0
POLYLINE
  5
3B77
330
3B56
100
AcDbEntity
  8
0
100
AcDb2dPolyline
 66
     1
 10
0.0
 20
0.0
 30
0.0
 70
     4
 75
     6
  0
VERTEX
  5
3B78
330
3B77
100
AcDbEntity
  8
0
100
AcDbVertex
100
AcDb2dVertex
 10
-2.749999999999998
 20
88.3125
 30
0.0
 70
    16
  0
VERTEX
  5
3B79
330
3B77
100
AcDbEntity
  8
0
100
AcDbVertex
100
AcDb2dVertex
 10
-2.749999999999998
 20
88.3125
 30
0.0
 70
     8
  0
VERTEX
  5
3B7A
330
3B77
100
AcDbEntity
  8
0
100
AcDbVertex
100
AcDb2dVertex
 10
-2.807897507381591
 20
88.3419806704442
 30
0.0
 70
     8
  0
VERTEX
  5
3B7B
330
3B77
100
AcDbEntity
  8
0
100
AcDbVertex
100
AcDb2dVertex
 10
-2.865894388711843
 20
88.37263457936595
 30
0.0
 70
     8
  0
VERTEX
  5
3B7C
330
3B77
100
AcDbEntity
  8
0
100
AcDbVertex
100
AcDb2dVertex
 10
-2.92367334149632
 20
88.40502979354431
 30
0.0
 70
     8
  0
VERTEX
  5
3B7D
330
3B77
100
AcDbEntity
  8
0
100
AcDbVertex
100
AcDb2dVertex
 10
-2.980917063240591
 20
88.43973437975842
 30
0.0
 70
     8
  0
VERTEX
  5
3B7E
330
3B77
100
AcDbEntity
  8
0
100
AcDbVertex
100
AcDb2dVertex
 10
-3.037308251450225
 20
88.47731640478732
 30
0.0
 70
     8
  0
VERTEX
  5
3B7F
330
3B77
100
AcDbEntity
  8
0
100
AcDbVertex
100
AcDb2dVertex
 10
-3.09252960363079
 20
88.5183439354102
 30
0.0
 70
     8
  0
VERTEX
  5
3B80
330
3B77
100
AcDbEntity
  8
0
100
AcDbVertex
100
AcDb2dVertex
 10
-3.146263817287856
 20
88.56338503840607
 30
0.0
 70
     8
  0
VERTEX
  5
3B81
330
3B77
100
AcDbEntity
  8
0
100
AcDbVertex
100
AcDb2dVertex
 10
-3.198193589926988
 20
88.61300778055399
 30
0.0
 70
     8
  0
VERTEX
  5
3B82
330
3B77
100
AcDbEntity
  8
0
100
AcDbVertex
100
AcDb2dVertex
 10
-3.247980924532152
 20
88.66767164124899
 30
0.0
 70
     8
  0
VERTEX
  5
3B83
330
3B77
100
AcDbEntity
  8
0
100
AcDbVertex
100
AcDb2dVertex
 10
-3.29520504600088
 20
88.72740175034918
 30
0.0
 70
     8
  0
VERTEX
  5
3B84
330
3B77
100
AcDbEntity
  8
0
100
AcDbVertex
100
AcDb2dVertex
 10
-3.339424484709098
 20
88.79211465032847
 30
0.0
 70
     8
  0
VERTEX
  5
3B85
330
3B77
100
AcDbEntity
  8
0
100
AcDbVertex
100
AcDb2dVertex
 10
-3.380197771032735
 20
88.86172688366084
 30
0.0
 70
     8
  0
VERTEX
  5
3B86
330
3B77
100
AcDbEntity
  8
0
100
AcDbVertex
100
AcDb2dVertex
 10
-3.417083435347716
 20
88.93615499282022
 30
0.0
 70
     8
  0
VERTEX
  5
3B87
330
3B77
100
AcDbEntity
  8
0
100
AcDbVertex
100
AcDb2dVertex
 10
-3.44964000802997
 20
89.01531552028059
 30
0.0
 70
     8
  0
VERTEX
  5
3B88
330
3B77
100
AcDbEntity
  8
0
100
AcDbVertex
100
AcDb2dVertex
 10
-3.477426019455421
 20
89.09912500851584
 30
0.0
 70
     8
  0
VERTEX
  5
3B89
330
3B77
100
AcDbEntity
  8
0
100
AcDbVertex
100
AcDb2dVertex
 10
-3.5
 20
89.18750000000001
 30
0.0
 70
     8
  0
VERTEX
  5
3B8A
330
3B77
100
AcDbEntity
  8
0
100
AcDbVertex
100
AcDb2dVertex
 10
-2.903978807757654
 20
88.39005575146257
 30
0.0
 70
    16
  0
VERTEX
  5
3B8B
330
3B77
100
AcDbEntity
  8
0
100
AcDbVertex
100
AcDb2dVertex
 10
-3.220825520725528
 20
88.55807758395435
 30
0.0
 70
    16
  0
VERTEX
  5
3B8C
330
3B77
100
AcDbEntity
  8
0
100
AcDbVertex
100
AcDb2dVertex
 10
-3.447144510499244
 20
88.9458202028447
 30
0.0
 70
    16
  0
VERTEX
  5
3B8D
330
3B77
100
AcDbEntity
  8
0
100
AcDbVertex
100
AcDb2dVertex
 10
-3.5
 20
89.18750000000001
 30
0.0
 70
    16
  0
SEQEND
  5
3B8E
330
3B77
100
AcDbEntity
  8
0
  0
LINE
  5
3B8F
330
3B56
100
AcDbEntity
  8
0
100
AcDbLine
 10
-3.500000000000001
 20
89.43749999999999
 30
0.0
 11
-3.500000000000001
 21
89.18750000000001
 31
0.0
  0
ARC
  5
3B90
330
3B56
100
AcDbEntity
  8
0
100
AcDbCircle
 10
2.749999999999994
 20
88.0625
 30
0.0
 40
0.25
100
AcDbArc
 50
270.0
 51
90.0
  0
LINE
  5
3B91
330
3B56
100
AcDbEntity
  8
0
100
AcDbLine
 10
2.5
 20
83.6875
 30
0.0
 11
2.499999999999998
 21
87.8125
 31
0.0
  0
ARC
  5
3B92
330
3B56
100
AcDbEntity
  8
0
100
AcDbCircle
 10
2.733133811154942
 20
82.71959784327396
 30
0.0
 40
0.0945978432739558
100
AcDbArc
 50
270.0
 51
90.0
  0
ARC
  5
3B93
330
3B56
100
AcDbEntity
  8
0
100
AcDbCircle
 10
2.501273046897308
 20
83.37542135397564
 30
0.0
 40
0.5612271112732353
100
AcDbArc
 50
269.8700342955231
 51
359.9569838907127
  0
ARC
  5
3B94
330
3B56
100
AcDbEntity
  8
0
100
AcDbCircle
 10
2.499999999999998
 20
83.375
 30
0.0
 40
0.3125000000000071
100
AcDbArc
 50
0.0
 51
90.0
  0
LINE
  5
3B95
330
3B56
100
AcDbEntity
  8
0
100
AcDbLine
 10
3.499999999999996
 20
89.43749999999999
 30
0.0
 11
3.499999999999992
 21
89.18750000000001
 31
0.0
  0
POLYLINE
  5
3B96
330
3B56
100
AcDbEntity
  8
0
100
AcDb2dPolyline
 66
     1
 10
0.0
 20
0.0
 30
0.0
 70
     4
 75
     6
  0
VERTEX
  5
3B97
330
3B96
100
AcDbEntity
  8
0
100
AcDbVertex
100
AcDb2dVertex
 10
2.749999999999994
 20
88.3125
 30
0.0
 70
    16
  0
VERTEX
  5
3B98
330
3B96
100
AcDbEntity
  8
0
100
AcDbVertex
100
AcDb2dVertex
 10
2.749999999999994
 20
88.3125
 30
0.0
 70
     8
  0
VERTEX
  5
3B99
330
3B96
100
AcDbEntity
  8
0
100
AcDbVertex
100
AcDb2dVertex
 10
2.807897507381587
 20
88.3419806704442
 30
0.0
 70
     8
  0
VERTEX
  5
3B9A
330
3B96
100
AcDbEntity
  8
0
100
AcDbVertex
100
AcDb2dVertex
 10
2.86589438871184
 20
88.37263457936595
 30
0.0
 70
     8
  0
VERTEX
  5
3B9B
330
3B96
100
AcDbEntity
  8
0
100
AcDbVertex
100
AcDb2dVertex
 10
2.923673341496316
 20
88.40502979354431
 30
0.0
 70
     8
  0
VERTEX
  5
3B9C
330
3B96
100
AcDbEntity
  8
0
100
AcDbVertex
100
AcDb2dVertex
 10
2.980917063240587
 20
88.43973437975842
 30
0.0
 70
     8
  0
VERTEX
  5
3B9D
330
3B96
100
AcDbEntity
  8
0
100
AcDbVertex
100
AcDb2dVertex
 10
3.037308251450221
 20
88.47731640478732
 30
0.0
 70
     8
  0
VERTEX
  5
3B9E
330
3B96
100
AcDbEntity
  8
0
100
AcDbVertex
100
AcDb2dVertex
 10
3.092529603630786
 20
88.5183439354102
 30
0.0
 70
     8
  0
VERTEX
  5
3B9F
330
3B96
100
AcDbEntity
  8
0
100
AcDbVertex
100
AcDb2dVertex
 10
3.146263817287852
 20
88.56338503840607
 30
0.0
 70
     8
  0
VERTEX
  5
3BA0
330
3B96
100
AcDbEntity
  8
0
100
AcDbVertex
100
AcDb2dVertex
 10
3.198193589926985
 20
88.61300778055399
 30
0.0
 70
     8
  0
VERTEX
  5
3BA1
330
3B96
100
AcDbEntity
  8
0
100
AcDbVertex
100
AcDb2dVertex
 10
3.247980924532148
 20
88.66767164124899
 30
0.0
 70
     8
  0
VERTEX
  5
3BA2
330
3B96
100
AcDbEntity
  8
0
100
AcDbVertex
100
AcDb2dVertex
 10
3.295205046000877
 20
88.72740175034918
 30
0.0
 70
     8
  0
VERTEX
  5
3BA3
330
3B96
100
AcDbEntity
  8
0
100
AcDbVertex
100
AcDb2dVertex
 10
3.339424484709095
 20
88.79211465032847
 30
0.0
 70
     8
  0
VERTEX
  5
3BA4
330
3B96
100
AcDbEntity
  8
0
100
AcDbVertex
100
AcDb2dVertex
 10
3.380197771032731
 20
88.86172688366084
 30
0.0
 70
     8
  0
VERTEX
  5
3BA5
330
3B96
100
AcDbEntity
  8
0
100
AcDbVertex
100
AcDb2dVertex
 10
3.417083435347713
 20
88.93615499282022
 30
0.0
 70
     8
  0
VERTEX
  5
3BA6
330
3B96
100
AcDbEntity
  8
0
100
AcDbVertex
100
AcDb2dVertex
 10
3.449640008029966
 20
89.01531552028059
 30
0.0
 70
     8
  0
VERTEX
  5
3BA7
330
3B96
100
AcDbEntity
  8
0
100
AcDbVertex
100
AcDb2dVertex
 10
3.477426019455418
 20
89.09912500851584
 30
0.0
 70
     8
  0
VERTEX
  5
3BA8
330
3B96
100
AcDbEntity
  8
0
100
AcDbVertex
100
AcDb2dVertex
 10
3.499999999999996
 20
89.18750000000001
 30
0.0
 70
     8
  0
VERTEX
  5
3BA9
330
3B96
100
AcDbEntity
  8
0
100
AcDbVertex
100
AcDb2dVertex
 10
2.903978807757651
 20
88.39005575146257
 30
0.0
 70
    16
  0
VERTEX
  5
3BAA
330
3B96
100
AcDbEntity
  8
0
100
AcDbVertex
100
AcDb2dVertex
 10
3.220825520725524
 20
88.55807758395435
 30
0.0
 70
    16
  0
VERTEX
  5
3BAB
330
3B96
100
AcDbEntity
  8
0
100
AcDbVertex
100
AcDb2dVertex
 10
3.44714451049924
 20
88.9458202028447
 30
0.0
 70
    16
  0
VERTEX
  5
3BAC
330
3B96
100
AcDbEntity
  8
0
100
AcDbVertex
100
AcDb2dVertex
 10
3.499999999999996
 20
89.18750000000001
 30
0.0
 70
    16
  0
SEQEND
  5
3BAD
330
3B96
100
AcDbEntity
  8
0
  0
ENDBLK
  5
3BAE
330
3B56
100
AcDbEntity
  8
0
100
AcDbBlockEnd
  0
BLOCK
  5
45CA
330
45BF
100
AcDbEntity
  8
0
100
AcDbBlockBegin
  2
*D1
 70
     1
 10
0.0
 20
0.0
 30
0.0
  3
*D1
  1

  0
LINE
  5
46E0
330
45BF
100
AcDbEntity
  8
DIM
 62
     0
370
    -2
100
AcDbLine
 10
16.08750369584038
 20
52.06725662441943
 30
0.0
 11
16.08750369584038
 21
47.00792948608978
 31
0.0
  0
LINE
  5
46E1
330
45BF
100
AcDbEntity
  8
DIM
 62
     0
370
    -2
100
AcDbLine
 10
64.08750369584038
 20
52.06725662441943
 30
0.0
 11
64.08750369584038
 21
47.00792948608978
 31
0.0
  0
LINE
  5
46E2
330
45BF
100
AcDbEntity
  8
DIM
 62
     0
370
    -2
100
AcDbLine
 10
16.26750369584038
 20
47.18792948608978
 30
0.0
 11
34.66417036250705
 21
47.18792948608978
 31
0.0
  0
LINE
  5
46E3
330
45BF
100
AcDbEntity
  8
DIM
 62
     0
370
    -2
100
AcDbLine
 10
63.90750369584038
 20
47.18792948608978
 30
0.0
 11
45.51083702917371
 21
47.18792948608978
 31
0.0
  0
SOLID
  5
46E4
330
45BF
100
AcDbEntity
  8
DIM
 62
     0
100
AcDbTrace
 10
16.26750369584038
 20
47.21792948608978
 30
0.0
 11
16.26750369584038
 21
47.15792948608978
 31
0.0
 12
16.08750369584038
 22
47.18792948608978
 32
0.0
 13
16.08750369584038
 23
47.18792948608978
 33
0.0
  0
SOLID
  5
46E5
330
45BF
100
AcDbEntity
  8
DIM
 62
     0
100
AcDbTrace
 10
63.90750369584038
 20
47.21792948608978
 30
0.0
 11
63.90750369584038
 21
47.15792948608978
 31
0.0
 12
64.08750369584038
 22
47.18792948608978
 32
0.0
 13
64.08750369584038
 23
47.18792948608978
 33
0.0
  0
MTEXT
  5
46E6
330
45BF
100
AcDbEntity
  8
DIM
 62
     0
100
AcDbMText
 10
40.08750369584038
 20
47.18792948608978
 30
0.0
 40
2.0
 41
0.0
 71
     5
 72
     1
  1
\A1;48.0000
 73
     1
 44
1.0
  0
POINT
  5
46E7
330
45BF
100
AcDbEntity
  8
Defpoints
 62
     0
100
AcDbPoint
 10
16.08750369584038
 20
52.12975662441943
 30
0.0
  0
POINT
  5
46E8
330
45BF
100
AcDbEntity
  8
Defpoints
 62
     0
100
AcDbPoint
 10
64.08750369584038
 20
52.12975662441943
 30
0.0
  0
POINT
  5
46E9
330
45BF
100
AcDbEntity
  8
Defpoints
 62
     0
100
AcDbPoint
 10
64.08750369584038
 20
47.18792948608978
 30
0.0
  0
ENDBLK
  5
45CB
330
45BF
100
AcDbEntity
  8
0
100
AcDbBlockEnd
  0
BLOCK
  5
4674
330
4669
100
AcDbEntity
  8
0
100
AcDbBlockBegin
  2
*D2
 70
     1
 10
0.0
 20
0.0
 30
0.0
  3
*D2
  1

  0
LINE
  5
46F4
330
4669
100
AcDbEntity
  8
DIM
 62
     0
370
    -2
100
AcDbLine
 10
82.3657563084949
 20
60.12975662441943
 30
0.0
 11
88.65357645871338
 21
60.12975662441943
 31
0.0
  0
LINE
  5
46F5
330
4669
100
AcDbEntity
  8
DIM
 62
     0
370
    -2
100
AcDbLine
 10
82.36575630849488
 20
52.12975662441943
 30
0.0
 11
88.65357645871338
 21
52.12975662441943
 31
0.0
  0
LINE
  5
46F6
330
4669
100
AcDbEntity
  8
DIM
 62
     0
370
    -2
100
AcDbLine
 10
88.47357645871339
 20
59.94975662441943
 30
0.0
 11
88.47357645871339
 21
52.30975662441943
 31
0.0
  0
LINE
  5
46F7
330
4669
100
AcDbEntity
  8
DIM
 62
     0
370
    -2
100
AcDbLine
 10
88.47357645871339
 20
52.12975662441943
 30
0.0
 11
88.47357645871339
 21
51.94975662441943
 31
0.0
  0
SOLID
  5
46F8
330
4669
100
AcDbEntity
  8
DIM
 62
     0
100
AcDbTrace
 10
88.44357645871339
 20
59.94975662441943
 30
0.0
 11
88.50357645871339
 21
59.94975662441943
 31
0.0
 12
88.47357645871339
 22
60.12975662441943
 32
0.0
 13
88.47357645871339
 23
60.12975662441943
 33
0.0
  0
SOLID
  5
46F9
330
4669
100
AcDbEntity
  8
DIM
 62
     0
100
AcDbTrace
 10
88.44357645871339
 20
52.30975662441943
 30
0.0
 11
88.50357645871339
 21
52.30975662441943
 31
0.0
 12
88.47357645871339
 22
52.12975662441943
 32
0.0
 13
88.47357645871339
 23
52.12975662441943
 33
0.0
  0
MTEXT
  5
46FA
330
4669
100
AcDbEntity
  8
DIM
 62
     0
100
AcDbMText
 10
88.47357645871337
 20
47.52642329108611
 30
0.0
 40
2.0
 41
0.0
 71
     5
 72
     1
  1
\A1;8.0000
 11
0.0000000000000001
 21
1.0
 31
0.0
 73
     1
 44
1.0
  0
POINT
  5
46FB
330
4669
100
AcDbEntity
  8
Defpoints
 62
     0
100
AcDbPoint
 10
82.3032563084949
 20
60.12975662441943
 30
0.0
  0
POINT
  5
46FC
330
4669
100
AcDbEntity
  8
Defpoints
 62
     0
100
AcDbPoint
 10
82.30325630849488
 20
52.12975662441943
 30
0.0
  0
POINT
  5
46FD
330
4669
100
AcDbEntity
  8
Defpoints
 62
     0
100
AcDbPoint
 10
88.47357645871339
 20
52.12975662441943
 30
0.0
  0
ENDBLK
  5
4675
330
4669
100
AcDbEntity
  8
0
100
AcDbBlockEnd
  0
BLOCK
  5
4682
330
4677
100
AcDbEntity
  8
0
100
AcDbBlockBegin
  2
*D3
 70
     1
 10
0.0
 20
0.0
 30
0.0
  3
*D3
  1

  0
LINE
  5
46EA
330
4677
100
AcDbEntity
  8
DIM
 62
     0
370
    -2
100
AcDbLine
 10
81.30325630849489
 20
52.06725662441943
 30
0.0
 11
81.30325630849489
 21
47.69487201122261
 31
0.0
  0
LINE
  5
46EB
330
4677
100
AcDbEntity
  8
DIM
 62
     0
370
    -2
100
AcDbLine
 10
75.30325630849489
 20
52.06725662441943
 30
0.0
 11
75.30325630849489
 21
47.69487201122261
 31
0.0
  0
LINE
  5
46EC
330
4677
100
AcDbEntity
  8
DIM
 62
     0
370
    -2
100
AcDbLine
 10
81.12325630849488
 20
47.87487201122261
 30
0.0
 11
75.4832563084949
 21
47.87487201122261
 31
0.0
  0
LINE
  5
46ED
330
4677
100
AcDbEntity
  8
DIM
 62
     0
370
    -2
100
AcDbLine
 10
75.30325630849489
 20
47.87487201122261
 30
0.0
 11
75.12325630849488
 21
47.87487201122261
 31
0.0
  0
SOLID
  5
46EE
330
4677
100
AcDbEntity
  8
DIM
 62
     0
100
AcDbTrace
 10
81.12325630849488
 20
47.90487201122261
 30
0.0
 11
81.12325630849488
 21
47.84487201122261
 31
0.0
 12
81.30325630849489
 22
47.87487201122261
 32
0.0
 13
81.30325630849489
 23
47.87487201122261
 33
0.0
  0
SOLID
  5
46EF
330
4677
100
AcDbEntity
  8
DIM
 62
     0
100
AcDbTrace
 10
75.4832563084949
 20
47.90487201122261
 30
0.0
 11
75.4832563084949
 21
47.84487201122261
 31
0.0
 12
75.30325630849489
 22
47.87487201122261
 32
0.0
 13
75.30325630849489
 23
47.87487201122261
 33
0.0
  0
MTEXT
  5
46F0
330
4677
100
AcDbEntity
  8
DIM
 62
     0
100
AcDbMText
 10
70.69992297516155
 20
47.87487201122261
 30
0.0
 40
2.0
 41
0.0
 71
     5
 72
     1
  1
\A1;6.0000
 73
     1
 44
1.0
  0
POINT
  5
46F1
330
4677
100
AcDbEntity
  8
Defpoints
 62
     0
100
AcDbPoint
 10
81.30325630849489
 20
52.12975662441943
 30
0.0
  0
POINT
  5
46F2
330
4677
100
AcDbEntity
  8
Defpoints
 62
     0
100
AcDbPoint
 10
75.30325630849489
 20
52.12975662441943
 30
0.0
  0
POINT
  5
46F3
330
4677
100
AcDbEntity
  8
Defpoints
 62
     0
100
AcDbPoint
 10
75.30325630849489
 20
47.87487201122261
 30
0.0
  0
ENDBLK
  5
4683
330
4677
100
AcDbEntity
  8
0
100
AcDbBlockEnd
  0
ENDSEC
  0
SECTION
  2
ENTITIES
  0
LINE
  5
45AA
330
18
100
AcDbEntity
  8
0
100
AcDbLine
 10
16.08750369584038
 20
52.12975662441943
 30
0.0
 11
64.08750369584038
 21
52.12975662441943
 31
0.0
  0
LINE
  5
45AC
330
18
100
AcDbEntity
  8
0
100
AcDbLine
 10
13.08750369584038
 20
58.12975662441942
 30
0.0
 11
13.08750369584038
 21
60.12975662441943
 31
0.0
  0
ARC
  5
45AD
330
18
100
AcDbEntity
  8
0
100
AcDbCircle
 10
9.272861019890436
 20
52.47243528644447
 30
0.0
 40
6.823253143939874
100
AcDbArc
 50
357.1212699062139
 51
56.00883244794169
  0
LINE
  5
45AF
330
18
100
AcDbEntity
  8
0
100
AcDbLine
 10
13.08750369584038
 20
60.12975662441943
 30
0.0
 11
67.08750369584037
 21
60.12975662441943
 31
0.0
  0
DIMENSION
  5
45BE
330
18
100
AcDbEntity
  8
DIM
100
AcDbDimension
  2
*D1
 10
64.08750369584038
 20
47.18792948608978
 30
0.0
 11
40.08750369584038
 21
47.18792948608978
 31
0.0
 70
    32
 71
     5
 42
48.0
  3
STANDARD
100
AcDbAlignedDimension
 13
16.08750369584038
 23
52.12975662441943
 33
0.0
 14
64.08750369584038
 24
52.12975662441943
 34
0.0
100
AcDbRotatedDimension
  0
ARC
  5
45D5
330
18
100
AcDbEntity
  8
0
100
AcDbCircle
 10
70.9021463717903
 20
52.47243528644446
 30
0.0
 40
6.823253143939874
100
AcDbArc
 50
123.9911675520582
 51
182.878730093786
  0
LINE
  5
45D6
330
18
100
AcDbEntity
  8
0
100
AcDbLine
 10
67.08750369584037
 20
58.12975662441942
 30
0.0
 11
67.08750369584037
 21
60.12975662441943
 31
0.0
  0
LINE
  5
45E5
330
18
100
AcDbEntity
  8
0
100
AcDbLine
 10
73.3032563084949
 20
60.12975662441943
 30
0.0
 11
73.3032563084949
 21
58.12975662441942
 31
0.0
  0
LINE
  5
4657
330
18
100
AcDbEntity
  8
0
100
AcDbLine
 10
81.30325630849489
 20
60.12975662441943
 30
0.0
 11
75.30325630849489
 21
60.12975662441943
 31
0.0
  0
LINE
  5
4658
330
18
100
AcDbEntity
  8
0
100
AcDbLine
 10
81.30325630849489
 20
53.12975662441942
 30
0.0
 11
75.30325630849489
 21
53.12975662441942
 31
0.0
  0
LINE
  5
4659
330
18
100
AcDbEntity
  8
0
100
AcDbLine
 10
81.30325630849489
 20
52.12975662441943
 30
0.0
 11
75.30325630849489
 21
52.12975662441943
 31
0.0
  0
LINE
  5
465A
330
18
100
AcDbEntity
  8
0
100
AcDbLine
 10
81.30325630849489
 20
52.12975662441943
 30
0.0
 11
81.30325630849489
 21
60.12975662441943
 31
0.0
  0
LINE
  5
465B
330
18
100
AcDbEntity
  8
0
100
AcDbLine
 10
82.3032563084949
 20
60.12975662441943
 30
0.0
 11
82.3032563084949
 21
52.12975662441943
 31
0.0
  0
LINE
  5
465C
330
18
100
AcDbEntity
  8
0
100
AcDbLine
 10
81.30325630849489
 20
52.12975662441943
 30
0.0
 11
81.30325630849489
 21
53.12975662441942
 31
0.0
  0
LINE
  5
465D
330
18
100
AcDbEntity
  8
0
100
AcDbLine
 10
82.3032563084949
 20
52.12975662441943
 30
0.0
 11
81.30325630849489
 21
52.12975662441943
 31
0.0
  0
LINE
  5
465E
330
18
100
AcDbEntity
  8
0
100
AcDbLine
 10
82.3032563084949
 20
60.12975662441943
 30
0.0
 11
81.30325630849489
 21
60.12975662441943
 31
0.0
  0
LINE
  5
465F
330
18
100
AcDbEntity
  8
0
100
AcDbLine
 10
74.30325630849489
 20
58.12975662441942
 30
0.0
 11
74.30325630849489
 21
52.12975662441943
 31
0.0
  0
LINE
  5
4660
330
18
100
AcDbEntity
  8
0
100
AcDbLine
 10
75.30325630849489
 20
52.12975662441943
 30
0.0
 11
75.30325630849489
 21
58.12975662441942
 31
0.0
  0
LINE
  5
4661
330
18
100
AcDbEntity
  8
0
100
AcDbLine
 10
74.30325630849489
 20
52.12975662441943
 30
0.0
 11
75.30325630849489
 21
52.12975662441943
 31
0.0
  0
LINE
  5
4662
330
18
100
AcDbEntity
  8
0
100
AcDbLine
 10
73.3032563084949
 20
58.12975662441942
 30
0.0
 11
75.30325630849489
 21
58.12975662441942
 31
0.0
  0
LINE
  5
4664
330
18
100
AcDbEntity
  8
0
100
AcDbLine
 10
75.30325630849489
 20
60.12975662441943
 30
0.0
 11
73.3032563084949
 21
60.12975662441943
 31
0.0
  0
LINE
  5
4665
330
18
100
AcDbEntity
  8
0
100
AcDbLine
 10
75.30325630849489
 20
58.12975662441942
 30
0.0
 11
75.30325630849489
 21
60.12975662441943
 31
0.0
  0
LINE
  5
4666
330
18
100
AcDbEntity
  8
0
100
AcDbLine
 10
75.30325630849489
 20
58.12975662441942
 30
0.0
 11
74.30325630849489
 21
58.12975662441942
 31
0.0
  0
LINE
  5
4667
330
18
100
AcDbEntity
  8
0
100
AcDbLine
 10
13.0875036958404
 20
58.12975662441942
 30
0.0
 11
67.08750369584035
 21
58.12975662441942
 31
0.0
  0
DIMENSION
  5
4668
330
18
100
AcDbEntity
  8
DIM
100
AcDbDimension
  2
*D2
 10
88.47357645871339
 20
52.12975662441943
 30
0.0
 11
88.47357645871337
 21
47.52642329108611
 31
0.0
 70
    32
 71
     5
 42
8.0
  3
STANDARD
100
AcDbAlignedDimension
 13
82.3032563084949
 23
60.12975662441943
 33
0.0
 14
82.30325630849488
 24
52.12975662441943
 34
0.0
 50
90.0
100
AcDbRotatedDimension
  0
DIMENSION
  5
4676
330
18
100
AcDbEntity
  8
DIM
100
AcDbDimension
  2
*D3
 10
75.30325630849489
 20
47.87487201122261
 30
0.0
 11
70.69992297516155
 21
47.87487201122261
 31
0.0
 70
    32
 71
     5
 42
6.0
  3
STANDARD
100
AcDbAlignedDimension
 13
81.30325630849489
 23
52.12975662441943
 33
0.0
 14
75.30325630849489
 24
52.12975662441943
 34
0.0
100
AcDbRotatedDimension
  0
LINE
  5
4685
330
18
100
AcDbEntity
  8
0
100
AcDbLine
 10
13.08750369584038
 20
70.06800142509323
 30
0.0
 11
13.08750369584038
 21
78.06800142509323
 31
0.0
  0
LINE
  5
4686
330
18
100
AcDbEntity
  8
0
100
AcDbLine
 10
13.08750369584038
 20
70.06800142509323
 30
0.0
 11
67.08750369584037
 21
70.06800142509323
 31
0.0
  0
LINE
  5
4687
330
18
100
AcDbEntity
  8
0
100
AcDbLine
 10
13.08750369584038
 20
78.06800142509323
 30
0.0
 11
67.08750369584037
 21
78.06800142509323
 31
0.0
  0
LINE
  5
4688
330
18
100
AcDbEntity
  8
0
100
AcDbLine
 10
13.08750369584038
 20
78.06800142509323
 30
0.0
 11
13.08750369584038
 21
77.06800142509322
 31
0.0
  0
LINE
  5
4689
330
18
100
AcDbEntity
  8
0
100
AcDbLine
 10
13.08750369584038
 20
77.06800142509322
 30
0.0
 11
67.08750369584037
 21
77.06800142509322
 31
0.0
  0
LINE
  5
468A
330
18
100
AcDbEntity
  8
0
100
AcDbLine
 10
13.08750369584038
 20
70.06800142509323
 30
0.0
 11
13.08750369584038
 21
71.06800142509323
 31
0.0
  0
LINE
  5
468B
330
18
100
AcDbEntity
  8
0
100
AcDbLine
 10
13.08750369584038
 20
71.06800142509323
 30
0.0
 11
67.08750369584037
 21
71.06800142509323
 31
0.0
  0
LINE
  5
468C
330
18
100
AcDbEntity
  8
0
100
AcDbLine
 10
13.08750369584038
 20
70.06800142509323
 30
0.0
 11
14.08750369584038
 21
70.06800142509323
 31
0.0
  0
LINE
  5
468D
330
18
100
AcDbEntity
  8
0
100
AcDbLine
 10
14.08750369584038
 20
71.06800142509323
 30
0.0
 11
14.08750369584038
 21
77.06800142509322
 31
0.0
  0
LINE
  5
468E
330
18
100
AcDbEntity
  8
0
100
AcDbLine
 10
16.08750369584037
 20
71.06800142509323
 30
0.0
 11
16.08750369584037
 21
77.06800142509322
 31
0.0
  0
LINE
  5
4699
330
18
100
AcDbEntity
  8
0
100
AcDbLine
 10
64.08750369584038
 20
71.06800142509323
 30
0.0
 11
64.08750369584038
 21
77.06800142509322
 31
0.0
  0
LINE
  5
469B
330
18
100
AcDbEntity
  8
0
100
AcDbLine
 10
66.08750369584036
 20
71.06800142509323
 30
0.0
 11
66.08750369584036
 21
77.06800142509322
 31
0.0
  0
LINE
  5
469C
330
18
100
AcDbEntity
  8
0
100
AcDbLine
 10
67.08750369584037
 20
70.06800142509323
 30
0.0
 11
67.08750369584037
 21
78.06800142509323
 31
0.0
  0
MTEXT
  5
469D
330
18
100
AcDbEntity
  8
TITRES
100
AcDbMText
 10
13.4139869763205
 20
82.38024844549519
 30
0.0
 40
1.5
 41
50.0106319110447
 71
     1
 72
     5
  1
Vue du dessus / Top View
 73
     1
 44
1.0
  0
MTEXT
  5
46A4
330
18
100
AcDbEntity
  8
TITRES
100
AcDbMText
 10
13.08750369584038
 20
63.7441221994249
 30
0.0
 40
1.5
 41
50.0106319110447
 71
     1
 72
     5
  1
Vue de face / Front View
 73
     1
 44
1.0
  0
MTEXT
  5
46AB
330
18
100
AcDbEntity
  8
TITRES
100
AcDbMText
 10
73.3032563084949
 20
65.71009064196475
 30
0.0
 40
1.5
 41
50.0106319110447
 71
     1
 72
     5
  1
Vue de profil /\PSide View
 73
     1
 44
1.0
  0
VIEWPORT
  5
4654
330
464D
100
AcDbEntity
 67
     1
  8
0
100
AcDbViewport
 10
133.3499908447265
 20
101.5999970436096
 30
0.0
 40
446.7317887782482
 41
228.4714005465898
 68
     2
 69
     1
 12
133.3499908447265
 22
101.5999970436096
 13
0.0
 23
0.0
 14
10.0
 24
10.0
 15
10.0
 25
10.0
 16
0.0
 26
0.0
 36
1.0
 17
0.0
 27
0.0
 37
0.0
 42
50.0
 43
0.0
 44
0.0
 45
228.4714005465898
 50
0.0
 51
0.0
 72
   100
 90
    32800
  1

281
     0
 71
     1
 74
     0
110
0.0
120
0.0
130
0.0
111
1.0
121
0.0
131
0.0
112
0.0
122
1.0
132
0.0
 79
     0
146
0.0
170
     0
  0
VIEWPORT
  5
4656
330
464D
100
AcDbEntity
 67
     1
  8
0
100
AcDbViewport
 10
133.3499939441681
 20
101.5999939441681
 30
0.0
 40
213.3599903106689
 41
162.5599903106689
 68
     1
 69
     2
 12
51.26660946776546
 22
62.0081673479413
 13
0.0
 23
0.0
 14
10.0
 24
10.0
 15
10.0
 25
10.0
 16
0.0
 26
0.0
 36
1.0
 17
0.0
 27
0.0
 37
0.0
 42
50.0
 43
0.0
 44
0.0
 45
68.89542950862234
 50
0.0
 51
0.0
 72
   100
 90
    32800
  1

281
     0
 71
     1
 74
     0
110
0.0
120
0.0
130
0.0
111
1.0
121
0.0
131
0.0
112
0.0
122
1.0
132
0.0
 79
     0
146
0.0
170
     0
  0
ENDSEC
  0
SECTION
  2
OBJECTS
  0
DICTIONARY
  5
C
330
0
100
AcDbDictionary
281
     1
  3
ACAD_COLOR
350
3BB8
  3
ACAD_GROUP
350
D
  3
ACAD_IMAGE_DICT
350
21
  3
ACAD_IMAGE_VARS
350
20
  3
ACAD_LAYOUT
350
3BB9
  3
ACAD_MATERIAL
350
3BB7
  3
ACAD_MLINESTYLE
350
1B
  3
ACAD_PLOTSETTINGS
350
3BBA
  3
ACAD_PLOTSTYLENAME
350
3BB5
  3
ACDBVARIABLEDICTIONARY
350
34D4
  0
DICTIONARY
  5
3BB8
102
{ACAD_REACTORS
330
C
102
}
330
C
100
AcDbDictionary
281
     1
  0
DICTIONARY
  5
D
102
{ACAD_REACTORS
330
C
102
}
330
C
100
AcDbDictionary
281
     1
  0
DICTIONARY
  5
21
102
{ACAD_REACTORS
330
C
102
}
330
C
100
AcDbDictionary
281
     1
  3
3304-1
350
22
  3
3304-1B
350
1C41
  3
3304-2
350
25
  3
3304-2B
350
1C44
  3
3304-3
350
28
  3
3304-3B
350
1C47
  0
RASTERVARIABLES
  5
20
102
{ACAD_REACTORS
330
C
102
}
330
C
100
AcDbRasterVariables
 90
        0
 70
     1
 71
     1
 72
     0
  0
DICTIONARY
  5
3BB9
102
{ACAD_REACTORS
330
C
102
}
330
C
100
AcDbDictionary
281
     1
  3
Layout1
350
464E
  3
Model
350
3BBB
  0
DICTIONARY
  5
3BB7
102
{ACAD_REACTORS
330
C
102
}
330
C
100
AcDbDictionary
281
     1
  0
DICTIONARY
  5
1B
102
{ACAD_REACTORS
330
C
102
}
330
C
100
AcDbDictionary
281
     1
  3
STANDARD
350
1C
  0
DICTIONARY
  5
3BBA
102
{ACAD_REACTORS
330
C
102
}
330
C
100
AcDbDictionary
281
     1
  0
ACDBDICTIONARYWDFLT
  5
3BB5
102
{ACAD_REACTORS
330
C
102
}
330
C
100
AcDbDictionary
281
     1
  3
Normal
350
3BB6
100
AcDbDictionaryWithDefault
340
3BB6
  0
DICTIONARY
  5
34D4
102
{ACAD_REACTORS
330
C
102
}
330
C
100
AcDbDictionary
281
     1
  3
SORTENTS
350
34D5
  0
IMAGEDEF
  5
22
102
{ACAD_REACTORS
330
21
102
}
330
21
100
AcDbRasterImageDef
 90
        0
  1
U:\TPDWG\MichelQ\3304-1.tif
 10
2243.0
 20
3009.0
 11
0.0705555555555556
 21
0.0705555555555556
280
     1
281
     5
  0
IMAGEDEF
  5
1C41
102
{ACAD_REACTORS
330
21
102
}
330
21
100
AcDbRasterImageDef
 90
        0
  1
U:\TPDWG\MichelQ\3304-1b.TIF
 10
2202.0
 20
2931.0
 11
0.0705555555555556
 21
0.0705555555555556
280
     1
281
     5
  0
IMAGEDEF
  5
25
102
{ACAD_REACTORS
330
21
102
}
330
21
100
AcDbRasterImageDef
 90
        0
  1
U:\TPDWG\MichelQ\3304-2.tif
 10
2243.0
 20
3009.0
 11
0.0705555555555556
 21
0.0705555555555556
280
     1
281
     5
  0
IMAGEDEF
  5
1C44
102
{ACAD_REACTORS
330
21
102
}
330
21
100
AcDbRasterImageDef
 90
        0
  1
U:\TPDWG\MichelQ\3304-2b.TIF
 10
2202.0
 20
2931.0
 11
0.0705555555555556
 21
0.0705555555555556
280
     1
281
     5
  0
IMAGEDEF
  5
28
102
{ACAD_REACTORS
330
21
102
}
330
21
100
AcDbRasterImageDef
 90
        0
  1
U:\TPDWG\MichelQ\3304-3.tif
 10
2243.0
 20
3009.0
 11
0.0705555555555556
 21
0.0705555555555556
280
     1
281
     5
  0
IMAGEDEF
  5
1C47
102
{ACAD_REACTORS
330
21
102
}
330
21
100
AcDbRasterImageDef
 90
        0
  1
U:\TPDWG\MichelQ\3304-3b.TIF
 10
2202.0
 20
2931.0
 11
0.0705555555555556
 21
0.0705555555555556
280
     1
281
     5
  0
LAYOUT
  5
464E
102
{ACAD_REACTORS
330
3BB9
102
}
330
3BB9
100
AcDbPlotSettings
  1

  2
none_device
  4
Letter_(8.50_x_11.00_Inches)
  6

 40
6.349999904632568
 41
6.349999904632568
 42
6.350006103515625
 43
6.350006103515625
 44
215.8999938964844
 45
279.3999938964844
 46
0.0
 47
0.0
 48
0.0
 49
0.0
140
0.0
141
0.0
142
1.0
143
1.0
 70
   688
 72
     1
 73
     1
 74
     5
  7

 75
    16
147
1.0
 76
     1
 77
     2
 78
   300
148
0.0
149
0.0
100
AcDbLayout
  1
Layout1
 70
     1
 71
     1
 10
-6.350006103515625
 20
-6.349999904632568
 11
273.0499877929688
 21
209.5499939918518
 12
0.0
 22
0.0
 32
0.0
 14
26.66999878883363
 24
20.31999878883363
 34
0.0
 15
240.0299890995026
 25
182.8799890995025
 35
0.0
146
0.0
 13
0.0
 23
0.0
 33
0.0
 16
1.0
 26
0.0
 36
0.0
 17
0.0
 27
1.0
 37
0.0
 76
     0
330
464D
331
4656
  0
LAYOUT
  5
3BBB
102
{ACAD_REACTORS
330
3BB9
102
}
330
3BB9
100
AcDbPlotSettings
  1

  2
None
  4

  6

 40
0.0
 41
0.0
 42
0.0
 43
0.0
 44
0.0
 45
0.0
 46
0.0
 47
0.0
 48
0.0
 49
0.0
140
0.0
141
0.0
142
1.0
143
1.0
 70
  1712
 72
     0
 73
     0
 74
     0
  7

 75
     0
147
1.0
 76
     0
 77
     2
 78
   300
148
0.0
149
0.0
100
AcDbLayout
  1
Model
 70
     1
 71
     0
 10
0.0
 20
0.0
 11
12.0
 21
9.0
 12
0.0
 22
0.0
 32
0.0
 14
0.0
 24
0.0
 34
0.0
 15
0.0
 25
0.0
 35
0.0
146
0.0
 13
0.0
 23
0.0
 33
0.0
 16
1.0
 26
0.0
 36
0.0
 17
0.0
 27
1.0
 37
0.0
 76
     0
330
18
  0
MLINESTYLE
  5
1C
102
{ACAD_REACTORS
330
1B
102
}
330
1B
100
AcDbMlineStyle
  2
STANDARD
 70
     0
  3

 62
   256
 51
90.0
 52
90.0
 71
     2
 49
0.5
 62
   256
  6
BYLAYER
 49
-0.5
 62
   256
  6
BYLAYER
  0
ACDBPLACEHOLDER
  5
3BB6
102
{ACAD_REACTORS
330
3BB5
102
}
330
3BB5
  0
DICTIONARYVAR
  5
34D5
102
{ACAD_REACTORS
330
34D4
102
}
330
34D4
100
DictionaryVariables
280
     0
  1
96
  0
ENDSEC
  0
EOF
