  0
SECTION
  2
HEADER
  9
$ACADVER
  1
AC1018
  9
$ACADMAINTVER
 70
     0
  9
$DWGCODEPAGE
  3
ANSI_1252
  9
$INSBASE
 10
0.0
 20
0.0
 30
0.0
  9
$EXTMIN
 10
-18.26226182010654
 20
8.223631958715344
 30
0.0
  9
$EXTMAX
 10
9.458208404069976
 20
21.91326316628641
 30
0.0
  9
$LIMMIN
 10
0.0
 20
0.0
  9
$LIMMAX
 10
12.0
 20
9.0
  9
$ORTHOMODE
 70
     0
  9
$REGENMODE
 70
     1
  9
$FILLMODE
 70
     1
  9
$QTEXTMODE
 70
     0
  9
$MIRRTEXT
 70
     1
  9
$LTSCALE
 40
1.0
  9
$ATTMODE
 70
     1
  9
$TEXTSIZE
 40
0.2
  9
$TRACEWID
 40
0.05
  9
$TEXTSTYLE
  7
STANDARD
  9
$CLAYER
  8
0
  9
$CELTYPE
  6
BYLAYER
  9
$CECOLOR
 62
   256
  9
$CELTSCALE
 40
1.0
  9
$DISPSILH
 70
     0
  9
$DIMSCALE
 40
1.0
  9
$DIMASZ
 40
0.18
  9
$DIMEXO
 40
0.0625
  9
$DIMDLI
 40
0.38
  9
$DIMRND
 40
0.0
  9
$DIMDLE
 40
0.0
  9
$DIMEXE
 40
0.18
  9
$DIMTP
 40
0.0
  9
$DIMTM
 40
0.0
  9
$DIMTXT
 40
1.5
  9
$DIMCEN
 40
0.09
  9
$DIMTSZ
 40
0.0
  9
$DIMTOL
 70
     0
  9
$DIMLIM
 70
     0
  9
$DIMTIH
 70
     1
  9
$DIMTOH
 70
     1
  9
$DIMSE1
 70
     0
  9
$DIMSE2
 70
     0
  9
$DIMTAD
 70
     0
  9
$DIMZIN
 70
     0
  9
$DIMBLK
  1

  9
$DIMASO
 70
     1
  9
$DIMSHO
 70
     1
  9
$DIMPOST
  1

  9
$DIMAPOST
  1

  9
$DIMALT
 70
     0
  9
$DIMALTD
 70
     2
  9
$DIMALTF
 40
25.4
  9
$DIMLFAC
 40
1.0
  9
$DIMTOFL
 70
     0
  9
$DIMTVP
 40
0.0
  9
$DIMTIX
 70
     0
  9
$DIMSOXD
 70
     0
  9
$DIMSAH
 70
     0
  9
$DIMBLK1
  1

  9
$DIMBLK2
  1

  9
$DIMSTYLE
  2
STANDARD
  9
$DIMCLRD
 70
     0
  9
$DIMCLRE
 70
     0
  9
$DIMCLRT
 70
     0
  9
$DIMTFAC
 40
1.0
  9
$DIMGAP
 40
0.09
  9
$DIMJUST
 70
     0
  9
$DIMSD1
 70
     0
  9
$DIMSD2
 70
     0
  9
$DIMTOLJ
 70
     1
  9
$DIMTZIN
 70
     0
  9
$DIMALTZ
 70
     0
  9
$DIMALTTZ
 70
     0
  9
$DIMUPT
 70
     0
  9
$DIMDEC
 70
     4
  9
$DIMTDEC
 70
     4
  9
$DIMALTU
 70
     2
  9
$DIMALTTD
 70
     2
  9
$DIMTXSTY
  7
STANDARD
  9
$DIMAUNIT
 70
     0
  9
$DIMADEC
 70
     0
  9
$DIMALTRND
 40
0.0
  9
$DIMAZIN
 70
     0
  9
$DIMDSEP
 70
    46
  9
$DIMATFIT
 70
     3
  9
$DIMFRAC
 70
     0
  9
$DIMLDRBLK
  1

  9
$DIMLUNIT
 70
     2
  9
$DIMLWD
 70
    -2
  9
$DIMLWE
 70
    -2
  9
$DIMTMOVE
 70
     0
  9
$LUNITS
 70
     4
  9
$LUPREC
 70
     4
  9
$SKETCHINC
 40
0.1
  9
$FILLETRAD
 40
0.1875
  9
$AUNITS
 70
     0
  9
$AUPREC
 70
     0
  9
$MENU
  1
.
  9
$ELEVATION
 40
0.0
  9
$PELEVATION
 40
0.0
  9
$THICKNESS
 40
0.0
  9
$LIMCHECK
 70
     0
  9
$CHAMFERA
 40
0.5
  9
$CHAMFERB
 40
0.5
  9
$CHAMFERC
 40
1.0
  9
$CHAMFERD
 40
0.0
  9
$SKPOLY
 70
     0
  9
$TDCREATE
 40
2451160.360457639
  9
$TDUCREATE
 40
2451160.527124306
  9
$TDUPDATE
 40
2453524.503793588
  9
$TDUUPDATE
 40
2453524.670460255
  9
$TDINDWG
 40
0.5990236690
  9
$TDUSRTIMER
 40
0.5990236690
  9
$USRTIMER
 70
     1
  9
$ANGBASE
 50
0.0
  9
$ANGDIR
 70
     0
  9
$PDMODE
 70
     3
  9
$PDSIZE
 40
1.0
  9
$PLINEWID
 40
0.0
  9
$SPLFRAME
 70
     0
  9
$SPLINETYPE
 70
     6
  9
$SPLINESEGS
 70
     8
  9
$HANDSEED
  5
1467C
  9
$SURFTAB1
 70
     6
  9
$SURFTAB2
 70
     6
  9
$SURFTYPE
 70
     6
  9
$SURFU
 70
     6
  9
$SURFV
 70
     6
  9
$UCSBASE
  2

  9
$UCSNAME
  2

  9
$UCSORG
 10
0.0
 20
0.0
 30
0.0
  9
$UCSXDIR
 10
1.0
 20
0.0
 30
0.0
  9
$UCSYDIR
 10
0.0
 20
1.0
 30
0.0
  9
$UCSORTHOREF
  2

  9
$UCSORTHOVIEW
 70
     0
  9
$UCSORGTOP
 10
0.0
 20
0.0
 30
0.0
  9
$UCSORGBOTTOM
 10
0.0
 20
0.0
 30
0.0
  9
$UCSORGLEFT
 10
0.0
 20
0.0
 30
0.0
  9
$UCSORGRIGHT
 10
0.0
 20
0.0
 30
0.0
  9
$UCSORGFRONT
 10
0.0
 20
0.0
 30
0.0
  9
$UCSORGBACK
 10
0.0
 20
0.0
 30
0.0
  9
$PUCSBASE
  2

  9
$PUCSNAME
  2

  9
$PUCSORG
 10
0.0
 20
0.0
 30
0.0
  9
$PUCSXDIR
 10
1.0
 20
0.0
 30
0.0
  9
$PUCSYDIR
 10
0.0
 20
1.0
 30
0.0
  9
$PUCSORTHOREF
  2

  9
$PUCSORTHOVIEW
 70
     0
  9
$PUCSORGTOP
 10
0.0
 20
0.0
 30
0.0
  9
$PUCSORGBOTTOM
 10
0.0
 20
0.0
 30
0.0
  9
$PUCSORGLEFT
 10
0.0
 20
0.0
 30
0.0
  9
$PUCSORGRIGHT
 10
0.0
 20
0.0
 30
0.0
  9
$PUCSORGFRONT
 10
0.0
 20
0.0
 30
0.0
  9
$PUCSORGBACK
 10
0.0
 20
0.0
 30
0.0
  9
$USERI1
 70
     0
  9
$USERI2
 70
     0
  9
$USERI3
 70
     0
  9
$USERI4
 70
     0
  9
$USERI5
 70
     0
  9
$USERR1
 40
0.0
  9
$USERR2
 40
0.0
  9
$USERR3
 40
0.0
  9
$USERR4
 40
0.0
  9
$USERR5
 40
0.0
  9
$WORLDVIEW
 70
     1
  9
$SHADEDGE
 70
     3
  9
$SHADEDIF
 70
    70
  9
$TILEMODE
 70
     1
  9
$MAXACTVP
 70
    48
  9
$PINSBASE
 10
0.0
 20
0.0
 30
0.0
  9
$PLIMCHECK
 70
     0
  9
$PEXTMIN
 10
1.049636599258096
 20
0.7996597240971113
 30
-0.0000000349181948
  9
$PEXTMAX
 10
9.450362731076971
 20
7.200340082697458
 30
0.0000000814935746
  9
$PLIMMIN
 10
-0.2500002402958907
 20
-0.2499999962453767
  9
$PLIMMAX
 10
10.74999951940821
 20
8.249999763458731
  9
$UNITMODE
 70
     0
  9
$VISRETAIN
 70
     1
  9
$PLINEGEN
 70
     0
  9
$PSLTSCALE
 70
     1
  9
$TREEDEPTH
 70
  3020
  9
$CMLSTYLE
  2
STANDARD
  9
$CMLJUST
 70
     0
  9
$CMLSCALE
 40
1.0
  9
$PROXYGRAPHICS
 70
     1
  9
$MEASUREMENT
 70
     0
  9
$CELWEIGHT
370
    -1
  9
$ENDCAPS
280
     0
  9
$JOINSTYLE
280
     0
  9
$LWDISPLAY
290
     0
  9
$INSUNITS
 70
     0
  9
$HYPERLINKBASE
  1

  9
$STYLESHEET
  1

  9
$XEDIT
290
     1
  9
$CEPSNTYPE
380
     0
  9
$PSTYLEMODE
290
     1
  9
$FINGERPRINTGUID
  2
{759657D7-AD46-4B3D-A69C-0F71F101034E}
  9
$VERSIONGUID
  2
{0195582F-D370-4F35-8135-0C675473DF71}
  9
$EXTNAMES
290
     1
  9
$PSVPSCALE
 40
0.0
  9
$OLESTARTUP
290
     0
  9
$SORTENTS
280
   127
  9
$INDEXCTL
280
     0
  9
$HIDETEXT
280
     0
  9
$XCLIPFRAME
290
     0
  9
$HALOGAP
280
     0
  9
$OBSCOLOR
 70
   257
  9
$OBSLTYPE
280
     0
  9
$INTERSECTIONDISPLAY
280
     0
  9
$INTERSECTIONCOLOR
 70
   257
  9
$DIMASSOC
280
     1
  9
$PROJECTNAME
  1

  0
ENDSEC
  0
SECTION
  2
CLASSES
  0
CLASS
  1
RASTERVARIABLES
  2
AcDbRasterVariables
  3
ISM
 90
        0
 91
        1
280
     0
281
     0
  0
CLASS
  1
IMAGEDEF
  2
AcDbRasterImageDef
  3
ISM
 90
        0
 91
       14
280
     0
281
     0
  0
CLASS
  1
IMAGEDEF_REACTOR
  2
AcDbRasterImageDefReactor
  3
ISM
 90
        1
 91
        0
280
     0
281
     0
  0
CLASS
  1
IMAGE
  2
AcDbRasterImage
  3
ISM
 90
      127
 91
        0
280
     0
281
     1
  0
CLASS
  1
ACDBDICTIONARYWDFLT
  2
AcDbDictionaryWithDefault
  3
ObjectDBX Classes
 90
        0
 91
        1
280
     0
281
     0
  0
CLASS
  1
SORTENTSTABLE
  2
AcDbSortentsTable
  3
ObjectDBX Classes
 90
        0
 91
        1
280
     0
281
     0
  0
ENDSEC
  0
SECTION
  2
TABLES
  0
TABLE
  2
VPORT
  5
8
330
0
100
AcDbSymbolTable
 70
     2
  0
VPORT
  5
1467B
330
8
100
AcDbSymbolTableRecord
100
AcDbViewportTableRecord
  2
*Active
 70
     0
 10
0.0
 20
0.0
 11
1.0
 21
1.0
 12
-8.472679648828133
 22
14.68935492006304
 13
0.0
 23
0.0
 14
0.5
 24
0.5
 15
0.5
 25
0.5
 16
0.0
 26
0.0
 36
1.0
 17
0.0
 27
0.0
 37
0.0
 40
14.55574585309561
 41
1.955307262569832
 42
50.0
 43
0.0
 44
0.0
 50
0.0
 51
0.0
 71
     0
 72
   100
 73
     1
 74
     1
 75
     0
 76
     0
 77
     0
 78
     0
281
     0
 65
     1
110
0.0
120
0.0
130
0.0
111
1.0
121
0.0
131
0.0
112
0.0
122
1.0
132
0.0
 79
     0
146
0.0
  0
ENDTAB
  0
TABLE
  2
LTYPE
  5
5
330
0
100
AcDbSymbolTable
 70
     2
  0
LTYPE
  5
12
330
5
100
AcDbSymbolTableRecord
100
AcDbLinetypeTableRecord
  2
BYBLOCK
 70
     0
  3

 72
    65
 73
     0
 40
0.0
  0
LTYPE
  5
13
330
5
100
AcDbSymbolTableRecord
100
AcDbLinetypeTableRecord
  2
BYLAYER
 70
     0
  3

 72
    65
 73
     0
 40
0.0
  0
LTYPE
  5
14
330
5
100
AcDbSymbolTableRecord
100
AcDbLinetypeTableRecord
  2
CONTINUOUS
 70
     0
  3
Solid line
 72
    65
 73
     0
 40
0.0
  0
LTYPE
  5
14586
330
5
100
AcDbSymbolTableRecord
100
AcDbLinetypeTableRecord
  2
DASHED
 70
     0
  3
Dashed __ __ __ __ __ __ __ __ __ __ __ __ __ _
 72
    65
 73
     2
 40
0.75
 49
0.5
 74
     0
 49
-0.25
 74
     0
  0
ENDTAB
  0
TABLE
  2
LAYER
  5
2
330
0
100
AcDbSymbolTable
 70
     5
  0
LAYER
  5
E
330
2
100
AcDbSymbolTableRecord
100
AcDbLayerTableRecord
  2
0
 70
     0
 62
     7
  6
CONTINUOUS
370
    -3
390
142AA
  0
LAYER
  5
142B5
330
2
100
AcDbSymbolTableRecord
100
AcDbLayerTableRecord
  2
bande creusée
 70
     0
 62
     7
  6
CONTINUOUS
370
    -3
390
142AA
  0
LAYER
  5
142BC
330
2
100
AcDbSymbolTableRecord
100
AcDbLayerTableRecord
  2
fleurs centrales
 70
     0
 62
    40
  6
CONTINUOUS
370
    -3
390
142AA
  0
LAYER
  5
145A0
330
2
100
AcDbSymbolTableRecord
100
AcDbLayerTableRecord
  2
Defpoints
 70
     0
 62
     7
  6
CONTINUOUS
290
     0
370
    -3
390
142AA
  0
LAYER
  5
1460C
330
2
100
AcDbSymbolTableRecord
100
AcDbLayerTableRecord
  2
DIM
 70
     0
 62
    -3
  6
CONTINUOUS
370
    -3
390
142AA
  0
ENDTAB
  0
TABLE
  2
STYLE
  5
3
330
0
100
AcDbSymbolTable
 70
     2
  0
STYLE
  5
F
330
3
100
AcDbSymbolTableRecord
100
AcDbTextStyleTableRecord
  2
STANDARD
 70
     0
 40
0.0
 41
1.0
 50
0.0
 71
     0
 42
0.2
  3
txt
  4

  0
STYLE
  5
14585
330
3
100
AcDbSymbolTableRecord
100
AcDbTextStyleTableRecord
  2

 70
     1
 40
0.0
 41
1.0
 50
0.0
 71
     0
 42
0.2
  3
ltypeshp.shx
  4

  0
ENDTAB
  0
TABLE
  2
VIEW
  5
6
330
0
100
AcDbSymbolTable
 70
     0
  0
ENDTAB
  0
TABLE
  2
UCS
  5
7
330
0
100
AcDbSymbolTable
 70
     0
  0
ENDTAB
  0
TABLE
  2
APPID
  5
9
330
0
100
AcDbSymbolTable
 70
     1
  0
APPID
  5
10
330
9
100
AcDbSymbolTableRecord
100
AcDbRegAppTableRecord
  2
ACAD
 70
     0
  0
ENDTAB
  0
TABLE
  2
DIMSTYLE
  5
A
330
0
100
AcDbSymbolTable
 70
     1
100
AcDbDimStyleTable
 71
     1
340
1D
  0
DIMSTYLE
105
1D
102
{ACAD_REACTORS
330
1459F
330
145C2
330
145D0
330
145DE
102
}
330
A
100
AcDbSymbolTableRecord
100
AcDbDimStyleTableRecord
  2
STANDARD
 70
     0
140
1.5
340
F
  0
ENDTAB
  0
TABLE
  2
BLOCK_RECORD
  5
1
330
0
100
AcDbSymbolTable
 70
     5
  0
BLOCK_RECORD
  5
18
102
{ACAD_XDICTIONARY
360
142BA
102
}
330
1
100
AcDbSymbolTableRecord
100
AcDbBlockTableRecord
  2
*MODEL_SPACE
340
142AF
  0
BLOCK_RECORD
  5
15
330
1
100
AcDbSymbolTableRecord
100
AcDbBlockTableRecord
  2
*PAPER_SPACE
340
142B0
  0
BLOCK_RECORD
  5
14261
330
1
100
AcDbSymbolTableRecord
100
AcDbBlockTableRecord
  2
4101_E
340
0
  0
BLOCK_RECORD
  5
145A1
330
1
100
AcDbSymbolTableRecord
100
AcDbBlockTableRecord
  2
*D1
340
0
  0
BLOCK_RECORD
  5
145C3
330
1
100
AcDbSymbolTableRecord
100
AcDbBlockTableRecord
  2
*D2
340
0
  0
BLOCK_RECORD
  5
145D1
330
1
100
AcDbSymbolTableRecord
100
AcDbBlockTableRecord
  2
*D3
340
0
  0
BLOCK_RECORD
  5
145DF
330
1
100
AcDbSymbolTableRecord
100
AcDbBlockTableRecord
  2
*D4
340
0
  0
ENDTAB
  0
ENDSEC
  0
SECTION
  2
BLOCKS
  0
BLOCK
  5
19
330
18
100
AcDbEntity
  8
0
100
AcDbBlockBegin
  2
*MODEL_SPACE
 70
     0
 10
0.0
 20
0.0
 30
0.0
  3
*MODEL_SPACE
  1

  0
ENDBLK
  5
1A
330
18
100
AcDbEntity
  8
0
100
AcDbBlockEnd
  0
BLOCK
  5
16
330
15
100
AcDbEntity
 67
     1
  8
0
100
AcDbBlockBegin
  2
*PAPER_SPACE
 70
     0
 10
0.0
 20
0.0
 30
0.0
  3
*PAPER_SPACE
  1

  0
ENDBLK
  5
17
330
15
100
AcDbEntity
 67
     1
  8
0
100
AcDbBlockEnd
  0
BLOCK
  5
14262
330
14261
100
AcDbEntity
  8
0
100
AcDbBlockBegin
  2
4101_E
 70
     0
 10
0.0
 20
0.0
 30
0.0
  3
4101_E
  1

  0
LINE
  5
14263
330
14261
100
AcDbEntity
  8
0
100
AcDbLine
 10
7.875000000000003
 20
0.0000000000000036
 30
0.0
 11
7.875
 21
6.75
 31
0.0
  0
LINE
  5
14264
330
14261
100
AcDbEntity
  8
0
100
AcDbLine
 10
-7.875000000000001
 20
0.0
 30
0.0
 11
-7.875
 21
6.75
 31
0.0
  0
LINE
  5
14265
330
14261
100
AcDbEntity
  8
0
100
AcDbLine
 10
-7.875000000000001
 20
0.0
 30
0.0
 11
7.875000000000003
 21
0.0000000000000036
 31
0.0
  0
LINE
  5
14266
330
14261
100
AcDbEntity
  8
0
100
AcDbLine
 10
-6.875000000000003
 20
1.000000000000003
 30
0.0
 11
6.875
 21
1.000000000000003
 31
0.0
  0
ARC
  5
14267
330
14261
100
AcDbEntity
  8
0
100
AcDbCircle
 10
0.3148197948267892
 20
7.807134993655644
 30
0.0
 40
0.125
100
AcDbArc
 50
26.96430821058776
 51
129.8038966174915
  0
ARC
  5
14268
330
14261
100
AcDbEntity
  8
0
100
AcDbCircle
 10
0.3148197948267892
 20
6.942865006344366
 30
0.0
 40
0.125
100
AcDbArc
 50
230.1961033825083
 51
333.0356917894123
  0
LINE
  5
14269
330
14261
100
AcDbEntity
  8
0
100
AcDbLine
 10
0.4897010909571691
 20
7.404216093419158
 30
0.0
 11
0.1331744252378115
 21
7.460456726430606
 31
0.0
  0
LINE
  5
1426A
330
14261
100
AcDbEntity
  8
0
100
AcDbLine
 10
0.4897010909571833
 20
7.345783906580848
 30
0.0
 11
0.1331744252378115
 21
7.2895432735694
 31
0.0
  0
ARC
  5
1426B
330
14261
100
AcDbEntity
  8
0
100
AcDbCircle
 10
0.0
 20
-11.51923076923077
 30
0.0
 40
19.89423076923077
100
AcDbArc
 50
66.68141469295396
 51
113.3185853070459
  0
ARC
  5
1426C
330
14261
100
AcDbEntity
  8
0
100
AcDbCircle
 10
-0.1526518208505792
 20
7.583929926195345
 30
0.0
 40
0.125
100
AcDbArc
 50
278.9643082105877
 51
21.80389661749172
  0
ARC
  5
1426D
330
14261
100
AcDbEntity
  8
0
100
AcDbCircle
 10
0.1526518208505792
 20
7.583929926195345
 30
0.0
 40
0.125
100
AcDbArc
 50
158.1961033825083
 51
261.0356917894123
  0
CIRCLE
  5
1426E
330
14261
100
AcDbEntity
  8
0
100
AcDbCircle
 10
-0.6749108906042807
 20
7.375
 30
0.0
 40
0.1875
  0
ARC
  5
1426F
330
14261
100
AcDbEntity
  8
0
100
AcDbCircle
 10
-0.6749108906042807
 20
7.375
 30
0.0
 40
0.6875
100
AcDbArc
 50
165.8038966174919
 51
194.196103382508
  0
LINE
  5
14270
330
14261
100
AcDbEntity
  8
0
100
AcDbLine
 10
-0.8419215548849621
 20
7.460227272727273
 30
0.0
 11
-1.163415101063492
 21
7.624288761005459
 31
0.0
  0
ARC
  5
14271
330
14261
100
AcDbEntity
  8
0
100
AcDbCircle
 10
-2.766894189691051
 20
4.460940349304486
 30
0.0
 40
3.190956466382727
100
AcDbArc
 50
63.85090080391083
 51
110.9011719487359
  0
LINE
  5
14272
330
14261
100
AcDbEntity
  8
0
100
AcDbLine
 10
-0.8075759772022053
 20
7.507499904897962
 30
0.0
 11
-1.062954694053289
 21
7.76256064893748
 31
0.0
  0
ARC
  5
14273
330
14261
100
AcDbEntity
  8
0
100
AcDbCircle
 10
0.0
 20
-11.51923076923077
 30
0.0
 40
18.89423076923076
100
AcDbArc
 50
104.3104316426523
 51
111.3379146773113
  0
LINE
  5
14274
330
14261
100
AcDbEntity
  8
0
100
AcDbLine
 10
-6.875000000000003
 20
1.000000000000003
 30
0.0
 11
-6.875
 21
6.079812709349155
 31
0.0
  0
ARC
  5
14275
330
14261
100
AcDbEntity
  8
0
100
AcDbCircle
 10
-0.7288363153761708
 20
0.9897076757339924
 30
0.0
 40
6.367017478330243
100
AcDbArc
 50
95.69462310810356
 51
116.4050230698624
  0
ARC
  5
14276
330
14261
100
AcDbEntity
  8
0
100
AcDbCircle
 10
-4.056967093312621
 20
4.814350661577996
 30
0.0
 40
2.018492160291734
100
AcDbArc
 50
72.74650950611053
 51
107.6861229652894
  0
ARC
  5
14277
330
14261
100
AcDbEntity
  8
0
100
AcDbCircle
 10
-0.9746214241213095
 20
6.89899595999725
 30
0.0
 40
0.125
100
AcDbArc
 50
134.9643082105877
 51
237.8038966174917
  0
LINE
  5
14278
330
14261
100
AcDbEntity
  8
0
100
AcDbLine
 10
-0.8419215548849621
 20
7.289772727272726
 30
0.0
 11
-1.163415101063492
 21
7.125711238994544
 31
0.0
  0
ARC
  5
14279
330
14261
100
AcDbEntity
  8
0
100
AcDbCircle
 10
-1.220233282881665
 20
7.237051681848324
 30
0.0
 40
0.125
100
AcDbArc
 50
194.1961033825084
 51
297.0356917894123
  0
ARC
  5
1427A
330
14261
100
AcDbEntity
  8
0
100
AcDbCircle
 10
-0.1526518208505792
 20
7.166070073804661
 30
0.0
 40
0.125
100
AcDbArc
 50
338.1961033825085
 51
81.03569178941228
  0
ARC
  5
1427B
330
14261
100
AcDbEntity
  8
0
100
AcDbCircle
 10
-0.6749108906042949
 20
7.375000000000007
 30
0.0
 40
0.6875
100
AcDbArc
 50
309.8038966174919
 51
338.196103382508
  0
ARC
  5
1427C
330
14261
100
AcDbEntity
  8
0
100
AcDbCircle
 10
0.1526518208505792
 20
7.166070073804661
 30
0.0
 40
0.125
100
AcDbArc
 50
98.96430821058771
 51
201.8038966174915
  0
LINE
  5
1427D
330
14261
100
AcDbEntity
  8
0
100
AcDbLine
 10
-0.5898917589615707
 20
7.207883282539661
 30
0.0
 11
-0.4262309398003481
 21
6.886185585249219
 31
0.0
  0
LINE
  5
1427E
330
14261
100
AcDbEntity
  8
0
100
AcDbLine
 10
-0.6454640710155246
 20
7.189826743788131
 30
0.0
 11
-0.588779292866505
 21
6.833370423747801
 31
0.0
  0
ARC
  5
1427F
330
14261
100
AcDbEntity
  8
0
100
AcDbCircle
 10
-0.7122281303410887
 20
6.81373921068863
 30
0.0
 40
0.125
100
AcDbArc
 50
266.1961033825085
 51
9.035691789412286
  0
ARC
  5
14280
330
14261
100
AcDbEntity
  8
0
100
AcDbCircle
 10
-0.6749108906042949
 20
7.375000000000003
 30
0.0
 40
0.6875
100
AcDbArc
 50
237.803896617492
 51
266.196103382508
  0
LINE
  5
14281
330
14261
100
AcDbEntity
  8
0
100
AcDbLine
 10
-0.4897010909571833
 20
7.345783906580848
 30
0.0
 11
-0.1331744252378115
 21
7.2895432735694
 31
0.0
  0
LINE
  5
14282
330
14261
100
AcDbEntity
  8
0
100
AcDbLine
 10
-0.4897010909571691
 20
7.404216093419158
 30
0.0
 11
-0.1331744252378115
 21
7.460456726430606
 31
0.0
  0
ARC
  5
14283
330
14261
100
AcDbEntity
  8
0
100
AcDbCircle
 10
-0.3148197948267892
 20
6.942865006344366
 30
0.0
 40
0.125
100
AcDbArc
 50
206.9643082105878
 51
309.8038966174917
  0
LINE
  5
14284
330
14261
100
AcDbEntity
  8
0
100
AcDbLine
 10
-0.8075759772022053
 20
7.242500095102041
 30
0.0
 11
-1.062954694053274
 21
6.987439351062523
 31
0.0
  0
ARC
  5
14285
330
14261
100
AcDbEntity
  8
0
100
AcDbCircle
 10
0.6749108906042949
 20
7.375000000000007
 30
0.0
 40
0.6875
100
AcDbArc
 50
201.803896617492
 51
230.196103382508
  0
ARC
  5
14286
330
14261
100
AcDbEntity
  8
0
100
AcDbCircle
 10
-0.9746214241213237
 20
7.851004040002752
 30
0.0
 40
0.125
100
AcDbArc
 50
122.1961033825085
 51
225.0356917894123
  0
ARC
  5
14287
330
14261
100
AcDbEntity
  8
0
100
AcDbCircle
 10
-1.220233282881665
 20
7.512948318151678
 30
0.0
 40
0.125
100
AcDbArc
 50
62.96430821058772
 51
165.8038966174917
  0
ARC
  5
14288
330
14261
100
AcDbEntity
  8
0
100
AcDbCircle
 10
-0.7122281303411029
 20
7.936260789311372
 30
0.0
 40
0.125
100
AcDbArc
 50
350.9643082105877
 51
93.80389661749173
  0
ARC
  5
14289
330
14261
100
AcDbEntity
  8
0
100
AcDbCircle
 10
-0.6749108906042949
 20
7.375
 30
0.0
 40
0.6875
100
AcDbArc
 50
93.80389661749196
 51
122.196103382508
  0
ARC
  5
1428A
330
14261
100
AcDbEntity
  8
0
100
AcDbCircle
 10
-0.3148197948267892
 20
7.807134993655644
 30
0.0
 40
0.125
100
AcDbArc
 50
50.19610338250846
 51
153.0356917894122
  0
LINE
  5
1428B
330
14261
100
AcDbEntity
  8
0
100
AcDbLine
 10
-0.6454640710155389
 20
7.560173256211868
 30
0.0
 11
-0.5887792928665192
 21
7.916629576252198
 31
0.0
  0
LINE
  5
1428C
330
14261
100
AcDbEntity
  8
0
100
AcDbLine
 10
-0.5898917589615849
 20
7.542116717460341
 30
0.0
 11
-0.4262309398003481
 21
7.863814414750784
 31
0.0
  0
ARC
  5
1428D
330
14261
100
AcDbEntity
  8
0
100
AcDbCircle
 10
-0.6749108906042949
 20
7.375000000000003
 30
0.0
 40
0.6875
100
AcDbArc
 50
21.80389661749198
 51
50.19610338250806
  0
ARC
  5
1428E
330
14261
100
AcDbEntity
  8
0
100
AcDbCircle
 10
0.6749108906042949
 20
7.375000000000003
 30
0.0
 40
0.6875
100
AcDbArc
 50
129.8038966174919
 51
158.196103382508
  0
CIRCLE
  5
1428F
330
14261
100
AcDbEntity
  8
0
100
AcDbCircle
 10
0.6749108906042807
 20
7.375
 30
0.0
 40
0.1875
  0
LINE
  5
14290
330
14261
100
AcDbEntity
  8
0
100
AcDbLine
 10
0.8419215548849621
 20
7.460227272727273
 30
0.0
 11
1.163415101063492
 21
7.624288761005459
 31
0.0
  0
ARC
  5
14291
330
14261
100
AcDbEntity
  8
0
100
AcDbCircle
 10
0.6749108906042807
 20
7.375
 30
0.0
 40
0.6875
100
AcDbArc
 50
345.8038966174919
 51
14.19610338250802
  0
LINE
  5
14292
330
14261
100
AcDbEntity
  8
0
100
AcDbLine
 10
0.8075759772022053
 20
7.507499904897962
 30
0.0
 11
1.062954694053289
 21
7.76256064893748
 31
0.0
  0
ARC
  5
14293
330
14261
100
AcDbEntity
  8
0
100
AcDbCircle
 10
2.766894189691051
 20
4.460940349304486
 30
0.0
 40
3.190956466382727
100
AcDbArc
 50
69.09882805126404
 51
116.1490991960892
  0
ARC
  5
14294
330
14261
100
AcDbEntity
  8
0
100
AcDbCircle
 10
0.0
 20
-11.51923076923077
 30
0.0
 40
18.89423076923076
100
AcDbArc
 50
68.66208532268865
 51
75.6895683573477
  0
ARC
  5
14295
330
14261
100
AcDbEntity
  8
0
100
AcDbCircle
 10
0.7288363153761708
 20
0.9897076757339924
 30
0.0
 40
6.367017478330243
100
AcDbArc
 50
63.59497693013765
 51
84.30537689189643
  0
ARC
  5
14296
330
14261
100
AcDbEntity
  8
0
100
AcDbCircle
 10
0.9746214241213095
 20
6.89899595999725
 30
0.0
 40
0.125
100
AcDbArc
 50
302.1961033825083
 51
45.03569178941226
  0
ARC
  5
14297
330
14261
100
AcDbEntity
  8
0
100
AcDbCircle
 10
0.7122281303410887
 20
6.81373921068863
 30
0.0
 40
0.125
100
AcDbArc
 50
170.9643082105877
 51
273.8038966174915
  0
LINE
  5
14298
330
14261
100
AcDbEntity
  8
0
100
AcDbLine
 10
0.6454640710155246
 20
7.189826743788131
 30
0.0
 11
0.588779292866505
 21
6.833370423747801
 31
0.0
  0
LINE
  5
14299
330
14261
100
AcDbEntity
  8
0
100
AcDbLine
 10
0.5898917589615707
 20
7.207883282539661
 30
0.0
 11
0.4262309398003481
 21
6.886185585249219
 31
0.0
  0
LINE
  5
1429A
330
14261
100
AcDbEntity
  8
0
100
AcDbLine
 10
0.8419215548849621
 20
7.289772727272726
 30
0.0
 11
1.163415101063492
 21
7.125711238994544
 31
0.0
  0
LINE
  5
1429B
330
14261
100
AcDbEntity
  8
0
100
AcDbLine
 10
0.8075759772022053
 20
7.242500095102041
 30
0.0
 11
1.062954694053274
 21
6.987439351062523
 31
0.0
  0
ARC
  5
1429C
330
14261
100
AcDbEntity
  8
0
100
AcDbCircle
 10
0.6749108906042949
 20
7.375000000000003
 30
0.0
 40
0.6875
100
AcDbArc
 50
273.803896617492
 51
302.196103382508
  0
ARC
  5
1429D
330
14261
100
AcDbEntity
  8
0
100
AcDbCircle
 10
1.220233282881665
 20
7.237051681848324
 30
0.0
 40
0.125
100
AcDbArc
 50
242.9643082105877
 51
345.8038966174915
  0
ARC
  5
1429E
330
14261
100
AcDbEntity
  8
0
100
AcDbCircle
 10
4.056967093312621
 20
4.814350661577996
 30
0.0
 40
2.018492160291734
100
AcDbArc
 50
72.31387703471057
 51
107.2534904938895
  0
LINE
  5
1429F
330
14261
100
AcDbEntity
  8
0
100
AcDbLine
 10
6.875
 20
1.000000000000003
 30
0.0
 11
6.874999999999996
 21
6.079812709349155
 31
0.0
  0
ARC
  5
142A0
330
14261
100
AcDbEntity
  8
0
100
AcDbCircle
 10
0.9746214241213237
 20
7.851004040002752
 30
0.0
 40
0.125
100
AcDbArc
 50
314.9643082105877
 51
57.80389661749147
  0
ARC
  5
142A1
330
14261
100
AcDbEntity
  8
0
100
AcDbCircle
 10
0.7122281303411029
 20
7.936260789311372
 30
0.0
 40
0.125
100
AcDbArc
 50
86.19610338250828
 51
189.0356917894123
  0
ARC
  5
142A2
330
14261
100
AcDbEntity
  8
0
100
AcDbCircle
 10
0.6749108906042949
 20
7.375
 30
0.0
 40
0.6875
100
AcDbArc
 50
57.80389661749196
 51
86.19610338250803
  0
ARC
  5
142A3
330
14261
100
AcDbEntity
  8
0
100
AcDbCircle
 10
1.220233282881665
 20
7.512948318151678
 30
0.0
 40
0.125
100
AcDbArc
 50
14.19610338250828
 51
117.0356917894123
  0
LINE
  5
142A4
330
14261
100
AcDbEntity
  8
0
100
AcDbLine
 10
0.6454640710155389
 20
7.560173256211868
 30
0.0
 11
0.5887792928665192
 21
7.916629576252198
 31
0.0
  0
LINE
  5
142A5
330
14261
100
AcDbEntity
  8
0
100
AcDbLine
 10
0.5898917589615849
 20
7.542116717460341
 30
0.0
 11
0.4262309398003481
 21
7.863814414750784
 31
0.0
  0
ENDBLK
  5
142A6
330
14261
100
AcDbEntity
  8
0
100
AcDbBlockEnd
  0
BLOCK
  5
145AC
330
145A1
100
AcDbEntity
  8
0
100
AcDbBlockBegin
  2
*D1
 70
     1
 10
0.0
 20
0.0
 30
0.0
  3
*D1
  1

  0
LINE
  5
14635
330
145A1
100
AcDbEntity
  8
DIM
 62
     0
370
    -2
100
AcDbLine
 10
-18.26226182010654
 20
10.58798439674185
 30
0.0
 11
-18.26226182010654
 21
8.994119367906201
 31
0.0
  0
LINE
  5
14636
330
145A1
100
AcDbEntity
  8
DIM
 62
     0
370
    -2
100
AcDbLine
 10
-2.512261820106544
 20
10.58798439674185
 30
0.0
 11
-2.512261820106544
 21
8.994119367906201
 31
0.0
  0
LINE
  5
14637
330
145A1
100
AcDbEntity
  8
DIM
 62
     0
370
    -2
100
AcDbLine
 10
-18.08226182010654
 20
9.1741193679062
 30
0.0
 11
-14.47726182010654
 21
9.1741193679062
 31
0.0
  0
LINE
  5
14638
330
145A1
100
AcDbEntity
  8
DIM
 62
     0
370
    -2
100
AcDbLine
 10
-2.692261820106544
 20
9.1741193679062
 30
0.0
 11
-6.297261820106545
 21
9.1741193679062
 31
0.0
  0
SOLID
  5
14639
330
145A1
100
AcDbEntity
  8
DIM
 62
     0
100
AcDbTrace
 10
-18.08226182010654
 20
9.2041193679062
 30
0.0
 11
-18.08226182010654
 21
9.144119367906201
 31
0.0
 12
-18.26226182010654
 22
9.1741193679062
 32
0.0
 13
-18.26226182010654
 23
9.1741193679062
 33
0.0
  0
SOLID
  5
1463A
330
145A1
100
AcDbEntity
  8
DIM
 62
     0
100
AcDbTrace
 10
-2.692261820106544
 20
9.2041193679062
 30
0.0
 11
-2.692261820106544
 21
9.144119367906201
 31
0.0
 12
-2.512261820106544
 22
9.1741193679062
 32
0.0
 13
-2.512261820106544
 23
9.1741193679062
 33
0.0
  0
MTEXT
  5
1463B
330
145A1
100
AcDbEntity
  8
DIM
 62
     0
100
AcDbMText
 10
-10.38726182010654
 20
9.1741193679062
 30
0.0
 40
1.5
 41
0.0
 71
     5
 72
     1
  1
\A1;15.7500
 73
     1
 44
1.0
  0
POINT
  5
1463C
330
145A1
100
AcDbEntity
  8
Defpoints
 62
     0
100
AcDbPoint
 10
-18.26226182010654
 20
10.65048439674185
 30
0.0
  0
POINT
  5
1463D
330
145A1
100
AcDbEntity
  8
Defpoints
 62
     0
100
AcDbPoint
 10
-2.512261820106544
 20
10.65048439674185
 30
0.0
  0
POINT
  5
1463E
330
145A1
100
AcDbEntity
  8
Defpoints
 62
     0
100
AcDbPoint
 10
-2.512261820106544
 20
9.1741193679062
 30
0.0
  0
ENDBLK
  5
145AD
330
145A1
100
AcDbEntity
  8
0
100
AcDbBlockEnd
  0
BLOCK
  5
145CE
330
145C3
100
AcDbEntity
  8
0
100
AcDbBlockBegin
  2
*D2
 70
     1
 10
0.0
 20
0.0
 30
0.0
  3
*D2
  1

  0
LINE
  5
14649
330
145C3
100
AcDbEntity
  8
DIM
 62
     0
370
    -2
100
AcDbLine
 10
1.006571705113061
 20
19.02548439674185
 30
0.0
 11
6.013208404069979
 21
19.02548439674185
 31
0.0
  0
LINE
  5
1464A
330
145C3
100
AcDbEntity
  8
DIM
 62
     0
370
    -2
100
AcDbLine
 10
1.00657170511306
 20
10.65048439674185
 30
0.0
 11
6.013208404069978
 21
10.65048439674185
 31
0.0
  0
LINE
  5
1464B
330
145C3
100
AcDbEntity
  8
DIM
 62
     0
370
    -2
100
AcDbLine
 10
5.83320840406998
 20
18.84548439674185
 30
0.0
 11
5.833208404069979
 21
15.67798439674185
 31
0.0
  0
LINE
  5
1464C
330
145C3
100
AcDbEntity
  8
DIM
 62
     0
370
    -2
100
AcDbLine
 10
5.833208404069978
 20
10.83048439674184
 30
0.0
 11
5.833208404069978
 21
13.99798439674184
 31
0.0
  0
SOLID
  5
1464D
330
145C3
100
AcDbEntity
  8
DIM
 62
     0
100
AcDbTrace
 10
5.803208404069979
 20
18.84548439674185
 30
0.0
 11
5.86320840406998
 21
18.84548439674185
 31
0.0
 12
5.83320840406998
 22
19.02548439674185
 32
0.0
 13
5.83320840406998
 23
19.02548439674185
 33
0.0
  0
SOLID
  5
1464E
330
145C3
100
AcDbEntity
  8
DIM
 62
     0
100
AcDbTrace
 10
5.803208404069978
 20
10.83048439674184
 30
0.0
 11
5.863208404069978
 21
10.83048439674184
 31
0.0
 12
5.833208404069978
 22
10.65048439674185
 32
0.0
 13
5.833208404069978
 23
10.65048439674185
 33
0.0
  0
MTEXT
  5
1464F
330
145C3
100
AcDbEntity
  8
DIM
 62
     0
100
AcDbMText
 10
5.833208404069976
 20
14.83798439674185
 30
0.0
 40
1.5
 41
0.0
 71
     5
 72
     1
  1
\A1;8.3750
 73
     1
 44
1.0
  0
POINT
  5
14650
330
145C3
100
AcDbEntity
  8
Defpoints
 62
     0
100
AcDbPoint
 10
0.944071705113061
 20
19.02548439674185
 30
0.0
  0
POINT
  5
14651
330
145C3
100
AcDbEntity
  8
Defpoints
 62
     0
100
AcDbPoint
 10
0.9440717051130604
 20
10.65048439674185
 30
0.0
  0
POINT
  5
14652
330
145C3
100
AcDbEntity
  8
Defpoints
 62
     0
100
AcDbPoint
 10
5.833208404069978
 20
10.65048439674185
 30
0.0
  0
ENDBLK
  5
145CF
330
145C3
100
AcDbEntity
  8
0
100
AcDbBlockEnd
  0
BLOCK
  5
145DC
330
145D1
100
AcDbEntity
  8
0
100
AcDbBlockBegin
  2
*D3
 70
     1
 10
0.0
 20
0.0
 30
0.0
  3
*D3
  1

  0
LINE
  5
1463F
330
145D1
100
AcDbEntity
  8
DIM
 62
     0
370
    -2
100
AcDbLine
 10
0.0690717051130598
 20
15.15048439674185
 30
0.0
 11
0.0690717051130594
 21
8.793631958715344
 31
0.0
  0
LINE
  5
14640
330
145D1
100
AcDbEntity
  8
DIM
 62
     0
370
    -2
100
AcDbLine
 10
0.9440717051130606
 20
15.15048439674185
 30
0.0
 11
0.9440717051130603
 21
8.793631958715344
 31
0.0
  0
LINE
  5
14641
330
145D1
100
AcDbEntity
  8
DIM
 62
     0
370
    -2
100
AcDbLine
 10
0.2490717051130594
 20
8.973631958715344
 30
0.0
 11
0.7640717051130604
 21
8.973631958715344
 31
0.0
  0
LINE
  5
14642
330
145D1
100
AcDbEntity
  8
DIM
 62
     0
370
    -2
100
AcDbLine
 10
0.9440717051130603
 20
8.973631958715344
 30
0.0
 11
1.12407170511306
 21
8.973631958715344
 31
0.0
  0
SOLID
  5
14643
330
145D1
100
AcDbEntity
  8
DIM
 62
     0
100
AcDbTrace
 10
0.2490717051130594
 20
9.003631958715343
 30
0.0
 11
0.2490717051130594
 21
8.943631958715345
 31
0.0
 12
0.0690717051130594
 22
8.973631958715344
 32
0.0
 13
0.0690717051130594
 23
8.973631958715344
 33
0.0
  0
SOLID
  5
14644
330
145D1
100
AcDbEntity
  8
DIM
 62
     0
100
AcDbTrace
 10
0.7640717051130604
 20
9.003631958715343
 30
0.0
 11
0.7640717051130604
 21
8.943631958715345
 31
0.0
 12
0.9440717051130603
 22
8.973631958715344
 32
0.0
 13
0.9440717051130603
 23
8.973631958715344
 33
0.0
  0
MTEXT
  5
14645
330
145D1
100
AcDbEntity
  8
DIM
 62
     0
100
AcDbMText
 10
4.71407170511306
 20
8.973631958715344
 30
0.0
 40
1.5
 41
0.0
 71
     5
 72
     1
  1
\A1;0.8750
 73
     1
 44
1.0
  0
POINT
  5
14646
330
145D1
100
AcDbEntity
  8
Defpoints
 62
     0
100
AcDbPoint
 10
0.0690717051130598
 20
15.21298439674185
 30
0.0
  0
POINT
  5
14647
330
145D1
100
AcDbEntity
  8
Defpoints
 62
     0
100
AcDbPoint
 10
0.9440717051130606
 20
15.21298439674185
 30
0.0
  0
POINT
  5
14648
330
145D1
100
AcDbEntity
  8
Defpoints
 62
     0
100
AcDbPoint
 10
0.9440717051130603
 20
8.973631958715344
 30
0.0
  0
ENDBLK
  5
145DD
330
145D1
100
AcDbEntity
  8
0
100
AcDbBlockEnd
  0
BLOCK
  5
145EA
330
145DF
100
AcDbEntity
  8
0
100
AcDbBlockBegin
  2
*D4
 70
     1
 10
0.0
 20
0.0
 30
0.0
  3
*D4
  1

  0
LINE
  5
14653
330
145DF
100
AcDbEntity
  8
DIM
 62
     0
370
    -2
100
AcDbLine
 10
-0.1809282948869414
 20
17.96902025000686
 30
0.0
 11
-0.1809282948869412
 21
21.34326316628641
 31
0.0
  0
LINE
  5
14654
330
145DF
100
AcDbEntity
  8
DIM
 62
     0
370
    -2
100
AcDbLine
 10
0.9440717051130608
 20
17.96902025000686
 30
0.0
 11
0.9440717051130611
 21
21.34326316628641
 31
0.0
  0
LINE
  5
14655
330
145DF
100
AcDbEntity
  8
DIM
 62
     0
370
    -2
100
AcDbLine
 10
-0.0009282948869412
 20
21.16326316628641
 30
0.0
 11
0.7640717051130613
 21
21.16326316628641
 31
0.0
  0
LINE
  5
14656
330
145DF
100
AcDbEntity
  8
DIM
 62
     0
370
    -2
100
AcDbLine
 10
0.9440717051130611
 20
21.16326316628641
 30
0.0
 11
1.124071705113061
 21
21.16326316628641
 31
0.0
  0
SOLID
  5
14657
330
145DF
100
AcDbEntity
  8
DIM
 62
     0
100
AcDbTrace
 10
-0.0009282948869412
 20
21.19326316628642
 30
0.0
 11
-0.0009282948869412
 21
21.13326316628641
 31
0.0
 12
-0.1809282948869412
 22
21.16326316628641
 32
0.0
 13
-0.1809282948869412
 23
21.16326316628641
 33
0.0
  0
SOLID
  5
14658
330
145DF
100
AcDbEntity
  8
DIM
 62
     0
100
AcDbTrace
 10
0.7640717051130613
 20
21.19326316628642
 30
0.0
 11
0.7640717051130613
 21
21.13326316628641
 31
0.0
 12
0.9440717051130611
 22
21.16326316628641
 32
0.0
 13
0.9440717051130611
 23
21.16326316628641
 33
0.0
  0
MTEXT
  5
14659
330
145DF
100
AcDbEntity
  8
DIM
 62
     0
100
AcDbMText
 10
4.33907170511306
 20
21.16326316628641
 30
0.0
 40
1.5
 41
0.0
 71
     5
 72
     1
  1
\A1;1.1250
 73
     1
 44
1.0
  0
POINT
  5
1465A
330
145DF
100
AcDbEntity
  8
Defpoints
 62
     0
100
AcDbPoint
 10
-0.1809282948869414
 20
17.90652025000686
 30
0.0
  0
POINT
  5
1465B
330
145DF
100
AcDbEntity
  8
Defpoints
 62
     0
100
AcDbPoint
 10
0.9440717051130608
 20
17.90652025000686
 30
0.0
  0
POINT
  5
1465C
330
145DF
100
AcDbEntity
  8
Defpoints
 62
     0
100
AcDbPoint
 10
0.9440717051130611
 20
21.16326316628641
 30
0.0
  0
ENDBLK
  5
145EB
330
145DF
100
AcDbEntity
  8
0
100
AcDbBlockEnd
  0
ENDSEC
  0
SECTION
  2
ENTITIES
  0
LINE
  5
142C2
330
18
100
AcDbEntity
  8
fleurs centrales
100
AcDbLine
 10
-14.05341128873814
 20
17.1788824238797
 30
0.0
 11
-14.09782977909851
 21
17.31558032382343
 31
0.0
  0
LINE
  5
142CE
330
18
100
AcDbEntity
  8
fleurs centrales
100
AcDbLine
 10
-13.99005653780607
 20
17.55730333001191
 30
0.0
 11
-14.11355187160601
 21
17.33905674720474
 31
0.0
  0
ARC
  5
142CF
330
18
100
AcDbEntity
  8
fleurs centrales
100
AcDbCircle
 10
-14.13821020737624
 20
17.3055403998857
 30
0.0
 40
0.0416098433134254
100
AcDbArc
 50
13.9625263163105
 51
113.4143528608152
  0
ARC
  5
142D1
330
18
100
AcDbEntity
  8
fleurs centrales
100
AcDbCircle
 10
-13.63612593096961
 20
17.73524921585097
 30
0.0
 40
0.0339178720374577
100
AcDbArc
 50
295.4704199104837
 51
93.16752234428751
  0
ARC
  5
142DA
330
18
100
AcDbEntity
  8
fleurs centrales
100
AcDbCircle
 10
-11.46169247333173
 20
18.34412650428757
 30
0.0
 40
0.2314193805274487
100
AcDbArc
 50
188.9252579180476
 51
234.337483529541
  0
ARC
  5
142DB
330
18
100
AcDbEntity
  8
fleurs centrales
100
AcDbCircle
 10
-11.38375696647462
 20
17.98007263541164
 30
0.0
 40
0.2762159134435691
100
AcDbArc
 50
140.4088709408654
 51
174.2856239282784
  0
ARC
  5
142DE
330
18
100
AcDbEntity
  8
fleurs centrales
100
AcDbCircle
 10
-14.98449053578777
 20
17.83969840771476
 30
0.0
 40
0.509939618409022
100
AcDbArc
 50
241.6970563586959
 51
306.7642452908443
  0
ARC
  5
142DF
330
18
100
AcDbEntity
  8
fleurs centrales
100
AcDbCircle
 10
-14.92374053164718
 20
17.01845579832396
 30
0.0
 40
0.4796927113060891
100
AcDbArc
 50
59.36147962629892
 51
129.0998220232414
  0
ARC
  5
142E0
330
18
100
AcDbEntity
  8
fleurs centrales
100
AcDbCircle
 10
-13.6615645618269
 20
17.50726424543351
 30
0.0
 40
0.5971356129113287
100
AcDbArc
 50
53.54343126847375
 51
128.8402963134527
  0
ARC
  5
142E1
330
18
100
AcDbEntity
  8
fleurs centrales
100
AcDbCircle
 10
-13.68523216214026
 20
18.644859007657
 30
0.0
 40
0.7584979655383301
100
AcDbArc
 50
242.449601335525
 51
299.9341262464015
  0
ARC
  5
142E2
330
18
100
AcDbEntity
  8
fleurs centrales
100
AcDbCircle
 10
-13.43544113451057
 20
17.08270273149001
 30
0.0
 40
0.5054543684908346
100
AcDbArc
 50
75.84137742820151
 51
151.3600910396869
  0
ARC
  5
142E3
330
18
100
AcDbEntity
  8
fleurs centrales
100
AcDbCircle
 10
-13.89027010583403
 20
18.12372875010996
 30
0.0
 40
0.798838834935048
100
AcDbArc
 50
270.80457284371
 51
316.3968956241782
  0
ARC
  5
142EF
330
18
100
AcDbEntity
  8
fleurs centrales
100
AcDbCircle
 10
-14.07728441020803
 20
20.84549980270636
 30
0.0
 40
3.107589502574317
100
AcDbArc
 50
278.1264669854983
 51
294.8145919403083
  0
ARC
  5
142F2
330
18
100
AcDbEntity
  8
fleurs centrales
100
AcDbCircle
 10
-12.25983853916119
 20
17.32690611881879
 30
0.0
 40
0.6887774614555683
100
AcDbArc
 50
107.7654169237154
 51
156.8842565074428
  0
SPLINE
  5
142F5
330
18
100
AcDbEntity
  8
fleurs centrales
100
AcDbSpline
210
0.0
220
0.0
230
1.0
 70
     8
 71
     3
 72
    12
 73
     8
 74
     6
 42
0.0000000001
 43
0.0000000001
 44
0.0000000001
 40
0.0
 40
0.0
 40
0.0
 40
0.0
 40
0.2096678301071506
 40
0.3911446361930737
 40
0.5719468119053717
 40
0.8092419689034656
 40
1.0207613068666
 40
1.0207613068666
 40
1.0207613068666
 40
1.0207613068666
 10
-11.65860025762434
 20
18.00757529254617
 30
0.0
 10
-11.66161772403922
 20
17.9383203070795
 30
0.0
 10
-11.667246941466
 20
17.80912206011394
 30
0.0
 10
-11.62941086245365
 20
17.61051973078996
 30
0.0
 10
-11.43950037811013
 20
17.49307093244528
 30
0.0
 10
-11.21792825629037
 20
17.54618890056343
 30
0.0
 10
-11.10127668145759
 20
17.63992833729568
 30
0.0
 10
-11.04630059633111
 20
17.68410628569362
 30
0.0
 11
-11.65860025762434
 21
18.00757529254617
 31
0.0
 11
-11.65860025762434
 21
17.79790746243901
 31
0.0
 11
-11.60658583222746
 21
17.62404449715376
 31
0.0
 11
-11.45464400384689
 21
17.5260490506745
 31
0.0
 11
-11.22040048953276
 21
17.56398277625631
 31
0.0
 11
-11.04630059633111
 21
17.68410628569362
 31
0.0
  0
SPLINE
  5
142F6
330
18
100
AcDbEntity
  8
fleurs centrales
100
AcDbSpline
210
0.0
220
0.0
230
1.0
 70
     8
 71
     3
 72
    15
 73
    11
 74
     9
 42
0.0000000001
 43
0.0000000001
 44
0.0000000001
 40
0.0
 40
0.0
 40
0.0
 40
0.0
 40
0.1141013453444013
 40
0.2557950024347205
 40
0.429894895636363
 40
0.5791825922040488
 40
0.6866356435374242
 40
0.7818165912933134
 40
0.9169261757439937
 40
1.018771178624418
 40
1.018771178624418
 40
1.018771178624418
 40
1.018771178624418
 10
-11.04630059633111
 20
17.68410628569362
 30
0.0
 10
-11.01994275111065
 20
17.65684947371083
 30
0.0
 10
-10.96085313159748
 20
17.59574452997457
 30
0.0
 10
-10.83427833487805
 20
17.51620844446271
 30
0.0
 10
-10.67339587179759
 20
17.52766372244193
 30
0.0
 10
-10.5318665514893
 20
17.57163632392417
 30
0.0
 10
-10.45291996780911
 20
17.66174051443252
 30
0.0
 10
-10.40201298310422
 20
17.76847409816443
 30
0.0
 10
-10.4476023724164
 20
17.88151305834854
 30
0.0
 10
-10.49660725200706
 20
17.94242769182916
 30
0.0
 10
-10.51766994659036
 20
17.96860929519953
 30
0.0
 11
-11.04630059633111
 21
17.68410628569362
 31
0.0
 11
-10.96399877813586
 21
17.60507763436286
 31
0.0
 11
-10.84054611697384
 21
17.53553244824876
 31
0.0
 11
-10.6664462237722
 21
17.53553244824876
 31
0.0
 11
-10.52716633566321
 21
17.58927190409671
 31
0.0
 11
-10.45436090654082
 21
17.66830055542747
 31
0.0
 11
-10.41936047776705
 21
17.75681260433247
 31
0.0
 11
-10.45752632547787
 21
17.88641957898642
 31
0.0
 11
-10.51766994659036
 21
17.96860929519953
 31
0.0
  0
SPLINE
  5
142FF
330
18
100
AcDbEntity
  8
fleurs centrales
100
AcDbSpline
210
0.0
220
0.0
230
1.0
 70
     8
 71
     3
 72
    16
 73
    12
 74
    10
 42
0.0000000001
 43
0.0000000001
 44
0.0000000001
 40
0.0
 40
0.0
 40
0.0
 40
0.0
 40
0.1442928090717699
 40
0.2585419205162012
 40
0.3789239072327018
 40
0.4307968306849251
 40
0.5044048338812167
 40
0.6080880997604333
 40
0.6960520704157388
 40
0.8078915348007612
 40
0.8977973101146343
 40
0.8977973101146343
 40
0.8977973101146343
 40
0.8977973101146343
 10
-11.36262002588036
 20
18.07617654787669
 30
0.0
 10
-11.40689064653243
 20
18.05155104915236
 30
0.0
 10
-11.48621415100547
 20
18.00742741073398
 30
0.0
 10
-11.51374968243306
 20
17.87389331292105
 30
0.0
 10
-11.49213969934059
 20
17.7779229547886
 30
0.0
 10
-11.44321370731053
 20
17.71043412114083
 30
0.0
 10
-11.36964138953823
 20
17.67495962295837
 30
0.0
 10
-11.27710718990016
 20
17.70108235386317
 30
0.0
 10
-11.20115120943819
 20
17.76804910948796
 30
0.0
 10
-11.13153154179165
 20
17.83528545456155
 30
0.0
 10
-11.08993527515754
 20
17.88821116123895
 30
0.0
 10
-11.0713983093908
 20
17.91179698016568
 30
0.0
 11
-11.36262002588036
 21
18.07617654787669
 31
0.0
 11
-11.47657629796953
 21
17.98766449897168
 31
0.0
 11
-11.5050653329264
 21
17.87702438710863
 31
0.0
 11
-11.47657629796953
 21
17.76006201019607
 31
0.0
 11
-11.44492171181392
 21
17.71896715208952
 31
0.0
 11
-11.37844725282733
 21
17.68735569155722
 31
0.0
 11
-11.27715278874807
 21
17.70948375451528
 31
0.0
 11
-11.20751277856273
 21
17.76322321036322
 31
0.0
 11
-11.12837651156623
 21
17.84225179405158
 31
0.0
 11
-11.0713983093908
 21
17.91179698016568
 31
0.0
  0
SPLINE
  5
14300
330
18
100
AcDbEntity
  8
fleurs centrales
100
AcDbSpline
210
0.0
220
0.0
230
1.0
 70
     8
 71
     3
 72
    14
 73
    10
 74
     8
 42
0.0000000001
 43
0.0000000001
 44
0.0000000001
 40
0.0
 40
0.0
 40
0.0
 40
0.0
 40
0.132131961510357
 40
0.3085630828720818
 40
0.4706105145434285
 40
0.5655946145889541
 40
0.663751797879538
 40
0.7944842168569482
 40
0.9160323984480019
 40
0.9160323984480019
 40
0.9160323984480019
 40
0.9160323984480019
 10
-11.0713983093908
 20
17.91179698016568
 30
0.0
 10
-11.04324070903674
 20
17.87740955914025
 30
0.0
 10
-10.97748526370606
 20
17.79710583457324
 30
0.0
 10
-10.8425978116981
 20
17.71760387208568
 30
0.0
 10
-10.69721472053109
 20
17.66225608351598
 30
0.0
 10
-10.58154388115206
 20
17.72294646067661
 30
0.0
 10
-10.55121342254709
 20
17.84212555946165
 30
0.0
 10
-10.63350909093317
 20
17.94033941842287
 30
0.0
 10
-10.70044523848524
 20
17.9893435534079
 30
0.0
 10
-10.73269491206035
 20
18.01295362681209
 30
0.0
 11
-11.0713983093908
 21
17.91179698016568
 31
0.0
 11
-10.98276565332145
 21
17.81380153368643
 31
0.0
 11
-10.83398937613961
 21
17.71896715208952
 31
0.0
 11
-10.67571670988492
 21
17.68419455903246
 31
0.0
 11
-10.59341489168969
 21
17.73161174983092
 31
0.0
 11
-10.56809127566987
 21
17.82644606378543
 31
0.0
 11
-10.63773128585521
 21
17.93708617564849
 31
0.0
 11
-10.73269491206035
 21
18.01295362681209
 31
0.0
  0
SPLINE
  5
14301
330
18
100
AcDbEntity
  8
fleurs centrales
100
AcDbSpline
210
0.0
220
0.0
230
1.0
 70
     8
 71
     3
 72
    15
 73
    11
 74
     9
 42
0.0000000001
 43
0.0000000001
 44
0.0000000001
 40
0.0
 40
0.0
 40
0.0
 40
0.0
 40
0.171302267762183
 40
0.2972327625344597
 40
0.4376138768920346
 40
0.5578338144447961
 40
0.7149891457491475
 40
0.8766416075306764
 40
0.9745048225483209
 40
1.049590798140396
 40
1.049590798140396
 40
1.049590798140396
 40
1.049590798140396
 10
-10.73269491206035
 20
18.01295362681209
 30
0.0
 10
-10.67583658318158
 20
18.02985522134922
 30
0.0
 10
-10.57717963960165
 20
18.05918178953267
 30
0.0
 10
-10.5004904329758
 20
18.1998837834903
 30
0.0
 10
-10.5263616259996
 20
18.33105812817894
 30
0.0
 10
-10.60252706183476
 20
18.45896481939002
 30
0.0
 10
-10.76921826428581
 20
18.47314790660187
 30
0.0
 10
-10.89339190621408
 20
18.40954750771713
 30
0.0
 10
-10.98499389644421
 20
18.34399058246217
 30
0.0
 10
-11.0209625121975
 20
18.2986447197694
 30
0.0
 10
-11.03657830429813
 20
18.27895779132905
 30
0.0
 11
-10.73269491206035
 21
18.01295362681209
 31
0.0
 11
-10.57758766474272
 21
18.08565994545094
 31
0.0
 11
-10.51744404363023
 21
18.19630005731399
 31
0.0
 11
-10.53643682177595
 21
18.3353904295422
 31
0.0
 11
-10.6060766996996
 21
18.43338594366387
 31
0.0
 11
-10.76118394701723
 21
18.45867507150426
 31
0.0
 11
-10.90996022419907
 21
18.39545215043965
 31
0.0
 11
-10.98758619500026
 21
18.33585837970175
 31
0.0
 11
-11.03657830429813
 21
18.27895779132905
 31
0.0
  0
SPLINE
  5
14302
330
18
100
AcDbEntity
  8
fleurs centrales
100
AcDbSpline
210
0.0
220
0.0
230
1.0
 70
     8
 71
     3
 72
    14
 73
    10
 74
     8
 42
0.0000000001
 43
0.0000000001
 44
0.0000000001
 40
0.0
 40
0.0
 40
0.0
 40
0.0
 40
0.084924416569318
 40
0.1861326048489841
 40
0.3249483923622334
 40
0.4354406115106463
 40
0.5746721255796191
 40
0.6931665272816661
 40
0.8901950781830613
 40
0.8901950781830613
 40
0.8901950781830613
 40
0.8901950781830613
 10
-11.03657830429813
 20
18.27895779132905
 30
0.0
 10
-11.05509554554423
 20
18.30079426480851
 30
0.0
 10
-11.09568060325776
 20
18.34865423080697
 30
0.0
 10
-11.1941177434452
 20
18.39637324142029
 30
0.0
 10
-11.29589729853692
 20
18.45967847493754
 30
0.0
 10
-11.43227147328105
 20
18.45142142238767
 30
0.0
 10
-11.53671449311243
 20
18.35077397115933
 30
0.0
 10
-11.49620822712615
 20
18.18684703734585
 30
0.0
 10
-11.41397230858561
 20
18.11871909436919
 30
0.0
 10
-11.36262002588036
 20
18.07617654787669
 30
0.0
 11
-11.03657830429813
 21
18.27895779132905
 31
0.0
 11
-11.09541921152949
 21
18.34019425241091
 31
0.0
 11
-11.18218916254292
 21
18.3922910179149
 31
0.0
 11
-11.30880724264199
 21
18.44919167393002
 31
0.0
 11
-11.41889173010423
 21
18.43970820871336
 31
0.0
 11
-11.51456172199925
 21
18.33855156206696
 31
0.0
 11
-11.49556894385355
 21
18.2215891851544
 31
0.0
 11
-11.36262002588036
 21
18.07617654787669
 31
0.0
  0
CIRCLE
  5
14303
330
18
100
AcDbEntity
  8
fleurs centrales
100
AcDbCircle
 10
-11.04921313092404
 20
18.09503741501855
 30
0.0
 40
0.0948871951841532
  0
ARC
  5
14304
330
18
100
AcDbEntity
  8
fleurs centrales
100
AcDbCircle
 10
-11.18632945395714
 20
17.78192420418615
 30
0.0
 40
0.3006522520197647
100
AcDbArc
 50
81.67612620737164
 51
159.0215027245255
  0
ARC
  5
14305
330
18
100
AcDbEntity
  8
fleurs centrales
100
AcDbCircle
 10
-11.59751662510525
 20
18.61778250444963
 30
0.0
 40
0.7398137865561011
100
AcDbArc
 50
280.1570354998716
 51
309.2284632854842
  0
ARC
  5
14306
330
18
100
AcDbEntity
  8
fleurs centrales
100
AcDbCircle
 10
-10.64416174645179
 20
16.75862152625888
 30
0.0
 40
1.398634508536604
100
AcDbArc
 50
110.7512747309246
 51
126.040237840382
  0
ARC
  5
14307
330
18
100
AcDbEntity
  8
fleurs centrales
100
AcDbCircle
 10
-10.878991986686
 20
17.60859370449811
 30
0.0
 40
0.4702287320662107
100
AcDbArc
 50
119.0123216681436
 51
167.2528683556321
  0
ARC
  5
14308
330
18
100
AcDbEntity
  8
fleurs centrales
100
AcDbCircle
 10
-11.79827335859655
 20
18.37160800203358
 30
0.0
 40
0.80424724915249
100
AcDbArc
 50
304.943047912511
 51
332.9589922928854
  0
ARC
  5
14309
330
18
100
AcDbEntity
  8
fleurs centrales
100
AcDbCircle
 10
7.094550067350944
 20
2.876750659768022
 30
0.0
 40
23.66094426757924
100
AcDbArc
 50
140.2358338242696
 51
141.1702877227692
  0
ARC
  5
1430A
330
18
100
AcDbEntity
  8
fleurs centrales
100
AcDbCircle
 10
-10.57731207550857
 20
18.12873806332235
 30
0.0
 40
0.4479608715795072
100
AcDbArc
 50
195.4910698997871
 51
247.3183083996258
  0
ARC
  5
1430B
330
18
100
AcDbEntity
  8
fleurs centrales
100
AcDbCircle
 10
-11.99380687263492
 20
17.07609935050727
 30
0.0
 40
1.398450004154408
100
AcDbArc
 50
27.20432695717165
 51
43.28505497007028
  0
ARC
  5
1430C
330
18
100
AcDbEntity
  8
fleurs centrales
100
AcDbCircle
 10
-10.10244020437262
 20
18.48264553548346
 30
0.0
 40
1.004007793295341
100
AcDbArc
 50
207.5212573434684
 51
229.8324136223459
  0
ARC
  5
1430D
330
18
100
AcDbEntity
  8
fleurs centrales
100
AcDbCircle
 10
-10.50520077927567
 20
18.41107212421247
 30
0.0
 40
0.6024611300627996
100
AcDbArc
 50
218.6355898559563
 51
260.6714362622158
  0
ARC
  5
1430E
330
18
100
AcDbEntity
  8
fleurs centrales
100
AcDbCircle
 10
-11.09478770458803
 20
17.47481995220444
 30
0.0
 40
0.598994622225222
100
AcDbArc
 50
34.78884303316688
 51
77.14470491451149
  0
ARC
  5
1430F
330
18
100
AcDbEntity
  8
fleurs centrales
100
AcDbCircle
 10
0.5390080526756549
 20
36.12178219290354
 30
0.0
 40
21.42945734997943
100
AcDbArc
 50
237.5193634305681
 51
238.67229523787
  0
ARC
  5
14310
330
18
100
AcDbEntity
  8
fleurs centrales
100
AcDbCircle
 10
-10.86391317304064
 20
18.4834621708013
 30
0.0
 40
0.4093998242773131
100
AcDbArc
 50
257.1541686079559
 51
318.5650556291828
  0
ARC
  5
14311
330
18
100
AcDbEntity
  8
fleurs centrales
100
AcDbCircle
 10
-10.57177572704339
 20
17.31397540930134
 30
0.0
 40
0.8986803105710036
100
AcDbArc
 50
89.05684109628749
 51
115.5335441665089
  0
ARC
  5
14312
330
18
100
AcDbEntity
  8
fleurs centrales
100
AcDbCircle
 10
-11.21145172146702
 20
19.69517402492065
 30
0.0
 40
1.620663703559362
100
AcDbArc
 50
279.1288142451852
 51
293.8176783717631
  0
ARC
  5
14313
330
18
100
AcDbEntity
  8
fleurs centrales
100
AcDbCircle
 10
-10.57058712540944
 20
17.84691360020508
 30
0.0
 40
0.5537310740789465
100
AcDbArc
 50
102.2788856693583
 51
142.7536323994991
  0
ARC
  5
14314
330
18
100
AcDbEntity
  8
fleurs centrales
100
AcDbCircle
 10
-11.06263701186657
 20
18.52109618619997
 30
0.0
 40
0.3972554304043796
100
AcDbArc
 50
284.4087382619413
 51
340.4216317239436
  0
ARC
  5
14315
330
18
100
AcDbEntity
  8
fleurs centrales
100
AcDbCircle
 10
-11.79343354259863
 20
19.42335060336699
 30
0.0
 40
1.514334379182348
100
AcDbArc
 50
302.8281804414429
 51
316.865370113688
  0
ARC
  5
14316
330
18
100
AcDbEntity
  8
fleurs centrales
100
AcDbCircle
 10
-11.52253289884194
 20
17.95266194607282
 30
0.0
 40
0.5044827938295825
100
AcDbArc
 50
27.6586610634231
 51
67.7390888062697
  0
ARC
  5
14317
330
18
100
AcDbEntity
  8
fleurs centrales
100
AcDbCircle
 10
-10.94888835742931
 20
18.46725109572476
 30
0.0
 40
0.3854971910165311
100
AcDbArc
 50
187.1087252113713
 51
240.7764712652607
  0
ARC
  5
14318
330
18
100
AcDbEntity
  8
fleurs centrales
100
AcDbCircle
 10
-8.186315665548175
 20
20.86973330363693
 30
0.0
 40
3.986868341389177
100
AcDbArc
 50
217.9202962946557
 51
222.7399982984687
  0
ARC
  5
14319
330
18
100
AcDbEntity
  8
fleurs centrales
100
AcDbCircle
 10
-11.47311724841993
 20
17.71866942734836
 30
0.0
 40
0.5317691866692167
100
AcDbArc
 50
50.80994295414338
 51
89.56925798257904
  0
ARC
  5
1431A
330
18
100
AcDbEntity
  8
fleurs centrales
100
AcDbCircle
 10
-11.18183251756132
 20
18.46950905702858
 30
0.0
 40
0.3612924895025872
100
AcDbArc
 50
217.3291944707967
 51
276.1924046313299
  0
ARC
  5
1431B
330
18
100
AcDbEntity
  8
fleurs centrales
100
AcDbCircle
 10
-9.194388389583544
 20
23.09781567809407
 30
0.0
 40
5.354587919388304
100
AcDbArc
 50
244.8607875401097
 51
248.6608115620174
  0
SPLINE
  5
14372
330
18
100
AcDbEntity
  8
fleurs centrales
100
AcDbSpline
210
0.0
220
0.0
230
1.0
 70
     8
 71
     3
 72
    13
 73
     9
 74
     7
 42
0.0000000001
 43
0.0000000001
 44
0.0000000001
 40
0.0
 40
0.0
 40
0.0
 40
0.0
 40
0.1613980137943058
 40
0.3254539277364633
 40
0.4755840656698356
 40
0.6905010959503251
 40
0.8229600281300491
 40
0.8865941915684743
 40
0.8865941915684743
 40
0.8865941915684743
 40
0.8865941915684743
 10
-11.69030972807329
 20
18.30822273682309
 30
0.0
 10
-11.67969077873296
 20
18.3629541000295
 30
0.0
 10
-11.65827800734875
 20
18.47331814173697
 30
0.0
 10
-11.51996898238142
 20
18.57105508590908
 30
0.0
 10
-11.35315333913653
 20
18.63114676724189
 30
0.0
 10
-11.17856485838475
 20
18.60441214429968
 30
0.0
 10
-11.06420543019392
 20
18.51650054755719
 30
0.0
 10
-11.03801007658359
 20
18.45605090490486
 30
0.0
 10
-11.02950942332137
 20
18.436434393532
 30
0.0
 11
-11.69030972807329
 21
18.30822273682309
 31
0.0
 11
-11.64044182890762
 21
18.46172358857822
 31
0.0
 11
-11.51382369981374
 21
18.56604133531462
 31
0.0
 11
-11.37137838869778
 21
18.61345854376229
 31
0.0
 11
-11.15929303928846
 21
18.57868593283773
 31
0.0
 11
-11.05799846872162
 21
18.49333501785802
 31
0.0
 11
-11.02950942332137
 21
18.436434393532
 31
0.0
  0
SPLINE
  5
14373
330
18
100
AcDbEntity
  8
fleurs centrales
100
AcDbSpline
210
0.0
220
0.0
230
1.0
 70
     8
 71
     3
 72
    15
 73
    11
 74
     9
 42
0.0000000001
 43
0.0000000001
 44
0.0000000001
 40
0.0
 40
0.0
 40
0.0
 40
0.0
 40
0.1531265692057819
 40
0.4018697595084954
 40
0.6325751039434041
 40
0.7468326513161733
 40
0.9167782713037375
 40
1.102333292095875
 40
1.195347714709774
 40
1.237085843914642
 40
1.237085843914642
 40
1.237085843914642
 40
1.237085843914642
 10
-11.0295094233214
 20
18.43643439353208
 30
0.0
 10
-11.00136694434998
 20
18.48056149733421
 30
0.0
 10
-10.92750901548188
 20
18.59636993400687
 30
0.0
 10
-10.69702113147442
 20
18.64576675810798
 30
0.0
 10
-10.49690191545747
 20
18.56609827358551
 30
0.0
 10
-10.41013664726242
 20
18.41181772605105
 30
0.0
 10
-10.38607532510072
 20
18.25518953911783
 30
0.0
 10
-10.41579166159411
 20
18.10021306907654
 30
0.0
 10
-10.48576599507695
 20
18.0180114379633
 30
0.0
 10
-10.5101250085648
 20
17.98029236540875
 30
0.0
 10
-10.51766994659036
 20
17.96860929519953
 30
0.0
 11
-11.0295094233214
 21
18.43643439353208
 31
0.0
 11
-10.93454582650095
 21
18.55655791943627
 31
0.0
 11
-10.69397143169136
 21
18.61978082101453
 31
0.0
 11
-10.48365879383635
 21
18.52494649015646
 31
0.0
 11
-10.42490790736686
 21
18.42695097765365
 31
0.0
 11
-10.39641877785195
 21
18.25941028632035
 31
0.0
 11
-10.44073517350359
 21
18.07922504048258
 31
0.0
 11
-10.49454786154557
 21
18.00335754138123
 31
0.0
 11
-10.51766994659036
 21
17.96860929519953
 31
0.0
  0
SPLINE
  5
14374
330
18
100
AcDbEntity
  8
fleurs centrales
100
AcDbSpline
210
0.0
220
0.0
230
1.0
 70
     8
 71
     3
 72
    15
 73
    11
 74
     0
 42
0.0000000001
 43
0.0000000001
 40
0.001687998466179
 40
0.001687998466179
 40
0.001687998466179
 40
0.001687998466179
 40
0.1204908663316703
 40
0.2841110664308678
 40
0.4169542446439735
 40
0.5830815748214265
 40
0.8974395834752611
 40
1.366231375545159
 40
1.622782493990386
 40
1.838445283198101
 40
1.838445283198101
 40
1.838445283198101
 40
1.838445283198101
 10
-12.47028129871379
 20
17.98301580434021
 30
0.0
 10
-12.50925117805878
 20
17.9752037213922
 30
0.0
 10
-12.60184132785024
 20
17.95647071130926
 30
0.0
 10
-12.72534516072555
 20
17.88855489443583
 30
0.0
 10
-12.84097971085704
 20
17.78458818679486
 30
0.0
 10
-12.95983939537163
 20
17.61931534999913
 30
0.0
 10
-13.22212819010997
 20
17.43436908835374
 30
0.0
 10
-13.51484550112651
 20
17.25108985482439
 30
0.0
 10
-13.82345495835102
 20
17.16797168554694
 30
0.0
 10
-13.98131548460116
 20
17.17546169415896
 30
0.0
 10
-14.05341128873814
 20
17.1788824238797
 30
0.0
  0
SPLINE
  5
14375
330
18
100
AcDbEntity
  8
fleurs centrales
100
AcDbSpline
210
0.0
220
0.0
230
1.0
 70
     8
 71
     3
 72
    12
 73
     8
 74
     0
 42
0.0000000001
 43
0.0000000001
 40
0.0017757259308967
 40
0.0017757259308967
 40
0.0017757259308967
 40
0.0017757259308967
 40
0.2519727351258006
 40
0.3530117782945784
 40
0.5044263693138911
 40
0.5681533070658955
 40
0.6254919806254609
 40
0.6254919806254609
 40
0.6254919806254609
 40
0.6254919806254609
 10
-12.47010861517058
 20
17.98235821446402
 30
0.0
 10
-12.54001380299994
 20
17.93583533293512
 30
0.0
 10
-12.638048574988
 20
17.87041197451863
 30
0.0
 10
-12.74961449820329
 20
17.74463638800462
 30
0.0
 10
-12.81708023663533
 20
17.66395710795744
 30
0.0
 10
-12.85042056017922
 20
17.57460323845668
 30
0.0
 10
-12.83796131888578
 20
17.5351136744727
 30
0.0
 10
-12.83206041637857
 20
17.51641076458973
 30
0.0
  0
SPLINE
  5
14377
330
18
100
AcDbEntity
  8
fleurs centrales
100
AcDbSpline
210
0.0
220
0.0
230
1.0
 70
     8
 71
     3
 72
    13
 73
     9
 74
     7
 42
0.0000000001
 43
0.0000000001
 44
0.0000000001
 40
0.0
 40
0.0
 40
0.0
 40
0.0
 40
0.0708038167063834
 40
0.141607633412763
 40
0.3419830931536282
 40
0.5423585528944642
 40
0.9833245686782838
 40
1.424290584462077
 40
1.424290584462077
 40
1.424290584462077
 40
1.424290584462077
 10
-12.52144066016139
 20
17.51335889222064
 30
0.0
 10
-12.54662275650803
 20
17.51287905577347
 30
0.0
 10
-12.59698694920129
 20
17.51191938287912
 30
0.0
 10
-12.66560707360373
 20
17.62246992336994
 30
0.0
 10
-12.58871289421627
 20
17.78687201592162
 30
0.0
 10
-12.38649356777236
 20
17.97713764821399
 30
0.0
 10
-12.03243192213804
 20
18.10220735638516
 30
0.0
 10
-11.74188546937308
 20
18.13814000634856
 30
0.0
 10
-11.59661224299061
 20
18.15610633133026
 30
0.0
 11
-12.52144066016139
 21
17.51335889222064
 31
0.0
 11
-12.59149941989752
 21
17.52360343439819
 31
0.0
 11
-12.63288414191076
 21
17.5810532842159
 31
0.0
 11
-12.58098030386885
 21
17.77458962825205
 31
0.0
 11
-12.43885493188333
 21
17.91583658752669
 31
0.0
 11
-12.03192321828449
 21
18.08571185807473
 31
0.0
 11
-11.59661224299061
 21
18.15610633133026
 31
0.0
  0
SPLINE
  5
14378
330
18
100
AcDbEntity
  8
fleurs centrales
100
AcDbSpline
210
0.0
220
0.0
230
1.0
 70
     8
 71
     3
 72
    20
 73
    16
 74
    14
 42
0.0000000001
 43
0.0000000001
 44
0.0000000001
 40
0.0
 40
0.0
 40
0.0
 40
0.0
 40
0.1574015543323753
 40
0.3208091751199857
 40
0.3987987063547216
 40
0.5436559466555649
 40
0.6817541596157153
 40
0.9176947215976284
 40
1.086638033027404
 40
1.174152049382752
 40
1.236289988219736
 40
1.327332707043542
 40
1.434376667268307
 40
1.535853336215416
 40
1.616829558621699
 40
1.616829558621699
 40
1.616829558621699
 40
1.616829558621699
 10
-11.65860025762434
 20
18.00757529254616
 30
0.0
 10
-11.71065437366545
 20
18.01548560642969
 30
0.0
 10
-11.81674886618541
 20
18.0316080728353
 30
0.0
 10
-11.95047053934325
 20
18.01511795835567
 30
0.0
 10
-12.07448402555326
 20
17.98061831076111
 30
0.0
 10
-12.18548901774091
 20
17.93105396002449
 30
0.0
 10
-12.32541152255406
 20
17.83000271465066
 30
0.0
 10
-12.45769801237774
 20
17.6959691780346
 30
0.0
 10
-12.4940238602284
 20
17.52905481316849
 30
0.0
 10
-12.5788161614414
 20
17.45514300730436
 30
0.0
 10
-12.66003926338643
 20
17.440421630196
 30
0.0
 10
-12.74608302033198
 20
17.46003007015355
 30
0.0
 10
-12.83644545638119
 20
17.50897432739767
 30
0.0
 10
-12.89182244042658
 20
17.59065897544292
 30
0.0
 10
-12.91887640483443
 20
17.6449517163595
 30
0.0
 10
-12.93088349237693
 20
17.66904791473101
 30
0.0
 11
-11.65860025762434
 21
18.00757529254616
 31
0.0
 11
-11.81511801897407
 21
18.02423181344084
 31
0.0
 11
-11.97753654976593
 21
18.00627989468877
 31
0.0
 11
-12.05264581636653
 21
17.98528072677824
 31
0.0
 11
-12.18475813322145
 21
17.92586729561322
 31
0.0
 11
-12.29770099978489
 21
17.84640016205964
 31
0.0
 11
-12.45066679892691
 21
17.66676326974299
 31
0.0
 11
-12.52144066016105
 21
17.51335889222113
 31
0.0
 11
-12.5892192014648
 21
17.45799850568545
 31
0.0
 11
-12.65011383564151
 21
17.44563052398298
 31
0.0
 11
-12.73957850165134
 21
17.46250802932531
 31
0.0
 11
-12.83206041637857
 21
17.51641076458973
 31
0.0
 11
-12.89331657768902
 21
17.59731315665641
 31
0.0
 11
-12.93088349237693
 21
17.66904791473101
 31
0.0
  0
ARC
  5
14379
330
18
100
AcDbEntity
  8
fleurs centrales
100
AcDbCircle
 10
-12.47030965824919
 20
17.98265688877044
 30
0.0
 40
0.0003600342322956
100
AcDbArc
 50
303.3439547991676
 51
117.1892174131994
  0
ARC
  5
14383
330
18
100
AcDbEntity
  8
fleurs centrales
100
AcDbCircle
 10
-12.7729166087175
 20
18.02451184806572
 30
0.0
 40
0.0003600342322956
100
AcDbArc
 50
303.3439547991676
 51
117.1892174131994
  0
SPLINE
  5
14386
330
18
100
AcDbEntity
  8
fleurs centrales
100
AcDbSpline
210
0.0
220
0.0
230
1.0
 70
     8
 71
     3
 72
    12
 73
     8
 74
     6
 42
0.0000000001
 43
0.0000000001
 44
0.0000000001
 40
0.0
 40
0.0
 40
0.0
 40
0.0
 40
0.1570362601824833
 40
0.3304940295548958
 40
0.6608663395831851
 40
0.7691593257849816
 40
0.8774523119867559
 40
0.8774523119867559
 40
0.8774523119867559
 40
0.8774523119867559
 10
-13.63800008123248
 20
17.7691152697153
 30
0.0
 10
-13.69041386572925
 20
17.7683442805997
 30
0.0
 10
-13.80072242008751
 20
17.76672167891993
 30
0.0
 10
-14.01948243003571
 20
17.78396258710445
 30
0.0
 10
-14.22925618102306
 20
17.78628857059087
 30
0.0
 10
-14.39502798378734
 20
17.86881962480468
 30
0.0
 10
-14.44874079748712
 20
17.91739923386744
 30
0.0
 10
-14.475597204337
 20
17.94168903839882
 30
0.0
 11
-13.63800008123248
 21
17.7691152697153
 31
0.0
 11
-13.79503634141497
 21
17.7691152697153
 31
0.0
 11
-13.96823799051965
 21
17.77853792873866
 31
0.0
 11
-14.29550466639297
 21
17.8237306947113
 31
0.0
 11
-14.39204549911596
 21
17.87279431134984
 31
0.0
 11
-14.475597204337
 21
17.94168903839882
 31
0.0
  0
SPLINE
  5
14387
330
18
100
AcDbEntity
  8
fleurs centrales
100
AcDbSpline
210
0.0
220
0.0
230
1.0
 70
     8
 71
     3
 72
    21
 73
    17
 74
    15
 42
0.0000000001
 43
0.0000000001
 44
0.0000000001
 40
0.0
 40
0.0
 40
0.0
 40
0.0
 40
0.3228433053726295
 40
0.6456866107452383
 40
0.7808098431077008
 40
0.9158142795275631
 40
1.03290475247903
 40
1.234935693474855
 40
1.460113555757579
 40
1.857255270089243
 40
2.094434687471698
 40
2.331614104854146
 40
2.557419467179429
 40
2.598862043222649
 40
2.739518739199313
 40
2.866020968179651
 40
2.866020968179651
 40
2.866020968179651
 40
2.866020968179651
 10
-14.475597204337
 20
17.94168903839883
 30
0.0
 10
-14.37581107948542
 20
17.98230069408589
 30
0.0
 10
-14.17623882978226
 20
18.06352400546002
 30
0.0
 10
-13.9390408612048
 20
18.16728059051299
 30
0.0
 10
-13.74998792555965
 20
18.23414965708123
 30
0.0
 10
-13.61946326779917
 20
18.22496544119067
 30
0.0
 10
-13.46818559453478
 20
18.21668854433339
 30
0.0
 10
-13.29491596544861
 20
18.15540338261214
 30
0.0
 10
-13.01797046503844
 20
18.14270906254383
 30
0.0
 10
-12.73244471610665
 20
18.18394492107681
 30
0.0
 10
-12.45360357422022
 20
18.26459626599611
 30
0.0
 10
-12.22827441654469
 20
18.32923590366418
 30
0.0
 10
-12.0589794004435
 20
18.33597002924432
 30
0.0
 10
-11.92312260688241
 20
18.33426759485421
 30
0.0
 10
-11.819859314314
 20
18.3304052964639
 30
0.0
 10
-11.73281814265989
 20
18.31083088018752
 30
0.0
 10
-11.6916033405376
 20
18.30156221251957
 30
0.0
 11
-14.475597204337
 21
17.94168903839883
 31
0.0
 11
-14.17709448772398
 21
18.06466841877851
 31
0.0
 11
-13.87859177111098
 21
18.18764779915818
 31
0.0
 11
-13.74871584932742
 21
18.22493764851363
 31
0.0
 11
-13.61371141290756
 21
18.22493764851362
 31
0.0
 11
-13.49711594534628
 21
18.21418238002949
 31
0.0
 11
-13.30060091639014
 21
18.16729587329222
 31
0.0
 11
-13.07604876456602
 21
18.15052086886963
 31
0.0
 11
-12.68234988030711
 21
18.20270065226878
 31
0.0
 11
-12.45338203717937
 21
18.26456989214863
 31
0.0
 11
-12.2229378550193
 21
18.32069078788678
 31
0.0
 11
-11.99759193591243
 21
18.3350879541612
 31
0.0
 11
-11.95615219741016
 21
18.33460299853274
 31
0.0
 11
-11.81577570393095
 21
18.32572909287896
 31
0.0
 11
-11.6916033405376
 21
18.30156221251957
 31
0.0
  0
SPLINE
  5
14388
330
18
100
AcDbEntity
  8
fleurs centrales
100
AcDbSpline
210
0.0
220
0.0
230
1.0
 70
     8
 71
     3
 72
    27
 73
    23
 74
    21
 42
0.0000000001
 43
0.0000000001
 44
0.0000000001
 40
0.0
 40
0.0
 40
0.0
 40
0.0
 40
0.2497893837639937
 40
0.4995787675279721
 40
0.7713463762814974
 40
1.003650816178754
 40
1.096936331943467
 40
1.182726867400284
 40
1.305091877002551
 40
1.339681862446257
 40
1.370127008798272
 40
1.420662410472531
 40
1.474391444287236
 40
1.651913311622933
 40
1.920163118300305
 40
2.151326146659717
 40
2.382489175019124
 40
2.566157422607155
 40
2.814293605431707
 40
3.001351151947892
 40
3.174787014797623
 40
3.348222877647331
 40
3.348222877647331
 40
3.348222877647331
 40
3.348222877647331
 10
-14.15474503453822
 20
17.34372388520712
 30
0.0
 10
-14.23556442079246
 20
17.32346689174247
 30
0.0
 10
-14.39720319330093
 20
17.28295290481317
 30
0.0
 10
-14.64815752310204
 20
17.23034543633666
 30
0.0
 10
-14.8961767692351
 20
17.17469033889286
 30
0.0
 10
-15.09643290055954
 20
17.20486455184408
 30
0.0
 10
-15.22785216411187
 20
17.24598355576853
 30
0.0
 10
-15.31772143822657
 20
17.28830069486006
 30
0.0
 10
-15.39706743403078
 20
17.32140749186509
 30
0.0
 10
-15.45469754091825
 20
17.32410052005708
 30
0.0
 10
-15.50468761209438
 20
17.335599509142
 30
0.0
 10
-15.453699999622
 20
17.38415363849579
 30
0.0
 10
-15.39115737943477
 20
17.43594404729288
 30
0.0
 10
-15.24274134810275
 20
17.53381315947254
 30
0.0
 10
-15.02506220258821
 20
17.59640372920206
 30
0.0
 10
-14.7774985360771
 20
17.58615177676064
 30
0.0
 10
-14.57042306585724
 20
17.52393372877438
 30
0.0
 10
-14.34938792165318
 20
17.50656556936302
 30
0.0
 10
-14.14152417441518
 20
17.51311432565248
 30
0.0
 10
-13.94546151738765
 20
17.56892309252459
 30
0.0
 10
-13.7781378627112
 20
17.62980366709028
 30
0.0
 10
-13.67373909929936
 20
17.67968649514296
 30
0.0
 10
-13.62153971759345
 20
17.70462790916929
 30
0.0
 11
-14.15474503453822
 21
17.34372388520712
 31
0.0
 11
-14.39742746781888
 21
17.28456331710496
 31
0.0
 11
-14.64144396831654
 21
17.23117152254753
 31
0.0
 11
-14.91007411926872
 21
17.18999537451226
 31
0.0
 11
-15.14042207703927
 21
17.2200814368487
 31
0.0
 11
-15.22921012042263
 21
17.24869735555917
 31
0.0
 11
-15.3078334967744
 21
17.28302490520977
 31
0.0
 11
-15.42391292700661
 21
17.32173874578299
 31
0.0
 11
-15.45827231293348
 21
17.3257261875348
 31
0.0
 11
-15.48671424485001
 21
17.33658728532697
 31
0.0
 11
-15.45874327994233
 21
17.37867590545773
 31
0.0
 11
-15.41769478107974
 21
17.41334332266453
 31
0.0
 11
-15.26797163321491
 21
17.50872147726924
 31
0.0
 11
-15.01064439752456
 21
17.58448857140916
 31
0.0
 11
-14.77961459188327
 21
17.57664162387255
 31
0.0
 11
-14.55354324841893
 21
17.52839130424124
 31
0.0
 11
-14.37068812221254
 21
17.51112781698917
 31
0.0
 11
-14.12295337620853
 21
17.52523670954196
 31
0.0
 11
-13.94192336002233
 21
17.57233935223088
 31
0.0
 11
-13.77921398327569
 21
17.63238647740061
 31
0.0
 11
-13.62153971759345
 21
17.70462790916929
 31
0.0
  0
SPLINE
  5
1438B
330
18
100
AcDbEntity
  8
fleurs centrales
100
AcDbSpline
210
0.0
220
0.0
230
1.0
 70
     8
 71
     3
 72
    11
 73
     7
 74
     5
 42
0.0000000001
 43
0.0000000001
 44
0.0000000001
 40
0.0
 40
0.0
 40
0.0
 40
0.0
 40
0.0558403517662955
 40
0.1150116643180508
 40
0.1881360722955257
 40
0.2980330605319887
 40
0.2980330605319887
 40
0.2980330605319887
 40
0.2980330605319887
 10
-14.11355187160601
 20
17.33905674720474
 30
0.0
 10
-14.12779546061508
 20
17.35081341733726
 30
0.0
 10
-14.15713229009373
 20
17.37502806061958
 30
0.0
 10
-14.18259865268967
 20
17.44388821912542
 30
0.0
 10
-14.10978549389727
 20
17.5022415391586
 30
0.0
 10
-14.057947060288
 20
17.53010793008646
 30
0.0
 10
-14.02682016558388
 20
17.54684057719408
 30
0.0
 11
-14.11355187160601
 21
17.33905674720474
 31
0.0
 11
-14.1530369630038
 21
17.37854183860253
 31
0.0
 11
-14.16917100236009
 21
17.43547106662424
 31
0.0
 11
-14.12134934396377
 21
17.49079075597877
 31
0.0
 11
-14.02682016558388
 21
17.54684057719408
 31
0.0
  0
SPLINE
  5
14392
330
18
100
AcDbEntity
  8
fleurs centrales
100
AcDbSpline
210
0.0
220
0.0
230
1.0
 70
     8
 71
     3
 72
    14
 73
    10
 74
     8
 42
0.0000000001
 43
0.0000000001
 44
0.0000000001
 40
0.0
 40
0.0
 40
0.0
 40
0.0
 40
0.2685535373334217
 40
0.5178194155214923
 40
0.6865983317372306
 40
0.838331660017535
 40
1.157163877354796
 40
1.569263484543673
 40
1.622295085743936
 40
1.622295085743936
 40
1.622295085743936
 40
1.622295085743936
 10
-14.05341128873814
 20
17.1788824238797
 30
0.0
 10
-14.02698930670096
 20
17.26528871550854
 30
0.0
 10
-13.97604298355338
 20
17.43189555253961
 30
0.0
 10
-13.80768624233545
 20
17.60418175121929
 30
0.0
 10
-13.62767855155782
 20
17.67093222782969
 30
0.0
 10
-13.42027134054859
 20
17.71872667313546
 30
0.0
 10
-13.12545873465857
 20
17.75571520679915
 30
0.0
 10
-12.89645450513521
 20
17.90394411737718
 30
0.0
 10
-12.78538250532826
 20
18.01190230516519
 30
0.0
 10
-12.7727187109149
 20
18.02421108053398
 30
0.0
 11
-14.05341128873814
 21
17.1788824238797
 31
0.0
 11
-13.95369680394636
 21
17.42823764026187
 31
0.0
 11
-13.77743921116115
 21
17.60449523304708
 31
0.0
 11
-13.62153971759342
 21
17.66916106996491
 31
0.0
 11
-13.47400969953652
 21
17.70462790916929
 31
0.0
 11
-13.1624363980697
 21
17.77227449537479
 31
0.0
 11
-12.81103244812294
 21
17.98754490719919
 31
0.0
 11
-12.7727187109149
 21
18.02421108053398
 31
0.0
  0
SPLINE
  5
14393
330
18
100
AcDbEntity
  8
fleurs centrales
100
AcDbSpline
210
0.0
220
0.0
230
1.0
 70
     8
 71
     3
 72
    10
 73
     6
 74
     4
 42
0.0000000001
 43
0.0000000001
 44
0.0000000001
 40
0.0
 40
0.0
 40
0.0
 40
0.0
 40
0.113531785787252
 40
0.1672709273380446
 40
0.2438104273102393
 40
0.2438104273102393
 40
0.2438104273102393
 40
0.2438104273102393
 10
-11.71005114627764
 20
18.14178497126066
 30
0.0
 10
-11.75401274920943
 20
18.15347376504673
 30
0.0
 10
-11.81878313962192
 20
18.17069533310806
 30
0.0
 10
-11.80908580619924
 20
18.26078550240038
 30
0.0
 10
-11.79826406579635
 20
18.30169469287085
 30
0.0
 10
-11.79190622701645
 20
18.32572909287896
 30
0.0
 11
-11.71005114627764
 21
18.14178497126066
 31
0.0
 11
-11.80903301171678
 21
18.19739123617956
 31
0.0
 11
-11.80903301171678
 21
18.25113037773036
 31
0.0
 11
-11.79190622701645
 21
18.32572909287896
 31
0.0
  0
SPLINE
  5
14395
330
18
100
AcDbEntity
  8
fleurs centrales
100
AcDbSpline
210
0.0
220
0.0
230
1.0
 70
     8
 71
     3
 72
    11
 73
     7
 74
     5
 42
0.0000000001
 43
0.0000000001
 44
0.0000000001
 40
0.0
 40
0.0
 40
0.0
 40
0.0
 40
0.2528450046978054
 40
0.4694548350538888
 40
0.7180231882985597
 40
0.9143607074893068
 40
0.9143607074893068
 40
0.9143607074893068
 40
0.9143607074893068
 10
-13.62153971759342
 20
17.70462790916929
 30
0.0
 10
-13.5395816680387
 20
17.72418163286993
 30
0.0
 10
-13.38741096298153
 20
17.76048683947485
 30
0.0
 10
-13.15464084712541
 20
17.8174852187384
 30
0.0
 10
-12.95130966294948
 20
17.90714453610652
 30
0.0
 10
-12.82732169607988
 20
17.98870193264385
 30
0.0
 10
-12.77260565088267
 20
18.02469331396715
 30
0.0
 11
-13.62153971759342
 21
17.70462790916929
 31
0.0
 11
-13.37566033245403
 21
17.76356791565138
 31
0.0
 11
-13.16669677124698
 21
17.82061218525455
 31
0.0
 11
-12.93923943578886
 21
17.92085881502863
 31
0.0
 11
-12.77260565088267
 21
18.02469331396715
 31
0.0
  0
LINE
  5
143D9
330
18
100
AcDbEntity
  8
fleurs centrales
100
AcDbLine
 10
-6.723042516483451
 20
17.1788824238797
 30
0.0
 11
-6.678624026123081
 21
17.31558032382343
 31
0.0
  0
LINE
  5
143DA
330
18
100
AcDbEntity
  8
fleurs centrales
100
AcDbLine
 10
-6.786397267415519
 20
17.55730333001191
 30
0.0
 11
-6.662901933615586
 21
17.33905674720474
 31
0.0
  0
ARC
  5
143DB
330
18
100
AcDbEntity
  8
fleurs centrales
100
AcDbCircle
 10
-6.638243597845356
 20
17.3055403998857
 30
0.0
 40
0.0416098433134254
100
AcDbArc
 50
66.58564713918477
 51
166.0374736836895
  0
ARC
  5
143DC
330
18
100
AcDbEntity
  8
fleurs centrales
100
AcDbCircle
 10
-7.140327874251983
 20
17.73524921585097
 30
0.0
 40
0.0339178720374577
100
AcDbArc
 50
86.8324776557125
 51
244.5295800895163
  0
ARC
  5
143DD
330
18
100
AcDbEntity
  8
fleurs centrales
100
AcDbCircle
 10
-9.31476133188986
 20
18.34412650428757
 30
0.0
 40
0.2314193805274487
100
AcDbArc
 50
305.662516470459
 51
351.0747420819523
  0
ARC
  5
143DE
330
18
100
AcDbEntity
  8
fleurs centrales
100
AcDbCircle
 10
-9.392696838746969
 20
17.98007263541164
 30
0.0
 40
0.2762159134435691
100
AcDbArc
 50
5.714376071721543
 51
39.59112905913458
  0
ARC
  5
143DF
330
18
100
AcDbEntity
  8
fleurs centrales
100
AcDbCircle
 10
-5.791963269433828
 20
17.83969840771476
 30
0.0
 40
0.509939618409022
100
AcDbArc
 50
233.2357547091557
 51
298.302943641304
  0
ARC
  5
143E0
330
18
100
AcDbEntity
  8
fleurs centrales
100
AcDbCircle
 10
-5.852713273574416
 20
17.01845579832396
 30
0.0
 40
0.4796927113060891
100
AcDbArc
 50
50.90017797675859
 51
120.6385203737011
  0
ARC
  5
143E1
330
18
100
AcDbEntity
  8
fleurs centrales
100
AcDbCircle
 10
-7.114889243394692
 20
17.50726424543351
 30
0.0
 40
0.5971356129113287
100
AcDbArc
 50
51.15970368654725
 51
126.4565687315262
  0
ARC
  5
143E2
330
18
100
AcDbEntity
  8
fleurs centrales
100
AcDbCircle
 10
-7.091221643081333
 20
18.644859007657
 30
0.0
 40
0.7584979655383301
100
AcDbArc
 50
240.0658737535985
 51
297.5503986644751
  0
ARC
  5
143E3
330
18
100
AcDbEntity
  8
fleurs centrales
100
AcDbCircle
 10
-7.341012670711027
 20
17.08270273149001
 30
0.0
 40
0.5054543684908346
100
AcDbArc
 50
28.63990896031307
 51
104.1586225717985
  0
ARC
  5
143E4
330
18
100
AcDbEntity
  8
fleurs centrales
100
AcDbCircle
 10
-6.886183699387562
 20
18.12372875010996
 30
0.0
 40
0.798838834935048
100
AcDbArc
 50
223.6031043758218
 51
269.19542715629
  0
ARC
  5
143E5
330
18
100
AcDbEntity
  8
fleurs centrales
100
AcDbCircle
 10
-6.699169395013562
 20
20.84549980270636
 30
0.0
 40
3.107589502574317
100
AcDbArc
 50
245.1854080596917
 51
261.8735330145016
  0
ARC
  5
143E6
330
18
100
AcDbEntity
  8
fleurs centrales
100
AcDbCircle
 10
-8.516615266060405
 20
17.32690611881879
 30
0.0
 40
0.6887774614555683
100
AcDbArc
 50
23.11574349255717
 51
72.23458307628459
  0
SPLINE
  5
143E7
330
18
100
AcDbEntity
  8
fleurs centrales
100
AcDbSpline
210
0.0
220
0.0
230
1.0
 70
     8
 71
     3
 72
    12
 73
     8
 74
     6
 42
0.0000000001
 43
0.0000000001
 44
0.0000000001
 40
0.0
 40
0.0
 40
0.0
 40
0.0
 40
0.2096678301071506
 40
0.3911446361930737
 40
0.5719468119053717
 40
0.8092419689034656
 40
1.0207613068666
 40
1.0207613068666
 40
1.0207613068666
 40
1.0207613068666
 10
-9.117853547597254
 20
18.00757529254617
 30
0.0
 10
-9.114836081182371
 20
17.9383203070795
 30
0.0
 10
-9.109206863755591
 20
17.80912206011394
 30
0.0
 10
-9.147042942767946
 20
17.61051973078996
 30
0.0
 10
-9.336953427111467
 20
17.49307093244528
 30
0.0
 10
-9.558525548931221
 20
17.54618890056343
 30
0.0
 10
-9.675177123764006
 20
17.63992833729568
 30
0.0
 10
-9.730153208890486
 20
17.68410628569362
 30
0.0
 11
-9.117853547597254
 21
18.00757529254617
 31
0.0
 11
-9.117853547597254
 21
17.79790746243901
 31
0.0
 11
-9.169867972994127
 21
17.62404449715376
 31
0.0
 11
-9.321809801374699
 21
17.5260490506745
 31
0.0
 11
-9.55605331568883
 21
17.56398277625631
 31
0.0
 11
-9.730153208890486
 21
17.68410628569362
 31
0.0
  0
SPLINE
  5
143E8
330
18
100
AcDbEntity
  8
fleurs centrales
100
AcDbSpline
210
0.0
220
0.0
230
1.0
 70
     8
 71
     3
 72
    15
 73
    11
 74
     9
 42
0.0000000001
 43
0.0000000001
 44
0.0000000001
 40
0.0
 40
0.0
 40
0.0
 40
0.0
 40
0.1141013453444013
 40
0.2557950024347205
 40
0.429894895636363
 40
0.5791825922040488
 40
0.6866356435374242
 40
0.7818165912933134
 40
0.9169261757439937
 40
1.018771178624418
 40
1.018771178624418
 40
1.018771178624418
 40
1.018771178624418
 10
-9.730153208890486
 20
17.68410628569362
 30
0.0
 10
-9.756511054110946
 20
17.65684947371083
 30
0.0
 10
-9.815600673624116
 20
17.59574452997457
 30
0.0
 10
-9.942175470343538
 20
17.51620844446271
 30
0.0
 10
-10.103057933424
 20
17.52766372244193
 30
0.0
 10
-10.24458725373229
 20
17.57163632392417
 30
0.0
 10
-10.32353383741248
 20
17.66174051443252
 30
0.0
 10
-10.37444082211737
 20
17.76847409816443
 30
0.0
 10
-10.32885143280518
 20
17.88151305834854
 30
0.0
 10
-10.27984655321452
 20
17.94242769182916
 30
0.0
 10
-10.25878385863123
 20
17.96860929519953
 30
0.0
 11
-9.730153208890486
 21
17.68410628569362
 31
0.0
 11
-9.812455027085734
 21
17.60507763436286
 31
0.0
 11
-9.935907688247754
 21
17.53553244824876
 31
0.0
 11
-10.11000758144939
 21
17.53553244824876
 31
0.0
 11
-10.24928746955838
 21
17.58927190409671
 31
0.0
 11
-10.32209289868077
 21
17.66830055542747
 31
0.0
 11
-10.35709332745454
 21
17.75681260433247
 31
0.0
 11
-10.31892747974372
 21
17.88641957898642
 31
0.0
 11
-10.25878385863123
 21
17.96860929519953
 31
0.0
  0
SPLINE
  5
143E9
330
18
100
AcDbEntity
  8
fleurs centrales
100
AcDbSpline
210
0.0
220
0.0
230
1.0
 70
     8
 71
     3
 72
    16
 73
    12
 74
    10
 42
0.0000000001
 43
0.0000000001
 44
0.0000000001
 40
0.0
 40
0.0
 40
0.0
 40
0.0
 40
0.1442928090717699
 40
0.2585419205162012
 40
0.3789239072327018
 40
0.4307968306849251
 40
0.5044048338812167
 40
0.6080880997604333
 40
0.6960520704157388
 40
0.8078915348007612
 40
0.8977973101146343
 40
0.8977973101146343
 40
0.8977973101146343
 40
0.8977973101146343
 10
-9.413833779341233
 20
18.07617654787669
 30
0.0
 10
-9.369563158689157
 20
18.05155104915236
 30
0.0
 10
-9.290239654216119
 20
18.00742741073398
 30
0.0
 10
-9.26270412278853
 20
17.87389331292105
 30
0.0
 10
-9.284314105881007
 20
17.7779229547886
 30
0.0
 10
-9.333240097911055
 20
17.71043412114083
 30
0.0
 10
-9.406812415683367
 20
17.67495962295837
 30
0.0
 10
-9.499346615321433
 20
17.70108235386317
 30
0.0
 10
-9.5753025957834
 20
17.76804910948796
 30
0.0
 10
-9.64492226342994
 20
17.83528545456155
 30
0.0
 10
-9.68651853006405
 20
17.88821116123895
 30
0.0
 10
-9.705055495830793
 20
17.91179698016568
 30
0.0
 11
-9.413833779341233
 21
18.07617654787669
 31
0.0
 11
-9.299877507252064
 21
17.98766449897168
 31
0.0
 11
-9.271388472295187
 21
17.87702438710863
 31
0.0
 11
-9.299877507252064
 21
17.76006201019607
 31
0.0
 11
-9.331532093407675
 21
17.71896715208952
 31
0.0
 11
-9.398006552394265
 21
17.68735569155722
 31
0.0
 11
-9.499301016473525
 21
17.70948375451528
 31
0.0
 11
-9.568941026658864
 21
17.76322321036322
 31
0.0
 11
-9.648077293655363
 21
17.84225179405158
 31
0.0
 11
-9.705055495830793
 21
17.91179698016568
 31
0.0
  0
SPLINE
  5
143EA
330
18
100
AcDbEntity
  8
fleurs centrales
100
AcDbSpline
210
0.0
220
0.0
230
1.0
 70
     8
 71
     3
 72
    14
 73
    10
 74
     8
 42
0.0000000001
 43
0.0000000001
 44
0.0000000001
 40
0.0
 40
0.0
 40
0.0
 40
0.0
 40
0.132131961510357
 40
0.3085630828720818
 40
0.4706105145434285
 40
0.5655946145889541
 40
0.663751797879538
 40
0.7944842168569482
 40
0.9160323984480019
 40
0.9160323984480019
 40
0.9160323984480019
 40
0.9160323984480019
 10
-9.705055495830793
 20
17.91179698016568
 30
0.0
 10
-9.733213096184854
 20
17.87740955914025
 30
0.0
 10
-9.798968541515536
 20
17.79710583457324
 30
0.0
 10
-9.933855993523497
 20
17.71760387208568
 30
0.0
 10
-10.0792390846905
 20
17.66225608351598
 30
0.0
 10
-10.19490992406953
 20
17.72294646067661
 30
0.0
 10
-10.2252403826745
 20
17.84212555946165
 30
0.0
 10
-10.14294471428843
 20
17.94033941842287
 30
0.0
 10
-10.07600856673635
 20
17.9893435534079
 30
0.0
 10
-10.04375889316124
 20
18.01295362681209
 30
0.0
 11
-9.705055495830793
 21
17.91179698016568
 31
0.0
 11
-9.793688151900143
 21
17.81380153368643
 31
0.0
 11
-9.942464429081981
 21
17.71896715208952
 31
0.0
 11
-10.10073709533667
 21
17.68419455903246
 31
0.0
 11
-10.1830389135319
 21
17.73161174983092
 31
0.0
 11
-10.20836252955172
 21
17.82644606378543
 31
0.0
 11
-10.13872251936638
 21
17.93708617564849
 31
0.0
 11
-10.04375889316124
 21
18.01295362681209
 31
0.0
  0
SPLINE
  5
143EB
330
18
100
AcDbEntity
  8
fleurs centrales
100
AcDbSpline
210
0.0
220
0.0
230
1.0
 70
     8
 71
     3
 72
    15
 73
    11
 74
     9
 42
0.0000000001
 43
0.0000000001
 44
0.0000000001
 40
0.0
 40
0.0
 40
0.0
 40
0.0
 40
0.171302267762183
 40
0.2972327625344597
 40
0.4376138768920346
 40
0.5578338144447961
 40
0.7149891457491475
 40
0.8766416075306764
 40
0.9745048225483209
 40
1.049590798140396
 40
1.049590798140396
 40
1.049590798140396
 40
1.049590798140396
 10
-10.04375889316124
 20
18.01295362681209
 30
0.0
 10
-10.10061722204
 20
18.02985522134922
 30
0.0
 10
-10.19927416561994
 20
18.05918178953267
 30
0.0
 10
-10.27596337224579
 20
18.1998837834903
 30
0.0
 10
-10.25009217922198
 20
18.33105812817894
 30
0.0
 10
-10.17392674338683
 20
18.45896481939002
 30
0.0
 10
-10.00723554093578
 20
18.47314790660187
 30
0.0
 10
-9.883061899007513
 20
18.40954750771713
 30
0.0
 10
-9.791459908777383
 20
18.34399058246217
 30
0.0
 10
-9.755491293024086
 20
18.2986447197694
 30
0.0
 10
-9.739875500923462
 20
18.27895779132905
 30
0.0
 11
-10.04375889316124
 21
18.01295362681209
 31
0.0
 11
-10.19886614047887
 21
18.08565994545094
 31
0.0
 11
-10.25900976159136
 21
18.19630005731399
 31
0.0
 11
-10.24001698344564
 21
18.3353904295422
 31
0.0
 11
-10.17037710552199
 21
18.43338594366387
 31
0.0
 11
-10.01526985820436
 21
18.45867507150426
 31
0.0
 11
-9.866493581022526
 21
18.39545215043965
 31
0.0
 11
-9.788867610221332
 21
18.33585837970175
 31
0.0
 11
-9.739875500923462
 21
18.27895779132905
 31
0.0
  0
SPLINE
  5
143EC
330
18
100
AcDbEntity
  8
fleurs centrales
100
AcDbSpline
210
0.0
220
0.0
230
1.0
 70
     8
 71
     3
 72
    14
 73
    10
 74
     8
 42
0.0000000001
 43
0.0000000001
 44
0.0000000001
 40
0.0
 40
0.0
 40
0.0
 40
0.0
 40
0.084924416569318
 40
0.1861326048489841
 40
0.3249483923622334
 40
0.4354406115106463
 40
0.5746721255796191
 40
0.6931665272816661
 40
0.8901950781830613
 40
0.8901950781830613
 40
0.8901950781830613
 40
0.8901950781830613
 10
-9.739875500923462
 20
18.27895779132905
 30
0.0
 10
-9.72135825967736
 20
18.30079426480851
 30
0.0
 10
-9.680773201963823
 20
18.34865423080697
 30
0.0
 10
-9.582336061776389
 20
18.39637324142029
 30
0.0
 10
-9.480556506684676
 20
18.45967847493754
 30
0.0
 10
-9.344182331940537
 20
18.45142142238767
 30
0.0
 10
-9.239739312109168
 20
18.35077397115933
 30
0.0
 10
-9.280245578095444
 20
18.18684703734585
 30
0.0
 10
-9.362481496635982
 20
18.11871909436919
 30
0.0
 10
-9.413833779341233
 20
18.07617654787669
 30
0.0
 11
-9.739875500923462
 21
18.27895779132905
 31
0.0
 11
-9.681034593692105
 21
18.34019425241091
 31
0.0
 11
-9.594264642678668
 21
18.3922910179149
 31
0.0
 11
-9.467646562579604
 21
18.44919167393002
 31
0.0
 11
-9.357562075117359
 21
18.43970820871336
 31
0.0
 11
-9.261892083222337
 21
18.33855156206696
 31
0.0
 11
-9.280884861368038
 21
18.2215891851544
 31
0.0
 11
-9.413833779341233
 21
18.07617654787669
 31
0.0
  0
CIRCLE
  5
143ED
330
18
100
AcDbEntity
  8
fleurs centrales
100
AcDbCircle
 10
-9.727240674297549
 20
18.09503741501855
 30
0.0
 40
0.0948871951841532
  0
ARC
  5
143EE
330
18
100
AcDbEntity
  8
fleurs centrales
100
AcDbCircle
 10
-9.590124351264455
 20
17.78192420418615
 30
0.0
 40
0.3006522520197647
100
AcDbArc
 50
20.97849727547447
 51
98.32387379262836
  0
ARC
  5
143EF
330
18
100
AcDbEntity
  8
fleurs centrales
100
AcDbCircle
 10
-9.178937180116337
 20
18.61778250444963
 30
0.0
 40
0.7398137865561011
100
AcDbArc
 50
230.7715367145159
 51
259.8429645001283
  0
ARC
  5
143F0
330
18
100
AcDbEntity
  8
fleurs centrales
100
AcDbCircle
 10
-10.1322920587698
 20
16.75862152625888
 30
0.0
 40
1.398634508536604
100
AcDbArc
 50
53.95976215961801
 51
69.24872526907538
  0
ARC
  5
143F1
330
18
100
AcDbEntity
  8
fleurs centrales
100
AcDbCircle
 10
-9.897461818535594
 20
17.60859370449811
 30
0.0
 40
0.4702287320662107
100
AcDbArc
 50
12.74713164436787
 51
60.9876783318564
  0
ARC
  5
143F2
330
18
100
AcDbEntity
  8
fleurs centrales
100
AcDbCircle
 10
-8.978180446625041
 20
18.37160800203358
 30
0.0
 40
0.80424724915249
100
AcDbArc
 50
207.0410077071147
 51
235.0569520874891
  0
ARC
  5
143F3
330
18
100
AcDbEntity
  8
fleurs centrales
100
AcDbCircle
 10
-27.87100387257254
 20
2.876750659768022
 30
0.0
 40
23.66094426757924
100
AcDbArc
 50
38.82971227723081
 51
39.76416617573042
  0
ARC
  5
143F4
330
18
100
AcDbEntity
  8
fleurs centrales
100
AcDbCircle
 10
-10.19914172971302
 20
18.12873806332235
 30
0.0
 40
0.4479608715795072
100
AcDbArc
 50
292.6816916003742
 51
344.5089301002129
  0
ARC
  5
143F5
330
18
100
AcDbEntity
  8
fleurs centrales
100
AcDbCircle
 10
-8.78264693258667
 20
17.07609935050727
 30
0.0
 40
1.398450004154408
100
AcDbArc
 50
136.7149450299297
 51
152.7956730428283
  0
ARC
  5
143F6
330
18
100
AcDbEntity
  8
fleurs centrales
100
AcDbCircle
 10
-10.67401360084897
 20
18.48264553548346
 30
0.0
 40
1.004007793295341
100
AcDbArc
 50
310.1675863776541
 51
332.4787426565316
  0
ARC
  5
143F7
330
18
100
AcDbEntity
  8
fleurs centrales
100
AcDbCircle
 10
-10.27125302594592
 20
18.41107212421247
 30
0.0
 40
0.6024611300627996
100
AcDbArc
 50
279.3285637377842
 51
321.3644101440437
  0
ARC
  5
143F8
330
18
100
AcDbEntity
  8
fleurs centrales
100
AcDbCircle
 10
-9.681666100633561
 20
17.47481995220444
 30
0.0
 40
0.598994622225222
100
AcDbArc
 50
102.8552950854885
 51
145.2111569668331
  0
ARC
  5
143F9
330
18
100
AcDbEntity
  8
fleurs centrales
100
AcDbCircle
 10
-21.31546185789725
 20
36.12178219290354
 30
0.0
 40
21.42945734997943
100
AcDbArc
 50
301.32770476213
 51
302.480636569432
  0
ARC
  5
143FA
330
18
100
AcDbEntity
  8
fleurs centrales
100
AcDbCircle
 10
-9.912540632180951
 20
18.4834621708013
 30
0.0
 40
0.4093998242773131
100
AcDbArc
 50
221.4349443708172
 51
282.8458313920442
  0
ARC
  5
143FB
330
18
100
AcDbEntity
  8
fleurs centrales
100
AcDbCircle
 10
-10.2046780781782
 20
17.31397540930134
 30
0.0
 40
0.8986803105710036
100
AcDbArc
 50
64.46645583349113
 51
90.94315890371248
  0
ARC
  5
143FC
330
18
100
AcDbEntity
  8
fleurs centrales
100
AcDbCircle
 10
-9.565002083754572
 20
19.69517402492065
 30
0.0
 40
1.620663703559362
100
AcDbArc
 50
246.182321628237
 51
260.8711857548148
  0
ARC
  5
143FD
330
18
100
AcDbEntity
  8
fleurs centrales
100
AcDbCircle
 10
-10.20586667981215
 20
17.84691360020508
 30
0.0
 40
0.5537310740789465
100
AcDbArc
 50
37.24636760050091
 51
77.72111433064168
  0
ARC
  5
143FE
330
18
100
AcDbEntity
  8
fleurs centrales
100
AcDbCircle
 10
-9.713816793355023
 20
18.52109618619997
 30
0.0
 40
0.3972554304043796
100
AcDbArc
 50
199.5783682760564
 51
255.5912617380586
  0
ARC
  5
143FF
330
18
100
AcDbEntity
  8
fleurs centrales
100
AcDbCircle
 10
-8.983020262622966
 20
19.42335060336699
 30
0.0
 40
1.514334379182348
100
AcDbArc
 50
223.1346298863121
 51
237.1718195585572
  0
ARC
  5
14400
330
18
100
AcDbEntity
  8
fleurs centrales
100
AcDbCircle
 10
-9.253920906379653
 20
17.95266194607282
 30
0.0
 40
0.5044827938295825
100
AcDbArc
 50
112.2609111937303
 51
152.3413389365769
  0
ARC
  5
14401
330
18
100
AcDbEntity
  8
fleurs centrales
100
AcDbCircle
 10
-9.827565447792283
 20
18.46725109572476
 30
0.0
 40
0.3854971910165311
100
AcDbArc
 50
299.2235287347393
 51
352.8912747886287
  0
ARC
  5
14402
330
18
100
AcDbEntity
  8
fleurs centrales
100
AcDbCircle
 10
-12.59013813967342
 20
20.86973330363693
 30
0.0
 40
3.986868341389177
100
AcDbArc
 50
317.2600017015312
 51
322.0797037053444
  0
ARC
  5
14403
330
18
100
AcDbEntity
  8
fleurs centrales
100
AcDbCircle
 10
-9.303336556801662
 20
17.71866942734836
 30
0.0
 40
0.5317691866692167
100
AcDbArc
 50
90.43074201742095
 51
129.1900570458566
  0
ARC
  5
14404
330
18
100
AcDbEntity
  8
fleurs centrales
100
AcDbCircle
 10
-9.594621287660276
 20
18.46950905702858
 30
0.0
 40
0.3612924895025872
100
AcDbArc
 50
263.8075953686701
 51
322.6708055292033
  0
ARC
  5
14405
330
18
100
AcDbEntity
  8
fleurs centrales
100
AcDbCircle
 10
-11.58206541563805
 20
23.09781567809407
 30
0.0
 40
5.354587919388304
100
AcDbArc
 50
291.3391884379826
 51
295.1392124598903
  0
SPLINE
  5
14408
330
18
100
AcDbEntity
  8
fleurs centrales
100
AcDbSpline
210
0.0
220
0.0
230
1.0
 70
     8
 71
     3
 72
    13
 73
     9
 74
     7
 42
0.0000000001
 43
0.0000000001
 44
0.0000000001
 40
0.0
 40
0.0
 40
0.0
 40
0.0
 40
0.1613980137943058
 40
0.3254539277364633
 40
0.4755840656698356
 40
0.6905010959503251
 40
0.8229600281300491
 40
0.8865941915684743
 40
0.8865941915684743
 40
0.8865941915684743
 40
0.8865941915684743
 10
-9.086144077148306
 20
18.30822273682309
 30
0.0
 10
-9.096763026488627
 20
18.3629541000295
 30
0.0
 10
-9.118175797872835
 20
18.47331814173697
 30
0.0
 10
-9.256484822840175
 20
18.57105508590908
 30
0.0
 10
-9.423300466085063
 20
18.63114676724189
 30
0.0
 10
-9.597888946836839
 20
18.60441214429968
 30
0.0
 10
-9.712248375027677
 20
18.51650054755719
 30
0.0
 10
-9.738443728637996
 20
18.45605090490486
 30
0.0
 10
-9.746944381900222
 20
18.436434393532
 30
0.0
 11
-9.086144077148306
 21
18.30822273682309
 31
0.0
 11
-9.136011976313968
 21
18.46172358857822
 31
0.0
 11
-9.262630105407852
 21
18.56604133531462
 31
0.0
 11
-9.405075416523816
 21
18.61345854376229
 31
0.0
 11
-9.617160765933137
 21
18.57868593283773
 31
0.0
 11
-9.718455336499973
 21
18.49333501785802
 31
0.0
 11
-9.746944381900222
 21
18.436434393532
 31
0.0
  0
SPLINE
  5
14409
330
18
100
AcDbEntity
  8
fleurs centrales
100
AcDbSpline
210
0.0
220
0.0
230
1.0
 70
     8
 71
     3
 72
    15
 73
    11
 74
     9
 42
0.0000000001
 43
0.0000000001
 44
0.0000000001
 40
0.0
 40
0.0
 40
0.0
 40
0.0
 40
0.1531265692057819
 40
0.4018697595084954
 40
0.6325751039434041
 40
0.7468326513161733
 40
0.9167782713037375
 40
1.102333292095875
 40
1.195347714709774
 40
1.237085843914642
 40
1.237085843914642
 40
1.237085843914642
 40
1.237085843914642
 10
-9.74694438190019
 20
18.43643439353208
 30
0.0
 10
-9.77508686087161
 20
18.48056149733421
 30
0.0
 10
-9.848944789739718
 20
18.59636993400687
 30
0.0
 10
-10.07943267374717
 20
18.64576675810798
 30
0.0
 10
-10.27955188976413
 20
18.56609827358551
 30
0.0
 10
-10.36631715795917
 20
18.41181772605105
 30
0.0
 10
-10.39037848012087
 20
18.25518953911783
 30
0.0
 10
-10.36066214362748
 20
18.10021306907654
 30
0.0
 10
-10.29068781014463
 20
18.0180114379633
 30
0.0
 10
-10.26632879665679
 20
17.98029236540875
 30
0.0
 10
-10.25878385863123
 20
17.96860929519953
 30
0.0
 11
-9.74694438190019
 21
18.43643439353208
 31
0.0
 11
-9.841907978720643
 21
18.55655791943627
 31
0.0
 11
-10.08248237353023
 21
18.61978082101453
 31
0.0
 11
-10.29279501138524
 21
18.52494649015646
 31
0.0
 11
-10.35154589785473
 21
18.42695097765365
 31
0.0
 11
-10.38003502736964
 21
18.25941028632035
 31
0.0
 11
-10.335718631718
 21
18.07922504048258
 31
0.0
 11
-10.28190594367602
 21
18.00335754138123
 31
0.0
 11
-10.25878385863123
 21
17.96860929519953
 31
0.0
  0
SPLINE
  5
1440A
330
18
100
AcDbEntity
  8
fleurs centrales
100
AcDbSpline
210
0.0
220
0.0
230
1.0
 70
     8
 71
     3
 72
    15
 73
    11
 74
     0
 42
0.0000000001
 43
0.0000000001
 40
0.001687998466179
 40
0.001687998466179
 40
0.001687998466179
 40
0.001687998466179
 40
0.1204908663316703
 40
0.2841110664308678
 40
0.4169542446439735
 40
0.5830815748214265
 40
0.8974395834752611
 40
1.366231375545159
 40
1.622782493990386
 40
1.838445283198101
 40
1.838445283198101
 40
1.838445283198101
 40
1.838445283198101
 10
-8.306172506507799
 20
17.98301580434021
 30
0.0
 10
-8.267202627162809
 20
17.9752037213922
 30
0.0
 10
-8.174612477371351
 20
17.95647071130926
 30
0.0
 10
-8.051108644496043
 20
17.88855489443583
 30
0.0
 10
-7.935474094364554
 20
17.78458818679486
 30
0.0
 10
-7.816614409849961
 20
17.61931534999913
 30
0.0
 10
-7.554325615111622
 20
17.43436908835374
 30
0.0
 10
-7.26160830409508
 20
17.25108985482439
 30
0.0
 10
-6.952998846870574
 20
17.16797168554694
 30
0.0
 10
-6.795138320620431
 20
17.17546169415896
 30
0.0
 10
-6.723042516483454
 20
17.1788824238797
 30
0.0
  0
SPLINE
  5
1440B
330
18
100
AcDbEntity
  8
fleurs centrales
100
AcDbSpline
210
0.0
220
0.0
230
1.0
 70
     8
 71
     3
 72
    12
 73
     8
 74
     0
 42
0.0000000001
 43
0.0000000001
 40
0.0017757259308967
 40
0.0017757259308967
 40
0.0017757259308967
 40
0.0017757259308967
 40
0.2519727351258006
 40
0.3530117782945784
 40
0.5044263693138911
 40
0.5681533070658955
 40
0.6254919806254609
 40
0.6254919806254609
 40
0.6254919806254609
 40
0.6254919806254609
 10
-8.306345190051015
 20
17.98235821446402
 30
0.0
 10
-8.236440002221655
 20
17.93583533293512
 30
0.0
 10
-8.138405230233594
 20
17.87041197451863
 30
0.0
 10
-8.026839307018303
 20
17.74463638800462
 30
0.0
 10
-7.959373568586261
 20
17.66395710795744
 30
0.0
 10
-7.926033245042372
 20
17.57460323845668
 30
0.0
 10
-7.938492486335817
 20
17.5351136744727
 30
0.0
 10
-7.944393388843021
 20
17.51641076458973
 30
0.0
  0
SPLINE
  5
1440C
330
18
100
AcDbEntity
  8
fleurs centrales
100
AcDbSpline
210
0.0
220
0.0
230
1.0
 70
     8
 71
     3
 72
    13
 73
     9
 74
     7
 42
0.0000000001
 43
0.0000000001
 44
0.0000000001
 40
0.0
 40
0.0
 40
0.0
 40
0.0
 40
0.0708038167063834
 40
0.141607633412763
 40
0.3419830931536282
 40
0.5423585528944642
 40
0.983324568678282
 40
1.424290584462075
 40
1.424290584462075
 40
1.424290584462075
 40
1.424290584462075
 10
-8.2550131450602
 20
17.51335889222064
 30
0.0
 10
-8.229831048713565
 20
17.51287905577347
 30
0.0
 10
-8.179466856020301
 20
17.51191938287912
 30
0.0
 10
-8.110846731617863
 20
17.62246992336994
 30
0.0
 10
-8.187740911005322
 20
17.78687201592162
 30
0.0
 10
-8.389960237449239
 20
17.97713764821398
 30
0.0
 10
-8.744021883083551
 20
18.10220735638517
 30
0.0
 10
-9.034568335848506
 20
18.13814000634856
 30
0.0
 10
-9.179841562230977
 20
18.15610633133026
 30
0.0
 11
-8.2550131450602
 21
17.51335889222064
 31
0.0
 11
-8.184954385324079
 21
17.52360343439819
 31
0.0
 11
-8.143569663310831
 21
17.5810532842159
 31
0.0
 11
-8.195473501352743
 21
17.77458962825205
 31
0.0
 11
-8.337598873338261
 21
17.91583658752669
 31
0.0
 11
-8.744530586937097
 21
18.08571185807473
 31
0.0
 11
-9.179841562230977
 21
18.15610633133026
 31
0.0
  0
SPLINE
  5
1440D
330
18
100
AcDbEntity
  8
fleurs centrales
100
AcDbSpline
210
0.0
220
0.0
230
1.0
 70
     8
 71
     3
 72
    20
 73
    16
 74
    14
 42
0.0000000001
 43
0.0000000001
 44
0.0000000001
 40
0.0
 40
0.0
 40
0.0
 40
0.0
 40
0.1574015543323753
 40
0.3208091751199857
 40
0.3987987063547216
 40
0.5436559466555633
 40
0.6817541596157138
 40
0.9176947215976268
 40
1.086638033027403
 40
1.17415204938275
 40
1.236289988219735
 40
1.327332707043541
 40
1.434376667268306
 40
1.535853336215415
 40
1.616829558621697
 40
1.616829558621697
 40
1.616829558621697
 40
1.616829558621697
 10
-9.117853547597254
 20
18.00757529254616
 30
0.0
 10
-9.06579943155615
 20
18.01548560642969
 30
0.0
 10
-8.959704939036184
 20
18.0316080728353
 30
0.0
 10
-8.825983265878337
 20
18.01511795835567
 30
0.0
 10
-8.701969779668335
 20
17.98061831076111
 30
0.0
 10
-8.590964787480688
 20
17.93105396002449
 30
0.0
 10
-8.451042282667529
 20
17.83000271465066
 30
0.0
 10
-8.318755792843857
 20
17.6959691780346
 30
0.0
 10
-8.282429944993193
 20
17.52905481316849
 30
0.0
 10
-8.197637643780192
 20
17.45514300730436
 30
0.0
 10
-8.116414541835167
 20
17.440421630196
 30
0.0
 10
-8.030370784889617
 20
17.46003007015355
 30
0.0
 10
-7.9400083488404
 20
17.50897432739767
 30
0.0
 10
-7.884631364795017
 20
17.59065897544292
 30
0.0
 10
-7.857577400387162
 20
17.6449517163595
 30
0.0
 10
-7.845570312844664
 20
17.66904791473101
 30
0.0
 11
-9.117853547597254
 21
18.00757529254616
 31
0.0
 11
-8.961335786247518
 21
18.02423181344084
 31
0.0
 11
-8.798917255455657
 21
18.00627989468877
 31
0.0
 11
-8.723807988855062
 21
17.98528072677824
 31
0.0
 11
-8.591695672000142
 21
17.92586729561322
 31
0.0
 11
-8.478752805436709
 21
17.84640016205964
 31
0.0
 11
-8.325787006294689
 21
17.66676326974299
 31
0.0
 11
-8.255013145060541
 21
17.51335889222113
 31
0.0
 11
-8.187234603756795
 21
17.45799850568545
 31
0.0
 11
-8.126339969580079
 21
17.44563052398298
 31
0.0
 11
-8.036875303570251
 21
17.46250802932531
 31
0.0
 11
-7.944393388843021
 21
17.51641076458973
 31
0.0
 11
-7.883137227532579
 21
17.59731315665641
 31
0.0
 11
-7.845570312844664
 21
17.66904791473101
 31
0.0
  0
ARC
  5
1440E
330
18
100
AcDbEntity
  8
fleurs centrales
100
AcDbCircle
 10
-8.306144146972403
 20
17.98265688877044
 30
0.0
 40
0.0003600342322956
100
AcDbArc
 50
62.8107825868006
 51
236.6560452008324
  0
ARC
  5
1440F
330
18
100
AcDbEntity
  8
fleurs centrales
100
AcDbCircle
 10
-8.00353719650409
 20
18.02451184806572
 30
0.0
 40
0.0003600342322956
100
AcDbArc
 50
62.8107825868006
 51
236.6560452008324
  0
SPLINE
  5
14410
330
18
100
AcDbEntity
  8
fleurs centrales
100
AcDbSpline
210
0.0
220
0.0
230
1.0
 70
     8
 71
     3
 72
    12
 73
     8
 74
     6
 42
0.0000000001
 43
0.0000000001
 44
0.0000000001
 40
0.0
 40
0.0
 40
0.0
 40
0.0
 40
0.1570362601824833
 40
0.3304940295548958
 40
0.6608663395831851
 40
0.7691593257849816
 40
0.8774523119867559
 40
0.8774523119867559
 40
0.8774523119867559
 40
0.8774523119867559
 10
-7.138453723989112
 20
17.7691152697153
 30
0.0
 10
-7.086039939492348
 20
17.7683442805997
 30
0.0
 10
-6.975731385134086
 20
17.76672167891993
 30
0.0
 10
-6.756971375185878
 20
17.78396258710445
 30
0.0
 10
-6.547197624198529
 20
17.78628857059087
 30
0.0
 10
-6.381425821434246
 20
17.86881962480468
 30
0.0
 10
-6.327713007734475
 20
17.91739923386744
 30
0.0
 10
-6.300856600884591
 20
17.94168903839882
 30
0.0
 11
-7.138453723989112
 21
17.7691152697153
 31
0.0
 11
-6.981417463806629
 21
17.7691152697153
 31
0.0
 11
-6.808215814701943
 21
17.77853792873866
 31
0.0
 11
-6.480949138828627
 21
17.8237306947113
 31
0.0
 11
-6.384408306105637
 21
17.87279431134984
 31
0.0
 11
-6.300856600884591
 21
17.94168903839882
 31
0.0
  0
SPLINE
  5
14411
330
18
100
AcDbEntity
  8
fleurs centrales
100
AcDbSpline
210
0.0
220
0.0
230
1.0
 70
     8
 71
     3
 72
    21
 73
    17
 74
    15
 42
0.0000000001
 43
0.0000000001
 44
0.0000000001
 40
0.0
 40
0.0
 40
0.0
 40
0.0
 40
0.3228433053726295
 40
0.6456866107452383
 40
0.7808098431077008
 40
0.9158142795275631
 40
1.03290475247903
 40
1.234935693474855
 40
1.460113555757579
 40
1.857255270089243
 40
2.094434687471698
 40
2.331614104854146
 40
2.557419467179427
 40
2.598862043222647
 40
2.739518739199311
 40
2.866020968179649
 40
2.866020968179649
 40
2.866020968179649
 40
2.866020968179649
 10
-6.300856600884593
 20
17.94168903839883
 30
0.0
 10
-6.400642725736178
 20
17.98230069408589
 30
0.0
 10
-6.600214975439341
 20
18.06352400546002
 30
0.0
 10
-6.837412944016791
 20
18.16728059051299
 30
0.0
 10
-7.026465879661945
 20
18.23414965708123
 30
0.0
 10
-7.15699053742243
 20
18.22496544119067
 30
0.0
 10
-7.308268210686815
 20
18.21668854433339
 30
0.0
 10
-7.481537839772981
 20
18.15540338261214
 30
0.0
 10
-7.758483340183156
 20
18.14270906254383
 30
0.0
 10
-8.044009089114947
 20
18.18394492107681
 30
0.0
 10
-8.322850231001368
 20
18.26459626599611
 30
0.0
 10
-8.548179388676903
 20
18.32923590366418
 30
0.0
 10
-8.717474404778085
 20
18.33597002924432
 30
0.0
 10
-8.853331198339184
 20
18.3342675948542
 30
0.0
 10
-8.956594490907589
 20
18.3304052964639
 30
0.0
 10
-9.043635662561703
 20
18.31083088018752
 30
0.0
 10
-9.08485046468399
 20
18.30156221251957
 30
0.0
 11
-6.300856600884593
 21
17.94168903839883
 31
0.0
 11
-6.599359317497615
 21
18.06466841877851
 31
0.0
 11
-6.897862034110618
 21
18.18764779915818
 31
0.0
 11
-7.027737955894174
 21
18.22493764851363
 31
0.0
 11
-7.162742392314036
 21
18.22493764851362
 31
0.0
 11
-7.279337859875312
 21
18.21418238002949
 31
0.0
 11
-7.475852888831457
 21
18.16729587329222
 31
0.0
 11
-7.700405040655571
 21
18.15052086886963
 31
0.0
 11
-8.094103924914481
 21
18.20270065226878
 31
0.0
 11
-8.323071768042222
 21
18.26456989214863
 31
0.0
 11
-8.553515950202296
 21
18.32069078788678
 31
0.0
 11
-8.778861869309162
 21
18.3350879541612
 31
0.0
 11
-8.820301607811432
 21
18.33460299853274
 31
0.0
 11
-8.960678101290644
 21
18.32572909287896
 31
0.0
 11
-9.08485046468399
 21
18.30156221251957
 31
0.0
  0
SPLINE
  5
14412
330
18
100
AcDbEntity
  8
fleurs centrales
100
AcDbSpline
210
0.0
220
0.0
230
1.0
 70
     8
 71
     3
 72
    27
 73
    23
 74
    21
 42
0.0000000001
 43
0.0000000001
 44
0.0000000001
 40
0.0
 40
0.0
 40
0.0
 40
0.0
 40
0.2497893837639937
 40
0.4995787675279721
 40
0.7713463762814974
 40
1.003650816178754
 40
1.096936331943467
 40
1.182726867400284
 40
1.305091877002551
 40
1.339681862446257
 40
1.370127008798272
 40
1.420662410472531
 40
1.474391444287236
 40
1.651913311622933
 40
1.920163118300305
 40
2.151326146659717
 40
2.382489175019124
 40
2.566157422607155
 40
2.814293605431707
 40
3.001351151947892
 40
3.174787014797623
 40
3.348222877647331
 40
3.348222877647331
 40
3.348222877647331
 40
3.348222877647331
 10
-6.621708770683376
 20
17.34372388520712
 30
0.0
 10
-6.540889384429137
 20
17.32346689174247
 30
0.0
 10
-6.379250611920662
 20
17.28295290481317
 30
0.0
 10
-6.128296282119553
 20
17.23034543633666
 30
0.0
 10
-5.880277035986492
 20
17.17469033889286
 30
0.0
 10
-5.680020904662056
 20
17.20486455184408
 30
0.0
 10
-5.548601641109718
 20
17.24598355576853
 30
0.0
 10
-5.458732366995034
 20
17.28830069486006
 30
0.0
 10
-5.379386371190816
 20
17.32140749186509
 30
0.0
 10
-5.321756264303346
 20
17.32410052005708
 30
0.0
 10
-5.271766193127206
 20
17.335599509142
 30
0.0
 10
-5.322753805599598
 20
17.38415363849579
 30
0.0
 10
-5.385296425786821
 20
17.43594404729288
 30
0.0
 10
-5.53371245711884
 20
17.53381315947254
 30
0.0
 10
-5.751391602633384
 20
17.59640372920206
 30
0.0
 10
-5.998955269144496
 20
17.58615177676064
 30
0.0
 10
-6.206030739364359
 20
17.52393372877438
 30
0.0
 10
-6.427065883568408
 20
17.50656556936302
 30
0.0
 10
-6.634929630806421
 20
17.51311432565248
 30
0.0
 10
-6.830992287833938
 20
17.56892309252459
 30
0.0
 10
-6.998315942510394
 20
17.62980366709028
 30
0.0
 10
-7.102714705922232
 20
17.67968649514296
 30
0.0
 10
-7.154914087628146
 20
17.70462790916929
 30
0.0
 11
-6.621708770683376
 21
17.34372388520712
 31
0.0
 11
-6.379026337402709
 21
17.28456331710496
 31
0.0
 11
-6.135009836905048
 21
17.23117152254753
 31
0.0
 11
-5.866379685952876
 21
17.18999537451226
 31
0.0
 11
-5.63603172818232
 21
17.2200814368487
 31
0.0
 11
-5.547243684798965
 21
17.24869735555917
 31
0.0
 11
-5.46862030844719
 21
17.28302490520977
 31
0.0
 11
-5.352540878214981
 21
17.32173874578299
 31
0.0
 11
-5.318181492288109
 21
17.3257261875348
 31
0.0
 11
-5.289739560371579
 21
17.33658728532697
 31
0.0
 11
-5.317710525279265
 21
17.37867590545773
 31
0.0
 11
-5.358759024141852
 21
17.41334332266453
 31
0.0
 11
-5.508482172006681
 21
17.50872147726924
 31
0.0
 11
-5.765809407697037
 21
17.58448857140916
 31
0.0
 11
-5.996839213338327
 21
17.57664162387255
 31
0.0
 11
-6.222910556802659
 21
17.52839130424124
 31
0.0
 11
-6.405765683009052
 21
17.51112781698917
 31
0.0
 11
-6.653500429013066
 21
17.52523670954196
 31
0.0
 11
-6.834530445199261
 21
17.57233935223088
 31
0.0
 11
-6.997239821945907
 21
17.63238647740061
 31
0.0
 11
-7.154914087628146
 21
17.70462790916929
 31
0.0
  0
SPLINE
  5
14413
330
18
100
AcDbEntity
  8
fleurs centrales
100
AcDbSpline
210
0.0
220
0.0
230
1.0
 70
     8
 71
     3
 72
    11
 73
     7
 74
     5
 42
0.0000000001
 43
0.0000000001
 44
0.0000000001
 40
0.0
 40
0.0
 40
0.0
 40
0.0
 40
0.0558403517662955
 40
0.1150116643180508
 40
0.1881360722955257
 40
0.2980330605319887
 40
0.2980330605319887
 40
0.2980330605319887
 40
0.2980330605319887
 10
-6.662901933615586
 20
17.33905674720474
 30
0.0
 10
-6.648658344606515
 20
17.35081341733726
 30
0.0
 10
-6.619321515127866
 20
17.37502806061958
 30
0.0
 10
-6.593855152531918
 20
17.44388821912542
 30
0.0
 10
-6.666668311324322
 20
17.5022415391586
 30
0.0
 10
-6.718506744933589
 20
17.53010793008646
 30
0.0
 10
-6.749633639637718
 20
17.54684057719408
 30
0.0
 11
-6.662901933615586
 21
17.33905674720474
 31
0.0
 11
-6.623416842217796
 21
17.37854183860253
 31
0.0
 11
-6.607282802861508
 21
17.43547106662424
 31
0.0
 11
-6.655104461257826
 21
17.49079075597877
 31
0.0
 11
-6.749633639637718
 21
17.54684057719408
 31
0.0
  0
SPLINE
  5
14414
330
18
100
AcDbEntity
  8
fleurs centrales
100
AcDbSpline
210
0.0
220
0.0
230
1.0
 70
     8
 71
     3
 72
    14
 73
    10
 74
     8
 42
0.0000000001
 43
0.0000000001
 44
0.0000000001
 40
0.0
 40
0.0
 40
0.0
 40
0.0
 40
0.2685535373334217
 40
0.5178194155214923
 40
0.6865983317372306
 40
0.838331660017535
 40
1.157163877354796
 40
1.569263484543673
 40
1.622295085743936
 40
1.622295085743936
 40
1.622295085743936
 40
1.622295085743936
 10
-6.723042516483452
 20
17.1788824238797
 30
0.0
 10
-6.749464498520635
 20
17.26528871550854
 30
0.0
 10
-6.800410821668211
 20
17.43189555253961
 30
0.0
 10
-6.968767562886148
 20
17.60418175121929
 30
0.0
 10
-7.148775253663769
 20
17.67093222782969
 30
0.0
 10
-7.356182464673
 20
17.71872667313546
 30
0.0
 10
-7.650995070563022
 20
17.75571520679915
 30
0.0
 10
-7.879999300086382
 20
17.90394411737718
 30
0.0
 10
-7.991071299893333
 20
18.01190230516519
 30
0.0
 10
-8.003735094306694
 20
18.02421108053398
 30
0.0
 11
-6.723042516483452
 21
17.1788824238797
 31
0.0
 11
-6.822757001275236
 21
17.42823764026187
 31
0.0
 11
-6.99901459406044
 21
17.60449523304708
 31
0.0
 11
-7.154914087628174
 21
17.66916106996491
 31
0.0
 11
-7.302444105685074
 21
17.70462790916929
 31
0.0
 11
-7.614017407151898
 21
17.77227449537479
 31
0.0
 11
-7.96542135709865
 21
17.98754490719919
 31
0.0
 11
-8.003735094306694
 21
18.02421108053398
 31
0.0
  0
SPLINE
  5
14415
330
18
100
AcDbEntity
  8
fleurs centrales
100
AcDbSpline
210
0.0
220
0.0
230
1.0
 70
     8
 71
     3
 72
    10
 73
     6
 74
     4
 42
0.0000000001
 43
0.0000000001
 44
0.0000000001
 40
0.0
 40
0.0
 40
0.0
 40
0.0
 40
0.113531785787252
 40
0.1672709273380446
 40
0.2438104273102393
 40
0.2438104273102393
 40
0.2438104273102393
 40
0.2438104273102393
 10
-9.066402658943951
 20
18.14178497126066
 30
0.0
 10
-9.022441056012162
 20
18.15347376504673
 30
0.0
 10
-8.957670665599678
 20
18.17069533310806
 30
0.0
 10
-8.967367999022354
 20
18.26078550240038
 30
0.0
 10
-8.978189739425246
 20
18.30169469287085
 30
0.0
 10
-8.984547578205136
 20
18.32572909287896
 30
0.0
 11
-9.066402658943951
 21
18.14178497126066
 31
0.0
 11
-8.967420793504816
 21
18.19739123617956
 31
0.0
 11
-8.967420793504816
 21
18.25113037773036
 31
0.0
 11
-8.984547578205136
 21
18.32572909287896
 31
0.0
  0
SPLINE
  5
14416
330
18
100
AcDbEntity
  8
fleurs centrales
100
AcDbSpline
210
0.0
220
0.0
230
1.0
 70
     8
 71
     3
 72
    11
 73
     7
 74
     5
 42
0.0000000001
 43
0.0000000001
 44
0.0000000001
 40
0.0
 40
0.0
 40
0.0
 40
0.0
 40
0.2528450046978054
 40
0.4694548350538888
 40
0.7180231882985597
 40
0.9143607074893068
 40
0.9143607074893068
 40
0.9143607074893068
 40
0.9143607074893068
 10
-7.154914087628174
 20
17.70462790916929
 30
0.0
 10
-7.23687213718289
 20
17.72418163286993
 30
0.0
 10
-7.389042842240057
 20
17.76048683947485
 30
0.0
 10
-7.621812958096187
 20
17.8174852187384
 30
0.0
 10
-7.825144142272115
 20
17.90714453610652
 30
0.0
 10
-7.949132109141713
 20
17.98870193264385
 30
0.0
 10
-8.003848154338925
 20
18.02469331396715
 30
0.0
 11
-7.154914087628174
 21
17.70462790916929
 31
0.0
 11
-7.400793472767563
 21
17.76356791565138
 31
0.0
 11
-7.609757033974613
 21
17.82061218525455
 31
0.0
 11
-7.837214369432732
 21
17.92085881502863
 31
0.0
 11
-8.003848154338925
 21
18.02469331396715
 31
0.0
  0
LINE
  5
1441A
330
18
100
AcDbEntity
  8
0
100
AcDbLine
 10
-18.26226182010654
 20
10.65048439674185
 30
0.0
 11
-18.26226182010654
 21
17.40048439674185
 31
0.0
  0
LINE
  5
1441B
330
18
100
AcDbEntity
  8
0
100
AcDbLine
 10
-18.26226182010654
 20
10.65048439674185
 30
0.0
 11
-2.512261820106544
 21
10.65048439674185
 31
0.0
  0
LINE
  5
1441C
330
18
100
AcDbEntity
  8
0
100
AcDbLine
 10
-2.512261820106544
 20
10.65048439674185
 30
0.0
 11
-2.512261820106544
 21
17.40048439674185
 31
0.0
  0
ARC
  5
1441D
330
18
100
AcDbEntity
  8
0
100
AcDbCircle
 10
-10.38726182010654
 20
-0.8687463724889726
 30
0.0
 40
19.89423076923081
100
AcDbArc
 50
66.68141469295406
 51
113.3185853070459
  0
LINE
  5
1441E
330
18
100
AcDbEntity
  8
0
100
AcDbLine
 10
-17.88726182010654
 20
11.02548439674185
 30
0.0
 11
-2.887261820106544
 21
11.02548439674185
 31
0.0
  0
LINE
  5
1441F
330
18
100
AcDbEntity
  8
0
100
AcDbLine
 10
-2.887261820106544
 20
11.02548439674185
 30
0.0
 11
-2.887261820106544
 21
17.1520851794258
 31
0.0
  0
ARC
  5
14420
330
18
100
AcDbEntity
  8
0
100
AcDbCircle
 10
-10.38726182010655
 20
-0.8687463724889681
 30
0.0
 40
19.51923076923081
100
AcDbArc
 50
67.40365347637219
 51
112.5963465236278
  0
LINE
  5
14421
330
18
100
AcDbEntity
  8
0
100
AcDbLine
 10
-17.88726182010654
 20
11.02548439674185
 30
0.0
 11
-17.88726182010654
 21
17.1520851794258
 31
0.0
  0
LINE
  5
14422
330
18
100
AcDbEntity
  8
bande creusée
100
AcDbLine
 10
-3.387261820106544
 20
11.52548439674185
 30
0.0
 11
-3.387261820106544
 21
16.81545954842408
 31
0.0
  0
LINE
  5
14423
330
18
100
AcDbEntity
  8
bande creusée
100
AcDbLine
 10
-17.38726182010654
 20
11.52548439674185
 30
0.0
 11
-3.387261820106544
 21
11.52548439674185
 31
0.0
  0
LINE
  5
14424
330
18
100
AcDbEntity
  8
bande creusée
100
AcDbLine
 10
-17.38726182010654
 20
11.52548439674185
 30
0.0
 11
-17.38726182010654
 21
16.81545954842408
 31
0.0
  0
ARC
  5
14425
330
18
100
AcDbEntity
  8
bande creusée
100
AcDbCircle
 10
-10.38726182010654
 20
-0.868746372488964
 30
0.0
 40
19.01923076923081
100
AcDbArc
 50
68.40468444477972
 51
74.01314150543921
  0
LINE
  5
14426
330
18
100
AcDbEntity
  8
bande creusée
100
AcDbLine
 10
-3.512261820106544
 20
11.65048439674185
 30
0.0
 11
-3.512261820106544
 21
16.73029710609101
 31
0.0
  0
ARC
  5
14427
330
18
100
AcDbEntity
  8
bande creusée
100
AcDbCircle
 10
-10.38726182010654
 20
-0.868746372488964
 30
0.0
 40
18.89423076923081
100
AcDbArc
 50
68.66208532268872
 51
74.01314150543921
  0
LINE
  5
14428
330
18
100
AcDbEntity
  8
bande creusée
100
AcDbLine
 10
-17.26226182010654
 20
11.65048439674185
 30
0.0
 11
-3.512261820106544
 21
11.65048439674185
 31
0.0
  0
LINE
  5
14429
330
18
100
AcDbEntity
  8
bande creusée
100
AcDbLine
 10
-17.26226182010654
 20
11.65048439674185
 30
0.0
 11
-17.26226182010654
 21
16.73029710609101
 31
0.0
  0
LINE
  5
1442A
330
18
100
AcDbEntity
  8
bande creusée
100
AcDbLine
 10
-3.637261820106544
 20
11.77548439674185
 30
0.0
 11
-3.637261820106544
 21
16.64472055067164
 31
0.0
  0
ARC
  5
1442B
330
18
100
AcDbEntity
  8
bande creusée
100
AcDbCircle
 10
-10.38726182010654
 20
-0.868746372488964
 30
0.0
 40
18.76923076923081
100
AcDbArc
 50
68.92245473503743
 51
74.01314150543922
  0
LINE
  5
1442C
330
18
100
AcDbEntity
  8
bande creusée
100
AcDbLine
 10
-17.13726182010654
 20
11.77548439674185
 30
0.0
 11
-3.637261820106544
 21
11.77548439674185
 31
0.0
  0
LINE
  5
1442D
330
18
100
AcDbEntity
  8
bande creusée
100
AcDbLine
 10
-17.13726182010654
 20
11.77548439674185
 30
0.0
 11
-17.13726182010654
 21
16.64472055067164
 31
0.0
  0
LINE
  5
14535
330
18
100
AcDbEntity
  8
bande creusée
100
AcDbLine
 10
-5.217899007830429
 20
17.17458236097087
 30
0.0
 11
-5.149044790043962
 21
17.41491358385507
 31
0.0
  0
ARC
  5
14545
330
18
100
AcDbEntity
  8
bande creusée
100
AcDbCircle
 10
-10.38726182010652
 20
-0.8687463724889568
 30
0.0
 40
19.01923076923081
100
AcDbArc
 50
105.9868584945607
 51
111.5953155552202
  0
ARC
  5
14546
330
18
100
AcDbEntity
  8
bande creusée
100
AcDbCircle
 10
-10.38726182010652
 20
-0.8687463724889568
 30
0.0
 40
18.89423076923081
100
AcDbArc
 50
105.9868584945607
 51
111.3379146773113
  0
ARC
  5
14547
330
18
100
AcDbEntity
  8
bande creusée
100
AcDbCircle
 10
-10.38726182010652
 20
-0.8687463724889568
 30
0.0
 40
18.76923076923081
100
AcDbArc
 50
105.9868584945607
 51
111.0775452649626
  0
LINE
  5
14548
330
18
100
AcDbEntity
  8
bande creusée
100
AcDbLine
 10
-15.55662463238264
 20
17.17458236097088
 30
0.0
 11
-15.6254788501691
 21
17.41491358385507
 31
0.0
  0
LINE
  5
1454B
330
18
100
AcDbEntity
  8
0
100
AcDbLine
 10
0.1940717051130605
 20
10.65048439674185
 30
0.0
 11
0.9440717051130604
 21
10.65048439674185
 31
0.0
  0
LINE
  5
1454C
330
18
100
AcDbEntity
  8
0
100
AcDbLine
 10
0.9440717051130604
 20
10.65048439674185
 30
0.0
 11
0.944071705113061
 21
19.02548439674185
 31
0.0
  0
LINE
  5
1454D
330
18
100
AcDbEntity
  8
0
100
AcDbLine
 10
0.944071705113061
 20
19.02548439674185
 30
0.0
 11
0.194071705113061
 21
19.02548439674185
 31
0.0
  0
LINE
  5
1454E
330
18
100
AcDbEntity
  8
0
100
AcDbLine
 10
0.194071705113061
 20
19.02548439674185
 30
0.0
 11
0.1940717051130595
 21
10.65048439674185
 31
0.0
  0
LINE
  5
14550
330
18
100
AcDbEntity
  8
0
100
AcDbLine
 10
0.0690717051130596
 20
11.02548439674185
 30
0.0
 11
0.0690717051130596
 21
11.52548439674185
 31
0.0
  0
LINE
  5
14554
330
18
100
AcDbEntity
  8
0
100
AcDbLine
 10
0.1940717051130605
 20
10.65048439674185
 30
0.0
 11
0.0690717051130596
 21
11.02548439674185
 31
0.0
  0
LINE
  5
14555
330
18
100
AcDbEntity
  8
0
100
AcDbLine
 10
0.0690717051130587
 20
18.65048439674184
 30
0.0
 11
0.194071705113061
 21
19.02548439674185
 31
0.0
  0
LINE
  5
14556
330
18
100
AcDbEntity
  8
0
100
AcDbLine
 10
0.1940717051130605
 20
17.40048439674185
 30
0.0
 11
0.9440717051130608
 21
17.40048439674185
 31
0.0
  0
LINE
  5
14557
330
18
100
AcDbEntity
  8
0
100
AcDbLine
 10
0.1940717051130605
 20
17.40048439674185
 30
0.0
 11
0.0690717051130601
 21
17.1520851794258
 31
0.0
  0
LINE
  5
14564
330
18
100
AcDbEntity
  8
bande creusée
100
AcDbLine
 10
0.0690717051130596
 20
11.52548439674185
 30
0.0
 11
0.1315717051130596
 21
11.65048439674185
 31
0.0
  0
LINE
  5
14565
330
18
100
AcDbEntity
  8
bande creusée
100
AcDbLine
 10
0.1315717051130596
 20
11.65048439674185
 30
0.0
 11
0.0690717051130596
 21
11.77548439674185
 31
0.0
  0
LINE
  5
14566
330
18
100
AcDbEntity
  8
0
100
AcDbLine
 10
0.0690717051130596
 20
11.77548439674185
 30
0.0
 11
0.06907170511306
 21
18.65048439674184
 31
0.0
  0
LINE
  5
14578
330
18
100
AcDbEntity
  8
bande creusée
100
AcDbLine
 10
0.0690717051130599
 20
16.81545954842408
 30
0.0
 11
0.1315717051130599
 21
16.73009004954786
 31
0.0
  0
LINE
  5
14579
330
18
100
AcDbEntity
  8
bande creusée
100
AcDbLine
 10
0.1315717051130599
 20
16.73009004954786
 30
0.0
 11
0.0690717051130601
 21
16.64472055067164
 31
0.0
  0
LINE
  5
14583
330
18
100
AcDbEntity
  8
bande creusée
 48
0.5
100
AcDbLine
 10
0.13157170511306
 20
17.29474797241297
 30
0.0
 11
0.1315717051130599
 21
11.65048439674185
 31
0.0
  0
LINE
  5
1458C
330
18
100
AcDbEntity
  8
bande creusée
 48
0.2
100
AcDbLine
 10
0.1315717051130596
 20
17.29474797241297
 30
0.0
 11
0.0690717051130596
 21
17.41491358385507
 31
0.0
  0
LINE
  5
1458D
330
18
100
AcDbEntity
  8
bande creusée
 48
0.2
100
AcDbLine
 10
0.0690717051130596
 20
17.17458236097087
 30
0.0
 11
0.1315717051130615
 21
17.29474797241296
 31
0.0
  0
LINE
  5
14596
330
18
100
AcDbEntity
  8
fleurs centrales
100
AcDbLine
 10
0.0065717051130585
 20
17.19012300211664
 30
0.0
 11
0.0690717051130596
 21
17.19012300211664
 31
0.0
  0
LINE
  5
14597
330
18
100
AcDbEntity
  8
fleurs centrales
100
AcDbLine
 10
0.0690717051130587
 20
18.62291749789709
 30
0.0
 11
0.0065717051130587
 21
18.62291749789709
 31
0.0
  0
LINE
  5
14598
330
18
100
AcDbEntity
  8
fleurs centrales
100
AcDbLine
 10
-0.1809282948869413
 20
18.43541749789709
 30
0.0
 11
-0.1809282948869415
 21
17.37762300211664
 31
0.0
  0
ARC
  5
1459A
330
18
100
AcDbEntity
  8
fleurs centrales
100
AcDbCircle
 10
0.0065717051130585
 20
17.37762300211664
 30
0.0
 40
0.1875
100
AcDbArc
 50
180.0
 51
270.0
  0
ARC
  5
1459B
330
18
100
AcDbEntity
  8
fleurs centrales
100
AcDbCircle
 10
0.0065717051130587
 20
18.43541749789709
 30
0.0
 40
0.1875
100
AcDbArc
 50
90.0
 51
180.0
  0
DIMENSION
  5
1459F
330
18
100
AcDbEntity
  8
DIM
100
AcDbDimension
  2
*D1
 10
-2.512261820106544
 20
9.1741193679062
 30
0.0
 11
-10.38726182010654
 21
9.1741193679062
 31
0.0
 70
    32
 71
     5
 42
15.75
  3
STANDARD
100
AcDbAlignedDimension
 13
-18.26226182010654
 23
10.65048439674185
 33
0.0
 14
-2.512261820106544
 24
10.65048439674185
 34
0.0
100
AcDbRotatedDimension
  0
DIMENSION
  5
145C2
330
18
100
AcDbEntity
  8
DIM
100
AcDbDimension
  2
*D2
 10
5.833208404069978
 20
10.65048439674185
 30
0.0
 11
5.833208404069976
 21
14.83798439674185
 31
0.0
 70
    32
 71
     5
 42
8.375
  3
STANDARD
100
AcDbAlignedDimension
 13
0.944071705113061
 23
19.02548439674185
 33
0.0
 14
0.9440717051130604
 24
10.65048439674185
 34
0.0
 50
90.0
100
AcDbRotatedDimension
  0
DIMENSION
  5
145D0
330
18
100
AcDbEntity
  8
DIM
100
AcDbDimension
  2
*D3
 10
0.9440717051130603
 20
8.973631958715344
 30
0.0
 11
4.71407170511306
 21
8.973631958715344
 31
0.0
 70
    32
 71
     5
 42
0.8750000000000008
  3
STANDARD
100
AcDbAlignedDimension
 13
0.0690717051130598
 23
15.21298439674185
 33
0.0
 14
0.9440717051130606
 24
15.21298439674185
 34
0.0
100
AcDbRotatedDimension
  0
DIMENSION
  5
145DE
330
18
100
AcDbEntity
  8
DIM
100
AcDbDimension
  2
*D4
 10
0.9440717051130611
 20
21.16326316628641
 30
0.0
 11
4.33907170511306
 21
21.16326316628641
 31
0.0
 70
    32
 71
     5
 42
1.125000000000002
  3
STANDARD
100
AcDbAlignedDimension
 13
-0.1809282948869414
 23
17.90652025000686
 33
0.0
 14
0.9440717051130608
 24
17.90652025000686
 34
0.0
100
AcDbRotatedDimension
  0
VIEWPORT
  5
1438F
330
15
100
AcDbEntity
 67
     1
  8
0
100
AcDbViewport
 10
5.249999639556163
 20
3.999999883606677
 30
0.0
 40
17.58786569993103
 41
8.9949370293933
 68
     2
 69
     1
 12
5.249999639556163
 22
3.999999883606677
 13
0.0
 23
0.0
 14
10.0
 24
10.0
 15
10.0
 25
10.0
 16
0.0
 26
0.0
 36
1.0
 17
0.0
 27
0.0
 37
0.0
 42
50.0
 43
0.0
 44
0.0
 45
8.9949370293933
 50
0.0
 51
0.0
 72
   100
 90
    32800
  1

281
     0
 71
     1
 74
     0
110
0.0
120
0.0
130
0.0
111
1.0
121
0.0
131
0.0
112
0.0
122
1.0
132
0.0
 79
     0
146
0.0
170
     0
  0
VIEWPORT
  5
14391
330
15
100
AcDbEntity
 67
     1
  8
bande creusée
100
AcDbViewport
 10
5.24999976158142
 20
3.99999976158142
 30
0.0
 40
8.399999618530271
 41
6.399999618530272
 68
     1
 69
     2
 12
-4.666412699178414
 22
12.04006999387659
 13
0.0
 23
0.0
 14
0.5
 24
0.5
 15
0.5
 25
0.5
 16
0.0
 26
0.0
 36
1.0
 17
0.0
 27
0.0
 37
0.0
 42
50.0
 43
0.0
 44
0.0
 45
23.11174129246671
 50
0.0
 51
0.0
 72
   100
 90
    32800
  1

281
     0
 71
     1
 74
     0
110
0.0
120
0.0
130
0.0
111
1.0
121
0.0
131
0.0
112
0.0
122
1.0
132
0.0
 79
     0
146
0.0
170
     0
  0
ENDSEC
  0
SECTION
  2
OBJECTS
  0
DICTIONARY
  5
C
330
0
100
AcDbDictionary
281
     1
  3
ACAD_COLOR
350
142AC
  3
ACAD_GROUP
350
D
  3
ACAD_IMAGE_DICT
350
21
  3
ACAD_IMAGE_VARS
350
20
  3
ACAD_LAYOUT
350
142AD
  3
ACAD_MATERIAL
350
142AB
  3
ACAD_MLINESTYLE
350
1B
  3
ACAD_PLOTSETTINGS
350
142AE
  3
ACAD_PLOTSTYLENAME
350
142A9
  0
DICTIONARY
  5
142BA
330
18
100
AcDbDictionary
280
     1
281
     1
  3
ACAD_SORTENTS
360
142BB
  0
DICTIONARY
  5
142AC
102
{ACAD_REACTORS
330
C
102
}
330
C
100
AcDbDictionary
281
     1
  0
DICTIONARY
  5
D
102
{ACAD_REACTORS
330
C
102
}
330
C
100
AcDbDictionary
281
     1
  0
DICTIONARY
  5
21
102
{ACAD_REACTORS
330
C
102
}
330
C
100
AcDbDictionary
281
     1
  3
3304-1
350
11E14
  3
3304-1B
350
11E15
  3
3304-2
350
11E16
  3
3304-2B
350
11E17
  3
3304-3
350
11E18
  3
3304-3B
350
11E19
  3
4303-1
350
105B7
  3
4303-2
350
105BA
  3
4303-3
350
105BD
  3
4303-4
350
105C0
  3
4303-5
350
105C3
  3
4303-6
350
105D0
  3
4303-7
350
105C9
  3
4303-8
350
105D4
  0
RASTERVARIABLES
  5
20
102
{ACAD_REACTORS
330
C
102
}
330
C
100
AcDbRasterVariables
 90
        0
 70
     1
 71
     1
 72
     0
  0
DICTIONARY
  5
142AD
102
{ACAD_REACTORS
330
C
102
}
330
C
100
AcDbDictionary
281
     1
  3
Layout1
350
142B0
  3
Model
350
142AF
  0
DICTIONARY
  5
142AB
102
{ACAD_REACTORS
330
C
102
}
330
C
100
AcDbDictionary
281
     1
  0
DICTIONARY
  5
1B
102
{ACAD_REACTORS
330
C
102
}
330
C
100
AcDbDictionary
281
     1
  3
STANDARD
350
1C
  0
DICTIONARY
  5
142AE
102
{ACAD_REACTORS
330
C
102
}
330
C
100
AcDbDictionary
281
     1
  0
ACDBDICTIONARYWDFLT
  5
142A9
102
{ACAD_REACTORS
330
C
102
}
330
C
100
AcDbDictionary
281
     1
  3
Normal
350
142AA
100
AcDbDictionaryWithDefault
340
142AA
  0
SORTENTSTABLE
  5
142BB
102
{ACAD_REACTORS
330
142BA
102
}
330
142BA
100
AcDbSortentsTable
330
18
  0
IMAGEDEF
  5
11E14
102
{ACAD_REACTORS
330
21
102
}
330
21
100
AcDbRasterImageDef
 90
        0
  1
U:\TPDWG\MichelQ\3304-1.tif
 10
2243.0
 20
3009.0
 11
0.0705555555555556
 21
0.0705555555555556
280
     1
281
     5
  0
IMAGEDEF
  5
11E15
102
{ACAD_REACTORS
330
21
102
}
330
21
100
AcDbRasterImageDef
 90
        0
  1
U:\TPDWG\MichelQ\3304-1b.TIF
 10
2202.0
 20
2931.0
 11
0.0705555555555556
 21
0.0705555555555556
280
     1
281
     5
  0
IMAGEDEF
  5
11E16
102
{ACAD_REACTORS
330
21
102
}
330
21
100
AcDbRasterImageDef
 90
        0
  1
U:\TPDWG\MichelQ\3304-2.tif
 10
2243.0
 20
3009.0
 11
0.0705555555555556
 21
0.0705555555555556
280
     1
281
     5
  0
IMAGEDEF
  5
11E17
102
{ACAD_REACTORS
330
21
102
}
330
21
100
AcDbRasterImageDef
 90
        0
  1
U:\TPDWG\MichelQ\3304-2b.TIF
 10
2202.0
 20
2931.0
 11
0.0705555555555556
 21
0.0705555555555556
280
     1
281
     5
  0
IMAGEDEF
  5
11E18
102
{ACAD_REACTORS
330
21
102
}
330
21
100
AcDbRasterImageDef
 90
        0
  1
U:\TPDWG\MichelQ\3304-3.tif
 10
2243.0
 20
3009.0
 11
0.0705555555555556
 21
0.0705555555555556
280
     1
281
     5
  0
IMAGEDEF
  5
11E19
102
{ACAD_REACTORS
330
21
102
}
330
21
100
AcDbRasterImageDef
 90
        0
  1
U:\TPDWG\MichelQ\3304-3b.TIF
 10
2202.0
 20
2931.0
 11
0.0705555555555556
 21
0.0705555555555556
280
     1
281
     5
  0
IMAGEDEF
  5
105B7
102
{ACAD_REACTORS
330
21
102
}
330
21
100
AcDbRasterImageDef
 90
        0
  1
U:\TPDWG\MichelQ\4303-1.tif
 10
3012.0
 20
3604.0
 11
0.0705555555555556
 21
0.0705555555555556
280
     1
281
     5
  0
IMAGEDEF
  5
105BA
102
{ACAD_REACTORS
330
21
102
}
330
21
100
AcDbRasterImageDef
 90
        0
  1
U:\TPDWG\MichelQ\4303-2.tif
 10
3012.0
 20
3604.0
 11
0.0705555555555556
 21
0.0705555555555556
280
     1
281
     5
  0
IMAGEDEF
  5
105BD
102
{ACAD_REACTORS
330
21
102
}
330
21
100
AcDbRasterImageDef
 90
        0
  1
U:\TPDWG\MichelQ\4303-3.tif
 10
3012.0
 20
3604.0
 11
0.0705555555555556
 21
0.0705555555555556
280
     1
281
     5
  0
IMAGEDEF
  5
105C0
102
{ACAD_REACTORS
330
21
102
}
330
21
100
AcDbRasterImageDef
 90
        0
  1
U:\TPDWG\MichelQ\4303-4.tif
 10
3012.0
 20
3604.0
 11
0.0705555555555556
 21
0.0705555555555556
280
     1
281
     5
  0
IMAGEDEF
  5
105C3
102
{ACAD_REACTORS
330
21
102
}
330
21
100
AcDbRasterImageDef
 90
        0
  1
U:\TPDWG\MichelQ\4303-5.tif
 10
3012.0
 20
3604.0
 11
0.0705555555555556
 21
0.0705555555555556
280
     1
281
     5
  0
IMAGEDEF
  5
105D0
102
{ACAD_REACTORS
330
21
102
}
330
21
100
AcDbRasterImageDef
 90
        0
  1
U:\TPDWG\MichelQ\4303-6.tif
 10
3060.0
 20
3604.0
 11
0.0705555555555556
 21
0.0705555555555556
280
     1
281
     5
  0
IMAGEDEF
  5
105C9
102
{ACAD_REACTORS
330
21
102
}
330
21
100
AcDbRasterImageDef
 90
        0
  1
U:\TPDWG\MichelQ\4303-7.tif
 10
3012.0
 20
3604.0
 11
0.0705555555555556
 21
0.0705555555555556
280
     1
281
     5
  0
IMAGEDEF
  5
105D4
102
{ACAD_REACTORS
330
21
102
}
330
21
100
AcDbRasterImageDef
 90
        0
  1
U:\TPDWG\MichelQ\4303-8.tif
 10
3024.0
 20
3616.0
 11
0.0705555555555556
 21
0.0705555555555556
280
     1
281
     5
  0
LAYOUT
  5
142B0
102
{ACAD_REACTORS
330
142AD
102
}
330
142AD
100
AcDbPlotSettings
  1

  2
none_device
  4
Letter_(8.50_x_11.00_Inches)
  6

 40
6.349999904632568
 41
6.349999904632568
 42
6.350006103515625
 43
6.350006103515625
 44
215.8999938964844
 45
279.3999938964844
 46
0.0
 47
0.0
 48
0.0
 49
0.0
140
0.0
141
0.0
142
1.0
143
1.0
 70
   688
 72
     0
 73
     1
 74
     5
  7

 75
    16
147
1.0
 76
     1
 77
     2
 78
   300
148
0.0
149
0.0
100
AcDbLayout
  1
Layout1
 70
     1
 71
     1
 10
-0.2500002402958907
 20
-0.2499999962453767
 11
10.74999951940821
 21
8.249999763458731
 12
0.0
 22
0.0
 32
0.0
 14
1.049636599258096
 24
0.7996597240971113
 34
-0.0000000349181948
 15
9.450362731076971
 25
7.200340082697458
 35
0.0000000814935746
146
0.0
 13
0.0
 23
0.0
 33
0.0
 16
1.0
 26
0.0
 36
0.0
 17
0.0
 27
1.0
 37
0.0
 76
     0
330
15
331
14391
  0
LAYOUT
  5
142AF
102
{ACAD_REACTORS
330
142AD
102
}
330
142AD
100
AcDbPlotSettings
  1

  2
None
  4

  6

 40
0.0
 41
0.0
 42
0.0
 43
0.0
 44
0.0
 45
0.0
 46
0.0
 47
0.0
 48
0.0
 49
0.0
140
0.0
141
0.0
142
1.0
143
1.0
 70
  1712
 72
     0
 73
     0
 74
     0
  7

 75
     0
147
1.0
 76
     0
 77
     2
 78
   300
148
0.0
149
0.0
100
AcDbLayout
  1
Model
 70
     1
 71
     0
 10
0.0
 20
0.0
 11
12.0
 21
9.0
 12
0.0
 22
0.0
 32
0.0
 14
0.0
 24
0.0
 34
0.0
 15
0.0
 25
0.0
 35
0.0
146
0.0
 13
0.0
 23
0.0
 33
0.0
 16
1.0
 26
0.0
 36
0.0
 17
0.0
 27
1.0
 37
0.0
 76
     0
330
18
  0
MLINESTYLE
  5
1C
102
{ACAD_REACTORS
330
1B
102
}
330
1B
100
AcDbMlineStyle
  2
STANDARD
 70
     0
  3

 62
   256
 51
90.0
 52
90.0
 71
     2
 49
0.5
 62
   256
  6
BYLAYER
 49
-0.5
 62
   256
  6
BYLAYER
  0
ACDBPLACEHOLDER
  5
142AA
102
{ACAD_REACTORS
330
142A9
102
}
330
142A9
  0
ENDSEC
  0
EOF
