  0
SECTION
  2
HEADER
  9
$ACADVER
  1
AC1024
  9
$ACADMAINTVER
 70
    63
  9
$DWGCODEPAGE
  3
ANSI_1252
  9
$LASTSAVEDBY
  1
reception
  9
$INSBASE
 10
0.0
 20
0.0
 30
0.0
  9
$EXTMIN
 10
8.452891962735563
 20
-6.618049586692639
 30
0.0
  9
$EXTMAX
 10
92.06406239453174
 20
29.53716407354736
 30
0.0
  9
$LIMMIN
 10
0.0
 20
0.0
  9
$LIMMAX
 10
420.0
 20
297.0
  9
$ORTHOMODE
 70
     0
  9
$REGENMODE
 70
     1
  9
$FILLMODE
 70
     1
  9
$QTEXTMODE
 70
     0
  9
$MIRRTEXT
 70
     1
  9
$LTSCALE
 40
0.04
  9
$ATTMODE
 70
     1
  9
$TEXTSIZE
 40
4.0
  9
$TRACEWID
 40
1.0
  9
$TEXTSTYLE
  7
ITALICT
  9
$CLAYER
  8
0
  9
$CELTYPE
  6
BYLAYER
  9
$CECOLOR
 62
   256
  9
$CELTSCALE
 40
1.0
  9
$DISPSILH
 70
     0
  9
$DIMSCALE
 40
1.0
  9
$DIMASZ
 40
0.18
  9
$DIMEXO
 40
0.0625
  9
$DIMDLI
 40
0.38
  9
$DIMRND
 40
0.0
  9
$DIMDLE
 40
0.0
  9
$DIMEXE
 40
0.18
  9
$DIMTP
 40
0.0
  9
$DIMTM
 40
0.0
  9
$DIMTXT
 40
0.75
  9
$DIMCEN
 40
0.09
  9
$DIMTSZ
 40
0.0
  9
$DIMTOL
 70
     0
  9
$DIMLIM
 70
     0
  9
$DIMTIH
 70
     0
  9
$DIMTOH
 70
     0
  9
$DIMSE1
 70
     0
  9
$DIMSE2
 70
     0
  9
$DIMTAD
 70
     1
  9
$DIMZIN
 70
     0
  9
$DIMBLK
  1
ArchTick
  9
$DIMASO
 70
     1
  9
$DIMSHO
 70
     1
  9
$DIMPOST
  1
"
  9
$DIMAPOST
  1

  9
$DIMALT
 70
     0
  9
$DIMALTD
 70
     2
  9
$DIMALTF
 40
25.4
  9
$DIMLFAC
 40
1.0
  9
$DIMTOFL
 70
     0
  9
$DIMTVP
 40
0.0
  9
$DIMTIX
 70
     0
  9
$DIMSOXD
 70
     0
  9
$DIMSAH
 70
     0
  9
$DIMBLK1
  1

  9
$DIMBLK2
  1

  9
$DIMSTYLE
  2
STANDARD
  9
$DIMCLRD
 70
     3
  9
$DIMCLRE
 70
     3
  9
$DIMCLRT
 70
     0
  9
$DIMTFAC
 40
1.0
  9
$DIMGAP
 40
0.09
  9
$DIMJUST
 70
     0
  9
$DIMSD1
 70
     0
  9
$DIMSD2
 70
     0
  9
$DIMTOLJ
 70
     1
  9
$DIMTZIN
 70
     0
  9
$DIMALTZ
 70
     0
  9
$DIMALTTZ
 70
     0
  9
$DIMUPT
 70
     0
  9
$DIMDEC
 70
     4
  9
$DIMTDEC
 70
     4
  9
$DIMALTU
 70
     2
  9
$DIMALTTD
 70
     2
  9
$DIMTXSTY
  7
STANDARD
  9
$DIMAUNIT
 70
     0
  9
$DIMADEC
 70
     0
  9
$DIMALTRND
 40
0.0
  9
$DIMAZIN
 70
     0
  9
$DIMDSEP
 70
    46
  9
$DIMATFIT
 70
     3
  9
$DIMFRAC
 70
     0
  9
$DIMLDRBLK
  1

  9
$DIMLUNIT
 70
     5
  9
$DIMLWD
 70
    -2
  9
$DIMLWE
 70
    -2
  9
$DIMTMOVE
 70
     0
  9
$DIMFXL
 40
1.0
  9
$DIMFXLON
 70
     0
  9
$DIMJOGANG
 40
0.7853981633974483
  9
$DIMTFILL
 70
     0
  9
$DIMTFILLCLR
 70
     0
  9
$DIMARCSYM
 70
     0
  9
$DIMLTYPE
  6

  9
$DIMLTEX1
  6

  9
$DIMLTEX2
  6

  9
$DIMTXTDIRECTION
 70
     0
  9
$LUNITS
 70
     4
  9
$LUPREC
 70
     4
  9
$SKETCHINC
 40
1.0
  9
$FILLETRAD
 40
0.375
  9
$AUNITS
 70
     0
  9
$AUPREC
 70
     0
  9
$MENU
  1
.
  9
$ELEVATION
 40
0.0
  9
$PELEVATION
 40
0.0
  9
$THICKNESS
 40
0.0
  9
$LIMCHECK
 70
     0
  9
$CHAMFERA
 40
0.5625
  9
$CHAMFERB
 40
0.5625
  9
$CHAMFERC
 40
20.0
  9
$CHAMFERD
 40
0.0
  9
$SKPOLY
 70
     0
  9
$TDCREATE
 40
2451158.474098033
  9
$TDUCREATE
 40
2451158.640764699
  9
$TDUPDATE
 40
2457255.381857407
  9
$TDUUPDATE
 40
2457255.548524075
  9
$TDINDWG
 40
1.0187953125
  9
$TDUSRTIMER
 40
1.0187953125
  9
$USRTIMER
 70
     1
  9
$ANGBASE
 50
0.0
  9
$ANGDIR
 70
     0
  9
$PDMODE
 70
     3
  9
$PDSIZE
 40
0.25
  9
$PLINEWID
 40
0.0
  9
$SPLFRAME
 70
     0
  9
$SPLINETYPE
 70
     6
  9
$SPLINESEGS
 70
     8
  9
$HANDSEED
  5
738D
  9
$SURFTAB1
 70
     6
  9
$SURFTAB2
 70
     6
  9
$SURFTYPE
 70
     6
  9
$SURFU
 70
     6
  9
$SURFV
 70
     6
  9
$UCSBASE
  2

  9
$UCSNAME
  2

  9
$UCSORG
 10
0.0
 20
0.0
 30
0.0
  9
$UCSXDIR
 10
1.0
 20
0.0
 30
0.0
  9
$UCSYDIR
 10
0.0
 20
1.0
 30
0.0
  9
$UCSORTHOREF
  2

  9
$UCSORTHOVIEW
 70
     0
  9
$UCSORGTOP
 10
0.0
 20
0.0
 30
0.0
  9
$UCSORGBOTTOM
 10
0.0
 20
0.0
 30
0.0
  9
$UCSORGLEFT
 10
0.0
 20
0.0
 30
0.0
  9
$UCSORGRIGHT
 10
0.0
 20
0.0
 30
0.0
  9
$UCSORGFRONT
 10
0.0
 20
0.0
 30
0.0
  9
$UCSORGBACK
 10
0.0
 20
0.0
 30
0.0
  9
$PUCSBASE
  2

  9
$PUCSNAME
  2

  9
$PUCSORG
 10
0.0
 20
0.0
 30
0.0
  9
$PUCSXDIR
 10
1.0
 20
0.0
 30
0.0
  9
$PUCSYDIR
 10
0.0
 20
1.0
 30
0.0
  9
$PUCSORTHOREF
  2

  9
$PUCSORTHOVIEW
 70
     0
  9
$PUCSORGTOP
 10
0.0
 20
0.0
 30
0.0
  9
$PUCSORGBOTTOM
 10
0.0
 20
0.0
 30
0.0
  9
$PUCSORGLEFT
 10
0.0
 20
0.0
 30
0.0
  9
$PUCSORGRIGHT
 10
0.0
 20
0.0
 30
0.0
  9
$PUCSORGFRONT
 10
0.0
 20
0.0
 30
0.0
  9
$PUCSORGBACK
 10
0.0
 20
0.0
 30
0.0
  9
$USERI1
 70
     0
  9
$USERI2
 70
     0
  9
$USERI3
 70
     0
  9
$USERI4
 70
     0
  9
$USERI5
 70
     0
  9
$USERR1
 40
0.0
  9
$USERR2
 40
0.0
  9
$USERR3
 40
0.0
  9
$USERR4
 40
0.0
  9
$USERR5
 40
0.0
  9
$WORLDVIEW
 70
     1
  9
$SHADEDGE
 70
     3
  9
$SHADEDIF
 70
    70
  9
$TILEMODE
 70
     1
  9
$MAXACTVP
 70
    48
  9
$PINSBASE
 10
0.0
 20
0.0
 30
0.0
  9
$PLIMCHECK
 70
     0
  9
$PEXTMIN
 10
26.66076962115563
 20
20.31135699206658
 30
-0.0015258207003583
  9
$PEXTMAX
 10
240.039213369355
 20
182.8886381005154
 30
0.0000000349246037
  9
$PLIMMIN
 10
-6.350006103515625
 20
-6.349999904632568
  9
$PLIMMAX
 10
273.0499877929688
 20
209.5499939918518
  9
$UNITMODE
 70
     0
  9
$VISRETAIN
 70
     1
  9
$PLINEGEN
 70
     0
  9
$PSLTSCALE
 70
     1
  9
$TREEDEPTH
 70
  3020
  9
$CMLSTYLE
  2
STANDARD
  9
$CMLJUST
 70
     0
  9
$CMLSCALE
 40
20.0
  9
$PROXYGRAPHICS
 70
     1
  9
$MEASUREMENT
 70
     1
  9
$CELWEIGHT
370
    -1
  9
$ENDCAPS
280
     0
  9
$JOINSTYLE
280
     0
  9
$LWDISPLAY
290
     0
  9
$INSUNITS
 70
     0
  9
$HYPERLINKBASE
  1

  9
$STYLESHEET
  1

  9
$XEDIT
290
     1
  9
$CEPSNTYPE
380
     0
  9
$PSTYLEMODE
290
     1
  9
$FINGERPRINTGUID
  2
{E37091AC-D3A2-4E59-9D82-2AE9E056BAE3}
  9
$VERSIONGUID
  2
{FA3CFC2F-BFA4-4FC0-B9DB-A025B33A484F}
  9
$EXTNAMES
290
     1
  9
$PSVPSCALE
 40
0.0
  9
$OLESTARTUP
290
     0
  9
$SORTENTS
280
    96
  9
$INDEXCTL
280
     0
  9
$HIDETEXT
280
     0
  9
$XCLIPFRAME
280
     0
  9
$HALOGAP
280
     0
  9
$OBSCOLOR
 70
   257
  9
$OBSLTYPE
280
     0
  9
$INTERSECTIONDISPLAY
280
     0
  9
$INTERSECTIONCOLOR
 70
   257
  9
$DIMASSOC
280
     1
  9
$PROJECTNAME
  1

  9
$CAMERADISPLAY
290
     0
  9
$LENSLENGTH
 40
50.0
  9
$CAMERAHEIGHT
 40
0.0
  9
$STEPSPERSEC
 40
2.0
  9
$STEPSIZE
 40
6.0
  9
$3DDWFPREC
 40
2.0
  9
$PSOLWIDTH
 40
0.25
  9
$PSOLHEIGHT
 40
4.0
  9
$LOFTANG1
 40
1.570796326794896
  9
$LOFTANG2
 40
1.570796326794896
  9
$LOFTMAG1
 40
0.0
  9
$LOFTMAG2
 40
0.0
  9
$LOFTPARAM
 70
     7
  9
$LOFTNORMALS
280
     1
  9
$LATITUDE
 40
37.795
  9
$LONGITUDE
 40
-122.394
  9
$NORTHDIRECTION
 40
0.0
  9
$TIMEZONE
 70
 -8000
  9
$LIGHTGLYPHDISPLAY
280
     1
  9
$TILEMODELIGHTSYNCH
280
     1
  9
$CMATERIAL
347
72F1
  9
$SOLIDHIST
280
     0
  9
$SHOWHIST
280
     1
  9
$DWFFRAME
280
     2
  9
$DGNFRAME
280
     0
  9
$REALWORLDSCALE
290
     1
  9
$INTERFERECOLOR
 62
     1
  9
$INTERFEREOBJVS
345
7313
  9
$INTERFEREVPVS
346
7310
  9
$CSHADOW
280
     0
  9
$SHADOWPLANELOCATION
 40
0.0
  0
ENDSEC
  0
SECTION
  2
CLASSES
  0
CLASS
  1
RASTERVARIABLES
  2
AcDbRasterVariables
  3
ISM
 90
        0
 91
        1
280
     0
281
     0
  0
CLASS
  1
IMAGEDEF
  2
AcDbRasterImageDef
  3
ISM
 90
        0
 91
        7
280
     0
281
     0
  0
CLASS
  1
IMAGEDEF_REACTOR
  2
AcDbRasterImageDefReactor
  3
ISM
 90
        1
 91
        0
280
     0
281
     0
  0
CLASS
  1
IMAGE
  2
AcDbRasterImage
  3
ISM
 90
     2175
 91
        0
280
     0
281
     1
  0
CLASS
  1
DICTIONARYVAR
  2
AcDbDictionaryVar
  3
ObjectDBX Classes
 90
        0
 91
       22
280
     0
281
     0
  0
CLASS
  1
ACDBDICTIONARYWDFLT
  2
AcDbDictionaryWithDefault
  3
ObjectDBX Classes
 90
        0
 91
        1
280
     0
281
     0
  0
CLASS
  1
SORTENTSTABLE
  2
AcDbSortentsTable
  3
ObjectDBX Classes
 90
        0
 91
        0
280
     0
281
     0
  0
CLASS
  1
MATERIAL
  2
AcDbMaterial
  3
ObjectDBX Classes
 90
     1153
 91
        3
280
     0
281
     0
  0
CLASS
  1
VISUALSTYLE
  2
AcDbVisualStyle
  3
ObjectDBX Classes
 90
     4095
 91
       24
280
     0
281
     0
  0
CLASS
  1
TABLESTYLE
  2
AcDbTableStyle
  3
ObjectDBX Classes
 90
     4095
 91
        1
280
     0
281
     0
  0
CLASS
  1
SCALE
  2
AcDbScale
  3
ObjectDBX Classes
 90
     1153
 91
       17
280
     0
281
     0
  0
CLASS
  1
MLEADERSTYLE
  2
AcDbMLeaderStyle
  3
ACDB_MLEADERSTYLE_CLASS
 90
     4095
 91
        1
280
     0
281
     0
  0
CLASS
  1
CELLSTYLEMAP
  2
AcDbCellStyleMap
  3
ObjectDBX Classes
 90
     1152
 91
        1
280
     0
281
     0
  0
ENDSEC
  0
SECTION
  2
TABLES
  0
TABLE
  2
VPORT
  5
8
330
0
100
AcDbSymbolTable
 70
     1
  0
VPORT
  5
72EF
330
8
100
AcDbSymbolTableRecord
100
AcDbViewportTableRecord
  2
*Active
 70
     0
 10
0.0
 20
0.0
 11
1.0
 21
1.0
 12
43.2744993457395
 22
16.0118901448565
 13
0.0
 23
0.0
 14
10.0
 24
10.0
 15
10.0
 25
10.0
 16
0.0
 26
0.0
 36
1.0
 17
0.0
 27
0.0
 37
0.0
 40
45.1176478269929
 41
1.536585365853658
 42
50.0
 43
0.0
 44
0.0
 50
0.0
 51
0.0
 71
     0
 72
   100
 73
     1
 74
     1
 75
     0
 76
     0
 77
     0
 78
     0
281
     0
 65
     1
110
0.0
120
0.0
130
0.0
111
1.0
121
0.0
131
0.0
112
0.0
122
1.0
132
0.0
 79
     0
146
0.0
348
730F
 60
     3
 61
     5
292
     1
282
     1
141
0.0
142
0.0
 63
   250
421
  3355443
1001
ACAD_NAV_VCDISPLAY
1070
     3
  0
ENDTAB
  0
TABLE
  2
LTYPE
  5
5
330
0
100
AcDbSymbolTable
 70
     1
  0
LTYPE
  5
12
330
5
100
AcDbSymbolTableRecord
100
AcDbLinetypeTableRecord
  2
BYBLOCK
 70
     0
  3

 72
    65
 73
     0
 40
0.0
  0
LTYPE
  5
13
330
5
100
AcDbSymbolTableRecord
100
AcDbLinetypeTableRecord
  2
BYLAYER
 70
     0
  3

 72
    65
 73
     0
 40
0.0
  0
LTYPE
  5
14
330
5
100
AcDbSymbolTableRecord
100
AcDbLinetypeTableRecord
  2
CONTINUOUS
 70
     0
  3
Solid line
 72
    65
 73
     0
 40
0.0
  0
ENDTAB
  0
TABLE
  2
LAYER
  5
2
330
0
100
AcDbSymbolTable
 70
     3
  0
LAYER
  5
E
102
{ACAD_XDICTIONARY
360
7374
102
}
330
2
100
AcDbSymbolTableRecord
100
AcDbLayerTableRecord
  2
0
 70
     0
 62
     7
  6
CONTINUOUS
370
    -3
390
709A
347
7301
  0
LAYER
  5
70A5
330
2
100
AcDbSymbolTableRecord
100
AcDbLayerTableRecord
  2
Defpoints
 70
     0
 62
     7
  6
CONTINUOUS
290
     0
370
    -3
390
709A
347
7301
  0
LAYER
  5
71EB
102
{ACAD_XDICTIONARY
360
7376
102
}
330
2
100
AcDbSymbolTableRecord
100
AcDbLayerTableRecord
  2
DIM
 70
     0
 62
    -3
  6
CONTINUOUS
370
    -3
390
709A
347
7301
  0
ENDTAB
  0
TABLE
  2
STYLE
  5
3
330
0
100
AcDbSymbolTable
 70
     2
  0
STYLE
  5
F
330
3
100
AcDbSymbolTableRecord
100
AcDbTextStyleTableRecord
  2
STANDARD
 70
     0
 40
0.75
 41
1.0
 50
0.0
 71
     0
 42
2.5
  3
stylu.ttf
  4

1001
ACAD
1000
Stylus BT
1071
       34
  0
STYLE
  5
3816
330
3
100
AcDbSymbolTableRecord
100
AcDbTextStyleTableRecord
  2
ITALICT
 70
     0
 40
4.0
 41
1.0
 50
0.0
 71
     0
 42
4.0
  3
italict.shx
  4

  0
ENDTAB
  0
TABLE
  2
VIEW
  5
6
330
0
100
AcDbSymbolTable
 70
     0
  0
ENDTAB
  0
TABLE
  2
UCS
  5
7
330
0
100
AcDbSymbolTable
 70
     0
  0
ENDTAB
  0
TABLE
  2
APPID
  5
9
330
0
100
AcDbSymbolTable
 70
     5
  0
APPID
  5
10
330
9
100
AcDbSymbolTableRecord
100
AcDbRegAppTableRecord
  2
ACAD
 70
     0
  0
APPID
  5
7342
330
9
100
AcDbSymbolTableRecord
100
AcDbRegAppTableRecord
  2
AcadAnnoPO
 70
     0
  0
APPID
  5
7348
330
9
100
AcDbSymbolTableRecord
100
AcDbRegAppTableRecord
  2
ACAD_DSTYLE_DIMJAG
 70
     0
  0
APPID
  5
7349
330
9
100
AcDbSymbolTableRecord
100
AcDbRegAppTableRecord
  2
ACAD_DSTYLE_DIMTALN
 70
     0
  0
APPID
  5
736A
330
9
100
AcDbSymbolTableRecord
100
AcDbRegAppTableRecord
  2
ACAD_NAV_VCDISPLAY
 70
     0
  0
ENDTAB
  0
TABLE
  2
DIMSTYLE
  5
A
330
0
100
AcDbSymbolTable
 70
     1
100
AcDbDimStyleTable
 71
     1
340
1D
  0
DIMSTYLE
105
1D
102
{ACAD_REACTORS
330
71BA
330
71C8
330
735D
102
}
330
A
100
AcDbSymbolTableRecord
100
AcDbDimStyleTableRecord
  2
STANDARD
 70
     0
  3
"
 73
     0
 74
     0
 77
     1
140
0.75
176
     3
177
     3
277
     5
340
F
342
7344
1001
ACAD_DSTYLE_DIMJAG
1070
   388
1040
1.5
1001
ACAD_DSTYLE_DIMTALN
1070
   392
1070
     0
  0
ENDTAB
  0
TABLE
  2
BLOCK_RECORD
  5
1
330
0
100
AcDbSymbolTable
 70
     5
  0
BLOCK_RECORD
  5
18
330
1
100
AcDbSymbolTableRecord
100
AcDbBlockTableRecord
  2
*MODEL_SPACE
340
709F
 70
     0
280
     1
281
     0
  0
BLOCK_RECORD
  5
15
330
1
100
AcDbSymbolTableRecord
100
AcDbBlockTableRecord
  2
*PAPER_SPACE
340
70A0
 70
     0
280
     1
281
     0
  0
BLOCK_RECORD
  5
6B40
330
1
100
AcDbSymbolTableRecord
100
AcDbBlockTableRecord
  2
5559_E
340
0
 70
     0
280
     1
281
     0
  0
BLOCK_RECORD
  5
71BB
330
1
100
AcDbSymbolTableRecord
100
AcDbBlockTableRecord
  2
*D1
340
0
 70
     0
280
     1
281
     0
  0
BLOCK_RECORD
  5
71C9
330
1
100
AcDbSymbolTableRecord
100
AcDbBlockTableRecord
  2
*D2
340
0
 70
     0
280
     1
281
     0
  0
BLOCK_RECORD
  5
7344
330
1
100
AcDbSymbolTableRecord
100
AcDbBlockTableRecord
  2
_ArchTick
340
0
102
{BLKREFS
331
734D
331
734E
331
7357
331
7358
331
7364
331
7365
102
}
 70
     0
280
     1
281
     0
  0
BLOCK_RECORD
  5
735E
330
1
100
AcDbSymbolTableRecord
100
AcDbBlockTableRecord
  2
*D4
340
0
 70
     0
280
     1
281
     0
  0
ENDTAB
  0
ENDSEC
  0
SECTION
  2
BLOCKS
  0
BLOCK
  5
19
330
18
100
AcDbEntity
  8
0
100
AcDbBlockBegin
  2
*MODEL_SPACE
 70
     0
 10
0.0
 20
0.0
 30
0.0
  3
*MODEL_SPACE
  1

  0
ENDBLK
  5
1A
330
18
100
AcDbEntity
  8
0
100
AcDbBlockEnd
  0
BLOCK
  5
16
330
15
100
AcDbEntity
 67
     1
  8
0
100
AcDbBlockBegin
  2
*PAPER_SPACE
 70
     0
 10
0.0
 20
0.0
 30
0.0
  3
*PAPER_SPACE
  1

  0
ENDBLK
  5
17
330
15
100
AcDbEntity
 67
     1
  8
0
100
AcDbBlockEnd
  0
BLOCK
  5
6B41
330
6B40
100
AcDbEntity
  8
0
100
AcDbBlockBegin
  2
5559_E
 70
     0
 10
0.0
 20
0.0
 30
0.0
  3
5559_E
  1

  0
LINE
  5
6B42
330
6B40
100
AcDbEntity
  8
0
100
AcDbLine
 10
-27.5
 20
0.0
 30
0.0
 11
-29.24336835850772
 21
0.3878373820219085
 31
0.0
  0
LINE
  5
6B43
330
6B40
100
AcDbEntity
  8
0
100
AcDbLine
 10
-29.24336835850772
 20
0.3878373820219085
 30
0.0
 11
-4.993368358507716
 21
14.63783738202191
 31
0.0
  0
LINE
  5
6B44
330
6B40
100
AcDbEntity
  8
0
100
AcDbLine
 10
-29.75
 20
1.25
 30
0.0
 11
-5.5
 21
15.5
 31
0.0
  0
LINE
  5
6B45
330
6B40
100
AcDbEntity
  8
0
100
AcDbLine
 10
-29.24336835850772
 20
0.3878373820219085
 30
0.0
 11
-29.75
 21
1.25
 31
0.0
  0
LINE
  5
6B46
330
6B40
100
AcDbEntity
  8
0
100
AcDbLine
 10
0.9375
 20
0.0
 30
0.0
 11
0.9375
 21
7.875
 31
0.0
  0
LINE
  5
6B47
330
6B40
100
AcDbEntity
  8
0
100
AcDbLine
 10
27.31273271071207
 20
0.0
 30
0.0
 11
5.838172235884876
 21
12.61907161922835
 31
0.0
  0
LINE
  5
6B48
330
6B40
100
AcDbEntity
  8
0
100
AcDbLine
 10
29.24336835850772
 20
0.3878373820219085
 30
0.0
 11
29.75
 21
1.25
 31
0.0
  0
LINE
  5
6B49
330
6B40
100
AcDbEntity
  8
0
100
AcDbLine
 10
29.24336835850772
 20
0.3878373820219085
 30
0.0
 11
4.993368358507716
 21
14.63783738202191
 31
0.0
  0
LINE
  5
6B4A
330
6B40
100
AcDbEntity
  8
0
100
AcDbLine
 10
-27.31273271071207
 20
0.0
 30
0.0
 11
-5.838172235884876
 21
12.61907161922835
 31
0.0
  0
LINE
  5
6B4B
330
6B40
100
AcDbEntity
  8
0
100
AcDbLine
 10
-0.9375
 20
0.0
 30
0.0
 11
-0.9375
 21
7.875
 31
0.0
  0
LINE
  5
6B4C
330
6B40
100
AcDbEntity
  8
0
100
AcDbLine
 10
27.5
 20
0.0
 30
0.0
 11
0.0
 21
0.0
 31
0.0
  0
LINE
  5
6B4D
330
6B40
100
AcDbEntity
  8
0
100
AcDbLine
 10
-27.5
 20
0.0
 30
0.0
 11
0.0
 21
0.0
 31
0.0
  0
LINE
  5
6B4E
330
6B40
100
AcDbEntity
  8
0
100
AcDbLine
 10
27.5
 20
0.0
 30
0.0
 11
29.24336835850772
 21
0.3878373820219085
 31
0.0
  0
ARC
  5
6B4F
330
6B40
100
AcDbEntity
  8
0
100
AcDbCircle
 10
3.90663910269555
 20
9.332076638186872
 30
0.0
 40
3.812500000000004
100
AcDbArc
 50
218.8500245663667
 51
59.56027561935684
  0
LWPOLYLINE
  5
6B50
330
6B40
100
AcDbEntity
  8
0
100
AcDbPolyline
 90
      664
 70
     0
 43
0.0
 10
-1.562599714847451
 20
7.874999999999996
 10
-1.580637554666864
 20
7.902466566427051
 10
-1.604088761218449
 20
7.943686096719645
 10
-1.621794342244207
 20
7.981004549251284
 10
-1.634519875607921
 20
8.014925655202091
 10
-1.643030939173328
 20
8.045953145752189
 10
-1.648093110804197
 20
8.074590752081697
 10
-1.650471968364286
 20
8.101342205370741
 10
-1.650933089717355
 20
8.12671123679944
 10
-1.650120773021392
 20
8.151116991122471
 10
-1.648194197611317
 20
8.174640267392689
 10
-1.645191263116245
 20
8.197277278237514
 10
-1.641149869165317
 20
8.219024236284344
 10
-1.636107915387675
 20
8.239877354160597
 10
-1.630103301412461
 20
8.259832844493679
 10
-1.623173926868794
 20
8.278886919911002
 10
-1.615357691385824
 20
8.297035793039974
 10
-1.606689968078235
 20
8.314283882622504
 10
-1.59719602400299
 20
8.330668431858484
 10
-1.586898599702593
 20
8.346234890062291
 10
-1.57582043571957
 20
8.361028706548321
 10
-1.563984272596414
 20
8.375095330630951
 10
-1.551412850875649
 20
8.388480211624575
 10
-1.538128911099782
 20
8.401228798843568
 10
-1.524155193811338
 20
8.413386541602328
 10
-1.509566236013185
 20
8.424981214500597
 10
-1.494643760549664
 20
8.435969893279605
 10
-1.479721286725499
 20
8.446291978965952
 10
-1.465132333845396
 20
8.455886872586219
 10
-1.451210421214078
 20
8.464693975167008
 10
-1.438289068136242
 20
8.47265268773491
 10
-1.42670179391662
 20
8.47970241131652
 10
-1.416782117859909
 20
8.485782546938423
 10
-1.408767546075559
 20
8.490875420026547
 10
-1.402511531891917
 20
8.495135053604109
 10
-1.39777151544208
 20
8.498758395093663
 10
-1.394304936859114
 20
8.501942391917751
 10
-1.391869236276114
 20
8.504883991498918
 10
-1.390221853826162
 20
8.507780141259718
 10
-1.389120229642337
 20
8.510827788622698
 10
-1.388321803857728
 20
8.514223881010401
 10
-1.387614336645704
 20
8.518126228874862
 10
-1.386906868340773
 20
8.522536094786055
 10
-1.386138759317752
 20
8.527415604343428
 10
-1.385249369951424
 20
8.532726883146445
 10
-1.384178060616605
 20
8.538432056794555
 10
-1.382864191688099
 20
8.544493250887217
 10
-1.381247123540703
 20
8.550872591023882
 10
-1.379266216549211
 20
8.557532202804015
 10
-1.376881044342383
 20
8.564426636885112
 10
-1.374132033564691
 20
8.571480144156872
 10
-1.371079824114566
 20
8.578609400567042
 10
-1.367785055890415
 20
8.585731082063375
 10
-1.36430836879068
 20
8.592761864593612
 10
-1.360710402713763
 20
8.5996184241055
 10
-1.357051797558114
 20
8.606217436546792
 10
-1.353393193222139
 20
8.612475577865232
 10
-1.349761119610164
 20
8.61833603623512
 10
-1.346045666650155
 20
8.623848048736977
 10
-1.342102814275982
 20
8.629087364677872
 10
-1.337788542421506
 20
8.634129733364883
 10
-1.332958831020597
 20
8.639050904105076
 10
-1.327469660007132
 20
8.643926626205534
 10
-1.321177009314965
 20
8.648832648973318
 10
-1.313936858877958
 20
8.653844721715511
 10
-1.305670881967131
 20
8.659019656370247
 10
-1.296563525202017
 20
8.664338515399933
 10
-1.286864928539301
 20
8.669763423898043
 10
-1.27682523193566
 20
8.675256506958046
 10
-1.266694575347763
 20
8.680779889673409
 10
-1.256723098732308
 20
8.686295697137612
 10
-1.247160942045958
 20
8.691766054444123
 10
-1.238258245245397
 20
8.697153086686412
 10
-1.230203244949521
 20
8.702427756441764
 10
-1.222936564426042
 20
8.707596376222713
 10
-1.216336923604885
 20
8.712674096025601
 10
-1.210283042415994
 20
8.717676065846767
 10
-1.204653640789281
 20
8.722617435682565
 10
-1.199327438654691
 20
8.727513355529328
 10
-1.194183155942134
 20
8.732378975383404
 10
-1.189099512581549
 20
8.737229445241137
 10
-1.183979231847231
 20
8.7420811775564
 10
-1.178821050390865
 20
8.746955634613186
 10
-1.173647708208534
 20
8.751875541153019
 10
-1.168481945296278
 20
8.756863621917425
 10
-1.163346501650181
 20
8.76194260164792
 10
-1.158264117266291
 20
8.767135205086034
 10
-1.153257532140671
 20
8.772464156973288
 10
-1.148349486269381
 20
8.777952182051208
 10
-1.143555139695344
 20
8.783620742603787
 10
-1.138859332648856
 20
8.789486251084898
 10
-1.134239325407101
 20
8.795563857490879
 10
-1.129672378247228
 20
8.801868711818084
 10
-1.1251357514464
 20
8.808415964062849
 10
-1.120606705281787
 20
8.815220764221521
 10
-1.116062500030551
 20
8.822298262290438
 10
-1.111480395969856
 20
8.829663608265953
 10
-1.106827546636047
 20
8.837311752289828
 10
-1.10203067860224
 20
8.84515684508554
 10
-1.097006411700718
 20
8.853092837521991
 10
-1.091671365763758
 20
8.861013680468087
 10
-1.085942160623666
 20
8.868813324792721
 10
-1.079735416112733
 20
8.876385721364798
 10
-1.072967752063249
 20
8.883624821053217
 10
-1.065555788307491
 20
8.890424574726885
 10
-1.057433831371724
 20
8.896707970508749
 10
-1.048606934558037
 20
8.902514145537995
 10
-1.039097837862499
 20
8.907911274207851
 10
-1.028929281281172
 20
8.912967530911544
 10
-1.018124004810111
 20
8.917751090042315
 10
-1.006704748445393
 20
8.922330125993394
 10
-0.9946942521830592
 20
8.926772813158002
 10
-0.982115256019199
 20
8.931147325929384
 10
-0.9690195566418395
 20
8.935509213816253
 10
-0.9555751775070149
 20
8.939863526789277
 10
-0.9419791987627448
 20
8.944202689934623
 10
-0.9284287005570632
 20
8.948519128338446
 10
-0.9151207630379616
 20
8.952805267086901
 10
-0.9022524663534738
 20
8.957053531266154
 10
-0.8900208906516198
 20
8.961256345962357
 10
-0.8786231160804049
 20
8.965406136261673
 10
-0.8682056893570333
 20
8.969501639706571
 10
-0.8587130234753175
 20
8.973566843664762
 10
-0.8500389979982827
 20
8.97763204796028
 10
-0.8420774924889329
 20
8.981727552417147
 10
-0.8347223865102506
 20
8.985883656859382
 10
-0.827867559625254
 20
8.99013066111102
 10
-0.8214068913969398
 20
8.994498864996085
 10
-0.8152342613883121
 20
8.999018568338602
 10
-0.8092700792488614
 20
9.003716283421347
 10
-0.80354087497399
 20
9.008603372362085
 10
-0.7980997086455801
 20
9.01368740973734
 10
-0.7929996403455136
 20
9.01897597012363
 10
-0.7882937301556865
 20
9.024476628097474
 10
-0.784035038157974
 20
9.030196958235386
 10
-0.7802766244342721
 20
9.036144535113887
 10
-0.7770715490664628
 20
9.042326933309499
 10
-0.7744438155355198
 20
9.048799701965506
 10
-0.7723012009187187
 20
9.055810288492271
 10
-0.7705224256924695
 20
9.063654114866913
 10
-0.7689862103331322
 20
9.072626603066566
 10
-0.7675712753170885
 20
9.083023175068362
 10
-0.7661563411207198
 20
9.095139252849417
 10
-0.7646201282204146
 20
9.109270258386871
 10
-0.7628413570925403
 20
9.125711613657845
 10
-0.7607240147239765
 20
9.144641329390598
 10
-0.7582731541436019
 20
9.165767771317916
 10
-0.7555190948907935
 20
9.188681893923714
 10
-0.7524921565049141
 20
9.212974651691915
 10
-0.7492226585253406
 20
9.238236999106426
 10
-0.7457409204914569
 20
9.264059890651161
 10
-0.7420772619426259
 20
9.290034280810047
 10
-0.7382620024182245
 20
9.315751124066995
 10
-0.7343153548989605
 20
9.3408695491586
 10
-0.7302171061309011
 20
9.365321381832185
 10
-0.7259369363014443
 20
9.389106622087744
 10
-0.7214445255980025
 20
9.412225269925286
 10
-0.7167095542079523
 20
9.4346773253448
 10
-0.7117017023187202
 20
9.4564627883463
 10
-0.7063906501176973
 20
9.477581658929771
 10
-0.7007460777922887
 20
9.498033937095222
 10
-0.6947439822258233
 20
9.517839822612891
 10
-0.6883856270853528
 20
9.537100314334004
 10
-0.6816785927338743
 20
9.55593661088001
 10
-0.6746304595343702
 20
9.574469910872366
 10
-0.6672488078498305
 20
9.592821412932536
 10
-0.6595412180432448
 20
9.611112315681978
 10
-0.6515152704775887
 20
9.629463817742148
 10
-0.6431785455158661
 20
9.647997117734508
 10
-0.6345449400348358
 20
9.666782914854906
 10
-0.6256536169663889
 20
9.685689910596757
 10
-0.616550055756207
 20
9.704536307027886
 10
-0.60727973584995
 20
9.723140306216095
 10
-0.5978881366932996
 20
9.741320110229196
 10
-0.5884207377319229
 20
9.758893921135008
 10
-0.5789230184115155
 20
9.775679941001335
 10
-0.5694404581777093
 20
9.791496371896002
 10
-0.5600349598674228
 20
9.8061929779997
 10
-0.5508341198823246
 20
9.819745771944724
 10
-0.5419819580153487
 20
9.832162328476254
 10
-0.5336224940593866
 20
9.843450222339463
 10
-0.5258997478073511
 20
9.853617028279536
 10
-0.5189577390521479
 20
9.862670321041655
 10
-0.5129404875866897
 20
9.870617675370997
 10
-0.5079920132038751
 20
9.87746666601274
 10
-0.5042316885423617
 20
9.88329323198975
 10
-0.50168029762375
 20
9.888446769435624
 10
-0.5003339773153855
 20
9.893345038761644
 10
-0.5001888644846276
 20
9.898405800379087
 10
-0.5012410959988216
 20
9.904046814699242
 10
-0.503486808725306
 20
9.910685842133375
 10
-0.5069221395314543
 20
9.918740643092782
 10
-0.5115432252845836
 20
9.928628977988736
 10
-0.5173019309256404
 20
9.940652293040724
 10
-0.5239730336898845
 20
9.954646777701022
 10
-0.5312870388861697
 20
9.970332307230115
 10
-0.5389744518233215
 20
9.987428756888483
 10
-0.546765777810208
 20
10.00565600193662
 10
-0.5543915221556404
 20
10.024733917635
 10
-0.561582190168501
 20
10.0443823792441
 10
-0.5680682871576011
 20
10.06432126202441
 10
-0.5736156978762353
 20
10.08432343499318
 10
-0.5781318248553049
 20
10.10437374219469
 10
-0.5815594500701807
 20
10.12451002143001
 10
-0.5838413554962259
 20
10.14477011050018
 10
-0.5849203231087757
 20
10.16519184720626
 10
-0.5847391348832005
 20
10.1858130693493
 10
-0.5832405727948427
 20
10.20667161473037
 10
-0.5803674188190655
 20
10.22780532115051
 10
-0.5761241926944649
 20
10.24918889597263
 10
-0.5707623652126586
 20
10.27054452480706
 10
-0.5645951449285605
 20
10.29153126282599
 10
-0.5579357403970065
 20
10.31180816520159
 10
-0.5510973601729106
 20
10.33103428710606
 10
-0.5443932128111158
 20
10.34886868371157
 10
-0.5381365068665361
 20
10.36497041019031
 10
-0.5326404508940286
 20
10.37899852171447
 10
-0.5281548659508104
 20
10.39075832572178
 10
-0.5246760231033676
 20
10.40064013871227
 10
-0.5221368059205745
 20
10.4091805294515
 10
-0.5204700979712556
 20
10.41691606670505
 10
-0.5196087828242569
 20
10.42438331923849
 10
-0.5194857440484029
 20
10.4321188558174
 10
-0.5200338652125538
 20
10.44065924520734
 10
-0.5211860298855271
 20
10.45054105617389
 10
-0.5228919007212057
 20
10.46217323610041
 10
-0.5251682567135206
 20
10.47545424684134
 10
-0.528048655941447
 20
10.4901549288689
 10
-0.5315666564839532
 20
10.50604612265535
 10
-0.5357558164200001
 20
10.52289866867289
 10
-0.5406496938285557
 20
10.54048340739376
 10
-0.5462818467886024
 20
10.5585711792902
 10
-0.552685833379087
 20
10.57693282483442
 10
-0.5598747040247787
 20
10.59535967844223
 10
-0.567779478533609
 20
10.61372505030368
 10
-0.5763106690592963
 20
10.63192274455237
 10
-0.5853787877555448
 20
10.64984656532194
 10
-0.5948943467761012
 20
10.667390316746
 10
-0.604767858274677
 20
10.68444780295817
 10
-0.6149098344049833
 20
10.70091282809206
 10
-0.6252307873207599
 20
10.7166791962813
 10
-0.6356412290846408
 20
10.73166306869139
 10
-0.6460516713949716
 20
10.74587003461547
 10
-0.6563726258590208
 20
10.75932804037853
 10
-0.6665146040840569
 20
10.77206503230558
 10
-0.6763881176773623
 20
10.78410895672164
 10
-0.6859036782461985
 20
10.79548775995172
 10
-0.6949717973978338
 20
10.80622938832084
 10
-0.7035029867395366
 20
10.81636178815398
 10
-0.7114226727017865
 20
10.82592035807331
 10
-0.7187159410078295
 20
10.83497030588939
 10
-0.7253827922041083
 20
10.84358429170994
 10
-0.7314232268370873
 20
10.85183497564267
 10
-0.7368372454532093
 20
10.85979501779528
 10
-0.7416248485989172
 20
10.86753707827547
 10
-0.7457860368206824
 20
10.87513381719096
 10
-0.7493208106649405
 20
10.88265789464946
 10
-0.7522403565223215
 20
10.89015495609026
 10
-0.7546006041601246
 20
10.89756258827906
 10
-0.7564686691898431
 20
10.90479136331314
 10
-0.7579116672229702
 20
10.91175185328979
 10
-0.758996713870971
 20
10.91835463030629
 10
-0.7597909247453459
 20
10.92451026645993
 10
-0.7603614154575596
 20
10.930129333848
 10
-0.7607753016191268
 20
10.93512240456778
 10
-0.7611491037607295
 20
10.93944849090081
 10
-0.7617969620900454
 20
10.94326036586559
 10
-0.7630824217339267
 20
10.94675924266489
 10
-0.7653690278192756
 20
10.95014633450147
 10
-0.769020325472944
 20
10.95362285457809
 10
-0.7743998598218412
 20
10.9573900160975
 10
-0.7818711759928192
 20
10.96164903226247
 10
-0.7917978191127731
 20
10.96660111627574
 10
-0.804435202978837
 20
10.97241674046692
 10
-0.8196062160692108
 20
10.97914341367284
 10
-0.8370256155323403
 20
10.98679790385716
 10
-0.8564081585166718
 20
10.99539697898356
 10
-0.8774686021706656
 20
11.00495740701571
 10
-0.8999217036427893
 20
11.01549595591728
 10
-0.9234822200814676
 20
11.02702939365193
 10
-0.9478649086351893
 20
11.03957448818333
 10
-0.9728041019073643
 20
11.05313682888891
 10
-0.9981124343214133
 20
11.06767729080124
 10
-1.023622115755713
 20
11.08314557036663
 10
-1.04916535608865
 20
11.09949136403139
 10
-1.074574365198628
 20
11.11666436824183
 10
-1.099681352964019
 20
11.13461427944429
 10
-1.12431852926322
 20
11.15329079408509
 10
-1.148318103974624
 20
11.17264360861052
 10
-1.171564727429043
 20
11.19266484760864
 10
-1.194152811766947
 20
11.21351634823438
 10
-1.216229209581278
 20
11.23540237578438
 10
-1.237940773464949
 20
11.2585271955553
 10
-1.259434356010864
 20
11.2830950728438
 10
-1.280856809811957
 20
11.30931027294651
 10
-1.302354987461129
 20
11.3373770611601
 10
-1.324075741551311
 20
11.36749970278121
 10
-1.346116648855129
 20
11.39986747879171
 10
-1.368378182864148
 20
11.43460973291436
 10
-1.390711541249629
 20
11.47184082455712
 10
-1.412967921682863
 20
11.51167511312797
 10
-1.434998521835112
 20
11.55422695803486
 10
-1.456654539377652
 20
11.59961071868577
 10
-1.477787171981752
 20
11.64794075448866
 10
-1.498247617318703
 20
11.69933142485152
 10
-1.517904262665808
 20
11.75377008673062
 10
-1.536694253724611
 20
11.81073608727556
 10
-1.554571925802662
 20
11.86958177118427
 10
-1.571491614207516
 20
11.92965948315466
 10
-1.587407654246767
 20
11.99032156788465
 10
-1.602274381227964
 20
12.05092037007217
 10
-1.616046130458684
 20
12.11080823441512
 10
-1.628677237246492
 20
12.16933750561144
 10
-1.640148659016816
 20
12.22601406746504
 10
-1.650547841666607
 20
12.28095796020383
 10
-1.659988853210649
 20
12.33444276316175
 10
-1.668585761663742
 20
12.38674205567268
 10
-1.676452635040696
 20
12.43812941707056
 10
-1.683703541356301
 20
12.48887842668931
 10
-1.690452548625373
 20
12.53926266386283
 10
-1.696813724862693
 20
12.58955570792506
 10
-1.702884027894526
 20
12.63995134420939
 10
-1.708691974792856
 20
12.69032418204723
 10
-1.71424897244114
 20
12.74046903676948
 10
-1.719566427722831
 20
12.79018072370705
 10
-1.724655747521367
 20
12.83925405819084
 10
-1.7295283387202
 20
12.88748385555174
 10
-1.734195608202782
 20
12.93466493112067
 10
-1.73866896285255
 20
12.98059210022851
 10
-1.742963611801911
 20
13.02507917677104
 10
-1.747109973179021
 20
13.06801596890342
 10
-1.751142267361018
 20
13.10931128334569
 10
-1.755094714724997
 20
13.14887392681789
 10
-1.759001535648089
 20
13.18661270604004
 10
-1.762896950507411
 20
13.22243642773218
 10
-1.766815179680079
 20
13.25625389861434
 10
-1.770790443543205
 20
13.28797392540657
 10
-1.774860764677328
 20
13.3175604107794
 10
-1.779079374476587
 20
13.34519764120549
 10
-1.783503306538563
 20
13.37112499910797
 10
-1.788189594460796
 20
13.39558186691004
 10
-1.793195271840858
 20
13.41880762703484
 10
-1.798577372276326
 20
13.44104166190553
 10
-1.804392929364738
 20
13.46252335394527
 10
-1.810698976703662
 20
13.48349208557723
 10
-1.817523890016559
 20
13.50413918496535
 10
-1.824781413530402
 20
13.52446376323677
 10
-1.83235663359806
 20
13.5444168772594
 10
-1.840134636572393
 20
13.56394958390118
 10
-1.848000508806279
 20
13.58301294003001
 10
-1.855839336652564
 20
13.60155800251382
 10
-1.863536206464139
 20
13.61953582822054
 10
-1.870976204593851
 20
13.63689747401808
 10
-1.878062600630002
 20
13.65360033995513
 10
-1.884771397102582
 20
13.66962719880346
 10
-1.891096779776994
 20
13.68496716651559
 10
-1.89703293441866
 20
13.69960935904406
 10
-1.902574046792985
 20
13.71354289234139
 10
-1.907714302665397
 20
13.72675688236011
 10
-1.912447887801292
 20
13.73924044505275
 10
-1.916768987966086
 20
13.75098269637185
 10
-1.920672396168448
 20
13.76198842292353
 10
-1.92415533439005
 20
13.77232509392837
 10
-1.927215631855787
 20
13.78207584926053
 10
-1.92985111779059
 20
13.7913238287942
 10
-1.932059621419377
 20
13.80015217240354
 10
-1.933838971967063
 20
13.80864401996272
 10
-1.935186998658558
 20
13.81688251134593
 10
-1.936101530718772
 20
13.82495078642733
 10
-1.936576221032701
 20
13.83291722145955
 10
-1.9365880171256
 20
13.84079113820906
 10
-1.936109690182803
 20
13.84856709482079
 10
-1.935114011389629
 20
13.85623964943966
 10
-1.933573751931405
 20
13.86380336021061
 10
-1.931461682993457
 20
13.87125278527855
 10
-1.928750575761135
 20
13.87858248278841
 10
-1.925413201419743
 20
13.88578701088512
 10
-1.92143594556196
 20
13.8928600205972
 10
-1.916859651409779
 20
13.89979153448761
 10
-1.911738776592557
 20
13.90657066800288
 10
-1.906127778739637
 20
13.91318653658955
 10
-1.900081115480347
 20
13.91962825569419
 10
-1.893653244444053
 20
13.92588494076333
 10
-1.886898623260094
 20
13.93194570724352
 10
-1.879871709557804
 20
13.9377996705813
 10
-1.872629684021049
 20
13.94344864470025
 10
-1.865240619551713
 20
13.9489452374321
 10
-1.857775312106198
 20
13.95435475508561
 10
-1.850304557640917
 20
13.95974250396953
 10
-1.842899152112266
 20
13.96517379039262
 10
-1.835629891476649
 20
13.97071392066364
 10
-1.828567571690477
 20
13.97642820109135
 10
-1.821782988710147
 20
13.98238193798452
 10
-1.815338769692829
 20
13.98863680946739
 10
-1.809264866598788
 20
13.99523998092633
 10
-1.803583062589048
 20
14.00223498956316
 10
-1.798315140824641
 20
14.00966537257976
 10
-1.793482884466584
 20
14.01757466717796
 10
-1.789108076675915
 20
14.02600641055961
 10
-1.785212500613667
 20
14.03500413992656
 10
-1.781817939440855
 20
14.04461139248067
 10
-1.778945268709563
 20
14.05487261251207
 10
-1.776611733536142
 20
14.06583587266404
 10
-1.774833671427941
 20
14.07755015266815
 10
-1.773627419892363
 20
14.09006443225597
 10
-1.773009316436784
 20
14.10342769115907
 10
-1.772995698568593
 20
14.11768890910901
 10
-1.773602903795179
 20
14.13289706583737
 10
-1.774847269623911
 20
14.14910114107571
 10
-1.776746041216668
 20
14.16631836846141
 10
-1.779320094353195
 20
14.18443899725501
 10
-1.782591212467778
 20
14.20332153062286
 10
-1.786581178994651
 20
14.22282447173132
 10
-1.791311777368079
 20
14.24280632374674
 10
-1.796804791022296
 20
14.26312558983547
 10
-1.80308200339158
 20
14.28364077316386
 10
-1.810165197910166
 20
14.30421037689827
 10
-1.818040760125185
 20
14.32470016054591
 10
-1.826553484035258
 20
14.34500490897741
 10
-1.835512765751886
 20
14.36502666340429
 10
-1.844728001386542
 20
14.38466746503807
 10
-1.854008587050742
 20
14.40382935509024
 10
-1.86316391885596
 20
14.42241437477231
 10
-1.872003392913704
 20
14.44032456529579
 10
-1.880336405335462
 20
14.4574619678722
 10
-1.888012288301176
 20
14.47375311341015
 10
-1.895040118264532
 20
14.48922249160677
 10
-1.901468907747698
 20
14.50391908185632
 10
-1.907347669272837
 20
14.51789186355302
 10
-1.912725415362075
 20
14.53118981609114
 10
-1.917651158537573
 20
14.54386191886492
 10
-1.922173911321479
 20
14.55595715126859
 10
-1.926342686235948
 20
14.56752449269643
 10
-1.930194696477059
 20
14.5786092944706
 10
-1.933719957936631
 20
14.58924239562517
 10
-1.936896687180407
 20
14.59945100712209
 10
-1.939703100774124
 20
14.60926233992335
 10
-1.942117415283547
 20
14.61870360499094
 10
-1.944117847274419
 20
14.62780201328684
 10
-1.945682613312477
 20
14.63658477577303
 10
-1.946789929963472
 20
14.6450791034115
 10
-1.947425274937906
 20
14.65330222981149
 10
-1.947603170525283
 20
14.66123147917136
 10
-1.947345400159839
 20
14.66883419833673
 10
-1.946673747275852
 20
14.67607773415322
 10
-1.945609995307556
 20
14.68292943346645
 10
-1.944175927689215
 20
14.68935664312204
 10
-1.942393327855072
 20
14.69532670996561
 10
-1.940283979239389
 20
14.70080698084279
 10
-1.937850604851135
 20
14.70577840805207
 10
-1.935019685998163
 20
14.71027636570348
 10
-1.931698643563038
 20
14.71434983335993
 10
-1.927794898428331
 20
14.71804779058433
 10
-1.923215871476607
 20
14.72141921693958
 10
-1.917868983590437
 20
14.72451309198859
 10
-1.911661655652395
 20
14.72737839529427
 10
-1.904501308545036
 20
14.73006410641953
 10
-1.896298993814397
 20
14.73261739089125
 10
-1.886980285660285
 20
14.73507815809222
 10
-1.876474388945979
 20
14.73748450336923
 10
-1.864710508534756
 20
14.73987452206905
 10
-1.85161784928988
 20
14.74228630953845
 10
-1.837125616074629
 20
14.74475796112422
 10
-1.821163013752268
 20
14.74732757217313
 10
-1.803659247186082
 20
14.75003323803195
 10
-1.784586179952441
 20
14.75290851885901
 10
-1.764086310480209
 20
14.7559688340589
 10
-1.742344795911336
 20
14.75922506784774
 10
-1.719546793387792
 20
14.76268810444167
 10
-1.695877460051519
 20
14.76636882805681
 10
-1.671521953044511
 20
14.7702781229093
 10
-1.646665429508701
 20
14.77442687321527
 10
-1.621493046586053
 20
14.77882596319085
 10
-1.596144579787534
 20
14.78348718411235
 10
-1.570578278100029
 20
14.78842595549678
 10
-1.544707008879427
 20
14.79365860392133
 10
-1.518443639481624
 20
14.7992014559632
 10
-1.491701037262515
 20
14.80507083819957
 10
-1.464392069577975
 20
14.81128307720762
 10
-1.436429603783892
 20
14.81785449956457
 10
-1.407726507236176
 20
14.82480143184757
 10
-1.378248400540549
 20
14.83213256443975
 10
-1.348171917302238
 20
14.83982604294781
 10
-1.317726444376305
 20
14.84785237678439
 10
-1.287141368617824
 20
14.85618207536212
 10
-1.25664607688185
 20
14.86478564809361
 10
-1.226469956023457
 20
14.87363360439151
 10
-1.196842392897728
 20
14.88269645366844
 10
-1.167992774359703
 20
14.89194470533702
 10
-1.140068198859566
 20
14.90137285598083
 10
-1.112886611227821
 20
14.91107135086722
 10
-1.086183667890075
 20
14.92115462243447
 10
-1.059695025271928
 20
14.93173710312087
 10
-1.033156339798985
 20
14.9429332253647
 10
-1.006303267896868
 20
14.95485742160426
 10
-0.9788714659911477
 20
14.96762412427783
 10
-0.9505965905074731
 20
14.9813477658237
 10
-0.9213156221568539
 20
14.99609937623865
 10
-0.8912708387921881
 20
15.01177637575338
 10
-0.8608058425517697
 20
15.0282327821571
 10
-0.8302642355738996
 20
15.04532261323899
 10
-0.7999896199969072
 20
15.06289988678827
 10
-0.7703255979590935
 20
15.08081862059414
 10
-0.7416157715987737
 20
15.09893283244579
 10
-0.7142037430542488
 20
15.11709654013241
 10
-0.6883738359105252
 20
15.13519211207734
 10
-0.6641732595393109
 20
15.15321531924039
 10
-0.6415899447590192
 20
15.17119028321555
 10
-0.6206118223880424
 20
15.18914112559674
 10
-0.6012268232447866
 20
15.20709196797793
 10
-0.5834228781476441
 20
15.22506693195308
 10
-0.5671879179150352
 20
15.24309013911614
 10
-0.5525098733653522
 20
15.26118571106107
 10
-0.5393706407262045
 20
15.27937173901144
 10
-0.5277279778619857
 20
15.29764219270932
 10
-0.5175336080463211
 20
15.31598501152639
 10
-0.5087392545528076
 20
15.33438813483433
 10
-0.5012966406550561
 20
15.35283950200482
 10
-0.4951574896266635
 20
15.37132705240956
 10
-0.4902735247412622
 20
15.38983872542022
 10
-0.4865964692724348
 20
15.40836246040848
 10
-0.4840881041906826
 20
15.42689825768357
 10
-0.4827504412539412
 20
15.4454943613048
 10
-0.4825955499170363
 20
15.46421107626903
 10
-0.4836354996348007
 20
15.48310870757312
 10
-0.4858823598620461
 20
15.50224756021393
 10
-0.4893482000536125
 20
15.52168793918832
 10
-0.4940450896643114
 20
15.54149014949313
 10
-0.4999850981489616
 20
15.56171449612523
 10
-0.5071420760239534
 20
15.58236700945498
 10
-0.5153369980518577
 20
15.60323662134687
 10
-0.524352620056817
 20
15.62405798903889
 10
-0.5339716978629668
 20
15.64456576976901
 10
-0.5439769872944567
 20
15.66449462077524
 10
-0.5541512441754151
 20
15.68357919929555
 10
-0.5642772243299845
 20
15.70155416256794
 10
-0.5741376835822934
 20
15.7181541678304
 10
-0.5835435390891491
 20
15.73318422834736
 10
-0.5924183533379406
 20
15.746730781489
 10
-0.6007138501487362
 20
15.75895062065191
 10
-0.6083817533415897
 20
15.77000053923273
 10
-0.6153737867365692
 20
15.78003733062806
 10
-0.6216416741537217
 20
15.78921778823453
 10
-0.627137139413108
 20
15.79769870544873
 10
-0.6318119063347894
 20
15.80563687566729
 10
-0.6356337907988135
 20
15.81317100075403
 10
-0.6386349769251325
 20
15.82036741644162
 10
-0.6408637408936784
 20
15.82727436692994
 10
-0.6423683588844114
 20
15.83394009641886
 10
-0.6431971070772562
 20
15.84041284910827
 10
-0.6433982616521732
 20
15.84674086919804
 10
-0.64302009878908
 20
15.85297240088806
 10
-0.6421108946679368
 20
15.85915568837819
 10
-0.6407249601050183
 20
15.86533495551834
 10
-0.6389407444619338
 20
15.87153834475843
 10
-0.6368427317366568
 20
15.87778997819839
 10
-0.6345154059271465
 20
15.88411397793817
 10
-0.6320432510313623
 20
15.89053446607771
 10
-0.6295107510472633
 20
15.89707556471695
 10
-0.6270023899728159
 20
15.90376139595582
 10
-0.6246026518059722
 20
15.91061608189427
 10
-0.6223940089233438
 20
15.91766173444318
 10
-0.620450887216208
 20
15.92491242475724
 10
-0.6188457009544522
 20
15.9323802138021
 10
-0.6176508644080059
 20
15.9400771625434
 10
-0.6169387918467777
 20
15.94801533194676
 10
-0.616781897540669
 20
15.95620678297783
 10
-0.6172525957596023
 20
15.96466357660225
 10
-0.6184233007734861
 20
15.97339777378567
 10
-0.6203583809133164
 20
15.98244354743271
 10
-0.6230900207544324
 20
15.99192351820401
 10
-0.6266423589332462
 20
16.00198241869921
 10
-0.6310395340861917
 20
16.01276498151795
 10
-0.636305684849674
 20
16.02441593925985
 10
-0.6424649498601412
 20
16.03708002452458
 10
-0.6495414677539913
 20
16.05090196991173
 10
-0.6575593771676438
 20
16.06602650802098
 10
-0.6665025862688268
 20
16.08257022894578
 10
-0.6761940813503742
 20
16.10053715275505
 10
-0.6864166182364287
 20
16.11990315701151
 10
-0.6969529527511327
 20
16.1406441192779
 10
-0.7075858407186076
 20
16.16273591711695
 10
-0.7180980379630171
 20
16.18615442809142
 10
-0.7282723003084755
 20
16.21087552976402
 10
-0.7378913835791466
 20
16.23687509969752
 10
-0.7467722394315218
 20
16.2640888121234
 10
-0.7548686028516301
 20
16.29229152794821
 10
-0.762168404657885
 20
16.32121790474727
 10
-0.7686595756686714
 20
16.35060260009588
 10
-0.7743300467024099
 20
16.38018027156937
 10
-0.7791677485774926
 20
16.40968557674304
 10
-0.7831606121123258
 20
16.4388531731922
 10
-0.7862965681253016
 20
16.46741771849216
 10
-0.7885474553293222
 20
16.49518020583847
 10
-0.7898207440151808
 20
16.52220697090758
 10
-0.790007812368188
 20
16.54863068499615
 10
-0.7890000385736187
 20
16.57458401940086
 10
-0.7866888008167905
 20
16.60019964541839
 10
-0.7829654772829855
 20
16.62561023434541
 10
-0.7777214461574858
 20
16.6509484574786
 10
-0.7708480856256088
 20
16.67634698611463
 10
-0.7622930963557906
 20
16.70188622705653
 10
-0.7522294689491105
 20
16.72743752913271
 10
-0.7408865164898018
 20
16.752819976678
 10
-0.7284935520621048
 20
16.77785265402714
 10
-0.7152798887502599
 20
16.80235464551495
 10
-0.7014748396384931
 20
16.8261450354762
 10
-0.6873077178110379
 20
16.84904290824568
 10
-0.6730078363521273
 20
16.87086734815817
 10
-0.6587562318928449
 20
16.89148769393738
 10
-0.6445408352515756
 20
16.91097430186276
 10
-0.6303013007935619
 20
16.92944778260264
 10
-0.6159772828840389
 20
16.9470287468254
 10
-0.6015084358882419
 20
16.96383780519939
 10
-0.5868344141714062
 20
16.97999556839297
 10
-0.5718948720987598
 20
16.9956226470745
 10
-0.5566294640355523
 20
17.01083965191233
 10
-0.5409899134375351
 20
17.02578126467329
 10
-0.5249762201225679
 20
17.04063845151808
 10
-0.5086004529989907
 20
17.05561624970588
 10
-0.4918746809752151
 20
17.07091969649585
 10
-0.4748109729596024
 20
17.08675382914716
 10
-0.4574213978605073
 20
17.10332368491899
 10
-0.4397180245863268
 20
17.1208343010705
 10
-0.4217129220454155
 20
17.13949071486086
 10
-0.403454366599874
 20
17.15942760757904
 10
-0.3851354644266678
 20
17.1804982366331
 10
-0.3669855291564801
 20
17.20248550346093
 10
-0.3492338744199941
 20
17.22517230950038
 10
-0.3321098138479073
 20
17.24834155618933
 10
-0.3158426610708886
 20
17.27177614496565
 10
-0.3006617297196357
 20
17.2952589772672
 10
-0.2867963334248316
 20
17.31857295453185
 10
-0.2744114170307768
 20
17.3415431918302
 10
-0.2634144502363114
 20
17.36416365876376
 10
-0.2536485339538785
 20
17.38647053856677
 10
-0.2449567690959356
 20
17.40850001447348
 10
-0.2371822565749326
 20
17.4302882697181
 10
-0.2301680973033129
 20
17.4518714875349
 10
-0.2237573921935407
 20
17.47328585115811
 10
-0.2177932421580664
 20
17.49456754382196
 10
-0.2121267944125549
 20
17.51572661647172
 10
-0.2066413813855235
 20
17.53666859089666
 10
-0.2012283818087326
 20
17.55727285659709
 10
-0.1957791744139285
 20
17.57741880307333
 10
-0.1901851379328434
 20
17.59698581982566
 10
-0.1843376510972234
 20
17.6158532963544
 10
-0.1781280926388291
 20
17.63390062215984
 10
-0.1714478412893996
 20
17.65100718674229
 10
-0.1642227316096907
 20
17.66707904609744
 10
-0.1565164214766099
 20
17.68212892220243
 10
-0.1484270245960602
 20
17.69619620352982
 10
-0.1400526546739584
 20
17.70932027855216
 10
-0.1314914254162076
 20
17.72154053574197
 10
-0.122841450528739
 20
17.73289636357181
 10
-0.1142008437174553
 20
17.74342715051421
 10
-0.1056677186882808
 20
17.75317228504172
 10
-0.097067241662181
 20
17.76220763387775
 10
-0.0871327889204352
 20
17.77075497674918
 10
-0.0743247892593786
 20
17.77907257163375
 10
-0.057103671475339
 20
17.78741867650921
 10
-0.0339298643646515
 20
17.79605154935331
 10
-0.0032637967236582
 20
17.8052294481438
 10
-0.0000000000000071
 20
17.80605005961078
  0
LWPOLYLINE
  5
6DEA
330
6B40
100
AcDbEntity
  8
0
100
AcDbPolyline
 90
      664
 70
     0
 43
0.0
 10
1.562599714847451
 20
7.874999999999992
 10
1.580637554666864
 20
7.902466566427051
 10
1.604088761218434
 20
7.943686096719645
 10
1.6217943422442
 20
7.981004549251284
 10
1.634519875607914
 20
8.014925655202091
 10
1.643030939173321
 20
8.045953145752189
 10
1.64809311080419
 20
8.074590752081697
 10
1.650471968364279
 20
8.101342205370741
 10
1.650933089717348
 20
8.12671123679944
 10
1.650120773021384
 20
8.151116991122471
 10
1.64819419761131
 20
8.174640267392689
 10
1.645191263116238
 20
8.197277278237514
 10
1.64114986916531
 20
8.219024236284344
 10
1.636107915387668
 20
8.239877354160597
 10
1.630103301412454
 20
8.259832844493679
 10
1.623173926868787
 20
8.278886919911002
 10
1.615357691385817
 20
8.297035793039974
 10
1.606689968078228
 20
8.314283882622504
 10
1.597196024002982
 20
8.330668431858484
 10
1.586898599702593
 20
8.346234890062291
 10
1.575820435719563
 20
8.361028706548321
 10
1.563984272596407
 20
8.375095330630951
 10
1.551412850875642
 20
8.388480211624575
 10
1.538128911099775
 20
8.401228798843568
 10
1.524155193811331
 20
8.413386541602328
 10
1.509566236013171
 20
8.424981214500597
 10
1.494643760549656
 20
8.435969893279605
 10
1.479721286725492
 20
8.446291978965952
 10
1.465132333845389
 20
8.455886872586219
 10
1.451210421214071
 20
8.464693975167008
 10
1.438289068136235
 20
8.47265268773491
 10
1.426701793916613
 20
8.47970241131652
 10
1.416782117859902
 20
8.485782546938423
 10
1.408767546075551
 20
8.490875420026547
 10
1.40251153189191
 20
8.495135053604109
 10
1.397771515442073
 20
8.498758395093663
 10
1.394304936859107
 20
8.501942391917751
 10
1.391869236276107
 20
8.504883991498918
 10
1.390221853826162
 20
8.507780141259718
 10
1.38912022964233
 20
8.510827788622698
 10
1.388321803857721
 20
8.514223881010401
 10
1.387614336645697
 20
8.518126228874862
 10
1.386906868340773
 20
8.522536094786055
 10
1.386138759317745
 20
8.527415604343428
 10
1.385249369951424
 20
8.532726883146445
 10
1.384178060616605
 20
8.538432056794555
 10
1.382864191688092
 20
8.544493250887217
 10
1.381247123540703
 20
8.550872591023882
 10
1.379266216549211
 20
8.557532202804015
 10
1.376881044342383
 20
8.564426636885112
 10
1.374132033564684
 20
8.571480144156872
 10
1.371079824114559
 20
8.578609400567042
 10
1.367785055890408
 20
8.585731082063375
 10
1.364308368790673
 20
8.592761864593612
 10
1.360710402713763
 20
8.5996184241055
 10
1.357051797558114
 20
8.606217436546792
 10
1.353393193222132
 20
8.612475577865232
 10
1.34976111961015
 20
8.61833603623512
 10
1.346045666650148
 20
8.623848048736977
 10
1.342102814275975
 20
8.629087364677872
 10
1.337788542421499
 20
8.634129733364883
 10
1.33295883102059
 20
8.639050904105076
 10
1.327469660007125
 20
8.643926626205534
 10
1.321177009314951
 20
8.648832648973318
 10
1.313936858877951
 20
8.653844721715511
 10
1.305670881967131
 20
8.659019656370247
 10
1.296563525202017
 20
8.664338515399933
 10
1.286864928539294
 20
8.669763423898043
 10
1.276825231935653
 20
8.675256506958046
 10
1.266694575347756
 20
8.680779889673409
 10
1.256723098732301
 20
8.686295697137612
 10
1.247160942045951
 20
8.691766054444123
 10
1.23825824524539
 20
8.697153086686412
 10
1.230203244949514
 20
8.702427756441764
 10
1.222936564426035
 20
8.707596376222713
 10
1.216336923604885
 20
8.712674096025601
 10
1.210283042415987
 20
8.717676065846767
 10
1.204653640789274
 20
8.722617435682565
 10
1.199327438654684
 20
8.727513355529328
 10
1.194183155942127
 20
8.732378975383404
 10
1.189099512581549
 20
8.737229445241137
 10
1.183979231847224
 20
8.7420811775564
 10
1.178821050390865
 20
8.746955634613186
 10
1.173647708208527
 20
8.751875541153019
 10
1.168481945296278
 20
8.756863621917425
 10
1.163346501650174
 20
8.76194260164792
 10
1.158264117266284
 20
8.767135205086034
 10
1.153257532140663
 20
8.772464156973288
 10
1.148349486269381
 20
8.777952182051208
 10
1.143555139695337
 20
8.783620742603787
 10
1.138859332648848
 20
8.789486251084898
 10
1.134239325407094
 20
8.795563857490879
 10
1.129672378247221
 20
8.801868711818084
 10
1.125135751446393
 20
8.808415964062849
 10
1.12060670528178
 20
8.815220764221521
 10
1.116062500030537
 20
8.822298262290438
 10
1.111480395969849
 20
8.829663608265953
 10
1.10682754663604
 20
8.837311752289828
 10
1.102030678602233
 20
8.84515684508554
 10
1.097006411700711
 20
8.853092837521991
 10
1.091671365763751
 20
8.861013680468087
 10
1.085942160623659
 20
8.868813324792721
 10
1.079735416112725
 20
8.876385721364798
 10
1.072967752063242
 20
8.883624821053217
 10
1.065555788307484
 20
8.890424574726885
 10
1.05743383137171
 20
8.896707970508749
 10
1.04860693455803
 20
8.902514145537995
 10
1.039097837862492
 20
8.907911274207851
 10
1.028929281281165
 20
8.912967530911544
 10
1.018124004810104
 20
8.917751090042315
 10
1.006704748445386
 20
8.922330125993394
 10
0.9946942521830521
 20
8.926772813158002
 10
0.9821152560191919
 20
8.931147325929384
 10
0.9690195566418253
 20
8.935509213816253
 10
0.9555751775070078
 20
8.939863526789277
 10
0.9419791987627377
 20
8.944202689934623
 10
0.9284287005570561
 20
8.948519128338446
 10
0.9151207630379545
 20
8.952805267086901
 10
0.9022524663534667
 20
8.957053531266154
 10
0.8900208906516127
 20
8.961256345962357
 10
0.8786231160804049
 20
8.965406136261673
 10
0.8682056893570262
 20
8.969501639706571
 10
0.8587130234753175
 20
8.973566843664762
 10
0.8500389979982827
 20
8.97763204796028
 10
0.8420774924889258
 20
8.981727552417147
 10
0.8347223865102435
 20
8.985883656859382
 10
0.8278675596252469
 20
8.99013066111102
 10
0.8214068913969327
 20
8.994498864996085
 10
0.8152342613883121
 20
8.999018568338602
 10
0.8092700792488543
 20
9.003716283421347
 10
0.8035408749739758
 20
9.008603372362085
 10
0.798099708645573
 20
9.01368740973734
 10
0.7929996403455064
 20
9.01897597012363
 10
0.7882937301556794
 20
9.024476628097474
 10
0.7840350381579669
 20
9.030196958235386
 10
0.780276624434265
 20
9.036144535113887
 10
0.7770715490664628
 20
9.042326933309499
 10
0.7744438155355056
 20
9.048799701965506
 10
0.7723012009187187
 20
9.055810288492271
 10
0.7705224256924624
 20
9.063654114866913
 10
0.7689862103331251
 20
9.072626603066566
 10
0.7675712753170814
 20
9.083023175068362
 10
0.7661563411207198
 20
9.095139252849417
 10
0.7646201282204075
 20
9.109270258386871
 10
0.7628413570925261
 20
9.125711613657845
 10
0.7607240147239694
 20
9.144641329390598
 10
0.7582731541435948
 20
9.165767771317916
 10
0.7555190948907864
 20
9.188681893923714
 10
0.752492156504907
 20
9.212974651691915
 10
0.7492226585253335
 20
9.238236999106426
 10
0.7457409204914498
 20
9.264059890651161
 10
0.7420772619426188
 20
9.290034280810047
 10
0.7382620024182174
 20
9.315751124066995
 10
0.7343153548989534
 20
9.3408695491586
 10
0.730217106130894
 20
9.365321381832185
 10
0.7259369363014372
 20
9.389106622087744
 10
0.7214445255979954
 20
9.412225269925286
 10
0.7167095542079452
 20
9.4346773253448
 10
0.7117017023187202
 20
9.4564627883463
 10
0.7063906501176902
 20
9.477581658929771
 10
0.7007460777922816
 20
9.498033937095222
 10
0.6947439822258162
 20
9.517839822612891
 10
0.6883856270853457
 20
9.537100314334004
 10
0.6816785927338671
 20
9.55593661088001
 10
0.6746304595343702
 20
9.574469910872366
 10
0.6672488078498305
 20
9.592821412932536
 10
0.6595412180432377
 20
9.611112315681978
 10
0.6515152704775887
 20
9.629463817742148
 10
0.643178545515859
 20
9.647997117734508
 10
0.6345449400348287
 20
9.666782914854906
 10
0.6256536169663889
 20
9.685689910596757
 10
0.6165500557561927
 20
9.704536307027886
 10
0.6072797358499429
 20
9.723140306216095
 10
0.5978881366932996
 20
9.741320110229196
 10
0.5884207377319229
 20
9.758893921135008
 10
0.5789230184115084
 20
9.775679941001335
 10
0.5694404581777093
 20
9.791496371896002
 10
0.5600349598674086
 20
9.8061929779997
 10
0.5508341198823175
 20
9.819745771944724
 10
0.5419819580153416
 20
9.832162328476254
 10
0.5336224940593795
 20
9.843450222339463
 10
0.525899747807344
 20
9.853617028279536
 10
0.5189577390521407
 20
9.862670321041655
 10
0.5129404875866755
 20
9.870617675370997
 10
0.507992013203868
 20
9.87746666601274
 10
0.5042316885423546
 20
9.88329323198975
 10
0.5016802976237429
 20
9.888446769435624
 10
0.5003339773153784
 20
9.893345038761644
 10
0.5001888644846204
 20
9.898405800379087
 10
0.5012410959988145
 20
9.904046814699242
 10
0.5034868087252989
 20
9.910685842133375
 10
0.5069221395314472
 20
9.918740643092782
 10
0.5115432252845764
 20
9.928628977988736
 10
0.5173019309256262
 20
9.940652293040724
 10
0.5239730336898845
 20
9.954646777701022
 10
0.5312870388861626
 20
9.970332307230115
 10
0.5389744518233144
 20
9.987428756888483
 10
0.5467657778101938
 20
10.00565600193662
 10
0.5543915221556333
 20
10.024733917635
 10
0.5615821901684939
 20
10.0443823792441
 10
0.5680682871576011
 20
10.06432126202441
 10
0.5736156978762211
 20
10.08432343499318
 10
0.5781318248552978
 20
10.10437374219469
 10
0.5815594500701736
 20
10.12451002143001
 10
0.5838413554962188
 20
10.14477011050018
 10
0.5849203231087757
 20
10.16519184720626
 10
0.5847391348831934
 20
10.1858130693493
 10
0.5832405727948356
 20
10.20667161473037
 10
0.5803674188190513
 20
10.22780532115051
 10
0.5761241926944507
 20
10.24918889597263
 10
0.5707623652126586
 20
10.27054452480706
 10
0.5645951449285463
 20
10.29153126282599
 10
0.5579357403969994
 20
10.31180816520159
 10
0.5510973601729035
 20
10.33103428710606
 10
0.5443932128111158
 20
10.34886868371157
 10
0.5381365068665361
 20
10.36497041019031
 10
0.5326404508940215
 20
10.37899852171447
 10
0.5281548659507962
 20
10.39075832572178
 10
0.5246760231033676
 20
10.40064013871227
 10
0.5221368059205674
 20
10.4091805294515
 10
0.5204700979712556
 20
10.41691606670505
 10
0.5196087828242498
 20
10.42438331923849
 10
0.5194857440483958
 20
10.4321188558174
 10
0.5200338652125467
 20
10.44065924520734
 10
0.52118602988552
 20
10.45054105617389
 10
0.5228919007211985
 20
10.46217323610041
 10
0.5251682567135135
 20
10.47545424684134
 10
0.528048655941447
 20
10.4901549288689
 10
0.5315666564839461
 20
10.50604612265535
 10
0.535755816419993
 20
10.52289866867289
 10
0.5406496938285557
 20
10.54048340739376
 10
0.5462818467886024
 20
10.5585711792902
 10
0.5526858333790799
 20
10.57693282483442
 10
0.5598747040247787
 20
10.59535967844223
 10
0.5677794785336019
 20
10.61372505030368
 10
0.5763106690592821
 20
10.63192274455237
 10
0.5853787877555377
 20
10.64984656532194
 10
0.5948943467761012
 20
10.667390316746
 10
0.6047678582746699
 20
10.68444780295817
 10
0.6149098344049833
 20
10.70091282809206
 10
0.6252307873207599
 20
10.7166791962813
 10
0.6356412290846336
 20
10.73166306869139
 10
0.6460516713949645
 20
10.74587003461547
 10
0.6563726258590137
 20
10.75932804037853
 10
0.6665146040840498
 20
10.77206503230558
 10
0.6763881176773552
 20
10.78410895672164
 10
0.6859036782461914
 20
10.79548775995172
 10
0.6949717973978267
 20
10.80622938832084
 10
0.7035029867395366
 20
10.81636178815398
 10
0.7114226727017794
 20
10.82592035807331
 10
0.7187159410078224
 20
10.83497030588939
 10
0.7253827922041012
 20
10.84358429170994
 10
0.7314232268370802
 20
10.85183497564267
 10
0.7368372454532022
 20
10.85979501779528
 10
0.7416248485989172
 20
10.86753707827547
 10
0.7457860368206753
 20
10.87513381719096
 10
0.7493208106649405
 20
10.88265789464946
 10
0.7522403565223144
 20
10.89015495609026
 10
0.7546006041601175
 20
10.89756258827906
 10
0.7564686691898431
 20
10.90479136331314
 10
0.7579116672229631
 20
10.91175185328979
 10
0.7589967138709639
 20
10.91835463030629
 10
0.7597909247453388
 20
10.92451026645993
 10
0.7603614154575525
 20
10.930129333848
 10
0.7607753016191197
 20
10.93512240456778
 10
0.7611491037607295
 20
10.93944849090081
 10
0.7617969620900383
 20
10.94326036586559
 10
0.7630824217339196
 20
10.94675924266489
 10
0.7653690278192684
 20
10.95014633450147
 10
0.7690203254729369
 20
10.95362285457809
 10
0.7743998598218269
 20
10.9573900160975
 10
0.7818711759928192
 20
10.96164903226247
 10
0.791797819112766
 20
10.96660111627574
 10
0.8044352029788299
 20
10.97241674046692
 10
0.8196062160692036
 20
10.97914341367284
 10
0.8370256155323261
 20
10.98679790385716
 10
0.8564081585166647
 20
10.99539697898356
 10
0.8774686021706656
 20
11.00495740701571
 10
0.8999217036427822
 20
11.01549595591728
 10
0.9234822200814676
 20
11.02702939365193
 10
0.9478649086351822
 20
11.03957448818333
 10
0.9728041019073572
 20
11.05313682888891
 10
0.9981124343214062
 20
11.06767729080124
 10
1.023622115755706
 20
11.08314557036663
 10
1.049165356088643
 20
11.09949136403139
 10
1.074574365198621
 20
11.11666436824183
 10
1.099681352964012
 20
11.13461427944429
 10
1.12431852926322
 20
11.15329079408509
 10
1.148318103974617
 20
11.17264360861052
 10
1.171564727429029
 20
11.19266484760864
 10
1.19415281176694
 20
11.21351634823438
 10
1.216229209581271
 20
11.23540237578438
 10
1.237940773464941
 20
11.2585271955553
 10
1.259434356010856
 20
11.2830950728438
 10
1.28085680981195
 20
11.30931027294651
 10
1.302354987461121
 20
11.3373770611601
 10
1.324075741551304
 20
11.36749970278121
 10
1.346116648855122
 20
11.39986747879171
 10
1.368378182864148
 20
11.43460973291436
 10
1.390711541249629
 20
11.47184082455712
 10
1.412967921682863
 20
11.51167511312797
 10
1.434998521835112
 20
11.55422695803486
 10
1.456654539377645
 20
11.59961071868577
 10
1.477787171981745
 20
11.64794075448866
 10
1.498247617318696
 20
11.69933142485152
 10
1.517904262665808
 20
11.75377008673062
 10
1.536694253724604
 20
11.81073608727556
 10
1.554571925802655
 20
11.86958177118427
 10
1.571491614207509
 20
11.92965948315466
 10
1.58740765424676
 20
11.99032156788465
 10
1.602274381227957
 20
12.05092037007217
 10
1.616046130458684
 20
12.11080823441512
 10
1.628677237246485
 20
12.16933750561144
 10
1.640148659016816
 20
12.22601406746504
 10
1.6505478416666
 20
12.28095796020383
 10
1.659988853210641
 20
12.33444276316175
 10
1.668585761663734
 20
12.38674205567268
 10
1.676452635040689
 20
12.43812941707056
 10
1.683703541356294
 20
12.48887842668931
 10
1.690452548625366
 20
12.53926266386283
 10
1.696813724862693
 20
12.58955570792506
 10
1.702884027894519
 20
12.63995134420939
 10
1.708691974792849
 20
12.69032418204723
 10
1.714248972441133
 20
12.74046903676948
 10
1.719566427722824
 20
12.79018072370705
 10
1.72465574752136
 20
12.83925405819084
 10
1.729528338720193
 20
12.88748385555174
 10
1.734195608202774
 20
12.93466493112067
 10
1.738668962852543
 20
12.98059210022851
 10
1.742963611801904
 20
13.02507917677104
 10
1.747109973179021
 20
13.06801596890342
 10
1.751142267361004
 20
13.10931128334569
 10
1.75509471472499
 20
13.14887392681789
 10
1.759001535648081
 20
13.18661270604004
 10
1.762896950507403
 20
13.22243642773218
 10
1.766815179680072
 20
13.25625389861434
 10
1.770790443543205
 20
13.28797392540657
 10
1.774860764677328
 20
13.3175604107794
 10
1.77907937447658
 20
13.34519764120549
 10
1.783503306538555
 20
13.37112499910797
 10
1.788189594460789
 20
13.39558186691004
 10
1.793195271840858
 20
13.41880762703484
 10
1.798577372276312
 20
13.44104166190553
 10
1.80439292936473
 20
13.46252335394527
 10
1.810698976703662
 20
13.48349208557723
 10
1.817523890016552
 20
13.50413918496535
 10
1.824781413530402
 20
13.52446376323677
 10
1.832356633598053
 20
13.5444168772594
 10
1.840134636572386
 20
13.56394958390118
 10
1.848000508806265
 20
13.58301294003001
 10
1.855839336652557
 20
13.60155800251382
 10
1.863536206464132
 20
13.61953582822054
 10
1.870976204593844
 20
13.63689747401808
 10
1.878062600629995
 20
13.65360033995513
 10
1.884771397102575
 20
13.66962719880346
 10
1.891096779776987
 20
13.68496716651559
 10
1.897032934418653
 20
13.69960935904406
 10
1.902574046792977
 20
13.71354289234139
 10
1.907714302665382
 20
13.72675688236011
 10
1.912447887801285
 20
13.73924044505275
 10
1.916768987966079
 20
13.75098269637185
 10
1.920672396168441
 20
13.76198842292353
 10
1.924155334390036
 20
13.77232509392837
 10
1.92721563185578
 20
13.78207584926053
 10
1.92985111779059
 20
13.7913238287942
 10
1.932059621419369
 20
13.80015217240354
 10
1.933838971967055
 20
13.80864401996272
 10
1.935186998658551
 20
13.81688251134593
 10
1.936101530718765
 20
13.82495078642733
 10
1.936576221032694
 20
13.83291722145955
 10
1.9365880171256
 20
13.84079113820906
 10
1.936109690182796
 20
13.84856709482079
 10
1.935114011389615
 20
13.85623964943966
 10
1.933573751931398
 20
13.86380336021061
 10
1.931461682993457
 20
13.87125278527855
 10
1.928750575761128
 20
13.87858248278841
 10
1.925413201419736
 20
13.88578701088512
 10
1.921435945561952
 20
13.8928600205972
 10
1.916859651409772
 20
13.89979153448761
 10
1.911738776592549
 20
13.90657066800288
 10
1.90612777873963
 20
13.91318653658955
 10
1.900081115480347
 20
13.91962825569419
 10
1.893653244444045
 20
13.92588494076333
 10
1.886898623260087
 20
13.93194570724352
 10
1.879871709557804
 20
13.9377996705813
 10
1.872629684021035
 20
13.94344864470025
 10
1.865240619551705
 20
13.9489452374321
 10
1.857775312106191
 20
13.95435475508561
 10
1.85030455764091
 20
13.95974250396953
 10
1.842899152112259
 20
13.96517379039262
 10
1.835629891476642
 20
13.97071392066364
 10
1.82856757169047
 20
13.97642820109135
 10
1.82178298871014
 20
13.98238193798452
 10
1.815338769692829
 20
13.98863680946739
 10
1.80926486659878
 20
13.99523998092633
 10
1.803583062589041
 20
14.00223498956316
 10
1.798315140824641
 20
14.00966537257976
 10
1.793482884466584
 20
14.01757466717796
 10
1.789108076675915
 20
14.02600641055961
 10
1.785212500613653
 20
14.03500413992656
 10
1.781817939440848
 20
14.04461139248067
 10
1.778945268709563
 20
14.05487261251207
 10
1.776611733536135
 20
14.06583587266404
 10
1.774833671427934
 20
14.07755015266815
 10
1.773627419892356
 20
14.09006443225597
 10
1.773009316436777
 20
14.10342769115907
 10
1.772995698568593
 20
14.11768890910901
 10
1.773602903795179
 20
14.13289706583737
 10
1.774847269623904
 20
14.14910114107571
 10
1.776746041216661
 20
14.16631836846141
 10
1.779320094353195
 20
14.18443899725501
 10
1.782591212467771
 20
14.20332153062286
 10
1.786581178994651
 20
14.22282447173132
 10
1.791311777368072
 20
14.24280632374674
 10
1.796804791022296
 20
14.26312558983547
 10
1.803082003391573
 20
14.28364077316386
 10
1.810165197910158
 20
14.30421037689827
 10
1.818040760125185
 20
14.32470016054591
 10
1.826553484035251
 20
14.34500490897741
 10
1.835512765751879
 20
14.36502666340429
 10
1.844728001386535
 20
14.38466746503807
 10
1.854008587050735
 20
14.40382935509024
 10
1.863163918855953
 20
14.42241437477231
 10
1.872003392913697
 20
14.44032456529579
 10
1.880336405335455
 20
14.4574619678722
 10
1.888012288301169
 20
14.47375311341015
 10
1.895040118264532
 20
14.48922249160677
 10
1.901468907747698
 20
14.50391908185632
 10
1.90734766927283
 20
14.51789186355302
 10
1.912725415362068
 20
14.53118981609114
 10
1.917651158537566
 20
14.54386191886492
 10
1.922173911321472
 20
14.55595715126859
 10
1.92634268623594
 20
14.56752449269643
 10
1.930194696477059
 20
14.5786092944706
 10
1.933719957936617
 20
14.58924239562517
 10
1.936896687180393
 20
14.59945100712209
 10
1.939703100774124
 20
14.60926233992335
 10
1.942117415283547
 20
14.61870360499094
 10
1.944117847274412
 20
14.62780201328684
 10
1.94568261331247
 20
14.63658477577303
 10
1.946789929963472
 20
14.6450791034115
 10
1.947425274937899
 20
14.65330222981149
 10
1.947603170525269
 20
14.66123147917136
 10
1.947345400159832
 20
14.66883419833673
 10
1.946673747275845
 20
14.67607773415322
 10
1.945609995307549
 20
14.68292943346645
 10
1.944175927689201
 20
14.68935664312204
 10
1.942393327855072
 20
14.69532670996561
 10
1.940283979239382
 20
14.70080698084279
 10
1.937850604851135
 20
14.70577840805207
 10
1.935019685998156
 20
14.71027636570348
 10
1.931698643563031
 20
14.71434983335993
 10
1.927794898428324
 20
14.71804779058433
 10
1.9232158714766
 20
14.72141921693958
 10
1.91786898359043
 20
14.72451309198859
 10
1.911661655652387
 20
14.72737839529427
 10
1.904501308545036
 20
14.73006410641953
 10
1.896298993814383
 20
14.73261739089125
 10
1.886980285660278
 20
14.73507815809222
 10
1.876474388945979
 20
14.73748450336923
 10
1.864710508534756
 20
14.73987452206905
 10
1.85161784928988
 20
14.74228630953845
 10
1.837125616074622
 20
14.74475796112422
 10
1.821163013752268
 20
14.74732757217313
 10
1.803659247186075
 20
14.75003323803195
 10
1.784586179952441
 20
14.75290851885901
 10
1.764086310480209
 20
14.7559688340589
 10
1.742344795911328
 20
14.75922506784774
 10
1.719546793387785
 20
14.76268810444167
 10
1.695877460051519
 20
14.76636882805681
 10
1.671521953044504
 20
14.7702781229093
 10
1.646665429508693
 20
14.77442687321527
 10
1.621493046586046
 20
14.77882596319085
 10
1.596144579787527
 20
14.78348718411235
 10
1.570578278100022
 20
14.78842595549678
 10
1.54470700887942
 20
14.79365860392133
 10
1.518443639481617
 20
14.7992014559632
 10
1.491701037262508
 20
14.80507083819957
 10
1.464392069577968
 20
14.81128307720762
 10
1.436429603783885
 20
14.81785449956457
 10
1.407726507236162
 20
14.82480143184757
 10
1.378248400540542
 20
14.83213256443975
 10
1.348171917302231
 20
14.83982604294781
 10
1.317726444376305
 20
14.84785237678439
 10
1.287141368617817
 20
14.85618207536212
 10
1.256646076881843
 20
14.86478564809361
 10
1.22646995602345
 20
14.87363360439151
 10
1.196842392897721
 20
14.88269645366844
 10
1.167992774359703
 20
14.89194470533702
 10
1.140068198859559
 20
14.90137285598083
 10
1.112886611227807
 20
14.91107135086722
 10
1.086183667890068
 20
14.92115462243447
 10
1.059695025271921
 20
14.93173710312087
 10
1.033156339798978
 20
14.9429332253647
 10
1.006303267896861
 20
14.95485742160426
 10
0.9788714659911477
 20
14.96762412427783
 10
0.9505965905074589
 20
14.9813477658237
 10
0.9213156221568539
 20
14.99609937623865
 10
0.891270838792181
 20
15.01177637575338
 10
0.8608058425517626
 20
15.0282327821571
 10
0.8302642355738925
 20
15.04532261323899
 10
0.7999896199969001
 20
15.06289988678827
 10
0.7703255979590864
 20
15.08081862059414
 10
0.7416157715987666
 20
15.09893283244579
 10
0.7142037430542417
 20
15.11709654013241
 10
0.6883738359105181
 20
15.13519211207734
 10
0.6641732595393109
 20
15.15321531924039
 10
0.641589944759005
 20
15.17119028321555
 10
0.6206118223880353
 20
15.18914112559674
 10
0.6012268232447724
 20
15.20709196797793
 10
0.583422878147637
 20
15.22506693195308
 10
0.5671879179150352
 20
15.24309013911614
 10
0.5525098733653522
 20
15.26118571106107
 10
0.5393706407262045
 20
15.27937173901144
 10
0.5277279778619857
 20
15.29764219270932
 10
0.517533608046314
 20
15.31598501152639
 10
0.5087392545527934
 20
15.33438813483433
 10
0.501296640655049
 20
15.35283950200482
 10
0.4951574896266564
 20
15.37132705240956
 10
0.4902735247412551
 20
15.38983872542022
 10
0.4865964692724277
 20
15.40836246040848
 10
0.4840881041906755
 20
15.42689825768357
 10
0.482750441253927
 20
15.4454943613048
 10
0.4825955499170363
 20
15.46421107626903
 10
0.4836354996348007
 20
15.48310870757312
 10
0.4858823598620461
 20
15.50224756021393
 10
0.4893482000536054
 20
15.52168793918832
 10
0.4940450896643043
 20
15.54149014949313
 10
0.4999850981489545
 20
15.56171449612523
 10
0.5071420760239463
 20
15.58236700945498
 10
0.5153369980518506
 20
15.60323662134687
 10
0.524352620056817
 20
15.62405798903889
 10
0.5339716978629668
 20
15.64456576976901
 10
0.5439769872944567
 20
15.66449462077524
 10
0.554151244175408
 20
15.68357919929555
 10
0.5642772243299774
 20
15.70155416256794
 10
0.5741376835822934
 20
15.7181541678304
 10
0.5835435390891491
 20
15.73318422834736
 10
0.5924183533379335
 20
15.746730781489
 10
0.6007138501487362
 20
15.75895062065191
 10
0.6083817533415897
 20
15.77000053923273
 10
0.6153737867365621
 20
15.78003733062806
 10
0.6216416741537146
 20
15.78921778823453
 10
0.627137139413108
 20
15.79769870544873
 10
0.6318119063347894
 20
15.80563687566729
 10
0.6356337907988064
 20
15.81317100075403
 10
0.6386349769251254
 20
15.82036741644162
 10
0.6408637408936784
 20
15.82727436692994
 10
0.6423683588844114
 20
15.83394009641886
 10
0.6431971070772562
 20
15.84041284910827
 10
0.6433982616521661
 20
15.84674086919804
 10
0.64302009878908
 20
15.85297240088806
 10
0.6421108946679368
 20
15.85915568837819
 10
0.6407249601050041
 20
15.86533495551834
 10
0.6389407444619338
 20
15.87153834475843
 10
0.6368427317366497
 20
15.87778997819839
 10
0.6345154059271465
 20
15.88411397793817
 10
0.6320432510313552
 20
15.89053446607771
 10
0.6295107510472633
 20
15.89707556471695
 10
0.6270023899728088
 20
15.90376139595582
 10
0.624602651805958
 20
15.91061608189427
 10
0.6223940089233367
 20
15.91766173444318
 10
0.6204508872162009
 20
15.92491242475724
 10
0.6188457009544522
 20
15.9323802138021
 10
0.6176508644079988
 20
15.9400771625434
 10
0.6169387918467706
 20
15.94801533194676
 10
0.6167818975406619
 20
15.95620678297783
 10
0.6172525957595952
 20
15.96466357660225
 10
0.618423300773479
 20
15.97339777378567
 10
0.6203583809133022
 20
15.98244354743271
 10
0.6230900207544181
 20
15.99192351820401
 10
0.6266423589332391
 20
16.00198241869921
 10
0.6310395340861846
 20
16.01276498151795
 10
0.636305684849674
 20
16.02441593925985
 10
0.6424649498601341
 20
16.03708002452458
 10
0.6495414677539842
 20
16.05090196991173
 10
0.6575593771676438
 20
16.06602650802098
 10
0.6665025862688197
 20
16.08257022894578
 10
0.6761940813503671
 20
16.10053715275505
 10
0.6864166182364216
 20
16.11990315701151
 10
0.6969529527511256
 20
16.1406441192779
 10
0.7075858407186005
 20
16.16273591711695
 10
0.71809803796301
 20
16.18615442809142
 10
0.7282723003084755
 20
16.21087552976402
 10
0.7378913835791395
 20
16.23687509969752
 10
0.7467722394315146
 20
16.2640888121234
 10
0.7548686028516159
 20
16.29229152794821
 10
0.7621684046578779
 20
16.32121790474727
 10
0.7686595756686643
 20
16.35060260009588
 10
0.7743300467024028
 20
16.38018027156937
 10
0.7791677485774855
 20
16.40968557674304
 10
0.7831606121123187
 20
16.4388531731922
 10
0.7862965681252945
 20
16.46741771849216
 10
0.7885474553293151
 20
16.49518020583847
 10
0.7898207440151737
 20
16.52220697090758
 10
0.7900078123681809
 20
16.54863068499615
 10
0.7890000385736187
 20
16.57458401940086
 10
0.7866888008167905
 20
16.60019964541839
 10
0.7829654772829713
 20
16.62561023434541
 10
0.7777214461574858
 20
16.6509484574786
 10
0.7708480856256017
 20
16.67634698611463
 10
0.7622930963557835
 20
16.70188622705653
 10
0.7522294689490963
 20
16.72743752913271
 10
0.7408865164897947
 20
16.752819976678
 10
0.7284935520621048
 20
16.77785265402714
 10
0.7152798887502528
 20
16.80235464551495
 10
0.701474839638486
 20
16.8261450354762
 10
0.6873077178110308
 20
16.84904290824568
 10
0.6730078363521202
 20
16.87086734815817
 10
0.6587562318928378
 20
16.89148769393738
 10
0.6445408352515685
 20
16.91097430186276
 10
0.6303013007935619
 20
16.92944778260264
 10
0.6159772828840318
 20
16.9470287468254
 10
0.6015084358882348
 20
16.96383780519939
 10
0.5868344141713991
 20
16.97999556839297
 10
0.5718948720987527
 20
16.9956226470745
 10
0.5566294640355523
 20
17.01083965191233
 10
0.540989913437528
 20
17.02578126467329
 10
0.5249762201225537
 20
17.04063845151808
 10
0.5086004529989907
 20
17.05561624970588
 10
0.4918746809752151
 20
17.07091969649585
 10
0.4748109729595953
 20
17.08675382914716
 10
0.4574213978605002
 20
17.10332368491899
 10
0.4397180245863197
 20
17.1208343010705
 10
0.4217129220454155
 20
17.13949071486086
 10
0.4034543665998669
 20
17.15942760757904
 10
0.3851354644266607
 20
17.1804982366331
 10
0.3669855291564801
 20
17.20248550346093
 10
0.3492338744199941
 20
17.22517230950038
 10
0.3321098138479002
 20
17.24834155618933
 10
0.3158426610708886
 20
17.27177614496565
 10
0.3006617297196357
 20
17.2952589772672
 10
0.2867963334248245
 20
17.31857295453185
 10
0.2744114170307696
 20
17.3415431918302
 10
0.2634144502363114
 20
17.36416365876376
 10
0.2536485339538785
 20
17.38647053856677
 10
0.2449567690959284
 20
17.40850001447348
 10
0.2371822565749255
 20
17.4302882697181
 10
0.2301680973033058
 20
17.4518714875349
 10
0.2237573921935336
 20
17.47328585115811
 10
0.2177932421580522
 20
17.49456754382196
 10
0.2121267944125407
 20
17.51572661647172
 10
0.2066413813855163
 20
17.53666859089666
 10
0.2012283818087326
 20
17.55727285659709
 10
0.1957791744139214
 20
17.57741880307333
 10
0.1901851379328434
 20
17.59698581982566
 10
0.1843376510972234
 20
17.6158532963544
 10
0.1781280926388291
 20
17.63390062215984
 10
0.1714478412893925
 20
17.65100718674229
 10
0.1642227316096836
 20
17.66707904609744
 10
0.1565164214766028
 20
17.68212892220243
 10
0.1484270245960459
 20
17.69619620352982
 10
0.1400526546739513
 20
17.70932027855216
 10
0.1314914254162005
 20
17.72154053574197
 10
0.122841450528739
 20
17.73289636357181
 10
0.1142008437174482
 20
17.74342715051421
 10
0.1056677186882737
 20
17.75317228504172
 10
0.0970672416621739
 20
17.76220763387775
 10
0.0871327889204281
 20
17.77075497674918
 10
0.0743247892593715
 20
17.77907257163375
 10
0.0571036714753319
 20
17.78741867650921
 10
0.0339298643646444
 20
17.79605154935331
 10
0.0032637967236511
 20
17.8052294481438
 10
0.0
 20
17.80605005961078
  0
ARC
  5
7084
330
6B40
100
AcDbEntity
  8
0
100
AcDbCircle
 10
-3.90663910269555
 20
9.332076638186872
 30
0.0
 40
3.812500000000004
100
AcDbArc
 50
120.4397243806432
 51
321.1499754336333
  0
LINE
  5
7085
330
6B40
100
AcDbEntity
  8
0
100
AcDbLine
 10
-1.389120229642337
 20
8.510827788622698
 30
0.0
 11
1.38912022964233
 21
8.510827788622698
 31
0.0
  0
LINE
  5
7086
330
6B40
100
AcDbEntity
  8
0
100
AcDbLine
 10
-1.353393193222139
 20
8.612475577865232
 30
0.0
 11
1.353393193222132
 21
8.612475577865232
 31
0.0
  0
LINE
  5
7087
330
6B40
100
AcDbEntity
  8
0
100
AcDbLine
 10
-1.072967752063249
 20
8.883624821053217
 30
0.0
 11
1.072967752063249
 21
8.883624821053217
 31
0.0
  0
LINE
  5
7088
330
6B40
100
AcDbEntity
  8
0
100
AcDbLine
 10
-0.7929996403455136
 20
9.01897597012363
 30
0.0
 11
0.7929996403455064
 21
9.01897597012363
 31
0.0
  0
LINE
  5
7089
330
6B40
100
AcDbEntity
  8
0
100
AcDbLine
 10
-0.5200338652125538
 20
10.44065924520734
 30
0.0
 11
0.5200338652125467
 21
10.44065924520734
 31
0.0
  0
LINE
  5
708A
330
6B40
100
AcDbEntity
  8
0
100
AcDbLine
 10
-0.5012410959988216
 20
9.904046814699242
 30
0.0
 11
0.5012410959988145
 21
9.904046814699242
 31
0.0
  0
LINE
  5
708B
330
6B40
100
AcDbEntity
  8
0
100
AcDbLine
 10
-0.7617969620900454
 20
10.94326036586559
 30
0.0
 11
0.7617969620900383
 21
10.9432603658656
 31
0.0
  0
LINE
  5
708C
330
6B40
100
AcDbEntity
  8
0
100
AcDbLine
 10
-1.562599714847451
 20
7.874999999999996
 30
0.0
 11
1.562599714847451
 21
7.874999999999992
 31
0.0
  0
LINE
  5
708D
330
6B40
100
AcDbEntity
  8
0
100
AcDbLine
 10
-1.562599714847451
 20
7.875000000000003
 30
0.0
 11
1.562599714847451
 21
7.875
 31
0.0
  0
LINE
  5
708E
330
6B40
100
AcDbEntity
  8
0
100
AcDbLine
 10
-4.993368358507716
 20
14.63783738202191
 30
0.0
 11
-5.838172235884876
 21
12.61907161922835
 31
0.0
  0
LINE
  5
708F
330
6B40
100
AcDbEntity
  8
0
100
AcDbLine
 10
-5.5
 20
15.5
 30
0.0
 11
-4.993368358507716
 21
14.63783738202191
 31
0.0
  0
LINE
  5
7090
330
6B40
100
AcDbEntity
  8
0
100
AcDbLine
 10
-1.935114011389629
 20
13.85623964943966
 30
0.0
 11
1.935114011389615
 21
13.85623964943966
 31
0.0
  0
LINE
  5
7091
330
6B40
100
AcDbEntity
  8
0
100
AcDbLine
 10
-1.923215871476607
 20
14.72141921693958
 30
0.0
 11
1.9232158714766
 21
14.72141921693958
 31
0.0
  0
LINE
  5
7092
330
6B40
100
AcDbEntity
  8
0
100
AcDbLine
 10
-0.6433982616521732
 20
15.84674086919804
 30
0.0
 11
0.6433982616521661
 21
15.84674086919804
 31
0.0
  0
LINE
  5
7093
330
6B40
100
AcDbEntity
  8
0
100
AcDbLine
 10
29.75
 20
1.25
 30
0.0
 11
5.5
 21
15.5
 31
0.0
  0
LINE
  5
7094
330
6B40
100
AcDbEntity
  8
0
100
AcDbLine
 10
5.5
 20
15.5
 30
0.0
 11
4.993368358507716
 21
14.63783738202191
 31
0.0
  0
LINE
  5
7095
330
6B40
100
AcDbEntity
  8
0
100
AcDbLine
 10
4.993368358507716
 20
14.63783738202191
 30
0.0
 11
5.838172235884876
 21
12.61907161922835
 31
0.0
  0
ENDBLK
  5
7096
330
6B40
100
AcDbEntity
  8
0
100
AcDbBlockEnd
  0
BLOCK
  5
71C6
330
71BB
100
AcDbEntity
  8
0
100
AcDbBlockBegin
  2
*D1
 70
     1
 10
0.0
 20
0.0
 30
0.0
  3
*D1
  1

  0
LINE
  5
734A
330
71BB
100
AcDbEntity
  8
DIM
 62
     3
440
 16777216
370
    -2
100
AcDbLine
 10
87.77232740185239
 20
15.9037452004601
 30
0.0
 11
87.77232740185239
 21
1.883270869614328
 31
0.0
  0
LINE
  5
734B
330
71BB
100
AcDbEntity
  8
DIM
 62
     3
440
 16777216
370
    -2
100
AcDbLine
 10
90.76480931802073
 20
15.9037452004601
 30
0.0
 11
90.76480931802073
 21
1.883270869614328
 31
0.0
  0
LINE
  5
734C
330
71BB
100
AcDbEntity
  8
DIM
 62
     3
440
 16777216
370
    -2
100
AcDbLine
 10
87.77232740185239
 20
2.063270869614328
 30
0.0
 11
90.76480931802073
 21
2.063270869614328
 31
0.0
  0
INSERT
  5
734D
330
71BB
100
AcDbEntity
  8
DIM
 62
     3
440
 16777216
370
    -2
100
AcDbBlockReference
  2
_ArchTick
 10
87.77232740185239
 20
2.063270869614328
 30
0.0
 41
0.18
 42
0.18
 43
0.18
 50
180.0
  0
INSERT
  5
734E
330
71BB
100
AcDbEntity
  8
DIM
 62
     3
440
 16777216
370
    -2
100
AcDbBlockReference
  2
_ArchTick
 10
90.76480931802073
 20
2.063270869614328
 30
0.0
 41
0.18
 42
0.18
 43
0.18
  0
MTEXT
  5
734F
330
71BB
100
AcDbEntity
  8
DIM
 62
     0
440
 16777216
100
AcDbMText
 10
89.26856835993655
 20
2.541722553362498
 30
0.0
 40
0.75
 41
0.0
 46
0.0
 71
     5
 72
     1
  1
\A1;3"
 73
     1
 44
1.0
  0
POINT
  5
7350
330
71BB
100
AcDbEntity
  8
Defpoints
 62
     0
440
 16777216
100
AcDbPoint
 10
87.77232740185239
 20
15.9662452004601
 30
0.0
  0
POINT
  5
7351
330
71BB
100
AcDbEntity
  8
Defpoints
 62
     0
440
 16777216
100
AcDbPoint
 10
90.76480931802073
 20
15.9662452004601
 30
0.0
  0
POINT
  5
7352
330
71BB
100
AcDbEntity
  8
Defpoints
 62
     0
440
 16777216
100
AcDbPoint
 10
90.76480931802073
 20
2.063270869614328
 30
0.0
  0
ENDBLK
  5
71C7
330
71BB
100
AcDbEntity
  8
0
100
AcDbBlockEnd
  0
BLOCK
  5
71D4
330
71C9
100
AcDbEntity
  8
0
100
AcDbBlockBegin
  2
*D2
 70
     1
 10
0.0
 20
0.0
 30
0.0
  3
*D2
  1

  0
LINE
  5
7353
330
71C9
100
AcDbEntity
  8
DIM
 62
     3
440
 16777216
370
    -2
100
AcDbLine
 10
90.02232740185238
 20
8.320650316062213
 30
0.0
 11
90.02232740185238
 21
5.51371065741943
 31
0.0
  0
LINE
  5
7354
330
71C9
100
AcDbEntity
  8
DIM
 62
     3
440
 16777216
370
    -2
100
AcDbLine
 10
90.77232740185237
 20
8.320650316062213
 30
0.0
 11
90.77232740185237
 21
5.51371065741943
 31
0.0
  0
LINE
  5
7355
330
71C9
100
AcDbEntity
  8
DIM
 62
     3
440
 16777216
370
    -2
100
AcDbLine
 10
90.02232740185238
 20
5.69371065741943
 30
0.0
 11
90.77232740185237
 21
5.69371065741943
 31
0.0
  0
LINE
  5
7356
330
71C9
100
AcDbEntity
  8
DIM
 62
     3
440
 16777216
370
    -2
100
AcDbLine
 10
90.77232740185237
 20
5.69371065741943
 30
0.0
 11
92.06406239453174
 21
5.69371065741943
 31
0.0
  0
INSERT
  5
7357
330
71C9
100
AcDbEntity
  8
DIM
 62
     3
440
 16777216
370
    -2
100
AcDbBlockReference
  2
_ArchTick
 10
90.02232740185238
 20
5.69371065741943
 30
0.0
 41
0.18
 42
0.18
 43
0.18
 50
180.0
  0
INSERT
  5
7358
330
71C9
100
AcDbEntity
  8
DIM
 62
     3
440
 16777216
370
    -2
100
AcDbBlockReference
  2
_ArchTick
 10
90.77232740185237
 20
5.69371065741943
 30
0.0
 41
0.18
 42
0.18
 43
0.18
  0
MTEXT
  5
7359
330
71C9
100
AcDbEntity
  8
DIM
 62
     0
440
 16777216
100
AcDbMText
 10
91.50819489819205
 20
6.687810218180777
 30
0.0
 40
0.75
 41
0.0
 46
0.0
 71
     5
 72
     1
  1
\A1;{\H1.000000x;\S3/4;}"
 73
     1
 44
1.0
  0
POINT
  5
735A
330
71C9
100
AcDbEntity
  8
Defpoints
 62
     0
440
 16777216
100
AcDbPoint
 10
90.02232740185238
 20
8.383150316062213
 30
0.0
  0
POINT
  5
735B
330
71C9
100
AcDbEntity
  8
Defpoints
 62
     0
440
 16777216
100
AcDbPoint
 10
90.77232740185237
 20
8.383150316062213
 30
0.0
  0
POINT
  5
735C
330
71C9
100
AcDbEntity
  8
Defpoints
 62
     0
440
 16777216
100
AcDbPoint
 10
90.77232740185237
 20
5.69371065741943
 30
0.0
  0
ENDBLK
  5
71D5
330
71C9
100
AcDbEntity
  8
0
100
AcDbBlockEnd
  0
BLOCK
  5
7346
330
7344
100
AcDbEntity
  8
0
100
AcDbBlockBegin
  2
_ArchTick
 70
     0
 10
0.0
 20
0.0
 30
0.0
  3
_ArchTick
  1

  0
LWPOLYLINE
  5
7345
330
7344
100
AcDbEntity
  8
0
  6
ByBlock
 62
     0
100
AcDbPolyline
 90
        2
 70
     0
 43
0.15
 10
-0.5
 20
-0.5
 10
0.5
 20
0.5
  0
ENDBLK
  5
7347
330
7344
100
AcDbEntity
  8
0
100
AcDbBlockEnd
  0
BLOCK
  5
735F
330
735E
100
AcDbEntity
  8
0
100
AcDbBlockBegin
  2
*D4
 70
     1
 10
0.0
 20
0.0
 30
0.0
  3
*D4
  1

  0
LINE
  5
7361
330
735E
100
AcDbEntity
  8
0
 62
     3
440
 16777216
370
    -2
100
AcDbLine
 10
14.2126209445663
 20
8.320650316062213
 30
0.0
 11
14.2126209445663
 21
5.048377180822036
 31
0.0
  0
LINE
  5
7362
330
735E
100
AcDbEntity
  8
0
 62
     3
440
 16777216
370
    -2
100
AcDbLine
 10
68.83808636599043
 20
8.320650316062213
 30
0.0
 11
68.83808636599043
 21
5.048377180822036
 31
0.0
  0
LINE
  5
7363
330
735E
100
AcDbEntity
  8
0
 62
     3
440
 16777216
370
    -2
100
AcDbLine
 10
14.2126209445663
 20
5.228377180822036
 30
0.0
 11
68.83808636599043
 21
5.228377180822036
 31
0.0
  0
INSERT
  5
7364
330
735E
100
AcDbEntity
  8
0
 62
     3
440
 16777216
370
    -2
100
AcDbBlockReference
  2
_ArchTick
 10
14.2126209445663
 20
5.228377180822036
 30
0.0
 41
0.18
 42
0.18
 43
0.18
 50
180.0
  0
INSERT
  5
7365
330
735E
100
AcDbEntity
  8
0
 62
     3
440
 16777216
370
    -2
100
AcDbBlockReference
  2
_ArchTick
 10
68.83808636599043
 20
5.228377180822036
 30
0.0
 41
0.18
 42
0.18
 43
0.18
  0
MTEXT
  5
7366
330
735E
100
AcDbEntity
  8
0
 62
     0
440
 16777216
100
AcDbMText
 10
41.52535365527836
 20
6.234281280382798
 30
0.0
 40
0.75
 41
0.0
 46
0.0
 71
     5
 72
     1
  1
\A1;54{\H1.000000x;\S5/8;}"
 73
     1
 44
1.0
  0
POINT
  5
7367
330
735E
100
AcDbEntity
  8
Defpoints
 62
     0
440
 16777216
100
AcDbPoint
 10
14.2126209445663
 20
8.383150316062213
 30
0.0
  0
POINT
  5
7368
330
735E
100
AcDbEntity
  8
Defpoints
 62
     0
440
 16777216
100
AcDbPoint
 10
68.83808636599043
 20
8.383150316062213
 30
0.0
  0
POINT
  5
7369
330
735E
100
AcDbEntity
  8
Defpoints
 62
     0
440
 16777216
100
AcDbPoint
 10
68.83808636599043
 20
5.228377180822036
 30
0.0
  0
ENDBLK
  5
7360
330
735E
100
AcDbEntity
  8
0
100
AcDbBlockEnd
  0
ENDSEC
  0
SECTION
  2
ENTITIES
  0
LINE
  5
45E2
330
18
100
AcDbEntity
  8
0
100
AcDbLine
 10
14.02535365527836
 20
8.383150316062213
 30
0.0
 11
41.52535365527836
 21
8.383150316062213
 31
0.0
  0
LINE
  5
463A
330
18
100
AcDbEntity
  8
0
100
AcDbLine
 10
11.77535365527836
 20
9.633150316062213
 30
0.0
 11
36.02535365527837
 21
23.88315031606222
 31
0.0
  0
LINE
  5
463C
330
18
100
AcDbEntity
  8
0
100
AcDbLine
 10
40.58785365527836
 20
8.383150316062213
 30
0.0
 11
40.58785365527836
 21
16.25815031606221
 31
0.0
  0
LINE
  5
463D
330
18
100
AcDbEntity
  8
0
100
AcDbLine
 10
14.2126209445663
 20
8.383150316062213
 30
0.0
 11
35.68718141939349
 21
21.00222193529056
 31
0.0
  0
ARC
  5
463F
330
18
100
AcDbEntity
  8
0
100
AcDbCircle
 10
37.61871455258282
 20
17.71522695424908
 30
0.0
 40
3.812500000000004
100
AcDbArc
 50
120.4397243806432
 51
321.1499754336333
  0
LINE
  5
4642
330
18
100
AcDbEntity
  8
0
100
AcDbLine
 10
12.28198529677064
 20
8.770987698084121
 30
0.0
 11
36.53198529677065
 21
23.02098769808412
 31
0.0
  0
LINE
  5
4643
330
18
100
AcDbEntity
  8
0
100
AcDbLine
 10
36.02535365527837
 20
23.88315031606222
 30
0.0
 11
36.53198529677065
 21
23.02098769808412
 31
0.0
  0
LINE
  5
4644
330
18
100
AcDbEntity
  8
0
100
AcDbLine
 10
36.53198529677065
 20
23.02098769808412
 30
0.0
 11
35.68718141939349
 21
21.00222193529056
 31
0.0
  0
LINE
  5
4646
330
18
100
AcDbEntity
  8
0
100
AcDbLine
 10
14.02535365527836
 20
8.383150316062213
 30
0.0
 11
12.28198529677064
 21
8.770987698084121
 31
0.0
  0
LINE
  5
4647
330
18
100
AcDbEntity
  8
0
100
AcDbLine
 10
12.28198529677064
 20
8.770987698084121
 30
0.0
 11
11.77535365527836
 21
9.633150316062213
 31
0.0
  0
LINE
  5
464A
330
18
100
AcDbEntity
  8
0
100
AcDbLine
 10
69.02535365527836
 20
8.383150316062213
 30
0.0
 11
70.76872201378609
 21
8.770987698084121
 31
0.0
  0
LINE
  5
464B
330
18
100
AcDbEntity
  8
0
100
AcDbLine
 10
70.76872201378609
 20
8.770987698084121
 30
0.0
 11
46.51872201378608
 21
23.02098769808412
 31
0.0
  0
LINE
  5
464C
330
18
100
AcDbEntity
  8
0
100
AcDbLine
 10
71.27535365527837
 20
9.633150316062213
 30
0.0
 11
47.02535365527836
 21
23.88315031606222
 31
0.0
  0
LINE
  5
464D
330
18
100
AcDbEntity
  8
0
100
AcDbLine
 10
70.76872201378609
 20
8.770987698084121
 30
0.0
 11
71.27535365527837
 21
9.633150316062213
 31
0.0
  0
LINE
  5
464E
330
18
100
AcDbEntity
  8
0
100
AcDbLine
 10
68.83808636599043
 20
8.383150316062213
 30
0.0
 11
47.36352589116324
 21
21.00222193529056
 31
0.0
  0
LINE
  5
464F
330
18
100
AcDbEntity
  8
0
100
AcDbLine
 10
69.02535365527836
 20
8.383150316062213
 30
0.0
 11
41.52535365527836
 21
8.383150316062213
 31
0.0
  0
ARC
  5
4650
330
18
100
AcDbEntity
  8
0
100
AcDbCircle
 10
45.43199275797391
 20
17.71522695424908
 30
0.0
 40
3.812500000000004
100
AcDbArc
 50
218.8500245663667
 51
59.56027561935684
  0
LINE
  5
4651
330
18
100
AcDbEntity
  8
0
100
AcDbLine
 10
42.46285365527836
 20
8.383150316062213
 30
0.0
 11
42.46285365527836
 21
16.25815031606221
 31
0.0
  0
LINE
  5
4653
330
18
100
AcDbEntity
  8
0
100
AcDbLine
 10
46.51872201378608
 20
23.02098769808412
 30
0.0
 11
47.36352589116324
 21
21.00222193529056
 31
0.0
  0
LINE
  5
4654
330
18
100
AcDbEntity
  8
0
100
AcDbLine
 10
47.02535365527836
 20
23.88315031606222
 30
0.0
 11
46.51872201378608
 21
23.02098769808412
 31
0.0
  0
LINE
  5
7110
330
18
100
AcDbEntity
  8
DIM
100
AcDbLine
 10
11.74368917768509
 20
9.687035479685851
 30
0.0
 11
8.452891962735563
 21
15.28716407354731
 31
0.0
  0
LINE
  5
7111
330
18
100
AcDbEntity
  8
DIM
100
AcDbLine
 10
35.99368917768507
 20
23.93703547968589
 30
0.0
 11
32.70289196273554
 21
29.53716407354736
 31
0.0
  0
LINE
  5
7112
330
18
100
AcDbEntity
  8
DIM
100
AcDbLine
 10
8.699274929440228
 20
15.22316849777986
 30
0.0
 11
18.57908565820417
 21
21.02883047241437
 31
0.0
  0
LINE
  5
7113
330
18
100
AcDbEntity
  8
DIM
100
AcDbLine
 10
32.63889638696809
 20
29.29078110684269
 30
0.0
 11
22.75908565820417
 21
23.48511913220819
 31
0.0
  0
SOLID
  5
7114
330
18
100
AcDbEntity
  8
DIM
100
AcDbTrace
 10
8.68407598019546
 20
15.2490333763192
 30
0.0
 11
8.714473878684996
 21
15.19730361924052
 31
0.0
 12
8.544085658204172
 22
15.13197480231125
 32
0.0
 13
8.544085658204172
 23
15.13197480231125
 33
0.0
  0
SOLID
  5
7115
330
18
100
AcDbEntity
  8
DIM
100
AcDbTrace
 10
32.62369743772332
 20
29.31664598538203
 30
0.0
 11
32.65409533621286
 21
29.26491622830335
 31
0.0
 12
32.79408565820415
 22
29.3819748023113
 32
0.0
 13
32.79408565820415
 23
29.3819748023113
 33
0.0
  0
MTEXT
  5
7116
330
18
100
AcDbEntity
  8
DIM
100
AcDbMText
 10
20.66908565820416
 20
22.25697480231128
 30
0.0
 40
1.5
 41
0.0
 46
0.0
 71
     5
 72
     1
  1
\A1;28{\H0.7x;\S1/2;}
 73
     1
 44
1.0
  0
LINE
  5
7117
330
18
100
AcDbEntity
  8
DIM
100
AcDbLine
 10
41.5845898585547
 20
26.18837976420602
 30
0.0
 11
76.53141309830693
 21
26.18837976420601
 31
0.0
  0
LINE
  5
7118
330
18
100
AcDbEntity
  8
DIM
100
AcDbLine
 10
41.58785365527836
 20
8.383150316062213
 30
0.0
 11
76.53141309830693
 21
8.383150316062202
 31
0.0
  0
LINE
  5
7119
330
18
100
AcDbEntity
  8
DIM
100
AcDbLine
 10
76.35141309830692
 20
26.00837976420601
 30
0.0
 11
76.35141309830692
 21
19.1257650401341
 31
0.0
  0
LINE
  5
711A
330
18
100
AcDbEntity
  8
DIM
100
AcDbLine
 10
76.35141309830692
 20
8.563150316062202
 30
0.0
 11
76.35141309830692
 21
15.4457650401341
 31
0.0
  0
SOLID
  5
711B
330
18
100
AcDbEntity
  8
DIM
100
AcDbTrace
 10
76.32141309830692
 20
26.00837976420601
 30
0.0
 11
76.38141309830692
 21
26.00837976420601
 31
0.0
 12
76.35141309830692
 22
26.18837976420601
 32
0.0
 13
76.35141309830692
 23
26.18837976420601
 33
0.0
  0
SOLID
  5
711C
330
18
100
AcDbEntity
  8
DIM
100
AcDbTrace
 10
76.32141309830692
 20
8.563150316062202
 30
0.0
 11
76.38141309830692
 21
8.563150316062202
 31
0.0
 12
76.35141309830692
 22
8.383150316062202
 32
0.0
 13
76.35141309830692
 23
8.383150316062202
 33
0.0
  0
MTEXT
  5
711D
330
18
100
AcDbEntity
  8
DIM
100
AcDbMText
 10
76.35141309830692
 20
17.28576504013412
 30
0.0
 40
1.5
 41
0.0
 46
0.0
 71
     5
 72
     1
  1
\A1;18{\H0.7x;\S1/4;}
 73
     1
 44
1.0
  0
LINE
  5
711E
330
18
100
AcDbEntity
  8
DIM
100
AcDbLine
 10
11.77535365527836
 20
9.570650316062213
 30
0.0
 11
11.77535365527836
 21
-5.57304958669264
 31
0.0
  0
LINE
  5
711F
330
18
100
AcDbEntity
  8
DIM
100
AcDbLine
 10
71.27535365527837
 20
9.570650316062213
 30
0.0
 11
71.27535365527837
 21
-5.57304958669264
 31
0.0
  0
LINE
  5
7120
330
18
100
AcDbEntity
  8
DIM
100
AcDbLine
 10
11.95535365527836
 20
-5.39304958669264
 30
0.0
 11
39.43535365527836
 21
-5.39304958669264
 31
0.0
  0
LINE
  5
7121
330
18
100
AcDbEntity
  8
DIM
100
AcDbLine
 10
71.09535365527836
 20
-5.39304958669264
 30
0.0
 11
43.61535365527835
 21
-5.39304958669264
 31
0.0
  0
SOLID
  5
7122
330
18
100
AcDbEntity
  8
DIM
100
AcDbTrace
 10
11.95535365527836
 20
-5.36304958669264
 30
0.0
 11
11.95535365527836
 21
-5.42304958669264
 31
0.0
 12
11.77535365527836
 22
-5.39304958669264
 32
0.0
 13
11.77535365527836
 23
-5.39304958669264
 33
0.0
  0
SOLID
  5
7123
330
18
100
AcDbEntity
  8
DIM
100
AcDbTrace
 10
71.09535365527836
 20
-5.36304958669264
 30
0.0
 11
71.09535365527836
 21
-5.42304958669264
 31
0.0
 12
71.27535365527837
 22
-5.39304958669264
 32
0.0
 13
71.27535365527837
 23
-5.39304958669264
 33
0.0
  0
MTEXT
  5
7124
330
18
100
AcDbEntity
  8
DIM
100
AcDbMText
 10
41.52535365527835
 20
-5.39304958669264
 30
0.0
 40
1.5
 41
0.0
 46
0.0
 71
     5
 72
     1
  1
\A1;60{\H0.7x;\S3/8;}
 73
     1
 44
1.0
  0
LINE
  5
7125
330
18
100
AcDbEntity
  8
DIM
100
AcDbLine
 10
14.2126209445663
 20
8.320650316062213
 30
0.0
 11
14.2126209445663
 21
1.766670021697656
 31
0.0
  0
LINE
  5
7126
330
18
100
AcDbEntity
  8
DIM
100
AcDbLine
 10
68.83808636599043
 20
8.320650316062213
 30
0.0
 11
68.83808636599043
 21
1.766670021697656
 31
0.0
  0
LINE
  5
7127
330
18
100
AcDbEntity
  8
DIM
100
AcDbLine
 10
14.3926209445663
 20
1.946670021697656
 30
0.0
 11
38.23033136548409
 21
1.946670021697656
 31
0.0
  0
LINE
  5
7128
330
18
100
AcDbEntity
  8
DIM
100
AcDbLine
 10
68.65808636599043
 20
1.946670021697656
 30
0.0
 11
44.78047548577279
 21
1.946670021697656
 31
0.0
  0
SOLID
  5
7129
330
18
100
AcDbEntity
  8
DIM
100
AcDbTrace
 10
14.3926209445663
 20
1.976670021697656
 30
0.0
 11
14.3926209445663
 21
1.916670021697656
 31
0.0
 12
14.2126209445663
 22
1.946670021697656
 32
0.0
 13
14.2126209445663
 23
1.946670021697656
 33
0.0
  0
SOLID
  5
712A
330
18
100
AcDbEntity
  8
DIM
100
AcDbTrace
 10
68.65808636599043
 20
1.976670021697656
 30
0.0
 11
68.65808636599043
 21
1.916670021697656
 31
0.0
 12
68.83808636599043
 22
1.946670021697656
 32
0.0
 13
68.83808636599043
 23
1.946670021697656
 33
0.0
  0
MTEXT
  5
712B
330
18
100
AcDbEntity
  8
DIM
100
AcDbMText
 10
41.52535365527836
 20
1.946670021697656
 30
0.0
 40
1.5
 41
0.0
 46
0.0
 71
     5
 72
     1
  1
\A1;56{\H0.7x;\S1/4;}
 73
     1
 44
1.0
  0
LINE
  5
712C
330
18
100
AcDbEntity
  8
0
100
AcDbLine
 10
88.14732740185238
 20
8.383150316062213
 30
0.0
 11
90.77232740185237
 21
8.383150316062213
 31
0.0
  0
LINE
  5
712F
330
18
100
AcDbEntity
  8
0
100
AcDbLine
 10
87.77232740185239
 20
22.83699157049303
 30
0.0
 11
87.77232740185239
 21
8.758150316062213
 31
0.0
  0
LINE
  5
71B4
330
18
100
AcDbEntity
  8
0
100
AcDbLine
 10
88.66410766927572
 20
23.21199157049303
 30
0.0
 11
88.14732740185238
 21
23.21199157049303
 31
0.0
  0
LINE
  5
71B5
330
18
100
AcDbEntity
  8
0
100
AcDbLine
 10
90.76480931802073
 20
16.7029208679184
 30
0.0
 11
90.76480931802073
 21
8.383150316062213
 31
0.0
  0
ARC
  5
71B6
330
18
100
AcDbEntity
  8
0
100
AcDbCircle
 10
88.14732740185238
 20
22.83699157049303
 30
0.0
 40
0.375
100
AcDbArc
 50
90.0
 51
180.0
  0
ARC
  5
71B7
330
18
100
AcDbEntity
  8
0
100
AcDbCircle
 10
88.14732740185238
 20
8.758150316062213
 30
0.0
 40
0.375
100
AcDbArc
 50
180.0
 51
270.0
  0
LINE
  5
71B8
330
18
100
AcDbEntity
  8
0
100
AcDbLine
 10
90.77232740185237
 20
8.383150316062213
 30
0.0
 11
90.02232740185238
 21
8.383150316062213
 31
0.0
  0
LINE
  5
71B9
330
18
100
AcDbEntity
  8
0
100
AcDbLine
 10
90.02232740185238
 20
8.383150316062213
 30
0.0
 11
90.02232740185238
 21
16.2581503160622
 31
0.0
  0
DIMENSION
  5
71BA
330
18
100
AcDbEntity
  8
DIM
100
AcDbDimension
280
     0
  2
*D1
 10
90.76480931802073
 20
2.063270869614328
 30
0.0
 11
89.26856835993655
 21
2.541722553362498
 31
0.0
 70
    32
 71
     5
 42
2.992481916168358
 73
     0
 74
     0
 75
     0
  3
STANDARD
100
AcDbAlignedDimension
 13
87.77232740185239
 23
15.9662452004601
 33
0.0
 14
90.76480931802073
 24
15.9662452004601
 34
0.0
100
AcDbRotatedDimension
  0
DIMENSION
  5
71C8
330
18
100
AcDbEntity
  8
DIM
100
AcDbDimension
280
     0
  2
*D2
 10
90.77232740185237
 20
5.69371065741943
 30
0.0
 11
91.50819489819205
 21
6.687810218180777
 31
0.0
 70
    32
 71
     5
 42
0.75
 73
     0
 74
     0
 75
     0
  3
STANDARD
100
AcDbAlignedDimension
 13
90.02232740185238
 23
8.383150316062213
 33
0.0
 14
90.77232740185237
 24
8.383150316062213
 34
0.0
100
AcDbRotatedDimension
  0
LINE
  5
7286
330
18
100
AcDbEntity
  8
0
100
AcDbLine
 10
39.53066205549969
 20
23.21199157049303
 30
0.0
 11
41.52535365527836
 21
23.21199157049303
 31
0.0
  0
LINE
  5
7287
330
18
100
AcDbEntity
  8
0
100
AcDbLine
 10
40.89456770942706
 20
24.37568488363182
 30
0.0
 11
41.52535365527836
 21
24.37616490798367
 31
0.0
  0
LINE
  5
7288
330
18
100
AcDbEntity
  8
0
100
AcDbLine
 10
39.52535365527836
 20
22.35712698738222
 30
0.0
 11
41.52535365527836
 21
22.35712698738222
 31
0.0
  0
LINE
  5
7289
330
18
100
AcDbEntity
  8
0
100
AcDbLine
 10
39.7349954283554
 20
22.61132007631388
 30
0.0
 11
41.52535365527836
 21
22.61132007631388
 31
0.0
  0
LINE
  5
728A
330
18
100
AcDbEntity
  8
0
100
AcDbLine
 10
40.83785365527837
 20
19.39971244799535
 30
0.0
 11
41.52535365527836
 21
19.39971244799535
 31
0.0
  0
LINE
  5
728B
330
18
100
AcDbEntity
  8
0
100
AcDbLine
 10
41.08785365527836
 20
18.2872277415296
 30
0.0
 11
41.52535365527836
 21
18.2872277415296
 31
0.0
  0
LINE
  5
728C
330
18
100
AcDbEntity
  8
0
100
AcDbLine
 10
39.96285365527837
 20
16.2581503160622
 30
0.0
 11
41.52535365527836
 21
16.2581503160622
 31
0.0
  0
LINE
  5
728D
330
18
100
AcDbEntity
  8
0
100
AcDbLine
 10
40.09119052595974
 20
16.84948948923112
 30
0.0
 11
41.52535365527836
 21
16.84948948923112
 31
0.0
  0
LINE
  5
728E
330
18
100
AcDbEntity
  8
0
100
AcDbLine
 10
40.40035365527836
 20
17.22569518301554
 30
0.0
 11
41.52535365527836
 21
17.22569518301554
 31
0.0
  0
LINE
  5
728F
330
18
100
AcDbEntity
  8
0
100
AcDbLine
 10
40.73402531120839
 20
17.41821618119244
 30
0.0
 11
41.52535365527836
 21
17.41821618119244
 31
0.0
  0
LINE
  5
7290
330
18
100
AcDbEntity
  8
0
100
AcDbLine
 10
40.98748866034404
 20
18.88882962266584
 30
0.0
 11
41.52535365527836
 21
18.88882962266584
 31
0.0
  0
LINE
  5
7291
330
18
100
AcDbEntity
  8
0
100
AcDbLine
 10
41.07912303045412
 20
18.84815875438159
 30
0.0
 11
41.52535365527836
 21
18.84815875438159
 31
0.0
  0
LINE
  5
7292
330
18
100
AcDbEntity
  8
0
100
AcDbLine
 10
40.96285365527836
 20
24.49882566710583
 30
0.0
 11
41.52535365527836
 21
24.49882566710583
 31
0.0
  0
SPLINE
  5
7293
330
18
100
AcDbEntity
  8
0
100
AcDbSpline
210
0.0
220
0.0
230
1.0
 70
  1064
 71
     3
 72
    19
 73
    15
 74
    13
 42
0.0000000001
 43
0.0000000001
 44
0.0000000001
 40
0.0
 40
0.0
 40
0.0
 40
0.0
 40
0.0791275521690571
 40
0.1889699482933826
 40
0.410372502424668
 40
0.7045155331386393
 40
0.950649189029345
 40
1.197129562228646
 40
1.363721049201751
 40
1.55369868480744
 40
1.672600107389757
 40
1.863139571017806
 40
2.039389351085774
 40
2.238165076944205
 40
2.238165076944205
 40
2.238165076944205
 40
2.238165076944205
 10
41.52535365527836
 20
26.38315031606221
 30
0.0
 10
41.49785126655406
 20
26.38250664092291
 30
0.0
 10
41.43217092092588
 20
26.38096943606245
 30
0.0
 10
41.3420099917104
 20
26.2577024382079
 30
0.0
 10
41.32043915128487
 20
26.05236934160956
 30
0.0
 10
41.22827466901212
 20
25.80565501197241
 30
0.0
 10
41.036093279614
 20
25.62245570448177
 30
0.0
 10
40.86527698683634
 20
25.48298390513252
 30
0.0
 10
40.75656560868367
 20
25.30931665590197
 30
0.0
 10
40.72490801780143
 20
25.15066936019191
 30
0.0
 10
40.72896089503437
 20
24.98395082048844
 30
0.0
 10
40.76549368274433
 20
24.8238907586209
 30
0.0
 10
40.85459486712693
 20
24.65646800331705
 30
0.0
 10
40.92535073962861
 20
24.55343598871308
 30
0.0
 10
40.96285365527836
 20
24.49882566710583
 30
0.0
 11
41.52535365527836
 21
26.38315031606221
 31
0.0
 11
41.44708306677094
 21
26.37153633797679
 31
0.0
 11
41.373266578922
 21
26.29019460140828
 31
0.0
 11
41.31472259177906
 21
26.07667248886425
 31
0.0
 11
41.20272516922807
 21
25.80468590857115
 31
0.0
 11
41.03435120202431
 21
25.6251532270611
 31
0.0
 11
40.8561734362897
 21
25.45484392558202
 31
0.0
 11
40.76963004066519
 21
25.31249588658714
 31
0.0
 11
40.72890372440807
 21
25.12693492842391
 31
0.0
 11
40.73144530120749
 21
25.00806067267663
 31
0.0
 11
40.77471721039507
 21
24.8224998226168
 31
0.0
 11
40.85362424997891
 21
24.66490012693777
 31
0.0
 11
40.96285365527836
 21
24.49882566710583
 31
0.0
  0
SPLINE
  5
7294
330
18
100
AcDbEntity
  8
0
100
AcDbSpline
210
0.0
220
0.0
230
1.0
 70
     8
 71
     3
 72
    20
 73
    16
 74
     0
 42
0.0000000001
 43
0.0000000001
 40
0.1450883992002226
 40
0.1450883992002226
 40
0.1450883992002226
 40
0.1450883992002226
 40
0.2057746237573146
 40
0.3202174758713601
 40
0.4680399694808645
 40
0.5542569848444876
 40
0.6557227724208206
 40
0.8241588247429755
 40
1.106257770142124
 40
1.484539704095345
 40
1.705266461758752
 40
2.078546365986309
 40
2.224327042539588
 40
2.374040007186369
 40
2.386008881186091
 40
2.386008881186091
 40
2.386008881186091
 40
2.386008881186091
 10
40.89456770942705
 20
24.37568488363182
 30
0.0
 10
40.91506788370657
 20
24.34312480722432
 30
0.0
 10
40.95204926349038
 20
24.28926694863208
 30
0.0
 10
40.99673006012692
 20
24.22328233162217
 30
0.0
 10
41.04460861198319
 20
24.11720550763656
 30
0.0
 10
41.05564864153392
 20
24.00539892915635
 30
0.0
 10
41.03536326703724
 20
23.85561004004081
 30
0.0
 10
40.94906666088614
 20
23.72287885562125
 30
0.0
 10
40.72610915630469
 20
23.55534688882366
 30
0.0
 10
40.45061172932916
 20
23.44618897066502
 30
0.0
 10
40.14334417108403
 20
23.34621609239719
 30
0.0
 10
39.89910234954031
 20
23.29086815906014
 30
0.0
 10
39.68156060721652
 20
23.27226983382221
 30
0.0
 10
39.57135885820625
 20
23.25337867990304
 30
0.0
 10
39.53346708230531
 20
23.21484417668273
 30
0.0
 10
39.53066205549969
 20
23.21199157049303
 30
0.0
  0
SPLINE
  5
7295
330
18
100
AcDbEntity
  8
0
100
AcDbSpline
210
0.0
220
0.0
230
1.0
 70
  1064
 71
     3
 72
    15
 73
    11
 74
     9
 42
0.0000000001
 43
0.0000000001
 44
0.0000000001
 40
0.0
 40
0.0
 40
0.0
 40
0.0
 40
0.0858857133601638
 40
0.3588418585851654
 40
0.4931026410465567
 40
0.6389461639483187
 40
0.7223471279599292
 40
0.8572549084759916
 40
0.940602898869405
 40
0.9814756960496566
 40
0.9814756960496566
 40
0.9814756960496566
 40
0.9814756960496566
 10
39.53066205549969
 20
23.21199157049303
 30
0.0
 10
39.53776113113341
 20
23.18417863731435
 30
0.0
 10
39.56742200713912
 20
23.06797252754277
 30
0.0
 10
39.66097792143917
 20
22.92820149210791
 30
0.0
 10
39.71741132347399
 20
22.75307969573759
 30
0.0
 10
39.74484783924513
 20
22.63217164113927
 30
0.0
 10
39.71516810411318
 20
22.51072614808797
 30
0.0
 10
39.63936686337851
 20
22.4358049153848
 30
0.0
 10
39.5536375769243
 20
22.40570220232729
 30
0.0
 10
39.53235600485251
 20
22.36915292352866
 30
0.0
 10
39.52535365527836
 20
22.35712698738222
 30
0.0
 11
39.53066205549969
 21
23.21199157049303
 31
0.0
 11
39.55416025214825
 21
23.12938291166328
 31
0.0
 11
39.67124843780946
 21
22.88281565107368
 31
0.0
 11
39.71452013562171
 21
22.75571916065954
 31
0.0
 11
39.7349954283554
 21
22.61132007631388
 31
0.0
 11
39.71395660902928
 21
22.53061636586988
 31
0.0
 11
39.61977685736412
 21
22.43402297261725
 31
0.0
 11
39.5485059624456
 21
22.3908101615523
 31
0.0
 11
39.52535365527836
 21
22.35712698738222
 31
0.0
  0
LINE
  5
7296
330
18
100
AcDbEntity
  8
0
100
AcDbLine
 10
40.83785365527837
 20
19.27062685546483
 30
0.0
 11
41.52535365527836
 21
19.27062685546483
 31
0.0
  0
LINE
  5
7297
330
18
100
AcDbEntity
  8
0
100
AcDbLine
 10
40.83785365527837
 20
19.39971244799535
 30
0.0
 11
40.83785365527837
 21
19.27062685546483
 31
0.0
  0
SPLINE
  5
7298
330
18
100
AcDbEntity
  8
0
100
AcDbSpline
210
0.0
220
0.0
230
1.0
 70
  1064
 71
     3
 72
    12
 73
     8
 74
     6
 42
0.0000000001
 43
0.0000000001
 44
0.0000000001
 40
0.0
 40
0.0
 40
0.0
 40
0.0
 40
0.0494522167842101
 40
0.1400148612539831
 40
0.226466539526327
 40
0.3109793121494401
 40
0.4188882740178461
 40
0.4188882740178461
 40
0.4188882740178461
 40
0.4188882740178461
 10
40.83785365527837
 20
19.27062685546483
 30
0.0
 10
40.83999179397856
 20
19.25384337634629
 30
0.0
 10
40.84604554066411
 20
19.20632404045089
 30
0.0
 10
40.91046839818
 20
19.15609290062358
 30
0.0
 10
40.94446287159822
 20
19.07536608002073
 30
0.0
 10
40.98384754407883
 20
18.99011830239358
 30
0.0
 10
40.98618040554032
 20
18.92522269340725
 30
0.0
 10
40.98748866034404
 20
18.88882962266584
 30
0.0
 11
40.83785365527837
 21
19.27062685546483
 31
0.0
 11
40.84848148854095
 21
19.22233015883851
 31
0.0
 11
40.90448009412878
 21
19.15115608528938
 31
0.0
 11
40.94520641038593
 21
19.07489823428224
 31
0.0
 11
40.97575120042262
 21
18.99609833239105
 31
0.0
 11
40.98748866034404
 21
18.88882962266584
 31
0.0
  0
SPLINE
  5
7299
330
18
100
AcDbEntity
  8
0
100
AcDbSpline
210
0.0
220
0.0
230
1.0
 70
  1064
 71
     3
 72
     9
 73
     5
 74
     3
 42
0.0000000001
 43
0.0000000001
 44
0.0000000001
 40
0.0
 40
0.0
 40
0.0
 40
0.0
 40
0.0642802492510158
 40
0.1004072868180633
 40
0.1004072868180633
 40
0.1004072868180633
 40
0.1004072868180633
 10
40.98748866034404
 20
18.88882962266584
 30
0.0
 10
41.0077467806527
 20
18.88166901462794
 30
0.0
 10
41.03939044911893
 20
18.87048397360164
 30
0.0
 10
41.06860977332998
 20
18.8540660164352
 30
0.0
 10
41.07912303045412
 20
18.84815875438159
 30
0.0
 11
40.98748866034404
 21
18.88882962266584
 31
0.0
 11
41.04726940446084
 21
18.86520308934812
 31
0.0
 11
41.07912303045412
 21
18.84815875438159
 31
0.0
  0
SPLINE
  5
729A
330
18
100
AcDbEntity
  8
0
100
AcDbSpline
210
0.0
220
0.0
230
1.0
 70
  1064
 71
     3
 72
    20
 73
    16
 74
    14
 42
0.0000000001
 43
0.0000000001
 44
0.0000000001
 40
0.0
 40
0.0
 40
0.0
 40
0.0
 40
0.1866349856407881
 40
0.3889303692578303
 40
0.7249651687084909
 40
0.8613841944494444
 40
0.9554700823558624
 40
0.990684628585061
 40
1.068827385692832
 40
1.186234860121327
 40
1.274536329521559
 40
1.378632944083474
 40
1.47853228150499
 40
1.588374535580607
 40
1.792635611761197
 40
1.792635611761197
 40
1.792635611761197
 40
1.792635611761197
 10
41.08785365527836
 20
18.2872277415296
 30
0.0
 10
41.03398562384406
 20
18.25445572951022
 30
0.0
 10
40.92172953592461
 20
18.18616183117032
 30
0.0
 10
40.79472910047591
 20
17.97177022768309
 30
0.0
 10
40.74324454788185
 20
17.75035943702104
 30
0.0
 10
40.73240328507735
 20
17.56121285404983
 30
0.0
 10
40.72565464267746
 20
17.47382464052818
 30
0.0
 10
40.73366626094009
 20
17.40247295660827
 30
0.0
 10
40.66946267888396
 20
17.34372474500422
 30
0.0
 10
40.5886063406896
 20
17.29979170385304
 30
0.0
 10
40.49133576122192
 20
17.26610978420941
 30
0.0
 10
40.39296784211165
 20
17.23696237031036
 30
0.0
 10
40.33933294149943
 20
17.14157115281343
 30
0.0
 10
40.2463000628449
 20
17.03902607649151
 30
0.0
 10
40.1523113138391
 20
16.98997312058213
 30
0.0
 10
40.09119052595974
 20
16.95807403324766
 30
0.0
 11
41.08785365527836
 21
18.2872277415296
 31
0.0
 11
40.9364098152358
 21
18.17815262439328
 31
0.0
 11
40.82567451469659
 21
18.0088566839598
 31
0.0
 11
40.74167650062719
 21
17.68348962958237
 31
0.0
 11
40.73108765417282
 21
17.54748217789359
 31
0.0
 11
40.72854227261771
 21
17.45343072742164
 31
0.0
 11
40.72854227261771
 21
17.41821618119244
 31
0.0
 11
40.68017981169524
 21
17.35683733416901
 31
0.0
 11
40.57836412674004
 21
17.29837297452331
 31
0.0
 11
40.49538071418737
 21
17.26819180921522
 31
0.0
 11
40.40035365527836
 21
17.22569518301554
 31
0.0
 11
40.33847153274737
 21
17.14727018363194
 31
0.0
 11
40.26465525627375
 21
17.06592844706342
 31
0.0
 11
40.09119052595974
 21
16.95807403324766
 31
0.0
  0
LINE
  5
729B
330
18
100
AcDbEntity
  8
0
100
AcDbLine
 10
40.09119052595974
 20
16.84948948923112
 30
0.0
 11
40.09119052595974
 21
16.95807403324766
 31
0.0
  0
SPLINE
  5
729C
330
18
100
AcDbEntity
  8
0
100
AcDbSpline
210
0.0
220
0.0
230
1.0
 70
  1064
 71
     3
 72
    13
 73
     9
 74
     7
 42
0.0000000001
 43
0.0000000001
 44
0.0000000001
 40
0.0
 40
0.0
 40
0.0
 40
0.0
 40
0.3593159721097401
 40
0.8612655810252876
 40
1.876534509394686
 40
2.717210248549942
 40
3.223628006016274
 40
3.439825642576546
 40
3.439825642576546
 40
3.439825642576546
 40
3.439825642576546
 10
39.52535365527836
 20
22.35712698738222
 30
0.0
 10
39.58819666000501
 20
22.25304600922172
 30
0.0
 10
39.73882875314984
 20
22.00356819279527
 30
0.0
 10
39.7446240599057
 20
21.35874401938714
 30
0.0
 10
39.8396350497936
 20
20.59740472487391
 30
0.0
 10
40.08330661446396
 20
19.79609553953372
 30
0.0
 10
40.54225949835873
 20
19.50032840064078
 30
0.0
 10
40.76978178577406
 20
19.42288312251038
 30
0.0
 10
40.83785365527837
 20
19.39971244799535
 30
0.0
 11
39.52535365527836
 21
22.35712698738222
 31
0.0
 11
39.68812781366759
 21
22.03679506394367
 31
0.0
 11
39.74921739374096
 21
21.53857676530648
 31
0.0
 11
39.88157786873285
 21
20.5319727212195
 31
0.0
 11
40.21769315681967
 21
19.76141304700955
 31
0.0
 11
40.63501440242705
 21
19.47452992962211
 31
0.0
 11
40.83785365527837
 21
19.39971244799535
 31
0.0
  0
LINE
  5
729D
330
18
100
AcDbEntity
  8
0
100
AcDbLine
 10
40.09119052595974
 20
16.95807403324766
 30
0.0
 11
41.52535365527836
 21
16.95807403324766
 31
0.0
  0
ARC
  5
729E
330
18
100
AcDbEntity
  8
0
100
AcDbCircle
 10
40.17634106408034
 20
16.52141357704391
 30
0.0
 40
0.3389460403953734
100
AcDbArc
 50
104.5498069809189
 51
230.9604546754717
  0
LINE
  5
729F
330
18
100
AcDbEntity
  8
0
100
AcDbLine
 10
40.96285365527836
 20
24.49882566710583
 30
0.0
 11
40.89456770942706
 21
24.37568488363182
 31
0.0
  0
ARC
  5
72A0
330
18
100
AcDbEntity
  8
0
100
AcDbCircle
 10
41.20655486495281
 20
18.56960871992655
 30
0.0
 40
0.3063151875741751
100
AcDbArc
 50
114.5832771844097
 51
247.2001420069104
  0
LINE
  5
72A1
330
18
100
AcDbEntity
  8
0
100
AcDbLine
 10
43.52004525505704
 20
23.21199157049303
 30
0.0
 11
41.52535365527836
 21
23.21199157049303
 31
0.0
  0
LINE
  5
72A2
330
18
100
AcDbEntity
  8
0
100
AcDbLine
 10
42.15613960112967
 20
24.37568488363182
 30
0.0
 11
41.52535365527836
 21
24.37616490798367
 31
0.0
  0
LINE
  5
72A3
330
18
100
AcDbEntity
  8
0
100
AcDbLine
 10
43.52535365527836
 20
22.35712698738222
 30
0.0
 11
41.52535365527836
 21
22.35712698738222
 31
0.0
  0
LINE
  5
72A4
330
18
100
AcDbEntity
  8
0
100
AcDbLine
 10
43.31571188220133
 20
22.61132007631388
 30
0.0
 11
41.52535365527836
 21
22.61132007631388
 31
0.0
  0
LINE
  5
72A5
330
18
100
AcDbEntity
  8
0
100
AcDbLine
 10
42.21285365527836
 20
19.39971244799535
 30
0.0
 11
41.52535365527836
 21
19.39971244799535
 31
0.0
  0
LINE
  5
72A6
330
18
100
AcDbEntity
  8
0
100
AcDbLine
 10
41.96285365527836
 20
18.2872277415296
 30
0.0
 11
41.52535365527836
 21
18.2872277415296
 31
0.0
  0
LINE
  5
72A7
330
18
100
AcDbEntity
  8
0
100
AcDbLine
 10
43.08785365527836
 20
16.2581503160622
 30
0.0
 11
41.52535365527836
 21
16.2581503160622
 31
0.0
  0
LINE
  5
72A8
330
18
100
AcDbEntity
  8
0
100
AcDbLine
 10
42.95951678459698
 20
16.84948948923112
 30
0.0
 11
41.52535365527836
 21
16.84948948923112
 31
0.0
  0
LINE
  5
72A9
330
18
100
AcDbEntity
  8
0
100
AcDbLine
 10
42.65035365527836
 20
17.22569518301554
 30
0.0
 11
41.52535365527836
 21
17.22569518301554
 31
0.0
  0
LINE
  5
72AA
330
18
100
AcDbEntity
  8
0
100
AcDbLine
 10
42.31668199934833
 20
17.41821618119244
 30
0.0
 11
41.52535365527836
 21
17.41821618119244
 31
0.0
  0
LINE
  5
72AB
330
18
100
AcDbEntity
  8
0
100
AcDbLine
 10
42.06321865021268
 20
18.88882962266584
 30
0.0
 11
41.52535365527836
 21
18.88882962266584
 31
0.0
  0
LINE
  5
72AC
330
18
100
AcDbEntity
  8
0
100
AcDbLine
 10
41.9715842801026
 20
18.84815875438159
 30
0.0
 11
41.52535365527836
 21
18.84815875438159
 31
0.0
  0
LINE
  5
72AD
330
18
100
AcDbEntity
  8
0
100
AcDbLine
 10
42.08785365527837
 20
24.49882566710583
 30
0.0
 11
41.52535365527836
 21
24.49882566710583
 31
0.0
  0
SPLINE
  5
72AE
330
18
100
AcDbEntity
  8
0
100
AcDbSpline
210
0.0
220
0.0
230
1.0
 70
  1064
 71
     3
 72
    19
 73
    15
 74
    13
 42
0.0000000001
 43
0.0000000001
 44
0.0000000001
 40
0.0
 40
0.0
 40
0.0
 40
0.0
 40
0.0791275521690571
 40
0.1889699482933826
 40
0.410372502424668
 40
0.7045155331386393
 40
0.950649189029345
 40
1.197129562228646
 40
1.363721049201751
 40
1.55369868480744
 40
1.672600107389757
 40
1.863139571017806
 40
2.039389351085774
 40
2.238165076944205
 40
2.238165076944205
 40
2.238165076944205
 40
2.238165076944205
 10
41.52535365527836
 20
26.38315031606221
 30
0.0
 10
41.55285604400266
 20
26.38250664092291
 30
0.0
 10
41.61853638963084
 20
26.38096943606245
 30
0.0
 10
41.70869731884635
 20
26.2577024382079
 30
0.0
 10
41.73026815927188
 20
26.05236934160956
 30
0.0
 10
41.8224326415446
 20
25.80565501197241
 30
0.0
 10
42.01461403094273
 20
25.62245570448177
 30
0.0
 10
42.18543032372038
 20
25.48298390513252
 30
0.0
 10
42.29414170187307
 20
25.30931665590197
 30
0.0
 10
42.32579929275527
 20
25.15066936019191
 30
0.0
 10
42.32174641552236
 20
24.98395082048844
 30
0.0
 10
42.28521362781238
 20
24.8238907586209
 30
0.0
 10
42.1961124434298
 20
24.65646800331705
 30
0.0
 10
42.12535657092812
 20
24.55343598871308
 30
0.0
 10
42.08785365527837
 20
24.49882566710583
 30
0.0
 11
41.52535365527836
 21
26.38315031606221
 31
0.0
 11
41.60362424378578
 21
26.37153633797679
 31
0.0
 11
41.67744073163473
 21
26.29019460140828
 31
0.0
 11
41.73598471877767
 21
26.07667248886425
 31
0.0
 11
41.84798214132865
 21
25.80468590857115
 31
0.0
 11
42.01635610853242
 21
25.6251532270611
 31
0.0
 11
42.19453387426702
 21
25.45484392558202
 31
0.0
 11
42.28107726989153
 21
25.31249588658714
 31
0.0
 11
42.32180358614866
 21
25.12693492842391
 31
0.0
 11
42.31926200934924
 21
25.00806067267663
 31
0.0
 11
42.27599010016166
 21
24.8224998226168
 31
0.0
 11
42.19708306057782
 21
24.66490012693777
 31
0.0
 11
42.08785365527837
 21
24.49882566710583
 31
0.0
  0
SPLINE
  5
72AF
330
18
100
AcDbEntity
  8
0
100
AcDbSpline
210
0.0
220
0.0
230
1.0
 70
     8
 71
     3
 72
    20
 73
    16
 74
     0
 42
0.0000000001
 43
0.0000000001
 40
0.1450883992002226
 40
0.1450883992002226
 40
0.1450883992002226
 40
0.1450883992002226
 40
0.2057746237573146
 40
0.3202174758713601
 40
0.4680399694808645
 40
0.5542569848444876
 40
0.6557227724208206
 40
0.8241588247429755
 40
1.106257770142124
 40
1.484539704095345
 40
1.705266461758752
 40
2.078546365986309
 40
2.224327042539588
 40
2.374040007186369
 40
2.386008881186091
 40
2.386008881186091
 40
2.386008881186091
 40
2.386008881186091
 10
42.15613960112968
 20
24.37568488363182
 30
0.0
 10
42.13563942685015
 20
24.34312480722432
 30
0.0
 10
42.09865804706635
 20
24.28926694863208
 30
0.0
 10
42.0539772504298
 20
24.22328233162217
 30
0.0
 10
42.00609869857354
 20
24.11720550763656
 30
0.0
 10
41.9950586690228
 20
24.00539892915635
 30
0.0
 10
42.01534404351948
 20
23.85561004004081
 30
0.0
 10
42.10164064967059
 20
23.72287885562125
 30
0.0
 10
42.32459815425204
 20
23.55534688882366
 30
0.0
 10
42.60009558122757
 20
23.44618897066502
 30
0.0
 10
42.90736313947269
 20
23.34621609239719
 30
0.0
 10
43.15160496101642
 20
23.29086815906014
 30
0.0
 10
43.36914670334022
 20
23.27226983382221
 30
0.0
 10
43.47934845235047
 20
23.25337867990304
 30
0.0
 10
43.51724022825142
 20
23.21484417668273
 30
0.0
 10
43.52004525505704
 20
23.21199157049303
 30
0.0
  0
SPLINE
  5
72B0
330
18
100
AcDbEntity
  8
0
100
AcDbSpline
210
0.0
220
0.0
230
1.0
 70
  1064
 71
     3
 72
    15
 73
    11
 74
     9
 42
0.0000000001
 43
0.0000000001
 44
0.0000000001
 40
0.0
 40
0.0
 40
0.0
 40
0.0
 40
0.0858857133601638
 40
0.3588418585851654
 40
0.4931026410465567
 40
0.6389461639483187
 40
0.7223471279599292
 40
0.8572549084759916
 40
0.940602898869405
 40
0.9814756960496566
 40
0.9814756960496566
 40
0.9814756960496566
 40
0.9814756960496566
 10
43.52004525505704
 20
23.21199157049303
 30
0.0
 10
43.51294617942333
 20
23.18417863731435
 30
0.0
 10
43.48328530341761
 20
23.06797252754277
 30
0.0
 10
43.38972938911753
 20
22.92820149210791
 30
0.0
 10
43.33329598708276
 20
22.75307969573759
 30
0.0
 10
43.3058594713116
 20
22.63217164113927
 30
0.0
 10
43.33553920644355
 20
22.51072614808797
 30
0.0
 10
43.41134044717819
 20
22.4358049153848
 30
0.0
 10
43.49706973363243
 20
22.40570220232729
 30
0.0
 10
43.5183513057042
 20
22.36915292352866
 30
0.0
 10
43.52535365527836
 20
22.35712698738222
 30
0.0
 11
43.52004525505704
 21
23.21199157049303
 31
0.0
 11
43.49654705840848
 21
23.12938291166328
 31
0.0
 11
43.37945887274727
 21
22.88281565107368
 31
0.0
 11
43.33618717493502
 21
22.75571916065954
 31
0.0
 11
43.31571188220133
 21
22.61132007631388
 31
0.0
 11
43.33675070152745
 21
22.53061636586988
 31
0.0
 11
43.43093045319261
 21
22.43402297261725
 31
0.0
 11
43.50220134811112
 21
22.3908101615523
 31
0.0
 11
43.52535365527836
 21
22.35712698738222
 31
0.0
  0
LINE
  5
72B1
330
18
100
AcDbEntity
  8
0
100
AcDbLine
 10
42.21285365527836
 20
19.27062685546483
 30
0.0
 11
41.52535365527836
 21
19.27062685546483
 31
0.0
  0
LINE
  5
72B2
330
18
100
AcDbEntity
  8
0
100
AcDbLine
 10
42.21285365527836
 20
19.39971244799535
 30
0.0
 11
42.21285365527836
 21
19.27062685546483
 31
0.0
  0
SPLINE
  5
72B3
330
18
100
AcDbEntity
  8
0
100
AcDbSpline
210
0.0
220
0.0
230
1.0
 70
  1064
 71
     3
 72
    12
 73
     8
 74
     6
 42
0.0000000001
 43
0.0000000001
 44
0.0000000001
 40
0.0
 40
0.0
 40
0.0
 40
0.0
 40
0.0494522167842101
 40
0.1400148612539831
 40
0.226466539526327
 40
0.3109793121494401
 40
0.4188882740178461
 40
0.4188882740178461
 40
0.4188882740178461
 40
0.4188882740178461
 10
42.21285365527836
 20
19.27062685546483
 30
0.0
 10
42.21071551657815
 20
19.25384337634629
 30
0.0
 10
42.20466176989259
 20
19.20632404045089
 30
0.0
 10
42.14023891237674
 20
19.15609290062358
 30
0.0
 10
42.10624443895851
 20
19.07536608002073
 30
0.0
 10
42.06685976647787
 20
18.99011830239358
 30
0.0
 10
42.06452690501641
 20
18.92522269340725
 30
0.0
 10
42.06321865021268
 20
18.88882962266584
 30
0.0
 11
42.21285365527836
 21
19.27062685546483
 31
0.0
 11
42.20222582201578
 21
19.22233015883851
 31
0.0
 11
42.14622721642794
 21
19.15115608528938
 31
0.0
 11
42.10550090017079
 21
19.07489823428224
 31
0.0
 11
42.07495611013411
 21
18.99609833239105
 31
0.0
 11
42.06321865021268
 21
18.88882962266584
 31
0.0
  0
SPLINE
  5
72B4
330
18
100
AcDbEntity
  8
0
100
AcDbSpline
210
0.0
220
0.0
230
1.0
 70
  1064
 71
     3
 72
     9
 73
     5
 74
     3
 42
0.0000000001
 43
0.0000000001
 44
0.0000000001
 40
0.0
 40
0.0
 40
0.0
 40
0.0
 40
0.0642802492510158
 40
0.1004072868180633
 40
0.1004072868180633
 40
0.1004072868180633
 40
0.1004072868180633
 10
42.06321865021268
 20
18.88882962266584
 30
0.0
 10
42.04296052990403
 20
18.88166901462794
 30
0.0
 10
42.01131686143779
 20
18.87048397360164
 30
0.0
 10
41.98209753722674
 20
18.8540660164352
 30
0.0
 10
41.9715842801026
 20
18.84815875438159
 30
0.0
 11
42.06321865021268
 21
18.88882962266584
 31
0.0
 11
42.00343790609588
 21
18.86520308934812
 31
0.0
 11
41.9715842801026
 21
18.84815875438159
 31
0.0
  0
SPLINE
  5
72B5
330
18
100
AcDbEntity
  8
0
100
AcDbSpline
210
0.0
220
0.0
230
1.0
 70
  1064
 71
     3
 72
    20
 73
    16
 74
    14
 42
0.0000000001
 43
0.0000000001
 44
0.0000000001
 40
0.0
 40
0.0
 40
0.0
 40
0.0
 40
0.1866349856407881
 40
0.3889303692578303
 40
0.7249651687084909
 40
0.8613841944494444
 40
0.9554700823558624
 40
0.990684628585061
 40
1.068827385692832
 40
1.186234860121327
 40
1.274536329521559
 40
1.378632944083474
 40
1.47853228150499
 40
1.588374535580607
 40
1.792635611761197
 40
1.792635611761197
 40
1.792635611761197
 40
1.792635611761197
 10
41.96285365527836
 20
18.2872277415296
 30
0.0
 10
42.01672168671268
 20
18.25445572951022
 30
0.0
 10
42.12897777463213
 20
18.18616183117032
 30
0.0
 10
42.2559782100808
 20
17.97177022768309
 30
0.0
 10
42.30746276267487
 20
17.75035943702104
 30
0.0
 10
42.31830402547938
 20
17.56121285404983
 30
0.0
 10
42.32505266787926
 20
17.47382464052818
 30
0.0
 10
42.31704104961663
 20
17.40247295660827
 30
0.0
 10
42.38124463167278
 20
17.34372474500422
 30
0.0
 10
42.4621009698671
 20
17.29979170385304
 30
0.0
 10
42.55937154933481
 20
17.26610978420941
 30
0.0
 10
42.65773946844508
 20
17.23696237031036
 30
0.0
 10
42.71137436905728
 20
17.14157115281343
 30
0.0
 10
42.80440724771183
 20
17.03902607649151
 30
0.0
 10
42.89839599671761
 20
16.98997312058213
 30
0.0
 10
42.95951678459698
 20
16.95807403324766
 30
0.0
 11
41.96285365527836
 21
18.2872277415296
 31
0.0
 11
42.11429749532093
 21
18.17815262439328
 31
0.0
 11
42.22503279586013
 21
18.0088566839598
 31
0.0
 11
42.30903080992954
 21
17.68348962958237
 31
0.0
 11
42.3196196563839
 21
17.54748217789359
 31
0.0
 11
42.32216503793901
 21
17.45343072742164
 31
0.0
 11
42.32216503793901
 21
17.41821618119244
 31
0.0
 11
42.37052749886148
 21
17.35683733416901
 31
0.0
 11
42.47234318381669
 21
17.29837297452331
 31
0.0
 11
42.55532659636935
 21
17.26819180921522
 31
0.0
 11
42.65035365527836
 21
17.22569518301554
 31
0.0
 11
42.71223577780935
 21
17.14727018363194
 31
0.0
 11
42.78605205428298
 21
17.06592844706342
 31
0.0
 11
42.95951678459698
 21
16.95807403324766
 31
0.0
  0
LINE
  5
72B6
330
18
100
AcDbEntity
  8
0
100
AcDbLine
 10
42.95951678459698
 20
16.84948948923112
 30
0.0
 11
42.95951678459698
 21
16.95807403324766
 31
0.0
  0
SPLINE
  5
72B7
330
18
100
AcDbEntity
  8
0
100
AcDbSpline
210
0.0
220
0.0
230
1.0
 70
  1064
 71
     3
 72
    13
 73
     9
 74
     7
 42
0.0000000001
 43
0.0000000001
 44
0.0000000001
 40
0.0
 40
0.0
 40
0.0
 40
0.0
 40
0.3593159721097401
 40
0.8612655810252876
 40
1.876534509394686
 40
2.717210248549942
 40
3.223628006016274
 40
3.439825642576546
 40
3.439825642576546
 40
3.439825642576546
 40
3.439825642576546
 10
43.52535365527836
 20
22.35712698738222
 30
0.0
 10
43.46251065055173
 20
22.25304600922172
 30
0.0
 10
43.31187855740689
 20
22.00356819279527
 30
0.0
 10
43.30608325065102
 20
21.35874401938714
 30
0.0
 10
43.21107226076313
 20
20.59740472487391
 30
0.0
 10
42.96740069609276
 20
19.79609553953372
 30
0.0
 10
42.50844781219799
 20
19.50032840064078
 30
0.0
 10
42.28092552478266
 20
19.42288312251038
 30
0.0
 10
42.21285365527836
 20
19.39971244799535
 30
0.0
 11
43.52535365527836
 21
22.35712698738222
 31
0.0
 11
43.36257949688913
 21
22.03679506394367
 31
0.0
 11
43.30148991681577
 21
21.53857676530648
 31
0.0
 11
43.16912944182388
 21
20.5319727212195
 31
0.0
 11
42.83301415373705
 21
19.76141304700955
 31
0.0
 11
42.41569290812967
 21
19.47452992962211
 31
0.0
 11
42.21285365527836
 21
19.39971244799535
 31
0.0
  0
LINE
  5
72B8
330
18
100
AcDbEntity
  8
0
100
AcDbLine
 10
42.95951678459698
 20
16.95807403324766
 30
0.0
 11
41.52535365527836
 21
16.95807403324766
 31
0.0
  0
ARC
  5
72B9
330
18
100
AcDbEntity
  8
0
100
AcDbCircle
 10
42.87436624647639
 20
16.52141357704391
 30
0.0
 40
0.3389460403953734
100
AcDbArc
 50
309.0395453245283
 51
75.45019301908107
  0
LINE
  5
72BA
330
18
100
AcDbEntity
  8
0
100
AcDbLine
 10
42.08785365527837
 20
24.49882566710583
 30
0.0
 11
42.15613960112967
 21
24.37568488363182
 31
0.0
  0
ARC
  5
72BB
330
18
100
AcDbEntity
  8
0
100
AcDbCircle
 10
41.84415244560392
 20
18.56960871992655
 30
0.0
 40
0.3063151875741751
100
AcDbArc
 50
292.7998579930896
 51
65.41672281559027
  0
LINE
  5
72C2
330
18
100
AcDbEntity
  8
0
100
AcDbLine
 10
89.07034030867233
 20
16.2581503160622
 30
0.0
 11
90.76480931802073
 21
16.2581503160622
 31
0.0
  0
SPLINE
  5
72C9
330
18
100
AcDbEntity
  8
0
100
AcDbSpline
210
0.0
220
0.0
230
1.0
 70
  1064
 71
     3
 72
    19
 73
    15
 74
    13
 42
0.0000000001
 43
0.0000000001
 44
0.0000000001
 40
0.0
 40
0.0
 40
0.0
 40
0.0
 40
0.0791275521690571
 40
0.1889699482933826
 40
0.410372502424668
 40
0.7045155331386393
 40
0.950649189029345
 40
1.197129562228646
 40
1.363721049201751
 40
1.55369868480744
 40
1.672600107389757
 40
1.863139571017806
 40
2.039389351085774
 40
2.238165076944205
 40
2.238165076944205
 40
2.238165076944205
 40
2.238165076944205
 10
90.63284030867233
 20
26.38315031606221
 30
0.0
 10
90.60533791994803
 20
26.38250664092291
 30
0.0
 10
90.53965757431987
 20
26.38096943606245
 30
0.0
 10
90.44949664510435
 20
26.2577024382079
 30
0.0
 10
90.42792580467883
 20
26.05236934160956
 30
0.0
 10
90.33576132240609
 20
25.80565501197241
 30
0.0
 10
90.14357993300796
 20
25.62245570448177
 30
0.0
 10
89.97276364023035
 20
25.48298390513252
 30
0.0
 10
89.86405226207763
 20
25.30931665590197
 30
0.0
 10
89.83239467119538
 20
25.15066936019191
 30
0.0
 10
89.83644754842835
 20
24.98395082048844
 30
0.0
 10
89.87298033613829
 20
24.8238907586209
 30
0.0
 10
89.96208152052089
 20
24.65646800331705
 30
0.0
 10
90.03283739302258
 20
24.55343598871308
 30
0.0
 10
90.07034030867233
 20
24.49882566710583
 30
0.0
 11
90.63284030867233
 21
26.38315031606221
 31
0.0
 11
90.55456972016491
 21
26.37153633797679
 31
0.0
 11
90.48075323231596
 21
26.29019460140828
 31
0.0
 11
90.42220924517302
 21
26.07667248886425
 31
0.0
 11
90.31021182262204
 21
25.80468590857115
 31
0.0
 11
90.14183785541828
 21
25.6251532270611
 31
0.0
 11
89.96366008968367
 21
25.45484392558202
 31
0.0
 11
89.87711669405916
 21
25.31249588658714
 31
0.0
 11
89.83639037780204
 21
25.12693492842391
 31
0.0
 11
89.83893195460145
 21
25.00806067267663
 31
0.0
 11
89.88220386378904
 21
24.8224998226168
 31
0.0
 11
89.96111090337286
 21
24.66490012693777
 31
0.0
 11
90.07034030867233
 21
24.49882566710583
 31
0.0
  0
SPLINE
  5
72CA
330
18
100
AcDbEntity
  8
0
100
AcDbSpline
210
0.0
220
0.0
230
1.0
 70
     8
 71
     3
 72
    20
 73
    16
 74
     0
 42
0.0000000001
 43
0.0000000001
 40
0.1450883992002226
 40
0.1450883992002226
 40
0.1450883992002226
 40
0.1450883992002226
 40
0.2057746237573146
 40
0.3202174758713601
 40
0.4680399694808645
 40
0.5542569848444876
 40
0.6557227724208206
 40
0.8241588247429755
 40
1.106257770142124
 40
1.484539704095345
 40
1.705266461758752
 40
2.078546365986309
 40
2.224327042539588
 40
2.374040007186369
 40
2.386008881186091
 40
2.386008881186091
 40
2.386008881186091
 40
2.386008881186091
 10
90.00205436282101
 20
24.37568488363182
 30
0.0
 10
90.02255453710054
 20
24.34312480722432
 30
0.0
 10
90.05953591688435
 20
24.28926694863208
 30
0.0
 10
90.10421671352089
 20
24.22328233162217
 30
0.0
 10
90.15209526537715
 20
24.11720550763656
 30
0.0
 10
90.16313529492789
 20
24.00539892915635
 30
0.0
 10
90.14284992043121
 20
23.85561004004081
 30
0.0
 10
90.05655331428011
 20
23.72287885562125
 30
0.0
 10
89.83359580969866
 20
23.55534688882366
 30
0.0
 10
89.55809838272312
 20
23.44618897066502
 30
0.0
 10
89.250830824478
 20
23.34621609239719
 30
0.0
 10
89.00658900293427
 20
23.29086815906014
 30
0.0
 10
88.78904726061048
 20
23.27226983382221
 30
0.0
 10
88.67884551160022
 20
23.25337867990304
 30
0.0
 10
88.64095373569927
 20
23.21484417668273
 30
0.0
 10
88.63814870889365
 20
23.21199157049303
 30
0.0
  0
SPLINE
  5
72CB
330
18
100
AcDbEntity
  8
0
100
AcDbSpline
210
0.0
220
0.0
230
1.0
 70
  1064
 71
     3
 72
    15
 73
    11
 74
     9
 42
0.0000000001
 43
0.0000000001
 44
0.0000000001
 40
0.0
 40
0.0
 40
0.0
 40
0.0
 40
0.0858857133601638
 40
0.3588418585851654
 40
0.4931026410465567
 40
0.6389461639483187
 40
0.7223471279599292
 40
0.8572549084759916
 40
0.940602898869405
 40
0.9814756960496566
 40
0.9814756960496566
 40
0.9814756960496566
 40
0.9814756960496566
 10
88.63814870889365
 20
23.21199157049303
 30
0.0
 10
88.64524778452738
 20
23.18417863731435
 30
0.0
 10
88.67490866053309
 20
23.06797252754277
 30
0.0
 10
88.76846457483315
 20
22.92820149210791
 30
0.0
 10
88.82489797686796
 20
22.75307969573759
 30
0.0
 10
88.8523344926391
 20
22.63217164113927
 30
0.0
 10
88.82265475750712
 20
22.51072614808797
 30
0.0
 10
88.74685351677246
 20
22.4358049153848
 30
0.0
 10
88.66112423031829
 20
22.40570220232729
 30
0.0
 10
88.63984265824646
 20
22.36915292352866
 30
0.0
 10
88.63284030867232
 20
22.35712698738222
 30
0.0
 11
88.63814870889365
 21
23.21199157049303
 31
0.0
 11
88.66164690554221
 21
23.12938291166328
 31
0.0
 11
88.77873509120341
 21
22.88281565107368
 31
0.0
 11
88.82200678901567
 21
22.75571916065954
 31
0.0
 11
88.84248208174936
 21
22.61132007631388
 31
0.0
 11
88.82144326242324
 21
22.53061636586988
 31
0.0
 11
88.72726351075808
 21
22.43402297261725
 31
0.0
 11
88.65599261583957
 21
22.3908101615523
 31
0.0
 11
88.63284030867232
 21
22.35712698738222
 31
0.0
  0
LINE
  5
72CD
330
18
100
AcDbEntity
  8
0
100
AcDbLine
 10
89.94534030867233
 20
19.39971244799535
 30
0.0
 11
89.94534030867233
 21
19.27062685546483
 31
0.0
  0
SPLINE
  5
72CE
330
18
100
AcDbEntity
  8
0
100
AcDbSpline
210
0.0
220
0.0
230
1.0
 70
  1064
 71
     3
 72
    12
 73
     8
 74
     6
 42
0.0000000001
 43
0.0000000001
 44
0.0000000001
 40
0.0
 40
0.0
 40
0.0
 40
0.0
 40
0.0494522167842101
 40
0.1400148612539831
 40
0.226466539526327
 40
0.3109793121494401
 40
0.4188882740178461
 40
0.4188882740178461
 40
0.4188882740178461
 40
0.4188882740178461
 10
89.94534030867233
 20
19.27062685546483
 30
0.0
 10
89.94747844737252
 20
19.25384337634629
 30
0.0
 10
89.95353219405808
 20
19.20632404045089
 30
0.0
 10
90.01795505157396
 20
19.15609290062358
 30
0.0
 10
90.05194952499222
 20
19.07536608002073
 30
0.0
 10
90.09133419747277
 20
18.99011830239358
 30
0.0
 10
90.09366705893425
 20
18.92522269340725
 30
0.0
 10
90.09497531373801
 20
18.88882962266584
 30
0.0
 11
89.94534030867233
 21
19.27062685546483
 31
0.0
 11
89.95596814193492
 21
19.22233015883851
 31
0.0
 11
90.01196674752275
 21
19.15115608528938
 31
0.0
 11
90.05269306377989
 21
19.07489823428224
 31
0.0
 11
90.08323785381659
 21
18.99609833239105
 31
0.0
 11
90.09497531373801
 21
18.88882962266584
 31
0.0
  0
SPLINE
  5
72CF
330
18
100
AcDbEntity
  8
0
100
AcDbSpline
210
0.0
220
0.0
230
1.0
 70
  1064
 71
     3
 72
     9
 73
     5
 74
     3
 42
0.0000000001
 43
0.0000000001
 44
0.0000000001
 40
0.0
 40
0.0
 40
0.0
 40
0.0
 40
0.0642802492510158
 40
0.1004072868180633
 40
0.1004072868180633
 40
0.1004072868180633
 40
0.1004072868180633
 10
90.09497531373801
 20
18.88882962266584
 30
0.0
 10
90.11523343404666
 20
18.88166901462794
 30
0.0
 10
90.14687710251289
 20
18.87048397360164
 30
0.0
 10
90.17609642672395
 20
18.8540660164352
 30
0.0
 10
90.18660968384809
 20
18.84815875438159
 30
0.0
 11
90.09497531373801
 21
18.88882962266584
 31
0.0
 11
90.1547560578548
 21
18.86520308934812
 31
0.0
 11
90.18660968384809
 21
18.84815875438159
 31
0.0
  0
SPLINE
  5
72D0
330
18
100
AcDbEntity
  8
0
100
AcDbSpline
210
0.0
220
0.0
230
1.0
 70
  1064
 71
     3
 72
    20
 73
    16
 74
    14
 42
0.0000000001
 43
0.0000000001
 44
0.0000000001
 40
0.0
 40
0.0
 40
0.0
 40
0.0
 40
0.1866349856407881
 40
0.3889303692578303
 40
0.7249651687084909
 40
0.8613841944494444
 40
0.9554700823558624
 40
0.990684628585061
 40
1.068827385692832
 40
1.186234860121327
 40
1.274536329521559
 40
1.378632944083474
 40
1.47853228150499
 40
1.588374535580607
 40
1.792635611761197
 40
1.792635611761197
 40
1.792635611761197
 40
1.792635611761197
 10
90.19534030867232
 20
18.2872277415296
 30
0.0
 10
90.14147227723801
 20
18.25445572951022
 30
0.0
 10
90.02921618931855
 20
18.18616183117032
 30
0.0
 10
89.90221575386987
 20
17.97177022768309
 30
0.0
 10
89.85073120127582
 20
17.75035943702104
 30
0.0
 10
89.8398899384713
 20
17.56121285404983
 30
0.0
 10
89.83314129607144
 20
17.47382464052818
 30
0.0
 10
89.84115291433404
 20
17.40247295660827
 30
0.0
 10
89.77694933227793
 20
17.34372474500422
 30
0.0
 10
89.69609299408359
 20
17.29979170385304
 30
0.0
 10
89.59882241461588
 20
17.26610978420941
 30
0.0
 10
89.50045449550563
 20
17.23696237031036
 30
0.0
 10
89.44681959489338
 20
17.14157115281343
 30
0.0
 10
89.35378671623888
 20
17.03902607649151
 30
0.0
 10
89.25979796723307
 20
16.98997312058213
 30
0.0
 10
89.19867717935371
 20
16.95807403324766
 30
0.0
 11
90.19534030867232
 21
18.2872277415296
 31
0.0
 11
90.04389646862977
 21
18.17815262439328
 31
0.0
 11
89.93316116809056
 21
18.0088566839598
 31
0.0
 11
89.84916315402115
 21
17.68348962958237
 31
0.0
 11
89.83857430756678
 21
17.54748217789359
 31
0.0
 11
89.83602892601167
 21
17.45343072742164
 31
0.0
 11
89.83602892601167
 21
17.41821618119244
 31
0.0
 11
89.78766646508921
 21
17.35683733416901
 31
0.0
 11
89.68585078013401
 21
17.29837297452331
 31
0.0
 11
89.60286736758133
 21
17.26819180921522
 31
0.0
 11
89.50784030867232
 21
17.22569518301554
 31
0.0
 11
89.44595818614134
 21
17.14727018363194
 31
0.0
 11
89.37214190966772
 21
17.06592844706342
 31
0.0
 11
89.19867717935371
 21
16.95807403324766
 31
0.0
  0
LINE
  5
72D1
330
18
100
AcDbEntity
  8
0
100
AcDbLine
 10
89.19867717935371
 20
16.84948948923112
 30
0.0
 11
89.19867717935371
 21
16.95807403324766
 31
0.0
  0
SPLINE
  5
72D2
330
18
100
AcDbEntity
  8
0
100
AcDbSpline
210
0.0
220
0.0
230
1.0
 70
  1064
 71
     3
 72
    13
 73
     9
 74
     7
 42
0.0000000001
 43
0.0000000001
 44
0.0000000001
 40
0.0
 40
0.0
 40
0.0
 40
0.0
 40
0.3593159721097401
 40
0.8612655810252876
 40
1.876534509394686
 40
2.717210248549942
 40
3.223628006016274
 40
3.439825642576546
 40
3.439825642576546
 40
3.439825642576546
 40
3.439825642576546
 10
88.63284030867232
 20
22.35712698738222
 30
0.0
 10
88.69568331339896
 20
22.25304600922172
 30
0.0
 10
88.8463154065438
 20
22.00356819279527
 30
0.0
 10
88.85211071329967
 20
21.35874401938714
 30
0.0
 10
88.94712170318758
 20
20.59740472487391
 30
0.0
 10
89.19079326785789
 20
19.79609553953372
 30
0.0
 10
89.6497461517527
 20
19.50032840064078
 30
0.0
 10
89.87726843916801
 20
19.42288312251038
 30
0.0
 10
89.94534030867233
 20
19.39971244799535
 30
0.0
 11
88.63284030867232
 21
22.35712698738222
 31
0.0
 11
88.79561446706155
 21
22.03679506394367
 31
0.0
 11
88.85670404713492
 21
21.53857676530648
 31
0.0
 11
88.98906452212681
 21
20.5319727212195
 31
0.0
 11
89.32517981021364
 21
19.76141304700955
 31
0.0
 11
89.74250105582102
 21
19.47452992962211
 31
0.0
 11
89.94534030867233
 21
19.39971244799535
 31
0.0
  0
ARC
  5
72D4
330
18
100
AcDbEntity
  8
0
100
AcDbCircle
 10
89.28382771747429
 20
16.52141357704391
 30
0.0
 40
0.3389460403953734
100
AcDbArc
 50
104.5498069809189
 51
230.9604546754717
  0
LINE
  5
72D5
330
18
100
AcDbEntity
  8
0
100
AcDbLine
 10
90.07034030867233
 20
24.49882566710583
 30
0.0
 11
90.00205436282103
 21
24.37568488363182
 31
0.0
  0
ARC
  5
72D6
330
18
100
AcDbEntity
  8
0
100
AcDbCircle
 10
90.31404151834676
 20
18.56960871992655
 30
0.0
 40
0.3063151875741751
100
AcDbArc
 50
114.5832771844097
 51
247.2001420069104
  0
SPLINE
  5
72E4
330
18
100
AcDbEntity
  8
0
100
AcDbSpline
210
0.0
220
0.0
230
1.0
 70
     8
 71
     3
 72
     9
 73
     5
 74
     0
 42
0.0000000001
 43
0.0000000001
 40
0.0
 40
0.0
 40
0.0
 40
0.0
 40
0.0791275521690571
 40
0.1489181387685305
 40
0.1489181387685305
 40
0.1489181387685305
 40
0.1489181387685305
 10
90.63284030867233
 20
26.38315031606221
 30
0.0
 10
90.66034269739663
 20
26.38250664092291
 30
0.0
 10
90.71210222272304
 20
26.38129524361454
 30
0.0
 10
90.74885609469012
 20
26.34578752444057
 30
0.0
 10
90.7631487088936
 20
26.32613905471968
 30
0.0
  0
LINE
  5
72E7
330
18
100
AcDbEntity
  8
0
100
AcDbLine
 10
90.76314870889365
 20
26.3261390547206
 30
0.0
 11
90.76314870889365
 21
16.25815031606221
 31
0.0
  0
DIMENSION
  5
735D
330
18
100
AcDbEntity
  8
0
100
AcDbDimension
280
     0
  2
*D4
 10
68.83808636599043
 20
5.228377180822036
 30
0.0
 11
41.52535365527836
 21
6.234281280382798
 31
0.0
 70
    32
 71
     5
 42
54.62546542142414
 73
     0
 74
     0
 75
     0
  3
STANDARD
100
AcDbAlignedDimension
 13
14.2126209445663
 23
8.383150316062213
 33
0.0
 14
68.83808636599043
 24
8.383150316062213
 34
0.0
100
AcDbRotatedDimension
  0
VIEWPORT
  5
70E8
330
15
100
AcDbEntity
 67
     1
  8
0
100
AcDbViewport
 10
133.3499908447265
 20
101.5999970436096
 30
0.0
 40
451.6233083754185
 41
228.4221935424805
 68
     2
 69
     1
 12
133.3499908447265
 22
101.5999970436096
 13
0.0
 23
0.0
 14
10.0
 24
10.0
 15
10.0
 25
10.0
 16
0.0
 26
0.0
 36
1.0
 17
0.0
 27
0.0
 37
0.0
 42
50.0
 43
0.0
 44
0.0
 45
228.4221935424805
 50
0.0
 51
0.0
 72
   100
 90
    32800
  1

281
     0
 71
     1
 74
     0
110
0.0
120
0.0
130
0.0
111
1.0
121
0.0
131
0.0
112
0.0
122
1.0
132
0.0
 79
     0
146
0.0
170
     0
 61
     5
348
730F
292
     1
282
     1
141
0.0
142
0.0
 63
   250
421
  3355443
  0
VIEWPORT
  5
70EA
330
15
100
AcDbEntity
 67
     1
  8
0
100
AcDbViewport
 10
133.3499939441681
 20
101.5999939441681
 30
0.0
 40
213.3599903106689
 41
162.5599903106689
 68
     1
 69
     2
 12
50.47922655162081
 22
12.37789410732206
 13
0.0
 23
0.0
 14
10.0
 24
10.0
 15
10.0
 25
10.0
 16
0.0
 26
0.0
 36
1.0
 17
0.0
 27
0.0
 37
0.0
 42
50.0
 43
0.0
 44
0.0
 45
77.13871935257031
 50
0.0
 51
0.0
 72
   100
 90
    32800
  1

281
     0
 71
     1
 74
     0
110
0.0
120
0.0
130
0.0
111
1.0
121
0.0
131
0.0
112
0.0
122
1.0
132
0.0
 79
     0
146
0.0
170
     0
 61
     5
348
730F
292
     1
282
     1
141
0.0
142
0.0
 63
   250
421
  3355443
  0
ENDSEC
  0
SECTION
  2
OBJECTS
  0
DICTIONARY
  5
C
330
0
100
AcDbDictionary
281
     1
  3
ACAD_CIP_PREVIOUS_PRODUCT_INFO
350
733F
  3
ACAD_COLOR
350
709C
  3
ACAD_GROUP
350
D
  3
ACAD_IMAGE_DICT
350
21
  3
ACAD_IMAGE_VARS
350
20
  3
ACAD_LAYOUT
350
709D
  3
ACAD_MATERIAL
350
709B
  3
ACAD_MLEADERSTYLE
350
7336
  3
ACAD_MLINESTYLE
350
1B
  3
ACAD_PLOTSETTINGS
350
709E
  3
ACAD_PLOTSTYLENAME
350
7099
  3
ACAD_SCALELIST
350
7324
  3
ACAD_TABLESTYLE
350
7322
  3
ACAD_VISUALSTYLE
350
7309
  3
ACDB_RECOMPOSE_DATA
350
738C
  3
ACDBVARIABLEDICTIONARY
350
34D4
  0
DICTIONARY
  5
7374
330
E
100
AcDbDictionary
280
     1
281
     1
  3
ADSK_XREC_LAYER_RECONCILED
360
7375
  0
DICTIONARY
  5
7376
330
71EB
100
AcDbDictionary
280
     1
281
     1
  3
ADSK_XREC_LAYER_RECONCILED
360
7377
  0
XRECORD
  5
733F
102
{ACAD_REACTORS
330
C
102
}
330
C
100
AcDbXrecord
280
     1
300
ACD
300
2012
300
ACD_F_S
  0
DICTIONARY
  5
709C
102
{ACAD_REACTORS
330
C
102
}
330
C
100
AcDbDictionary
281
     1
  0
DICTIONARY
  5
D
102
{ACAD_REACTORS
330
C
102
}
330
C
100
AcDbDictionary
281
     1
  0
DICTIONARY
  5
21
102
{ACAD_REACTORS
330
C
102
}
330
C
100
AcDbDictionary
281
     1
  3
3304-1
350
22
  3
3304-1B
350
1C41
  3
3304-2
350
25
  3
3304-2B
350
1C44
  3
3304-3
350
28
  3
3304-3B
350
1C47
  3
5559
350
50E7
  0
RASTERVARIABLES
  5
20
102
{ACAD_REACTORS
330
C
102
}
330
C
100
AcDbRasterVariables
 90
        0
 70
     1
 71
     1
 72
     0
  0
DICTIONARY
  5
709D
102
{ACAD_REACTORS
330
C
102
}
330
C
100
AcDbDictionary
281
     1
  3
Layout1
350
70A0
  3
Model
350
709F
  0
DICTIONARY
  5
709B
102
{ACAD_REACTORS
330
C
102
}
330
C
100
AcDbDictionary
281
     1
  3
ByBlock
350
72F9
  3
ByLayer
350
72F1
  3
Global
350
7301
  0
DICTIONARY
  5
7336
102
{ACAD_REACTORS
330
C
102
}
330
C
100
AcDbDictionary
281
     1
  3
Standard
350
7337
  0
DICTIONARY
  5
1B
102
{ACAD_REACTORS
330
C
102
}
330
C
100
AcDbDictionary
281
     1
  3
STANDARD
350
1C
  0
DICTIONARY
  5
709E
102
{ACAD_REACTORS
330
C
102
}
330
C
100
AcDbDictionary
281
     1
  0
ACDBDICTIONARYWDFLT
  5
7099
102
{ACAD_REACTORS
330
C
102
}
330
C
100
AcDbDictionary
281
     1
  3
Normal
350
709A
100
AcDbDictionaryWithDefault
340
709A
  0
DICTIONARY
  5
7324
102
{ACAD_REACTORS
330
C
102
}
330
C
100
AcDbDictionary
281
     1
  3
A0
350
7325
  3
A1
350
7326
  3
A2
350
7327
  3
A3
350
7328
  3
A4
350
7329
  3
A5
350
732A
  3
A6
350
732B
  3
A7
350
732C
  3
A8
350
732D
  3
A9
350
732E
  3
B0
350
732F
  3
B1
350
7330
  3
B2
350
7331
  3
B3
350
7332
  3
B4
350
7333
  3
B5
350
7334
  3
B6
350
7335
  0
DICTIONARY
  5
7322
102
{ACAD_REACTORS
330
C
102
}
330
C
100
AcDbDictionary
281
     1
  3
Standard
350
7323
  0
DICTIONARY
  5
7309
102
{ACAD_REACTORS
330
C
102
}
330
C
100
AcDbDictionary
281
     1
  3
2dWireframe
350
730F
  3
Basic
350
730E
  3
Brighten
350
7315
  3
ColorChange
350
7319
  3
Conceptual
350
7312
  3
Dim
350
7314
  3
EdgeColorOff
350
7321
  3
Facepattern
350
7318
  3
Flat
350
730A
  3
FlatWithEdges
350
730B
  3
Gouraud
350
730C
  3
GouraudWithEdges
350
730D
  3
Hidden
350
7311
  3
JitterOff
350
731F
  3
Linepattern
350
7317
  3
OverhangOff
350
7320
  3
Realistic
350
7313
  3
Shaded
350
731E
  3
Shaded with edges
350
731D
  3
Shades of Gray
350
731A
  3
Sketchy
350
731B
  3
Thicken
350
7316
  3
Wireframe
350
7310
  3
X-Ray
350
731C
  0
XRECORD
  5
738C
102
{ACAD_REACTORS
330
C
102
}
330
C
100
AcDbXrecord
280
     1
 90
        1
330
7323
  0
DICTIONARY
  5
34D4
102
{ACAD_REACTORS
330
C
102
}
330
C
100
AcDbDictionary
281
     1
  3
CANNOSCALE
350
7384
  3
CMLEADERSTYLE
350
7382
  3
CTABLESTYLE
350
7381
  3
LAYEREVAL
350
7386
  3
LAYERNOTIFY
350
7387
  3
LIGHTINGUNITS
350
7385
  3
MSLTSCALE
350
7383
  3
SORTENTS
350
34D5
  0
XRECORD
  5
7375
102
{ACAD_REACTORS
330
7374
102
}
330
7374
100
AcDbXrecord
280
     1
290
     1
  0
XRECORD
  5
7377
102
{ACAD_REACTORS
330
7376
102
}
330
7376
100
AcDbXrecord
280
     1
290
     1
  0
IMAGEDEF
  5
22
102
{ACAD_REACTORS
330
21
102
}
330
21
100
AcDbRasterImageDef
 90
        0
  1
U:\TPDWG\MichelQ\3304-1.tif
 10
2243.0
 20
3009.0
 11
0.0705555555555556
 21
0.0705555555555556
280
     1
281
     5
  0
IMAGEDEF
  5
1C41
102
{ACAD_REACTORS
330
21
102
}
330
21
100
AcDbRasterImageDef
 90
        0
  1
U:\TPDWG\MichelQ\3304-1b.TIF
 10
2202.0
 20
2931.0
 11
0.0705555555555556
 21
0.0705555555555556
280
     1
281
     5
  0
IMAGEDEF
  5
25
102
{ACAD_REACTORS
330
21
102
}
330
21
100
AcDbRasterImageDef
 90
        0
  1
U:\TPDWG\MichelQ\3304-2.tif
 10
2243.0
 20
3009.0
 11
0.0705555555555556
 21
0.0705555555555556
280
     1
281
     5
  0
IMAGEDEF
  5
1C44
102
{ACAD_REACTORS
330
21
102
}
330
21
100
AcDbRasterImageDef
 90
        0
  1
U:\TPDWG\MichelQ\3304-2b.TIF
 10
2202.0
 20
2931.0
 11
0.0705555555555556
 21
0.0705555555555556
280
     1
281
     5
  0
IMAGEDEF
  5
28
102
{ACAD_REACTORS
330
21
102
}
330
21
100
AcDbRasterImageDef
 90
        0
  1
U:\TPDWG\MichelQ\3304-3.tif
 10
2243.0
 20
3009.0
 11
0.0705555555555556
 21
0.0705555555555556
280
     1
281
     5
  0
IMAGEDEF
  5
1C47
102
{ACAD_REACTORS
330
21
102
}
330
21
100
AcDbRasterImageDef
 90
        0
  1
U:\TPDWG\MichelQ\3304-3b.TIF
 10
2202.0
 20
2931.0
 11
0.0705555555555556
 21
0.0705555555555556
280
     1
281
     5
  0
IMAGEDEF
  5
50E7
102
{ACAD_REACTORS
330
21
102
}
330
21
100
AcDbRasterImageDef
 90
        0
  1
U:\TPDWG\MichelQ\5559.tif
 10
1522.0
 20
3862.0
 11
0.0705555555555556
 21
0.0705555555555556
280
     1
281
     5
  0
LAYOUT
  5
70A0
102
{ACAD_REACTORS
330
709D
102
}
330
709D
100
AcDbPlotSettings
  1

  2
none_device
  4
Letter_(8.50_x_11.00_Inches)
  6

 40
6.349999904632568
 41
6.349999904632568
 42
6.350006103515625
 43
6.350006103515625
 44
215.8999938964844
 45
279.3999938964844
 46
0.0
 47
0.0
 48
0.0
 49
0.0
140
0.0
141
0.0
142
1.0
143
1.0
 70
   688
 72
     1
 73
     1
 74
     5
  7

 75
    16
147
1.0
 76
     1
 77
     2
 78
   300
148
0.0
149
0.0
100
AcDbLayout
  1
Layout1
 70
     1
 71
     1
 10
-6.350006103515625
 20
-6.349999904632568
 11
273.0499877929688
 21
209.5499939918518
 12
0.0
 22
0.0
 32
0.0
 14
26.66076962115563
 24
20.31135699206658
 34
-0.0015258207003583
 15
240.039213369355
 25
182.8886381005154
 35
0.0000000349246037
146
0.0
 13
0.0
 23
0.0
 33
0.0
 16
1.0
 26
0.0
 36
0.0
 17
0.0
 27
1.0
 37
0.0
 76
     0
330
15
331
70EA
  0
LAYOUT
  5
709F
102
{ACAD_REACTORS
330
709D
102
}
330
709D
100
AcDbPlotSettings
  1

  2
None
  4

  6

 40
0.0
 41
0.0
 42
0.0
 43
0.0
 44
0.0
 45
0.0
 46
0.0
 47
0.0
 48
0.0
 49
0.0
140
0.0
141
0.0
142
1.0
143
1.0
 70
  1712
 72
     0
 73
     0
 74
     0
  7

 75
     0
147
1.0
 76
     0
 77
     2
 78
   300
148
0.0
149
0.0
100
AcDbLayout
  1
Model
 70
     1
 71
     0
 10
0.0
 20
0.0
 11
12.0
 21
9.0
 12
0.0
 22
0.0
 32
0.0
 14
0.0
 24
0.0
 34
0.0
 15
0.0
 25
0.0
 35
0.0
146
0.0
 13
0.0
 23
0.0
 33
0.0
 16
1.0
 26
0.0
 36
0.0
 17
0.0
 27
1.0
 37
0.0
 76
     0
330
18
331
72EF
  0
MATERIAL
  5
72F9
102
{ACAD_XDICTIONARY
360
72FA
102
}
102
{ACAD_REACTORS
330
709B
102
}
330
709B
100
AcDbMaterial
  1
ByBlock
 72
     0
 43
0.0208333333333333
 43
0.0
 43
0.0
 43
0.0
 43
0.0
 43
0.0208333333333333
 43
0.0
 43
0.0
 43
0.0
 43
0.0
 43
1.0
 43
0.0
 43
0.0
 43
0.0
 43
0.0
 43
1.0
 77
     0
 47
0.0208333333333333
 47
0.0
 47
0.0
 47
0.0
 47
0.0
 47
0.0208333333333333
 47
0.0
 47
0.0
 47
0.0
 47
0.0
 47
1.0
 47
0.0
 47
0.0
 47
0.0
 47
0.0
 47
1.0
171
     0
 49
0.0208333333333333
 49
0.0
 49
0.0
 49
0.0
 49
0.0
 49
0.0208333333333333
 49
0.0
 49
0.0
 49
0.0
 49
0.0
 49
1.0
 49
0.0
 49
0.0
 49
0.0
 49
0.0
 49
1.0
175
     0
142
0.0208333333333333
142
0.0
142
0.0
142
0.0
142
0.0
142
0.0208333333333333
142
0.0
142
0.0
142
0.0
142
0.0
142
1.0
142
0.0
142
0.0
142
0.0
142
0.0
142
1.0
179
     0
144
0.0208333333333333
144
0.0
144
0.0
144
0.0
144
0.0
144
0.0208333333333333
144
0.0
144
0.0
144
0.0
144
0.0
144
1.0
144
0.0
144
0.0
144
0.0
144
0.0
144
1.0
147
0.0208333333333333
147
0.0
147
0.0
147
0.0
147
0.0
147
0.0208333333333333
147
0.0
147
0.0
147
0.0
147
0.0
147
1.0
147
0.0
147
0.0
147
0.0
147
0.0
147
1.0
  0
MATERIAL
  5
72F1
102
{ACAD_XDICTIONARY
360
72F2
102
}
102
{ACAD_REACTORS
330
709B
102
}
330
709B
100
AcDbMaterial
  1
ByLayer
 72
     0
 43
0.0208333333333333
 43
0.0
 43
0.0
 43
0.0
 43
0.0
 43
0.0208333333333333
 43
0.0
 43
0.0
 43
0.0
 43
0.0
 43
1.0
 43
0.0
 43
0.0
 43
0.0
 43
0.0
 43
1.0
 77
     0
 47
0.0208333333333333
 47
0.0
 47
0.0
 47
0.0
 47
0.0
 47
0.0208333333333333
 47
0.0
 47
0.0
 47
0.0
 47
0.0
 47
1.0
 47
0.0
 47
0.0
 47
0.0
 47
0.0
 47
1.0
171
     0
 49
0.0208333333333333
 49
0.0
 49
0.0
 49
0.0
 49
0.0
 49
0.0208333333333333
 49
0.0
 49
0.0
 49
0.0
 49
0.0
 49
1.0
 49
0.0
 49
0.0
 49
0.0
 49
0.0
 49
1.0
175
     0
142
0.0208333333333333
142
0.0
142
0.0
142
0.0
142
0.0
142
0.0208333333333333
142
0.0
142
0.0
142
0.0
142
0.0
142
1.0
142
0.0
142
0.0
142
0.0
142
0.0
142
1.0
179
     0
144
0.0208333333333333
144
0.0
144
0.0
144
0.0
144
0.0
144
0.0208333333333333
144
0.0
144
0.0
144
0.0
144
0.0
144
1.0
144
0.0
144
0.0
144
0.0
144
0.0
144
1.0
147
0.0208333333333333
147
0.0
147
0.0
147
0.0
147
0.0
147
0.0208333333333333
147
0.0
147
0.0
147
0.0
147
0.0
147
1.0
147
0.0
147
0.0
147
0.0
147
0.0
147
1.0
  0
MATERIAL
  5
7301
102
{ACAD_XDICTIONARY
360
7302
102
}
102
{ACAD_REACTORS
330
709B
102
}
330
709B
100
AcDbMaterial
  1
Global
 72
     0
 43
0.0208333333333333
 43
0.0
 43
0.0
 43
0.0
 43
0.0
 43
0.0208333333333333
 43
0.0
 43
0.0
 43
0.0
 43
0.0
 43
1.0
 43
0.0
 43
0.0
 43
0.0
 43
0.0
 43
1.0
 77
     0
 47
0.0208333333333333
 47
0.0
 47
0.0
 47
0.0
 47
0.0
 47
0.0208333333333333
 47
0.0
 47
0.0
 47
0.0
 47
0.0
 47
1.0
 47
0.0
 47
0.0
 47
0.0
 47
0.0
 47
1.0
171
     0
 49
0.0208333333333333
 49
0.0
 49
0.0
 49
0.0
 49
0.0
 49
0.0208333333333333
 49
0.0
 49
0.0
 49
0.0
 49
0.0
 49
1.0
 49
0.0
 49
0.0
 49
0.0
 49
0.0
 49
1.0
175
     0
142
0.0208333333333333
142
0.0
142
0.0
142
0.0
142
0.0
142
0.0208333333333333
142
0.0
142
0.0
142
0.0
142
0.0
142
1.0
142
0.0
142
0.0
142
0.0
142
0.0
142
1.0
179
     0
144
0.0208333333333333
144
0.0
144
0.0
144
0.0
144
0.0
144
0.0208333333333333
144
0.0
144
0.0
144
0.0
144
0.0
144
1.0
144
0.0
144
0.0
144
0.0
144
0.0
144
1.0
147
0.0208333333333333
147
0.0
147
0.0
147
0.0
147
0.0
147
0.0208333333333333
147
0.0
147
0.0
147
0.0
147
0.0
147
1.0
147
0.0
147
0.0
147
0.0
147
0.0
147
1.0
  0
MLEADERSTYLE
  5
7337
102
{ACAD_XDICTIONARY
360
738A
102
}
102
{ACAD_REACTORS
330
7336
102
}
330
7336
100
AcDbMLeaderStyle
179
     2
170
     2
171
     1
172
     0
 90
        2
 40
0.0
 41
0.0
173
     1
 91
-1056964608
340
12
 92
       -2
290
     1
 42
2.0
291
     1
 43
0.36
  3
Standard
 44
4.0
300

342
F
174
     1
178
     6
175
     1
176
     0
 93
-1056964608
 45
4.0
292
     0
297
     0
 46
4.0
 94
-1056964608
 47
1.0
 49
1.0
140
1.0
293
     1
141
0.0
294
     1
177
     0
142
1.0
295
     0
296
     0
143
0.125
271
     0
272
     9
273
     9
  0
MLINESTYLE
  5
1C
102
{ACAD_REACTORS
330
1B
102
}
330
1B
100
AcDbMlineStyle
  2
STANDARD
 70
     0
  3

 62
   256
 51
90.0
 52
90.0
 71
     2
 49
0.5
 62
   256
  6
BYLAYER
 49
-0.5
 62
   256
  6
BYLAYER
  0
ACDBPLACEHOLDER
  5
709A
102
{ACAD_REACTORS
330
7099
102
}
330
7099
  0
SCALE
  5
7325
102
{ACAD_REACTORS
330
7324
102
}
330
7324
100
AcDbScale
 70
     0
300
1:1
140
1.0
141
1.0
290
     1
  0
SCALE
  5
7326
102
{ACAD_REACTORS
330
7324
102
}
330
7324
100
AcDbScale
 70
     0
300
1:2
140
1.0
141
2.0
290
     0
  0
SCALE
  5
7327
102
{ACAD_REACTORS
330
7324
102
}
330
7324
100
AcDbScale
 70
     0
300
1:4
140
1.0
141
4.0
290
     0
  0
SCALE
  5
7328
102
{ACAD_REACTORS
330
7324
102
}
330
7324
100
AcDbScale
 70
     0
300
1:5
140
1.0
141
5.0
290
     0
  0
SCALE
  5
7329
102
{ACAD_REACTORS
330
7324
102
}
330
7324
100
AcDbScale
 70
     0
300
1:8
140
1.0
141
8.0
290
     0
  0
SCALE
  5
732A
102
{ACAD_REACTORS
330
7324
102
}
330
7324
100
AcDbScale
 70
     0
300
1:10
140
1.0
141
10.0
290
     0
  0
SCALE
  5
732B
102
{ACAD_REACTORS
330
7324
102
}
330
7324
100
AcDbScale
 70
     0
300
1:16
140
1.0
141
16.0
290
     0
  0
SCALE
  5
732C
102
{ACAD_REACTORS
330
7324
102
}
330
7324
100
AcDbScale
 70
     0
300
1:20
140
1.0
141
20.0
290
     0
  0
SCALE
  5
732D
102
{ACAD_REACTORS
330
7324
102
}
330
7324
100
AcDbScale
 70
     0
300
1:30
140
1.0
141
30.0
290
     0
  0
SCALE
  5
732E
102
{ACAD_REACTORS
330
7324
102
}
330
7324
100
AcDbScale
 70
     0
300
1:40
140
1.0
141
40.0
290
     0
  0
SCALE
  5
732F
102
{ACAD_REACTORS
330
7324
102
}
330
7324
100
AcDbScale
 70
     0
300
1:50
140
1.0
141
50.0
290
     0
  0
SCALE
  5
7330
102
{ACAD_REACTORS
330
7324
102
}
330
7324
100
AcDbScale
 70
     0
300
1:100
140
1.0
141
100.0
290
     0
  0
SCALE
  5
7331
102
{ACAD_REACTORS
330
7324
102
}
330
7324
100
AcDbScale
 70
     0
300
2:1
140
2.0
141
1.0
290
     0
  0
SCALE
  5
7332
102
{ACAD_REACTORS
330
7324
102
}
330
7324
100
AcDbScale
 70
     0
300
4:1
140
4.0
141
1.0
290
     0
  0
SCALE
  5
7333
102
{ACAD_REACTORS
330
7324
102
}
330
7324
100
AcDbScale
 70
     0
300
8:1
140
8.0
141
1.0
290
     0
  0
SCALE
  5
7334
102
{ACAD_REACTORS
330
7324
102
}
330
7324
100
AcDbScale
 70
     0
300
10:1
140
10.0
141
1.0
290
     0
  0
SCALE
  5
7335
102
{ACAD_REACTORS
330
7324
102
}
330
7324
100
AcDbScale
 70
     0
300
100:1
140
100.0
141
1.0
290
     0
  0
TABLESTYLE
  5
7323
102
{ACAD_XDICTIONARY
360
7388
102
}
102
{ACAD_REACTORS
330
7322
102
}
330
7322
100
AcDbTableStyle
280
     0
  3
Standard
 70
     0
 71
     0
 40
1.5
 41
1.5
280
     0
281
     0
  7
STANDARD
140
4.5
170
     2
 62
     0
 63
     7
283
     0
 90
      512
 91
        0
  1

274
    -2
284
     1
 64
     0
275
    -2
285
     1
 65
     0
276
    -2
286
     1
 66
     0
277
    -2
287
     1
 67
     0
278
    -2
288
     1
 68
     0
279
    -2
289
     1
 69
     0
  7
STANDARD
140
6.0
170
     5
 62
     0
 63
     7
283
     0
 90
      512
 91
        0
  1

274
    -2
284
     1
 64
     0
275
    -2
285
     1
 65
     0
276
    -2
286
     1
 66
     0
277
    -2
287
     1
 67
     0
278
    -2
288
     1
 68
     0
279
    -2
289
     1
 69
     0
  7
STANDARD
140
4.5
170
     5
 62
     0
 63
     7
283
     0
 90
      512
 91
        0
  1

274
    -2
284
     1
 64
     0
275
    -2
285
     1
 65
     0
276
    -2
286
     1
 66
     0
277
    -2
287
     1
 67
     0
278
    -2
288
     1
 68
     0
279
    -2
289
     1
 69
     0
  0
VISUALSTYLE
  5
730F
102
{ACAD_REACTORS
330
7309
102
}
330
7309
100
AcDbVisualStyle
  2
2dWireframe
 70
     4
177
     2
291
     0
 71
     0
176
     1
 72
     2
176
     1
 73
     0
176
     1
 90
        0
176
     1
 40
0.6
176
     1
 41
30.0
176
     1
 63
     7
421
 16777215
176
     1
 74
     1
176
     1
 91
        4
176
     1
 64
     7
176
     1
 65
   257
176
     1
 75
     1
176
     1
175
     1
176
     1
 42
1.0
176
     1
 92
        0
176
     1
 66
   257
176
     1
 43
1.0
176
     1
 76
     1
176
     1
 77
     6
176
     1
 78
     2
176
     1
 67
     7
176
     1
 79
     5
176
     1
170
     0
176
     1
171
     0
176
     1
290
     0
176
     1
 93
        1
176
     1
 44
0.0
176
     1
173
     0
176
     1
  0
VISUALSTYLE
  5
730E
102
{ACAD_REACTORS
330
7309
102
}
330
7309
100
AcDbVisualStyle
  2
Basic
 70
     7
177
     2
291
     1
 71
     1
176
     1
 72
     0
176
     1
 73
     1
176
     1
 90
        0
176
     1
 40
0.6
176
     1
 41
30.0
176
     1
 63
     7
421
 16777215
176
     1
 74
     0
176
     1
 91
        4
176
     1
 64
     7
176
     1
 65
   257
176
     1
 75
     1
176
     1
175
     1
176
     1
 42
1.0
176
     1
 92
        8
176
     1
 66
     7
176
     1
 43
1.0
176
     1
 76
     1
176
     1
 77
     6
176
     1
 78
     2
176
     1
 67
     7
176
     1
 79
     5
176
     1
170
     0
176
     1
171
     0
176
     1
290
     0
176
     1
 93
        1
176
     1
 44
0.0
176
     1
173
     0
176
     1
  0
VISUALSTYLE
  5
7315
102
{ACAD_REACTORS
330
7309
102
}
330
7309
100
AcDbVisualStyle
  2
Brighten
 70
    12
177
     2
291
     1
 71
     2
176
     1
 72
     2
176
     1
 73
     0
176
     1
 90
        0
176
     1
 40
0.6
176
     1
 41
30.0
176
     1
 63
     7
421
 16777215
176
     1
 74
     1
176
     1
 91
        4
176
     1
 64
     7
176
     1
 65
   257
176
     1
 75
     1
176
     1
175
     1
176
     1
 42
1.0
176
     1
 92
        8
176
     1
 66
     7
176
     1
 43
1.0
176
     1
 76
     1
176
     1
 77
     6
176
     1
 78
     2
176
     1
 67
     7
176
     1
 79
     5
176
     1
170
     0
176
     1
171
     0
176
     1
290
     0
176
     1
 93
        1
176
     1
 44
50.0
176
     1
173
     0
176
     1
  0
VISUALSTYLE
  5
7319
102
{ACAD_REACTORS
330
7309
102
}
330
7309
100
AcDbVisualStyle
  2
ColorChange
 70
    16
177
     2
291
     1
 71
     2
176
     1
 72
     2
176
     1
 73
     3
176
     1
 90
        0
176
     1
 40
0.6
176
     1
 41
30.0
176
     1
 63
     8
421
  8421504
176
     1
 74
     1
176
     1
 91
        4
176
     1
 64
     7
176
     1
 65
   257
176
     1
 75
     1
176
     1
175
     1
176
     1
 42
1.0
176
     1
 92
        8
176
     1
 66
     8
424
  8421504
176
     1
 43
1.0
176
     1
 76
     1
176
     1
 77
     6
176
     1
 78
     2
176
     1
 67
     7
176
     1
 79
     5
176
     1
170
     0
176
     1
171
     0
176
     1
290
     0
176
     1
 93
        1
176
     1
 44
0.0
176
     1
173
     0
176
     1
  0
VISUALSTYLE
  5
7312
102
{ACAD_REACTORS
330
7309
102
}
330
7309
100
AcDbVisualStyle
  2
Conceptual
 70
     9
177
     2
291
     0
 71
     3
176
     1
 72
     2
176
     1
 73
     0
176
     1
 90
        0
176
     1
 40
0.6
176
     1
 41
30.0
176
     1
 63
     7
421
 16777215
176
     1
 74
     2
176
     1
 91
        2
176
     1
 64
     7
176
     1
 65
   257
176
     1
 75
     1
176
     1
175
     1
176
     1
 42
179.0
176
     1
 92
        8
176
     1
 66
     7
176
     1
 43
1.0
176
     1
 76
     1
176
     1
 77
     6
176
     1
 78
     2
176
     1
 67
     7
176
     1
 79
     3
176
     1
170
     0
176
     1
171
     0
176
     1
290
     0
176
     1
 93
        1
176
     1
 44
0.0
176
     1
173
     0
176
     1
  0
VISUALSTYLE
  5
7314
102
{ACAD_REACTORS
330
7309
102
}
330
7309
100
AcDbVisualStyle
  2
Dim
 70
    11
177
     2
291
     1
 71
     2
176
     1
 72
     2
176
     1
 73
     0
176
     1
 90
        0
176
     1
 40
0.6
176
     1
 41
30.0
176
     1
 63
     7
421
 16777215
176
     1
 74
     1
176
     1
 91
        4
176
     1
 64
     7
176
     1
 65
   257
176
     1
 75
     1
176
     1
175
     1
176
     1
 42
1.0
176
     1
 92
        8
176
     1
 66
     7
176
     1
 43
1.0
176
     1
 76
     1
176
     1
 77
     6
176
     1
 78
     2
176
     1
 67
     7
176
     1
 79
     5
176
     1
170
     0
176
     1
171
     0
176
     1
290
     0
176
     1
 93
        1
176
     1
 44
-50.0
176
     1
173
     0
176
     1
  0
VISUALSTYLE
  5
7321
102
{ACAD_REACTORS
330
7309
102
}
330
7309
100
AcDbVisualStyle
  2
EdgeColorOff
 70
    22
177
     2
291
     1
 71
     2
176
     0
 72
     2
176
     0
 73
     0
176
     0
 90
        0
176
     0
 40
0.6
176
     0
 41
30.0
176
     0
 63
     7
421
 16777215
176
     0
 74
     1
176
     0
 91
        4
176
     0
 64
     7
176
     0
 65
   257
176
     0
 75
     1
176
     0
175
     1
176
     0
 42
1.0
176
     0
 92
        8
176
     2
 66
     7
176
     0
 43
1.0
176
     0
 76
     1
176
     0
 77
     6
176
     0
 78
     2
176
     0
 67
     7
176
     0
 79
     5
176
     0
170
     0
176
     0
171
     0
176
     0
290
     0
176
     0
 93
        1
176
     0
 44
0.0
176
     0
173
     0
176
     0
  0
VISUALSTYLE
  5
7318
102
{ACAD_REACTORS
330
7309
102
}
330
7309
100
AcDbVisualStyle
  2
Facepattern
 70
    15
177
     2
291
     1
 71
     2
176
     1
 72
     2
176
     1
 73
     0
176
     1
 90
        0
176
     1
 40
0.6
176
     1
 41
30.0
176
     1
 63
     7
421
 16777215
176
     1
 74
     1
176
     1
 91
        4
176
     1
 64
     7
176
     1
 65
   257
176
     1
 75
     1
176
     1
175
     1
176
     1
 42
1.0
176
     1
 92
        8
176
     1
 66
     7
176
     1
 43
1.0
176
     1
 76
     1
176
     1
 77
     6
176
     1
 78
     2
176
     1
 67
     7
176
     1
 79
     5
176
     1
170
     0
176
     1
171
     0
176
     1
290
     0
176
     1
 93
        1
176
     1
 44
0.0
176
     1
173
     0
176
     1
  0
VISUALSTYLE
  5
730A
102
{ACAD_REACTORS
330
7309
102
}
330
7309
100
AcDbVisualStyle
  2
Flat
 70
     0
177
     2
291
     1
 71
     2
176
     1
 72
     1
176
     1
 73
     1
176
     1
 90
        2
176
     1
 40
0.6
176
     1
 41
30.0
176
     1
 63
     7
421
 16777215
176
     1
 74
     0
176
     1
 91
        0
176
     1
 64
     7
176
     1
 65
   257
176
     1
 75
     1
176
     1
175
     1
176
     1
 42
1.0
176
     1
 92
        8
176
     1
 66
     7
176
     1
 43
1.0
176
     1
 76
     1
176
     1
 77
     6
176
     1
 78
     2
176
     1
 67
     7
176
     1
 79
     5
176
     1
170
     0
176
     1
171
     0
176
     1
290
     0
176
     1
 93
       13
176
     1
 44
0.0
176
     1
173
     0
176
     1
  0
VISUALSTYLE
  5
730B
102
{ACAD_REACTORS
330
7309
102
}
330
7309
100
AcDbVisualStyle
  2
FlatWithEdges
 70
     1
177
     2
291
     1
 71
     2
176
     1
 72
     1
176
     1
 73
     1
176
     1
 90
        2
176
     1
 40
0.6
176
     1
 41
30.0
176
     1
 63
     7
421
 16777215
176
     1
 74
     1
176
     1
 91
        0
176
     1
 64
     7
176
     1
 65
   257
176
     1
 75
     1
176
     1
175
     1
176
     1
 42
1.0
176
     1
 92
        0
176
     1
 66
   257
176
     1
 43
1.0
176
     1
 76
     1
176
     1
 77
     6
176
     1
 78
     2
176
     1
 67
     7
176
     1
 79
     5
176
     1
170
     0
176
     1
171
     0
176
     1
290
     0
176
     1
 93
       13
176
     1
 44
0.0
176
     1
173
     0
176
     1
  0
VISUALSTYLE
  5
730C
102
{ACAD_REACTORS
330
7309
102
}
330
7309
100
AcDbVisualStyle
  2
Gouraud
 70
     2
177
     2
291
     1
 71
     2
176
     1
 72
     2
176
     1
 73
     1
176
     1
 90
        2
176
     1
 40
0.6
176
     1
 41
30.0
176
     1
 63
     7
421
 16777215
176
     1
 74
     0
176
     1
 91
        0
176
     1
 64
     7
176
     1
 65
   257
176
     1
 75
     1
176
     1
175
     1
176
     1
 42
1.0
176
     1
 92
        0
176
     1
 66
     7
176
     1
 43
1.0
176
     1
 76
     1
176
     1
 77
     6
176
     1
 78
     2
176
     1
 67
     7
176
     1
 79
     5
176
     1
170
     0
176
     1
171
     0
176
     1
290
     0
176
     1
 93
       13
176
     1
 44
0.0
176
     1
173
     0
176
     1
  0
VISUALSTYLE
  5
730D
102
{ACAD_REACTORS
330
7309
102
}
330
7309
100
AcDbVisualStyle
  2
GouraudWithEdges
 70
     3
177
     2
291
     1
 71
     2
176
     1
 72
     2
176
     1
 73
     1
176
     1
 90
        2
176
     1
 40
0.6
176
     1
 41
30.0
176
     1
 63
     7
421
 16777215
176
     1
 74
     1
176
     1
 91
        0
176
     1
 64
     7
176
     1
 65
   257
176
     1
 75
     1
176
     1
175
     1
176
     1
 42
1.0
176
     1
 92
        0
176
     1
 66
   257
176
     1
 43
1.0
176
     1
 76
     1
176
     1
 77
     6
176
     1
 78
     2
176
     1
 67
     7
176
     1
 79
     5
176
     1
170
     0
176
     1
171
     0
176
     1
290
     0
176
     1
 93
       13
176
     1
 44
0.0
176
     1
173
     0
176
     1
  0
VISUALSTYLE
  5
7311
102
{ACAD_REACTORS
330
7309
102
}
330
7309
100
AcDbVisualStyle
  2
Hidden
 70
     6
177
     2
291
     0
 71
     1
176
     1
 72
     2
176
     1
 73
     2
176
     1
 90
        0
176
     1
 40
0.6
176
     1
 41
30.0
176
     1
 63
     7
421
 16777215
176
     1
 74
     2
176
     1
 91
        2
176
     1
 64
     7
176
     1
 65
   257
176
     1
 75
     2
176
     1
175
     1
176
     1
 42
40.0
176
     1
 92
        0
176
     1
 66
   257
176
     1
 43
1.0
176
     1
 76
     1
176
     1
 77
     6
176
     1
 78
     2
176
     1
 67
     7
176
     1
 79
     3
176
     1
170
     0
176
     1
171
     0
176
     1
290
     0
176
     1
 93
        1
176
     1
 44
0.0
176
     1
173
     0
176
     1
  0
VISUALSTYLE
  5
731F
102
{ACAD_REACTORS
330
7309
102
}
330
7309
100
AcDbVisualStyle
  2
JitterOff
 70
    20
177
     2
291
     1
 71
     2
176
     0
 72
     2
176
     0
 73
     0
176
     0
 90
        0
176
     0
 40
0.6
176
     0
 41
30.0
176
     0
 63
     7
421
 16777215
176
     0
 74
     1
176
     0
 91
        4
176
     0
 64
     7
176
     0
 65
   257
176
     0
 75
     1
176
     0
175
     1
176
     0
 42
1.0
176
     0
 92
       10
176
     2
 66
     7
176
     0
 43
1.0
176
     0
 76
     1
176
     0
 77
     6
176
     0
 78
     2
176
     0
 67
     7
176
     0
 79
     5
176
     0
170
     0
176
     0
171
     0
176
     0
290
     0
176
     0
 93
        1
176
     0
 44
0.0
176
     0
173
     0
176
     0
  0
VISUALSTYLE
  5
7317
102
{ACAD_REACTORS
330
7309
102
}
330
7309
100
AcDbVisualStyle
  2
Linepattern
 70
    14
177
     2
291
     1
 71
     2
176
     1
 72
     2
176
     1
 73
     0
176
     1
 90
        0
176
     1
 40
0.6
176
     1
 41
30.0
176
     1
 63
     7
421
 16777215
176
     1
 74
     1
176
     1
 91
        4
176
     1
 64
     7
176
     1
 65
   257
176
     1
 75
     7
176
     1
175
     7
176
     1
 42
1.0
176
     1
 92
        8
176
     1
 66
     7
176
     1
 43
1.0
176
     1
 76
     1
176
     1
 77
     6
176
     1
 78
     2
176
     1
 67
     7
176
     1
 79
     5
176
     1
170
     0
176
     1
171
     0
176
     1
290
     0
176
     1
 93
        1
176
     1
 44
0.0
176
     1
173
     0
176
     1
  0
VISUALSTYLE
  5
7320
102
{ACAD_REACTORS
330
7309
102
}
330
7309
100
AcDbVisualStyle
  2
OverhangOff
 70
    21
177
     2
291
     1
 71
     2
176
     0
 72
     2
176
     0
 73
     0
176
     0
 90
        0
176
     0
 40
0.6
176
     0
 41
30.0
176
     0
 63
     7
421
 16777215
176
     0
 74
     1
176
     0
 91
        4
176
     0
 64
     7
176
     0
 65
   257
176
     0
 75
     1
176
     0
175
     1
176
     0
 42
1.0
176
     0
 92
        9
176
     2
 66
     7
176
     0
 43
1.0
176
     0
 76
     1
176
     0
 77
     6
176
     0
 78
     2
176
     0
 67
     7
176
     0
 79
     5
176
     0
170
     0
176
     0
171
     0
176
     0
290
     0
176
     0
 93
        1
176
     0
 44
0.0
176
     0
173
     0
176
     0
  0
VISUALSTYLE
  5
7313
102
{ACAD_REACTORS
330
7309
102
}
330
7309
100
AcDbVisualStyle
  2
Realistic
 70
     8
177
     2
291
     0
 71
     2
176
     1
 72
     3
176
     1
 73
     0
176
     1
 90
        2
176
     1
 40
0.6
176
     1
 41
30.0
176
     1
 63
     7
421
 16777215
176
     1
 74
     0
176
     1
 91
        0
176
     1
 64
     7
176
     1
 65
   257
176
     1
 75
     1
176
     1
175
     1
176
     1
 42
1.0
176
     1
 92
        8
176
     1
 66
   257
176
     1
 43
1.0
176
     1
 76
     1
176
     1
 77
     6
176
     1
 78
     2
176
     1
 67
     7
176
     1
 79
     3
176
     1
170
     0
176
     1
171
     0
176
     1
290
     0
176
     1
 93
       13
176
     1
 44
0.0
176
     1
173
     0
176
     1
  0
VISUALSTYLE
  5
731E
102
{ACAD_REACTORS
330
7309
102
}
330
7309
100
AcDbVisualStyle
  2
Shaded
 70
    27
177
     2
291
     0
 71
     2
176
     1
 72
     2
176
     1
 73
     1
176
     1
 90
        2
176
     1
 40
0.6
176
     1
 41
30.0
176
     1
 63
     7
421
 16777215
176
     1
 74
     0
176
     1
 91
        4
176
     1
 64
     7
176
     1
 65
   257
176
     1
 75
     1
176
     1
175
     1
176
     1
 42
1.0
176
     1
 92
        8
176
     1
 66
   257
176
     1
 43
1.0
176
     1
 76
     1
176
     1
 77
     6
176
     1
 78
     2
176
     1
 67
     8
425
  7895160
176
     1
 79
     3
176
     1
170
     0
176
     1
171
     0
176
     1
290
     0
176
     1
 93
        5
176
     1
 44
0.0
176
     1
173
     0
176
     1
  0
VISUALSTYLE
  5
731D
102
{ACAD_REACTORS
330
7309
102
}
330
7309
100
AcDbVisualStyle
  2
Shaded with edges
 70
    26
177
     2
291
     0
 71
     2
176
     1
 72
     2
176
     1
 73
     1
176
     1
 90
        2
176
     1
 40
0.6
176
     1
 41
30.0
176
     1
 63
     7
421
 16777215
176
     1
 74
     1
176
     1
 91
       10
176
     1
 64
     7
176
     1
 65
   257
176
     1
 75
     2
176
     1
175
     1
176
     1
 42
1.0
176
     1
 92
        8
176
     1
 66
   257
176
     1
 43
1.0
176
     1
 76
     1
176
     1
 77
     6
176
     1
 78
     2
176
     1
 67
     7
176
     1
 79
     3
176
     1
170
     0
176
     1
171
     0
176
     1
290
     0
176
     1
 93
        5
176
     1
 44
0.0
176
     1
173
     0
176
     1
  0
VISUALSTYLE
  5
731A
102
{ACAD_REACTORS
330
7309
102
}
330
7309
100
AcDbVisualStyle
  2
Shades of Gray
 70
    23
177
     2
291
     0
 71
     2
176
     1
 72
     2
176
     1
 73
     3
176
     1
 90
        0
176
     1
 40
0.6
176
     1
 41
30.0
176
     1
 63
     7
421
 16777215
176
     1
 74
     2
176
     1
 91
        2
176
     1
 64
     7
176
     1
 65
     7
176
     1
 75
     1
176
     1
175
     1
176
     1
 42
40.0
176
     1
 92
        8
176
     1
 66
     7
176
     1
 43
1.0
176
     1
 76
     1
176
     1
 77
     6
176
     1
 78
     2
176
     1
 67
     7
176
     1
 79
     3
176
     1
170
     0
176
     1
171
     0
176
     1
290
     0
176
     1
 93
        1
176
     1
 44
0.0
176
     1
173
     0
176
     1
  0
VISUALSTYLE
  5
731B
102
{ACAD_REACTORS
330
7309
102
}
330
7309
100
AcDbVisualStyle
  2
Sketchy
 70
    24
177
     2
291
     0
 71
     1
176
     1
 72
     2
176
     1
 73
     2
176
     1
 90
        0
176
     1
 40
0.6
176
     1
 41
30.0
176
     1
 63
     7
421
 16777215
176
     1
 74
     2
176
     1
 91
        2
176
     1
 64
     7
176
     1
 65
     7
176
     1
 75
     1
176
     1
175
     1
176
     1
 42
40.0
176
     1
 92
       11
176
     1
 66
     7
176
     1
 43
1.0
176
     1
 76
     1
176
     1
 77
     6
176
     1
 78
     2
176
     1
 67
     7
176
     1
 79
     6
176
     1
170
     0
176
     1
171
     0
176
     1
290
     0
176
     1
 93
        1
176
     1
 44
0.0
176
     1
173
     0
176
     1
  0
VISUALSTYLE
  5
7316
102
{ACAD_REACTORS
330
7309
102
}
330
7309
100
AcDbVisualStyle
  2
Thicken
 70
    13
177
     2
291
     1
 71
     2
176
     1
 72
     2
176
     1
 73
     0
176
     1
 90
        0
176
     1
 40
0.6
176
     1
 41
30.0
176
     1
 63
     7
421
 16777215
176
     1
 74
     1
176
     1
 91
        4
176
     1
 64
     7
176
     1
 65
   257
176
     1
 75
     1
176
     1
175
     1
176
     1
 42
1.0
176
     1
 92
       12
176
     1
 66
     7
176
     1
 43
1.0
176
     1
 76
     1
176
     1
 77
     6
176
     1
 78
     2
176
     1
 67
     7
176
     1
 79
     5
176
     1
170
     0
176
     1
171
     0
176
     1
290
     0
176
     1
 93
        1
176
     1
 44
0.0
176
     1
173
     0
176
     1
  0
VISUALSTYLE
  5
7310
102
{ACAD_REACTORS
330
7309
102
}
330
7309
100
AcDbVisualStyle
  2
Wireframe
 70
     5
177
     2
291
     0
 71
     0
176
     1
 72
     2
176
     1
 73
     0
176
     1
 90
        0
176
     1
 40
0.6
176
     1
 41
30.0
176
     1
 63
     7
421
 16777215
176
     1
 74
     1
176
     1
 91
        4
176
     1
 64
     7
176
     1
 65
   257
176
     1
 75
     1
176
     1
175
     1
176
     1
 42
1.0
176
     1
 92
        0
176
     1
 66
   257
176
     1
 43
1.0
176
     1
 76
     1
176
     1
 77
     6
176
     1
 78
     2
176
     1
 67
     7
176
     1
 79
     3
176
     1
170
     0
176
     1
171
     0
176
     1
290
     0
176
     1
 93
        1
176
     1
 44
0.0
176
     1
173
     0
176
     1
  0
VISUALSTYLE
  5
731C
102
{ACAD_REACTORS
330
7309
102
}
330
7309
100
AcDbVisualStyle
  2
X-Ray
 70
    25
177
     2
291
     0
 71
     2
176
     1
 72
     2
176
     1
 73
     1
176
     1
 90
        1
176
     1
 40
0.5
176
     1
 41
30.0
176
     1
 63
     7
421
 16777215
176
     1
 74
     1
176
     1
 91
        0
176
     1
 64
     7
176
     1
 65
   257
176
     1
 75
     1
176
     1
175
     1
176
     1
 42
1.0
176
     1
 92
        8
176
     1
 66
     7
176
     1
 43
1.0
176
     1
 76
     1
176
     1
 77
     6
176
     1
 78
     2
176
     1
 67
     7
176
     1
 79
     3
176
     1
170
     0
176
     1
171
     0
176
     1
290
     0
176
     1
 93
       13
176
     1
 44
0.0
176
     1
173
     0
176
     1
  0
DICTIONARYVAR
  5
7384
102
{ACAD_REACTORS
330
34D4
102
}
330
34D4
100
DictionaryVariables
280
     0
  1
1:1
  0
DICTIONARYVAR
  5
7382
102
{ACAD_REACTORS
330
34D4
102
}
330
34D4
100
DictionaryVariables
280
     0
  1
STANDARD
  0
DICTIONARYVAR
  5
7381
102
{ACAD_REACTORS
330
34D4
102
}
330
34D4
100
DictionaryVariables
280
     0
  1
STANDARD
  0
DICTIONARYVAR
  5
7386
102
{ACAD_REACTORS
330
34D4
102
}
330
34D4
100
DictionaryVariables
280
     0
  1
1
  0
DICTIONARYVAR
  5
7387
102
{ACAD_REACTORS
330
34D4
102
}
330
34D4
100
DictionaryVariables
280
     0
  1
15
  0
DICTIONARYVAR
  5
7385
102
{ACAD_REACTORS
330
34D4
102
}
330
34D4
100
DictionaryVariables
280
     0
  1
0
  0
DICTIONARYVAR
  5
7383
102
{ACAD_REACTORS
330
34D4
102
}
330
34D4
100
DictionaryVariables
280
     0
  1
0
  0
DICTIONARYVAR
  5
34D5
102
{ACAD_REACTORS
330
34D4
102
}
330
34D4
100
DictionaryVariables
280
     0
  1
96
  0
DICTIONARY
  5
72FA
330
72F9
100
AcDbDictionary
280
     1
281
     1
  3
BUMPTILE
360
72FC
  3
DIFFUSETILE
360
72FB
  3
OPACITYTILE
360
72FF
  3
REFLECTIONTILE
360
72FE
  3
REFRACTIONTILE
360
7300
  3
SPECULARTILE
360
72FD
  0
DICTIONARY
  5
72F2
330
72F1
100
AcDbDictionary
280
     1
281
     1
  3
BUMPTILE
360
72F4
  3
DIFFUSETILE
360
72F3
  3
OPACITYTILE
360
72F7
  3
REFLECTIONTILE
360
72F6
  3
REFRACTIONTILE
360
72F8
  3
SPECULARTILE
360
72F5
  0
DICTIONARY
  5
7302
330
7301
100
AcDbDictionary
280
     1
281
     1
  3
BUMPTILE
360
7304
  3
DIFFUSETILE
360
7303
  3
OPACITYTILE
360
7307
  3
REFLECTIONTILE
360
7306
  3
REFRACTIONTILE
360
7308
  3
SPECULARTILE
360
7305
  0
DICTIONARY
  5
738A
330
7337
100
AcDbDictionary
280
     1
281
     1
  3
ACAD_XREC_ROUNDTRIP
360
738B
  0
DICTIONARY
  5
7388
330
7323
100
AcDbDictionary
280
     1
281
     1
  3
ACAD_ROUNDTRIP_2008_TABLESTYLE_CELLSTYLEMAP
360
7389
  0
XRECORD
  5
72FC
102
{ACAD_REACTORS
330
72FA
102
}
330
72FA
100
AcDbXrecord
280
     1
270
     1
271
     1
  0
XRECORD
  5
72FB
102
{ACAD_REACTORS
330
72FA
102
}
330
72FA
100
AcDbXrecord
280
     1
270
     1
271
     1
  0
XRECORD
  5
72FF
102
{ACAD_REACTORS
330
72FA
102
}
330
72FA
100
AcDbXrecord
280
     1
270
     1
271
     1
  0
XRECORD
  5
72FE
102
{ACAD_REACTORS
330
72FA
102
}
330
72FA
100
AcDbXrecord
280
     1
270
     1
271
     1
  0
XRECORD
  5
7300
102
{ACAD_REACTORS
330
72FA
102
}
330
72FA
100
AcDbXrecord
280
     1
270
     1
271
     1
  0
XRECORD
  5
72FD
102
{ACAD_REACTORS
330
72FA
102
}
330
72FA
100
AcDbXrecord
280
     1
270
     1
271
     1
  0
XRECORD
  5
72F4
102
{ACAD_REACTORS
330
72F2
102
}
330
72F2
100
AcDbXrecord
280
     1
270
     1
271
     1
  0
XRECORD
  5
72F3
102
{ACAD_REACTORS
330
72F2
102
}
330
72F2
100
AcDbXrecord
280
     1
270
     1
271
     1
  0
XRECORD
  5
72F7
102
{ACAD_REACTORS
330
72F2
102
}
330
72F2
100
AcDbXrecord
280
     1
270
     1
271
     1
  0
XRECORD
  5
72F6
102
{ACAD_REACTORS
330
72F2
102
}
330
72F2
100
AcDbXrecord
280
     1
270
     1
271
     1
  0
XRECORD
  5
72F8
102
{ACAD_REACTORS
330
72F2
102
}
330
72F2
100
AcDbXrecord
280
     1
270
     1
271
     1
  0
XRECORD
  5
72F5
102
{ACAD_REACTORS
330
72F2
102
}
330
72F2
100
AcDbXrecord
280
     1
270
     1
271
     1
  0
XRECORD
  5
7304
102
{ACAD_REACTORS
330
7302
102
}
330
7302
100
AcDbXrecord
280
     1
270
     1
271
     1
  0
XRECORD
  5
7303
102
{ACAD_REACTORS
330
7302
102
}
330
7302
100
AcDbXrecord
280
     1
270
     1
271
     1
  0
XRECORD
  5
7307
102
{ACAD_REACTORS
330
7302
102
}
330
7302
100
AcDbXrecord
280
     1
270
     1
271
     1
  0
XRECORD
  5
7306
102
{ACAD_REACTORS
330
7302
102
}
330
7302
100
AcDbXrecord
280
     1
270
     1
271
     1
  0
XRECORD
  5
7308
102
{ACAD_REACTORS
330
7302
102
}
330
7302
100
AcDbXrecord
280
     1
270
     1
271
     1
  0
XRECORD
  5
7305
102
{ACAD_REACTORS
330
7302
102
}
330
7302
100
AcDbXrecord
280
     1
270
     1
271
     1
  0
XRECORD
  5
738B
102
{ACAD_REACTORS
330
738A
102
}
330
738A
100
AcDbXrecord
280
     1
102
ACAD_ROUNDTRIP_2012_MLEADER_STYLE
298
     1
  0
CELLSTYLEMAP
  5
7389
102
{ACAD_REACTORS
330
7388
102
}
330
7388
100
AcDbCellStyleMap
 90
        3
300
CELLSTYLE
  1
TABLEFORMAT_BEGIN
 90
        5
170
     1
 91
        0
 92
    32768
 62
   257
 93
        1
300
CONTENTFORMAT
  1
CONTENTFORMAT_BEGIN
 90
        0
 91
        0
 92
      512
 93
        0
300

 40
0.0
140
1.0
 94
        5
 62
     0
340
F
144
6.0
309
CONTENTFORMAT_END
171
     1
301
MARGIN
  1
CELLMARGIN_BEGIN
 40
1.5
 40
1.5
 40
1.5
 40
1.5
 40
4.5
 40
4.5
309
CELLMARGIN_END
 94
        6
 95
        1
302
GRIDFORMAT
  1
GRIDFORMAT_BEGIN
 90
        0
 91
        1
 62
     0
 92
       -2
340
0
 93
        0
 40
1.125
309
GRIDFORMAT_END
 95
        2
302
GRIDFORMAT
  1
GRIDFORMAT_BEGIN
 90
        0
 91
        1
 62
     0
 92
       -2
340
0
 93
        0
 40
1.125
309
GRIDFORMAT_END
 95
        4
302
GRIDFORMAT
  1
GRIDFORMAT_BEGIN
 90
        0
 91
        1
 62
     0
 92
       -2
340
0
 93
        0
 40
1.125
309
GRIDFORMAT_END
 95
        8
302
GRIDFORMAT
  1
GRIDFORMAT_BEGIN
 90
        0
 91
        1
 62
     0
 92
       -2
340
0
 93
        0
 40
1.125
309
GRIDFORMAT_END
 95
       16
302
GRIDFORMAT
  1
GRIDFORMAT_BEGIN
 90
        0
 91
        1
 62
     0
 92
       -2
340
0
 93
        0
 40
1.125
309
GRIDFORMAT_END
 95
       32
302
GRIDFORMAT
  1
GRIDFORMAT_BEGIN
 90
        0
 91
        1
 62
     0
 92
       -2
340
0
 93
        0
 40
1.125
309
GRIDFORMAT_END
309
TABLEFORMAT_END
  1
CELLSTYLE_BEGIN
 90
        1
 91
        1
300
_TITLE
309
CELLSTYLE_END
300
CELLSTYLE
  1
TABLEFORMAT_BEGIN
 90
        5
170
     1
 91
        0
 92
        0
 62
   257
 93
        1
300
CONTENTFORMAT
  1
CONTENTFORMAT_BEGIN
 90
        0
 91
        0
 92
      512
 93
        0
300

 40
0.0
140
1.0
 94
        5
 62
     0
340
F
144
4.5
309
CONTENTFORMAT_END
171
     1
301
MARGIN
  1
CELLMARGIN_BEGIN
 40
1.5
 40
1.5
 40
1.5
 40
1.5
 40
4.5
 40
4.5
309
CELLMARGIN_END
 94
        6
 95
        1
302
GRIDFORMAT
  1
GRIDFORMAT_BEGIN
 90
        0
 91
        1
 62
     0
 92
       -2
340
0
 93
        0
 40
1.125
309
GRIDFORMAT_END
 95
        2
302
GRIDFORMAT
  1
GRIDFORMAT_BEGIN
 90
        0
 91
        1
 62
     0
 92
       -2
340
0
 93
        0
 40
1.125
309
GRIDFORMAT_END
 95
        4
302
GRIDFORMAT
  1
GRIDFORMAT_BEGIN
 90
        0
 91
        1
 62
     0
 92
       -2
340
0
 93
        0
 40
1.125
309
GRIDFORMAT_END
 95
        8
302
GRIDFORMAT
  1
GRIDFORMAT_BEGIN
 90
        0
 91
        1
 62
     0
 92
       -2
340
0
 93
        0
 40
1.125
309
GRIDFORMAT_END
 95
       16
302
GRIDFORMAT
  1
GRIDFORMAT_BEGIN
 90
        0
 91
        1
 62
     0
 92
       -2
340
0
 93
        0
 40
1.125
309
GRIDFORMAT_END
 95
       32
302
GRIDFORMAT
  1
GRIDFORMAT_BEGIN
 90
        0
 91
        1
 62
     0
 92
       -2
340
0
 93
        0
 40
1.125
309
GRIDFORMAT_END
309
TABLEFORMAT_END
  1
CELLSTYLE_BEGIN
 90
        2
 91
        1
300
_HEADER
309
CELLSTYLE_END
300
CELLSTYLE
  1
TABLEFORMAT_BEGIN
 90
        5
170
     1
 91
        0
 92
        0
 62
   257
 93
        1
300
CONTENTFORMAT
  1
CONTENTFORMAT_BEGIN
 90
        0
 91
        0
 92
      512
 93
        0
300

 40
0.0
140
1.0
 94
        2
 62
     0
340
F
144
4.5
309
CONTENTFORMAT_END
171
     1
301
MARGIN
  1
CELLMARGIN_BEGIN
 40
1.5
 40
1.5
 40
1.5
 40
1.5
 40
4.5
 40
4.5
309
CELLMARGIN_END
 94
        6
 95
        1
302
GRIDFORMAT
  1
GRIDFORMAT_BEGIN
 90
        0
 91
        1
 62
     0
 92
       -2
340
0
 93
        0
 40
1.125
309
GRIDFORMAT_END
 95
        2
302
GRIDFORMAT
  1
GRIDFORMAT_BEGIN
 90
        0
 91
        1
 62
     0
 92
       -2
340
0
 93
        0
 40
1.125
309
GRIDFORMAT_END
 95
        4
302
GRIDFORMAT
  1
GRIDFORMAT_BEGIN
 90
        0
 91
        1
 62
     0
 92
       -2
340
0
 93
        0
 40
1.125
309
GRIDFORMAT_END
 95
        8
302
GRIDFORMAT
  1
GRIDFORMAT_BEGIN
 90
        0
 91
        1
 62
     0
 92
       -2
340
0
 93
        0
 40
1.125
309
GRIDFORMAT_END
 95
       16
302
GRIDFORMAT
  1
GRIDFORMAT_BEGIN
 90
        0
 91
        1
 62
     0
 92
       -2
340
0
 93
        0
 40
1.125
309
GRIDFORMAT_END
 95
       32
302
GRIDFORMAT
  1
GRIDFORMAT_BEGIN
 90
        0
 91
        1
 62
     0
 92
       -2
340
0
 93
        0
 40
1.125
309
GRIDFORMAT_END
309
TABLEFORMAT_END
  1
CELLSTYLE_BEGIN
 90
        3
 91
        2
300
_DATA
309
CELLSTYLE_END
  0
ENDSEC
  0
EOF
