  0
SECTION
  2
HEADER
  9
$ACADVER
  1
AC1018
  9
$ACADMAINTVER
 70
     0
  9
$DWGCODEPAGE
  3
ANSI_1252
  9
$INSBASE
 10
0.0
 20
0.0
 30
0.0
  9
$EXTMIN
 10
23.05974500259619
 20
-13.671541195712
 30
0.0
  9
$EXTMAX
 10
172.6099496038296
 20
37.65133431865989
 30
0.0
  9
$LIMMIN
 10
0.0
 20
0.0
  9
$LIMMAX
 10
12.0
 20
9.0
  9
$ORTHOMODE
 70
     0
  9
$REGENMODE
 70
     1
  9
$FILLMODE
 70
     1
  9
$QTEXTMODE
 70
     0
  9
$MIRRTEXT
 70
     1
  9
$LTSCALE
 40
1.0
  9
$ATTMODE
 70
     1
  9
$TEXTSIZE
 40
0.2
  9
$TRACEWID
 40
0.05
  9
$TEXTSTYLE
  7
STANDARD
  9
$CLAYER
  8
0
  9
$CELTYPE
  6
BYLAYER
  9
$CECOLOR
 62
   256
  9
$CELTSCALE
 40
1.0
  9
$DISPSILH
 70
     0
  9
$DIMSCALE
 40
1.0
  9
$DIMASZ
 40
0.18
  9
$DIMEXO
 40
0.0625
  9
$DIMDLI
 40
0.38
  9
$DIMRND
 40
0.0
  9
$DIMDLE
 40
0.0
  9
$DIMEXE
 40
0.18
  9
$DIMTP
 40
0.0
  9
$DIMTM
 40
0.0
  9
$DIMTXT
 40
2.0
  9
$DIMCEN
 40
0.09
  9
$DIMTSZ
 40
0.0
  9
$DIMTOL
 70
     0
  9
$DIMLIM
 70
     0
  9
$DIMTIH
 70
     1
  9
$DIMTOH
 70
     1
  9
$DIMSE1
 70
     0
  9
$DIMSE2
 70
     0
  9
$DIMTAD
 70
     0
  9
$DIMZIN
 70
     0
  9
$DIMBLK
  1

  9
$DIMASO
 70
     1
  9
$DIMSHO
 70
     1
  9
$DIMPOST
  1

  9
$DIMAPOST
  1

  9
$DIMALT
 70
     0
  9
$DIMALTD
 70
     2
  9
$DIMALTF
 40
25.4
  9
$DIMLFAC
 40
1.0
  9
$DIMTOFL
 70
     0
  9
$DIMTVP
 40
0.0
  9
$DIMTIX
 70
     0
  9
$DIMSOXD
 70
     0
  9
$DIMSAH
 70
     0
  9
$DIMBLK1
  1

  9
$DIMBLK2
  1

  9
$DIMSTYLE
  2
STANDARD
  9
$DIMCLRD
 70
     0
  9
$DIMCLRE
 70
     0
  9
$DIMCLRT
 70
     0
  9
$DIMTFAC
 40
1.0
  9
$DIMGAP
 40
0.09
  9
$DIMJUST
 70
     0
  9
$DIMSD1
 70
     0
  9
$DIMSD2
 70
     0
  9
$DIMTOLJ
 70
     1
  9
$DIMTZIN
 70
     0
  9
$DIMALTZ
 70
     0
  9
$DIMALTTZ
 70
     0
  9
$DIMUPT
 70
     0
  9
$DIMDEC
 70
     4
  9
$DIMTDEC
 70
     4
  9
$DIMALTU
 70
     2
  9
$DIMALTTD
 70
     2
  9
$DIMTXSTY
  7
STANDARD
  9
$DIMAUNIT
 70
     0
  9
$DIMADEC
 70
     0
  9
$DIMALTRND
 40
0.0
  9
$DIMAZIN
 70
     0
  9
$DIMDSEP
 70
    46
  9
$DIMATFIT
 70
     3
  9
$DIMFRAC
 70
     0
  9
$DIMLDRBLK
  1

  9
$DIMLUNIT
 70
     2
  9
$DIMLWD
 70
    -2
  9
$DIMLWE
 70
    -2
  9
$DIMTMOVE
 70
     0
  9
$LUNITS
 70
     4
  9
$LUPREC
 70
     4
  9
$SKETCHINC
 40
0.1
  9
$FILLETRAD
 40
0.0312
  9
$AUNITS
 70
     0
  9
$AUPREC
 70
     0
  9
$MENU
  1
.
  9
$ELEVATION
 40
0.0
  9
$PELEVATION
 40
0.0
  9
$THICKNESS
 40
0.0
  9
$LIMCHECK
 70
     0
  9
$CHAMFERA
 40
0.5
  9
$CHAMFERB
 40
0.5
  9
$CHAMFERC
 40
1.0
  9
$CHAMFERD
 40
0.0
  9
$SKPOLY
 70
     0
  9
$TDCREATE
 40
2451160.360457639
  9
$TDUCREATE
 40
2451160.527124306
  9
$TDUPDATE
 40
2453488.694786678
  9
$TDUUPDATE
 40
2453488.861453345
  9
$TDINDWG
 40
0.5595149306
  9
$TDUSRTIMER
 40
0.5595149306
  9
$USRTIMER
 70
     1
  9
$ANGBASE
 50
0.0
  9
$ANGDIR
 70
     0
  9
$PDMODE
 70
     3
  9
$PDSIZE
 40
1.0
  9
$PLINEWID
 40
0.0
  9
$SPLFRAME
 70
     0
  9
$SPLINETYPE
 70
     6
  9
$SPLINESEGS
 70
     8
  9
$HANDSEED
  5
1024B
  9
$SURFTAB1
 70
     6
  9
$SURFTAB2
 70
     6
  9
$SURFTYPE
 70
     6
  9
$SURFU
 70
     6
  9
$SURFV
 70
     6
  9
$UCSBASE
  2

  9
$UCSNAME
  2

  9
$UCSORG
 10
0.0
 20
0.0
 30
0.0
  9
$UCSXDIR
 10
1.0
 20
0.0
 30
0.0
  9
$UCSYDIR
 10
0.0
 20
1.0
 30
0.0
  9
$UCSORTHOREF
  2

  9
$UCSORTHOVIEW
 70
     0
  9
$UCSORGTOP
 10
0.0
 20
0.0
 30
0.0
  9
$UCSORGBOTTOM
 10
0.0
 20
0.0
 30
0.0
  9
$UCSORGLEFT
 10
0.0
 20
0.0
 30
0.0
  9
$UCSORGRIGHT
 10
0.0
 20
0.0
 30
0.0
  9
$UCSORGFRONT
 10
0.0
 20
0.0
 30
0.0
  9
$UCSORGBACK
 10
0.0
 20
0.0
 30
0.0
  9
$PUCSBASE
  2

  9
$PUCSNAME
  2

  9
$PUCSORG
 10
0.0
 20
0.0
 30
0.0
  9
$PUCSXDIR
 10
1.0
 20
0.0
 30
0.0
  9
$PUCSYDIR
 10
0.0
 20
1.0
 30
0.0
  9
$PUCSORTHOREF
  2

  9
$PUCSORTHOVIEW
 70
     0
  9
$PUCSORGTOP
 10
0.0
 20
0.0
 30
0.0
  9
$PUCSORGBOTTOM
 10
0.0
 20
0.0
 30
0.0
  9
$PUCSORGLEFT
 10
0.0
 20
0.0
 30
0.0
  9
$PUCSORGRIGHT
 10
0.0
 20
0.0
 30
0.0
  9
$PUCSORGFRONT
 10
0.0
 20
0.0
 30
0.0
  9
$PUCSORGBACK
 10
0.0
 20
0.0
 30
0.0
  9
$USERI1
 70
     0
  9
$USERI2
 70
     0
  9
$USERI3
 70
     0
  9
$USERI4
 70
     0
  9
$USERI5
 70
     0
  9
$USERR1
 40
0.0
  9
$USERR2
 40
0.0
  9
$USERR3
 40
0.0
  9
$USERR4
 40
0.0
  9
$USERR5
 40
0.0
  9
$WORLDVIEW
 70
     1
  9
$SHADEDGE
 70
     3
  9
$SHADEDIF
 70
    70
  9
$TILEMODE
 70
     1
  9
$MAXACTVP
 70
    48
  9
$PINSBASE
 10
0.0
 20
0.0
 30
0.0
  9
$PLIMCHECK
 70
     0
  9
$PEXTMIN
 10
1.049636599258096
 20
0.7996597240971113
 30
-0.0000000349181948
  9
$PEXTMAX
 10
9.450362731076971
 20
7.200340082697458
 30
0.0000000814935746
  9
$PLIMMIN
 10
-0.2500002402958907
 20
-0.2499999962453767
  9
$PLIMMAX
 10
10.74999951940821
 20
8.249999763458731
  9
$UNITMODE
 70
     0
  9
$VISRETAIN
 70
     1
  9
$PLINEGEN
 70
     0
  9
$PSLTSCALE
 70
     1
  9
$TREEDEPTH
 70
  3020
  9
$CMLSTYLE
  2
STANDARD
  9
$CMLJUST
 70
     0
  9
$CMLSCALE
 40
1.0
  9
$PROXYGRAPHICS
 70
     1
  9
$MEASUREMENT
 70
     0
  9
$CELWEIGHT
370
    -1
  9
$ENDCAPS
280
     0
  9
$JOINSTYLE
280
     0
  9
$LWDISPLAY
290
     0
  9
$INSUNITS
 70
     0
  9
$HYPERLINKBASE
  1

  9
$STYLESHEET
  1

  9
$XEDIT
290
     1
  9
$CEPSNTYPE
380
     0
  9
$PSTYLEMODE
290
     1
  9
$FINGERPRINTGUID
  2
{C70DC58F-524A-432B-B3CE-3EEF53E9614C}
  9
$VERSIONGUID
  2
{4BCCD3E6-8427-44D8-8088-BF71EEE6F2AF}
  9
$EXTNAMES
290
     1
  9
$PSVPSCALE
 40
0.0
  9
$OLESTARTUP
290
     0
  9
$SORTENTS
280
   127
  9
$INDEXCTL
280
     0
  9
$HIDETEXT
280
     0
  9
$XCLIPFRAME
290
     0
  9
$HALOGAP
280
     0
  9
$OBSCOLOR
 70
   257
  9
$OBSLTYPE
280
     0
  9
$INTERSECTIONDISPLAY
280
     0
  9
$INTERSECTIONCOLOR
 70
   257
  9
$DIMASSOC
280
     1
  9
$PROJECTNAME
  1

  0
ENDSEC
  0
SECTION
  2
CLASSES
  0
CLASS
  1
RASTERVARIABLES
  2
AcDbRasterVariables
  3
ISM
 90
        0
 91
        1
280
     0
281
     0
  0
CLASS
  1
IMAGEDEF
  2
AcDbRasterImageDef
  3
ISM
 90
        0
 91
        2
280
     0
281
     0
  0
CLASS
  1
IMAGEDEF_REACTOR
  2
AcDbRasterImageDefReactor
  3
ISM
 90
        1
 91
        0
280
     0
281
     0
  0
CLASS
  1
IMAGE
  2
AcDbRasterImage
  3
ISM
 90
      127
 91
        0
280
     0
281
     1
  0
CLASS
  1
ACDBDICTIONARYWDFLT
  2
AcDbDictionaryWithDefault
  3
ObjectDBX Classes
 90
        0
 91
        1
280
     0
281
     0
  0
ENDSEC
  0
SECTION
  2
TABLES
  0
TABLE
  2
VPORT
  5
8
330
0
100
AcDbSymbolTable
 70
     2
  0
VPORT
  5
1024A
330
8
100
AcDbSymbolTableRecord
100
AcDbViewportTableRecord
  2
*Active
 70
     0
 10
0.0
 20
0.0
 11
1.0
 21
1.0
 12
90.33420251704013
 22
24.89073356325093
 13
0.0
 23
0.0
 14
0.5
 24
0.5
 15
0.5
 25
0.5
 16
0.0
 26
0.0
 36
1.0
 17
0.0
 27
0.0
 37
0.0
 40
94.22697879190399
 41
1.977142857142856
 42
50.0
 43
0.0
 44
0.0
 50
0.0
 51
0.0
 71
     0
 72
   100
 73
     1
 74
     1
 75
     0
 76
     0
 77
     0
 78
     0
281
     0
 65
     1
110
0.0
120
0.0
130
0.0
111
1.0
121
0.0
131
0.0
112
0.0
122
1.0
132
0.0
 79
     0
146
0.0
  0
ENDTAB
  0
TABLE
  2
LTYPE
  5
5
330
0
100
AcDbSymbolTable
 70
     2
  0
LTYPE
  5
12
330
5
100
AcDbSymbolTableRecord
100
AcDbLinetypeTableRecord
  2
BYBLOCK
 70
     0
  3

 72
    65
 73
     0
 40
0.0
  0
LTYPE
  5
13
330
5
100
AcDbSymbolTableRecord
100
AcDbLinetypeTableRecord
  2
BYLAYER
 70
     0
  3

 72
    65
 73
     0
 40
0.0
  0
LTYPE
  5
14
330
5
100
AcDbSymbolTableRecord
100
AcDbLinetypeTableRecord
  2
CONTINUOUS
 70
     0
  3
Solid line
 72
    65
 73
     0
 40
0.0
  0
LTYPE
  5
FC7E
330
5
100
AcDbSymbolTableRecord
100
AcDbLinetypeTableRecord
  2
DASHED
 70
     0
  3
Dashed __ __ __ __ __ __ __ __ __ __ __ __ __ _
 72
    65
 73
     2
 40
0.75
 49
0.5
 74
     0
 49
-0.25
 74
     0
  0
ENDTAB
  0
TABLE
  2
LAYER
  5
2
330
0
100
AcDbSymbolTable
 70
     3
  0
LAYER
  5
E
330
2
100
AcDbSymbolTableRecord
100
AcDbLayerTableRecord
  2
0
 70
     0
 62
     7
  6
CONTINUOUS
370
    -3
390
F8C7
  0
LAYER
  5
F8DF
330
2
100
AcDbSymbolTableRecord
100
AcDbLayerTableRecord
  2
Defpoints
 70
     0
 62
     7
  6
CONTINUOUS
290
     0
370
    -3
390
F8C7
  0
LAYER
  5
1022B
330
2
100
AcDbSymbolTableRecord
100
AcDbLayerTableRecord
  2
DIM
 70
     0
 62
    -3
  6
CONTINUOUS
370
    -3
390
F8C7
  0
ENDTAB
  0
TABLE
  2
STYLE
  5
3
330
0
100
AcDbSymbolTable
 70
     2
  0
STYLE
  5
F
330
3
100
AcDbSymbolTableRecord
100
AcDbTextStyleTableRecord
  2
STANDARD
 70
     0
 40
0.0
 41
1.0
 50
0.0
 71
     0
 42
0.2
  3
txt
  4

  0
STYLE
  5
FC7D
330
3
100
AcDbSymbolTableRecord
100
AcDbTextStyleTableRecord
  2

 70
     1
 40
0.0
 41
1.0
 50
0.0
 71
     0
 42
0.2
  3
ltypeshp.shx
  4

  0
ENDTAB
  0
TABLE
  2
VIEW
  5
6
330
0
100
AcDbSymbolTable
 70
     0
  0
ENDTAB
  0
TABLE
  2
UCS
  5
7
330
0
100
AcDbSymbolTable
 70
     0
  0
ENDTAB
  0
TABLE
  2
APPID
  5
9
330
0
100
AcDbSymbolTable
 70
     1
  0
APPID
  5
10
330
9
100
AcDbSymbolTableRecord
100
AcDbRegAppTableRecord
  2
ACAD
 70
     0
  0
ENDTAB
  0
TABLE
  2
DIMSTYLE
  5
A
330
0
100
AcDbSymbolTable
 70
     1
100
AcDbDimStyleTable
 71
     1
340
1D
  0
DIMSTYLE
105
1D
102
{ACAD_REACTORS
330
10198
102
}
330
A
100
AcDbSymbolTableRecord
100
AcDbDimStyleTableRecord
  2
STANDARD
 70
     0
140
2.0
340
F
  0
ENDTAB
  0
TABLE
  2
BLOCK_RECORD
  5
1
330
0
100
AcDbSymbolTable
 70
     3
  0
BLOCK_RECORD
  5
18
330
1
100
AcDbSymbolTableRecord
100
AcDbBlockTableRecord
  2
*MODEL_SPACE
340
F8CC
  0
BLOCK_RECORD
  5
15
330
1
100
AcDbSymbolTableRecord
100
AcDbBlockTableRecord
  2
*PAPER_SPACE
340
F8CD
  0
BLOCK_RECORD
  5
F510
330
1
100
AcDbSymbolTableRecord
100
AcDbBlockTableRecord
  2
5556_E
340
0
  0
BLOCK_RECORD
  5
F782
330
1
100
AcDbSymbolTableRecord
100
AcDbBlockTableRecord
  2
5556_C
340
0
  0
BLOCK_RECORD
  5
10199
330
1
100
AcDbSymbolTableRecord
100
AcDbBlockTableRecord
  2
*D2
340
0
  0
ENDTAB
  0
ENDSEC
  0
SECTION
  2
BLOCKS
  0
BLOCK
  5
19
330
18
100
AcDbEntity
  8
0
100
AcDbBlockBegin
  2
*MODEL_SPACE
 70
     0
 10
0.0
 20
0.0
 30
0.0
  3
*MODEL_SPACE
  1

  0
ENDBLK
  5
1A
330
18
100
AcDbEntity
  8
0
100
AcDbBlockEnd
  0
BLOCK
  5
16
330
15
100
AcDbEntity
 67
     1
  8
0
100
AcDbBlockBegin
  2
*PAPER_SPACE
 70
     0
 10
0.0
 20
0.0
 30
0.0
  3
*PAPER_SPACE
  1

  0
ENDBLK
  5
17
330
15
100
AcDbEntity
 67
     1
  8
0
100
AcDbBlockEnd
  0
BLOCK
  5
F511
330
F510
100
AcDbEntity
  8
0
100
AcDbBlockBegin
  2
5556_E
 70
     0
 10
0.0
 20
0.0
 30
0.0
  3
5556_E
  1

  0
LINE
  5
F512
330
F510
100
AcDbEntity
  8
0
100
AcDbLine
 10
-21.49820682649039
 20
9.245020918650727
 30
0.0
 11
21.4982068264904
 21
9.245020918650727
 31
0.0
  0
LINE
  5
F513
330
F510
100
AcDbEntity
  8
0
100
AcDbLine
 10
-19.66678991310365
 20
6.802540134848189
 30
0.0
 11
19.66678991310371
 21
6.80254013484852
 31
0.0
  0
LINE
  5
F514
330
F510
100
AcDbEntity
  8
0
100
AcDbLine
 10
-19.00244782814053
 20
5.971854141323973
 30
0.0
 11
19.00244782814057
 21
5.971854141324232
 31
0.0
  0
LINE
  5
F515
330
F510
100
AcDbEntity
  8
0
100
AcDbLine
 10
-18.26649365445937
 20
4.810610082077808
 30
0.0
 11
18.26649365446174
 21
4.810610082078035
 31
0.0
  0
LINE
  5
F516
330
F510
100
AcDbEntity
  8
0
100
AcDbLine
 10
-18.0
 20
4.590087707470328
 30
0.0
 11
18.00000000000102
 21
4.590087707470601
 31
0.0
  0
LINE
  5
F517
330
F510
100
AcDbEntity
  8
0
100
AcDbLine
 10
-18.0
 20
0.0
 30
0.0
 11
18.0
 21
0.0
 31
0.0
  0
LINE
  5
F518
330
F510
100
AcDbEntity
  8
0
100
AcDbLine
 10
-16.87320682649039
 20
9.631874166561193
 30
0.0
 11
16.87320682649039
 21
9.631874166561193
 31
0.0
  0
LINE
  5
F519
330
F510
100
AcDbEntity
  8
0
100
AcDbLine
 10
-18.0
 20
0.0
 30
0.0
 11
-18.0
 21
4.590087707470328
 31
0.0
  0
LINE
  5
F51A
330
F510
100
AcDbEntity
  8
0
100
AcDbLine
 10
-21.4982068264904
 20
8.245086208090345
 30
0.0
 11
-21.4982068264904
 21
9.245020918650727
 31
0.0
  0
LWPOLYLINE
  5
F51B
330
F510
100
AcDbEntity
  8
0
100
AcDbPolyline
 90
      303
 70
     0
 43
0.0
 10
-21.4982068264904
 20
8.245086208090345
 10
-21.4755191716057
 20
8.243593341556863
 10
-21.41022270145824
 20
8.23720530455898
 10
-21.34927693186388
 20
8.229290083922045
 10
-21.29246618712307
 20
8.220111499690762
 10
-21.23957479153625
 20
8.209933371909837
 10
-21.19038706940388
 20
8.199019520623973
 10
-21.1446873450264
 20
8.187633765877833
 10
-21.10223887095955
 20
8.1759817139035
 10
-21.06272061278023
 20
8.164036115682243
 10
-21.02579046432061
 20
8.151711508382682
 10
-20.99110631941289
 20
8.138922429173437
 10
-20.95832607188924
 20
8.125583415223122
 10
-20.92710761558185
 20
8.111609003700348
 10
-20.89710884432291
 20
8.096913731773756
 10
-20.8679876519446
 20
8.081412136611938
 10
-20.8394465547475
 20
8.065023090454676
 10
-20.81136655890587
 20
8.047682805826379
 10
-20.78367329306237
 20
8.029331830322607
 10
-20.75629238585965
 20
8.009910711538914
 10
-20.72914946594035
 20
7.989359997070863
 10
-20.70217016194715
 20
7.967620234514015
 10
-20.67528010252269
 20
7.944631971463934
 10
-20.64840491630964
 20
7.920335755516173
 10
-20.62149998043468
 20
7.894686997367401
 10
-20.5946396659607
 20
7.867700560118738
 10
-20.56792809243463
 20
7.839406169972402
 10
-20.54146937940339
 20
7.809833553130598
 10
-20.51536764641392
 20
7.779012435795564
 10
-20.48972701301313
 20
7.746972544169512
 10
-20.46465159874795
 20
7.713743604454659
 10
-20.4402455231653
 20
7.679355342853231
 10
-20.41659183399379
 20
7.643882074870777
 10
-20.39368929168872
 20
7.607576473226156
 10
-20.37151558488703
 20
7.570735799941587
 10
-20.35004840222571
 20
7.533657317039253
 10
-20.32926543234172
 20
7.496638286541358
 10
-20.30914436387202
 20
7.459975970470104
 10
-20.28966288545358
 20
7.423967630847691
 10
-20.27079868572336
 20
7.388910529696314
 10
-20.25252077679986
 20
7.35504866959253
 10
-20.23476346472759
 20
7.322413015330315
 10
-20.21745237903261
 20
7.290981272258012
 10
-20.20051314924096
 20
7.260731145723955
 10
-20.18387140487868
 20
7.231640341076467
 10
-20.16745277547183
 20
7.203686563663897
 10
-20.15118289054645
 20
7.176847518834566
 10
-20.13498737962859
 20
7.151100911936829
 10
-20.11880674619185
 20
7.126433118461317
 10
-20.10264098950008
 20
7.102865194467941
 10
-20.08650498276467
 20
7.08042686615893
 10
-20.07041359919701
 20
7.059147859736494
 10
-20.05438171200853
 20
7.039057901402852
 10
-20.03842419441061
 20
7.020186717360228
 10
-20.02255591961465
 20
7.002564033810845
 10
-20.00679176083204
 20
6.986219576956916
 10
-19.99114411255287
 20
6.971160778349002
 10
-19.97561545438186
 20
6.957305890930996
 10
-19.96020578720238
 20
6.944550872995126
 10
-19.94491511189784
 20
6.932791682833624
 10
-19.92974342935163
 20
6.921924278738721
 10
-19.91469074044713
 20
6.91184461900265
 10
-19.89975704606775
 20
6.902448661917627
 10
-19.88494234709686
 20
6.893632365775903
 10
-19.8702491232128
 20
6.885310267746078
 10
-19.85568976927374
 20
6.877471220502329
 10
-19.84127915893276
 20
6.870122655595206
 10
-19.82703216584294
 20
6.863272004575268
 10
-19.8129636636574
 20
6.856926698993074
 10
-19.79908852602923
 20
6.851094170399164
 10
-19.78542162661152
 20
6.845781850344113
 10
-19.77197783905736
 20
6.840997170378461
 10
-19.75879434838289
 20
6.836737653318692
 10
-19.74599758505636
 20
6.832961187045004
 10
-19.73373629090909
 20
6.829615750703503
 10
-19.72215920777236
 20
6.826649323440307
 10
-19.71141507747747
 20
6.82400988440153
 10
-19.70165264185573
 20
6.821645412733285
 10
-19.69302064273843
 20
6.819503887581696
 10
-19.68566782195687
 20
6.817533288092867
 10
-19.67969086178972
 20
6.815634526926068
 10
-19.67497820630523
 20
6.813520250793175
 10
-19.67136624001897
 20
6.810856039919212
 10
-19.66869134744658
 20
6.807307474529213
 10
-19.66678991310365
 20
6.802540134848189
 10
-19.66549832150579
 20
6.796219601101178
 10
-19.6646529571686
 20
6.788011453513195
 10
-19.6640902046077
 20
6.777581272309276
 10
-19.66367495705718
 20
6.764746984500817
 10
-19.6633861426251
 20
6.749935904244729
 10
-19.663231198138
 20
6.733727692484308
 10
-19.66321756042243
 20
6.71670201016284
 10
-19.66335266630494
 20
6.699438518223608
 10
-19.66364395261208
 20
6.682516877609909
 10
-19.66409885617039
 20
6.666516749265028
 10
-19.66472481380643
 20
6.652017794132255
 10
-19.66551066961783
 20
6.639452280735536
 10
-19.66637089678657
 20
6.628662907921459
 10
-19.66720137576573
 20
6.619344982117262
 10
-19.66789798700838
 20
6.611193809750208
 10
-19.6683566109676
 20
6.603904697247529
 10
-19.66847312809646
 20
6.597172951036473
 10
-19.66814341884803
 20
6.590693877544286
 10
-19.66726336367539
 20
6.584162783198213
 10
-19.66574867537885
 20
6.577345574155774
 10
-19.66359439614766
 20
6.570290555495578
 10
-19.66081540051831
 20
6.563116632026499
 10
-19.65742656302728
 20
6.555942708557424
 10
-19.65344275821106
 20
6.548887689897224
 10
-19.64887886060612
 20
6.542070480854786
 10
-19.64374974474897
 20
6.535609986238988
 10
-19.63807028517608
 20
6.52962511085871
 10
-19.63185131630914
 20
6.524195565064591
 10
-19.62508751211062
 20
6.519244281374334
 10
-19.61776950642816
 20
6.514654997847401
 10
-19.60988793310944
 20
6.510311452543255
 10
-19.60143342600211
 20
6.506097383521357
 10
-19.59239661895384
 20
6.501896528841164
 10
-19.58276814581228
 20
6.497592626562145
 10
-19.57253864042511
 20
6.493069414743761
 10
-19.56171506575322
 20
6.488235293945034
 10
-19.55036970121065
 20
6.483097314723224
 10
-19.53859115532466
 20
6.477687190135139
 10
-19.52646803662254
 20
6.4720366332376
 10
-19.51408895363156
 20
6.466177357087428
 10
-19.50154251487896
 20
6.460141074741436
 10
-19.48891732889206
 20
6.453959499256448
 10
-19.47630200419811
 20
6.447664343689268
 10
-19.46377739742174
 20
6.441271659927352
 10
-19.45139335757701
 20
6.434734855180671
 10
-19.43919198177529
 20
6.427991675489824
 10
-19.42721536712801
 20
6.420979866895415
 10
-19.41550561074655
 20
6.41363717543804
 10
-19.40410480974229
 20
6.405901347158305
 10
-19.39305506122666
 20
6.397710128096811
 10
-19.38239846231104
 20
6.389001264294162
 10
-19.37216707147316
 20
6.379724387563957
 10
-19.36235279265596
 20
6.36987667281182
 10
-19.35293749116874
 20
6.359467180716364
 10
-19.34390303232079
 20
6.348504971956216
 10
-19.3352312814214
 20
6.33699910720999
 10
-19.32690410377985
 20
6.324958647156321
 10
-19.31890336470541
 20
6.312392652473818
 10
-19.31121092950738
 20
6.299310183841104
 10
-19.30381773106125
 20
6.285732383250614
 10
-19.29675097250733
 20
6.271728717950047
 10
-19.29004692455213
 20
6.257380736500898
 10
-19.28374185790217
 20
6.242769987464676
 10
-19.27787204326397
 20
6.227978019402886
 10
-19.27247375134404
 20
6.213086380877037
 10
-19.26758325284891
 20
6.198176620448627
 10
-19.26323681848507
 20
6.183330286679172
 10
-19.25945636164796
 20
6.168632703481087
 10
-19.25620636648861
 20
6.154184296170505
 10
-19.25343695984695
 20
6.140089265414463
 10
-19.25109826856293
 20
6.126451811880009
 10
-19.24914041947649
 20
6.113376136234183
 10
-19.24751353942754
 20
6.100966439144027
 10
-19.24616775525605
 20
6.08932692127659
 10
-19.24505319380194
 20
6.078561783298916
 10
-19.24411695960393
 20
6.068745777877278
 10
-19.24329406799586
 20
6.05983586567487
 10
-19.24251651201033
 20
6.051759559354131
 10
-19.24171628467997
 20
6.04444437157749
 10
-19.24082537903739
 20
6.037817815007368
 10
-19.23977578811519
 20
6.031807402306206
 10
-19.23849950494599
 20
6.026340646136432
 10
-19.23692852256241
 20
6.021345059160477
 10
-19.23500239022862
 20
6.01675570474261
 10
-19.23269088213499
 20
6.01253784905451
 10
-19.22997132870349
 20
6.008664308969663
 10
-19.22682106035605
 20
6.00510790136159
 10
-19.22321740751462
 20
6.001841443103799
 10
-19.21913770060112
 20
5.998837751069785
 10
-19.21455927003754
 20
5.996069642133072
 10
-19.20945944624577
 20
5.993509933167157
 10
-19.20380422515324
 20
5.991136726691348
 10
-19.19751426470904
 20
5.988949267808145
 10
-19.19049888836774
 20
5.986952087265841
 10
-19.18266741958388
 20
5.985149715812735
 10
-19.17392918181205
 20
5.983546684197122
 10
-19.16419349850677
 20
5.982147523167299
 10
-19.15336969312264
 20
5.980956763471571
 10
-19.14136708911418
 20
5.97997893585822
 10
-19.12817888599079
 20
5.979213285475196
 10
-19.11413378748116
 20
5.978637915069022
 10
-19.09964437336885
 20
5.978225641785858
 10
-19.08512322343735
 20
5.977949282771863
 10
-19.07098291747021
 20
5.977781655173217
 10
-19.05763603525094
 20
5.977695576136071
 10
-19.04549515656309
 20
5.977663862806593
 10
-19.03497286119017
 20
5.977659332330958
 10
-19.02637367224265
 20
5.977651781538224
 10
-19.0195698861387
 20
5.977598925989099
 10
-19.0143257426234
 20
5.977455460927195
 10
-19.01040548144188
 20
5.977176081596113
 10
-19.00757334233925
 20
5.976715483239459
 10
-19.00559356506058
 20
5.976028361100851
 10
-19.00423038935099
 20
5.975069410423891
 10
-19.00324805495558
 20
5.973793326452188
 10
-19.00244782814053
 20
5.971854141323973
 10
-19.00177908125629
 20
5.96770323475599
 10
-19.00122821317443
 20
5.959491323359586
 10
-19.00078162276647
 20
5.945369123746125
 10
-19.00042570890395
 20
5.923487352526965
 10
-19.0001468704584
 20
5.891996726313465
 10
-18.99993150630138
 20
5.849047961716987
 10
-18.99976601530443
 20
5.792791775348884
 10
-18.99963320697449
 20
5.722306055730228
 10
-18.99950153336021
 20
5.640377379020907
 10
-18.99933585714562
 20
5.550719493290518
 10
-18.99910104101478
 20
5.457046146608657
 10
-18.99876194765173
 20
5.363071087044925
 10
-18.99828343974052
 20
5.272508062668919
 10
-18.99763037996521
 20
5.189070821550227
 10
-18.99676763100982
 20
5.116473111758459
 10
-18.99565741407231
 20
5.057509404657995
 10
-18.99425138440614
 20
5.011297064792358
 10
-18.99249855577869
 20
4.976034179999864
 10
-18.99034794195732
 20
4.949918838118833
 10
-18.98774855670939
 20
4.931149126987563
 10
-18.98464941380227
 20
4.917923134444386
 10
-18.98099952700333
 20
4.908438948327606
 10
-18.97674791007993
 20
4.900894656475536
 10
-18.97185991931079
 20
4.893792977224496
 10
-18.96636628102012
 20
4.886855150902835
 10
-18.96031406404346
 20
4.880107048336881
 10
-18.95375033721636
 20
4.87357454035299
 10
-18.94672216937438
 20
4.867283497777506
 10
-18.93927662935309
 20
4.861259791436769
 10
-18.93146078598802
 20
4.855529292157129
 10
-18.92332170811473
 20
4.850117870764925
 10
-18.91473320731407
 20
4.845049960954707
 10
-18.90487606614808
 20
4.84034424789381
 10
-18.8927578099241
 20
4.836017979617771
 10
-18.87738596394945
 20
4.832088404162121
 10
-18.85776805353149
 20
4.828572769562399
 10
-18.83291160397752
 20
4.825488323854138
 10
-18.80182414059489
 20
4.822852315072879
 10
-18.76351318869094
 20
4.820681991254151
 10
-18.71751195536967
 20
4.818977861631125
 10
-18.66545637492173
 20
4.817673480227512
 10
-18.60950806343447
 20
4.816685662264635
 10
-18.55182863699521
 20
4.81593122296384
 10
-18.49457971169129
 20
4.815326977546455
 10
-18.43992290361003
 20
4.81478974123382
 10
-18.39001982883876
 20
4.814236329247272
 10
-18.34703210346482
 20
4.813583556808143
 10
-18.31257750912587
 20
4.812763529992931
 10
-18.28609848966094
 20
4.811769518298728
 10
-18.26649365445937
 20
4.810610082077808
 10
-18.2526616129105
 20
4.809293781682434
 10
-18.2435009744037
 20
4.807829177464853
 10
-18.23791034832831
 20
4.806224829777335
 10
-18.23478834407369
 20
4.804489298972136
 10
-18.23303357102918
 20
4.802631145401527
 10
-18.23171648130912
 20
4.800650447363619
 10
-18.23059489792774
 20
4.798513354939981
 10
-18.22959848662424
 20
4.796177536158033
 10
-18.22865691313784
 20
4.793600659045203
 10
-18.22769984320773
 20
4.790740391628922
 10
-18.22665694257313
 20
4.787554401936606
 10
-18.22545787697324
 20
4.78400035799568
 10
-18.22403231214726
 20
4.780035927833573
 10
-18.22232098544657
 20
4.775632339412688
 10
-18.22030892067109
 20
4.770815060435388
 10
-18.21799221323292
 20
4.765623118539011
 10
-18.21536695854414
 20
4.76009554136089
 10
-18.21242925201684
 20
4.754271356538374
 10
-18.2091751890631
 20
4.748189591708801
 10
-18.20560086509502
 20
4.741889274509503
 10
-18.20170237552467
 20
4.735409432577831
 10
-18.19748395223632
 20
4.728793646657322
 10
-18.19298237300288
 20
4.722103709916346
 10
-18.18824255206942
 20
4.715405968629468
 10
-18.18330940368101
 20
4.708766769071257
 10
-18.17822784208272
 20
4.702252457516284
 10
-18.17304278151964
 20
4.69592938023911
 10
-18.16779913623683
 20
4.689863883514316
 10
-18.16254182047939
 20
4.684122313616459
 10
-18.1573050080782
 20
4.678750852758952
 10
-18.15207991120753
 20
4.673715026910521
 10
-18.14684700162747
 20
4.668960197978741
 10
-18.14158675109812
 20
4.664431727871189
 10
-18.13627963137956
 20
4.66007497849543
 10
-18.1309061142319
 20
4.65583531175903
 10
-18.12544667141521
 20
4.651658089569561
 10
-18.11988177468959
 20
4.647488673834601
 10
-18.11419466244831
 20
4.643286573768936
 10
-18.10837963961725
 20
4.639067887816274
 10
-18.10243377775551
 20
4.63486286172754
 10
-18.09635414842211
 20
4.630701741253666
 10
-18.09013782317615
 20
4.626614772145572
 10
-18.08378187357668
 20
4.622632200154193
 10
-18.07728337118277
 20
4.618784271030456
 10
-18.07063938755349
 20
4.615101230525286
 10
-18.06372656951288
 20
4.611577874926439
 10
-18.05593986494487
 20
4.608067202668983
 10
-18.04655379699841
 20
4.604386762724811
 10
-18.0348428888224
 20
4.600354104065818
 10
-18.02008166356577
 20
4.595786775663899
 10
-18.00154464437745
 20
4.590502326490948
 10
-18.0
 20
4.590087707470328
  0
LINE
  5
F64C
330
F510
100
AcDbEntity
  8
0
100
AcDbLine
 10
-21.49820682649039
 20
9.245020918650727
 30
0.0
 11
-16.87320682649039
 21
9.631874166561193
 31
0.0
  0
LINE
  5
F64D
330
F510
100
AcDbEntity
  8
0
100
AcDbLine
 10
18.0
 20
0.0
 30
0.0
 11
18.0
 21
4.590087707470328
 31
0.0
  0
LINE
  5
F64E
330
F510
100
AcDbEntity
  8
0
100
AcDbLine
 10
21.4982068264904
 20
8.245086208090345
 30
0.0
 11
21.4982068264904
 21
9.245020918650727
 31
0.0
  0
LWPOLYLINE
  5
F64F
330
F510
100
AcDbEntity
  8
0
100
AcDbPolyline
 90
      303
 70
     0
 43
0.0
 10
21.4982068264904
 20
8.245086208090345
 10
21.4755191716057
 20
8.243593341556863
 10
21.41022270145824
 20
8.23720530455898
 10
21.34927693186388
 20
8.229290083922045
 10
21.29246618712307
 20
8.220111499690762
 10
21.23957479153624
 20
8.209933371909837
 10
21.19038706940388
 20
8.199019520623973
 10
21.1446873450264
 20
8.187633765877833
 10
21.10223887095955
 20
8.1759817139035
 10
21.06272061278023
 20
8.164036115682243
 10
21.02579046432061
 20
8.151711508382682
 10
20.99110631941288
 20
8.138922429173437
 10
20.95832607188923
 20
8.125583415223122
 10
20.92710761558185
 20
8.111609003700348
 10
20.89710884432292
 20
8.096913731773756
 10
20.8679876519446
 20
8.081412136611938
 10
20.83944655474751
 20
8.065023090454676
 10
20.81136655890587
 20
8.047682805826379
 10
20.78367329306237
 20
8.029331830322607
 10
20.75629238585965
 20
8.009910711538914
 10
20.72914946594035
 20
7.989359997070863
 10
20.70217016194715
 20
7.967620234514015
 10
20.67528010252269
 20
7.944631971463934
 10
20.64840491630965
 20
7.920335755516173
 10
20.62149998043468
 20
7.894686997367401
 10
20.5946396659607
 20
7.867700560118738
 10
20.56792809243463
 20
7.839406169972402
 10
20.54146937940339
 20
7.809833553130598
 10
20.51536764641392
 20
7.779012435795564
 10
20.48972701301314
 20
7.746972544169512
 10
20.46465159874795
 20
7.713743604454659
 10
20.4402455231653
 20
7.679355342853231
 10
20.41659183399379
 20
7.643882074870777
 10
20.39368929168872
 20
7.607576473226156
 10
20.37151558488703
 20
7.570735799941587
 10
20.35004840222571
 20
7.533657317039253
 10
20.32926543234173
 20
7.496638286541358
 10
20.30914436387202
 20
7.459975970470104
 10
20.28966288545358
 20
7.423967630847691
 10
20.27079868572336
 20
7.388910529696314
 10
20.25252077679987
 20
7.35504866959253
 10
20.23476346472759
 20
7.322413015330315
 10
20.21745237903261
 20
7.290981272258012
 10
20.20051314924096
 20
7.260731145723955
 10
20.18387140487867
 20
7.231640341076467
 10
20.16745277547183
 20
7.203686563663897
 10
20.15118289054645
 20
7.176847518834566
 10
20.13498737962859
 20
7.151100911936829
 10
20.11880674619185
 20
7.126433118461317
 10
20.10264098950008
 20
7.102865194467941
 10
20.08650498276467
 20
7.08042686615893
 10
20.07041359919701
 20
7.059147859736494
 10
20.05438171200852
 20
7.039057901402852
 10
20.03842419441061
 20
7.020186717360228
 10
20.02255591961465
 20
7.002564033810845
 10
20.00679176083204
 20
6.986219576956916
 10
19.99114411255287
 20
6.971160778349002
 10
19.97561545438187
 20
6.957305890930996
 10
19.96020578720238
 20
6.944550872995126
 10
19.94491511189784
 20
6.932791682833624
 10
19.92974342935163
 20
6.921924278738721
 10
19.91469074044714
 20
6.91184461900265
 10
19.89975704606775
 20
6.902448661917627
 10
19.88494234709687
 20
6.893632365775903
 10
19.8702491232128
 20
6.885310267746078
 10
19.85568976927374
 20
6.877471220502329
 10
19.84127915893275
 20
6.870122655595206
 10
19.82703216584294
 20
6.863272004575268
 10
19.81296366365741
 20
6.856926698993074
 10
19.79908852602922
 20
6.851094170399164
 10
19.78542162661152
 20
6.845781850344113
 10
19.77197783905736
 20
6.840997170378461
 10
19.75879434838289
 20
6.836737653318692
 10
19.74599758505637
 20
6.832961187045004
 10
19.73373629090909
 20
6.829615750703503
 10
19.72215920777236
 20
6.826649323440307
 10
19.71141507747747
 20
6.82400988440153
 10
19.70165264185573
 20
6.821645412733285
 10
19.69302064273843
 20
6.819503887581696
 10
19.68566782195687
 20
6.817533288092867
 10
19.67969086178972
 20
6.815634526926068
 10
19.67497820630523
 20
6.813520250793175
 10
19.67136624001897
 20
6.810856039919212
 10
19.66869134744658
 20
6.807307474529213
 10
19.66678991310364
 20
6.802540134848189
 10
19.66549832150579
 20
6.796219601101178
 10
19.6646529571686
 20
6.788011453513195
 10
19.6640902046077
 20
6.777581272309276
 10
19.66367495705718
 20
6.764746984500817
 10
19.6633861426251
 20
6.749935904244729
 10
19.663231198138
 20
6.733727692484308
 10
19.66321756042244
 20
6.71670201016284
 10
19.66335266630494
 20
6.699438518223608
 10
19.66364395261208
 20
6.682516877609909
 10
19.66409885617039
 20
6.666516749265028
 10
19.66472481380643
 20
6.652017794132255
 10
19.66551066961783
 20
6.639452280735536
 10
19.66637089678657
 20
6.628662907921459
 10
19.66720137576573
 20
6.619344982117262
 10
19.66789798700837
 20
6.611193809750208
 10
19.66835661096759
 20
6.603904697247529
 10
19.66847312809646
 20
6.597172951036473
 10
19.66814341884803
 20
6.590693877544286
 10
19.66726336367539
 20
6.584162783198213
 10
19.66574867537885
 20
6.577345574155774
 10
19.66359439614767
 20
6.570290555495578
 10
19.6608154005183
 20
6.563116632026499
 10
19.65742656302727
 20
6.555942708557424
 10
19.65344275821106
 20
6.548887689897224
 10
19.64887886060612
 20
6.542070480854786
 10
19.64374974474897
 20
6.535609986238988
 10
19.63807028517608
 20
6.52962511085871
 10
19.63185131630914
 20
6.524195565064591
 10
19.62508751211062
 20
6.519244281374334
 10
19.61776950642816
 20
6.514654997847401
 10
19.60988793310945
 20
6.510311452543255
 10
19.60143342600211
 20
6.506097383521357
 10
19.59239661895384
 20
6.501896528841164
 10
19.58276814581229
 20
6.497592626562145
 10
19.57253864042511
 20
6.493069414743761
 10
19.56171506575323
 20
6.488235293945034
 10
19.55036970121065
 20
6.483097314723224
 10
19.53859115532466
 20
6.477687190135139
 10
19.52646803662254
 20
6.4720366332376
 10
19.51408895363156
 20
6.466177357087428
 10
19.50154251487896
 20
6.460141074741436
 10
19.48891732889207
 20
6.453959499256448
 10
19.4763020041981
 20
6.447664343689268
 10
19.46377739742174
 20
6.441271659927352
 10
19.451393357577
 20
6.434734855180671
 10
19.43919198177529
 20
6.427991675489824
 10
19.42721536712801
 20
6.420979866895415
 10
19.41550561074655
 20
6.41363717543804
 10
19.40410480974229
 20
6.405901347158305
 10
19.39305506122666
 20
6.397710128096811
 10
19.38239846231104
 20
6.389001264294162
 10
19.37216707147316
 20
6.379724387563957
 10
19.36235279265595
 20
6.36987667281182
 10
19.35293749116874
 20
6.359467180716364
 10
19.34390303232079
 20
6.348504971956216
 10
19.3352312814214
 20
6.33699910720999
 10
19.32690410377985
 20
6.324958647156321
 10
19.3189033647054
 20
6.312392652473818
 10
19.31121092950738
 20
6.299310183841104
 10
19.30381773106124
 20
6.285732383250614
 10
19.29675097250732
 20
6.271728717950047
 10
19.29004692455213
 20
6.257380736500898
 10
19.28374185790217
 20
6.242769987464676
 10
19.27787204326397
 20
6.227978019402886
 10
19.27247375134404
 20
6.213086380877037
 10
19.26758325284891
 20
6.198176620448627
 10
19.26323681848508
 20
6.183330286679172
 10
19.25945636164796
 20
6.168632703481087
 10
19.25620636648861
 20
6.154184296170505
 10
19.25343695984695
 20
6.140089265414463
 10
19.25109826856292
 20
6.126451811880009
 10
19.24914041947649
 20
6.113376136234183
 10
19.24751353942754
 20
6.100966439144027
 10
19.24616775525605
 20
6.08932692127659
 10
19.24505319380194
 20
6.078561783298916
 10
19.24411695960394
 20
6.068745777877278
 10
19.24329406799586
 20
6.05983586567487
 10
19.24251651201034
 20
6.051759559354131
 10
19.24171628467997
 20
6.04444437157749
 10
19.24082537903739
 20
6.037817815007368
 10
19.23977578811518
 20
6.031807402306206
 10
19.23849950494599
 20
6.026340646136432
 10
19.23692852256241
 20
6.021345059160477
 10
19.23500239022861
 20
6.01675570474261
 10
19.232690882135
 20
6.01253784905451
 10
19.22997132870348
 20
6.008664308969663
 10
19.22682106035604
 20
6.00510790136159
 10
19.22321740751461
 20
6.001841443103799
 10
19.21913770060112
 20
5.998837751069785
 10
19.21455927003754
 20
5.996069642133072
 10
19.20945944624577
 20
5.993509933167157
 10
19.20380422515323
 20
5.991136726691348
 10
19.19751426470904
 20
5.988949267808145
 10
19.19049888836774
 20
5.986952087265841
 10
19.18266741958389
 20
5.985149715812735
 10
19.17392918181205
 20
5.983546684197122
 10
19.16419349850677
 20
5.982147523167299
 10
19.15336969312264
 20
5.980956763471571
 10
19.14136708911418
 20
5.97997893585822
 10
19.12817888599079
 20
5.979213285475196
 10
19.11413378748116
 20
5.978637915069022
 10
19.09964437336886
 20
5.978225641785858
 10
19.08512322343735
 20
5.977949282771863
 10
19.0709829174702
 20
5.977781655173217
 10
19.05763603525095
 20
5.977695576136071
 10
19.04549515656309
 20
5.977663862806593
 10
19.03497286119017
 20
5.977659332330958
 10
19.02637367224265
 20
5.977651781538224
 10
19.0195698861387
 20
5.977598925989099
 10
19.0143257426234
 20
5.977455460927195
 10
19.01040548144188
 20
5.977176081596113
 10
19.00757334233925
 20
5.976715483239459
 10
19.00559356506058
 20
5.976028361100851
 10
19.00423038935099
 20
5.975069410423891
 10
19.00324805495559
 20
5.973793326452188
 10
19.00244782814053
 20
5.971854141323973
 10
19.00177908125629
 20
5.96770323475599
 10
19.00122821317443
 20
5.959491323359586
 10
19.00078162276647
 20
5.945369123746125
 10
19.00042570890395
 20
5.923487352526965
 10
19.00014687045841
 20
5.891996726313465
 10
18.99993150630138
 20
5.849047961716987
 10
18.99976601530443
 20
5.792791775348884
 10
18.99963320697449
 20
5.722306055730228
 10
18.99950153336021
 20
5.640377379020907
 10
18.99933585714562
 20
5.550719493290518
 10
18.99910104101478
 20
5.457046146608657
 10
18.99876194765174
 20
5.363071087044925
 10
18.99828343974052
 20
5.272508062668919
 10
18.99763037996521
 20
5.189070821550227
 10
18.99676763100983
 20
5.116473111758459
 10
18.99565741407231
 20
5.057509404657995
 10
18.99425138440614
 20
5.011297064792358
 10
18.99249855577869
 20
4.976034179999864
 10
18.99034794195732
 20
4.949918838118833
 10
18.98774855670939
 20
4.931149126987563
 10
18.98464941380227
 20
4.917923134444386
 10
18.98099952700333
 20
4.908438948327606
 10
18.97674791007993
 20
4.900894656475536
 10
18.97185991931079
 20
4.893792977224496
 10
18.96636628102011
 20
4.886855150902835
 10
18.96031406404346
 20
4.880107048336881
 10
18.95375033721636
 20
4.87357454035299
 10
18.94672216937438
 20
4.867283497777506
 10
18.93927662935309
 20
4.861259791436769
 10
18.93146078598802
 20
4.855529292157129
 10
18.92332170811473
 20
4.850117870764925
 10
18.91473320731407
 20
4.845049960954707
 10
18.90487606614808
 20
4.84034424789381
 10
18.8927578099241
 20
4.836017979617771
 10
18.87738596394945
 20
4.832088404162121
 10
18.85776805353149
 20
4.828572769562399
 10
18.83291160397752
 20
4.825488323854138
 10
18.80182414059489
 20
4.822852315072879
 10
18.76351318869093
 20
4.820681991254151
 10
18.71751195536967
 20
4.818977861631125
 10
18.66545637492173
 20
4.817673480227512
 10
18.60950806343447
 20
4.816685662264635
 10
18.55182863699521
 20
4.81593122296384
 10
18.49457971169129
 20
4.815326977546455
 10
18.43992290361002
 20
4.81478974123382
 10
18.39001982883876
 20
4.814236329247272
 10
18.34703210346482
 20
4.813583556808143
 10
18.31257750912587
 20
4.812763529992931
 10
18.28609848966094
 20
4.811769518298728
 10
18.26649365445937
 20
4.810610082077808
 10
18.2526616129105
 20
4.809293781682434
 10
18.2435009744037
 20
4.807829177464853
 10
18.23791034832831
 20
4.806224829777335
 10
18.23478834407369
 20
4.804489298972136
 10
18.23303357102918
 20
4.802631145401527
 10
18.23171648130912
 20
4.800650447363619
 10
18.23059489792774
 20
4.798513354939981
 10
18.22959848662424
 20
4.796177536158033
 10
18.22865691313784
 20
4.793600659045203
 10
18.22769984320773
 20
4.790740391628922
 10
18.22665694257313
 20
4.787554401936606
 10
18.22545787697324
 20
4.78400035799568
 10
18.22403231214726
 20
4.780035927833573
 10
18.22232098544657
 20
4.775632339412688
 10
18.22030892067109
 20
4.770815060435388
 10
18.21799221323292
 20
4.765623118539011
 10
18.21536695854414
 20
4.76009554136089
 10
18.21242925201684
 20
4.754271356538374
 10
18.2091751890631
 20
4.748189591708801
 10
18.20560086509502
 20
4.741889274509503
 10
18.20170237552467
 20
4.735409432577831
 10
18.19748395223632
 20
4.728793646657322
 10
18.19298237300288
 20
4.722103709916346
 10
18.18824255206942
 20
4.715405968629468
 10
18.18330940368101
 20
4.708766769071257
 10
18.17822784208272
 20
4.702252457516284
 10
18.17304278151964
 20
4.69592938023911
 10
18.16779913623683
 20
4.689863883514316
 10
18.16254182047939
 20
4.684122313616459
 10
18.1573050080782
 20
4.678750852758952
 10
18.15207991120753
 20
4.673715026910521
 10
18.14684700162747
 20
4.668960197978741
 10
18.14158675109812
 20
4.664431727871189
 10
18.13627963137956
 20
4.66007497849543
 10
18.1309061142319
 20
4.65583531175903
 10
18.12544667141521
 20
4.651658089569561
 10
18.11988177468959
 20
4.647488673834601
 10
18.11419466244831
 20
4.643286573768936
 10
18.10837963961725
 20
4.639067887816274
 10
18.10243377775551
 20
4.63486286172754
 10
18.09635414842211
 20
4.630701741253666
 10
18.09013782317615
 20
4.626614772145572
 10
18.08378187357668
 20
4.622632200154193
 10
18.07728337118277
 20
4.618784271030456
 10
18.07063938755349
 20
4.615101230525286
 10
18.06372656951288
 20
4.611577874926439
 10
18.05593986494487
 20
4.608067202668983
 10
18.04655379699841
 20
4.604386762724811
 10
18.0348428888224
 20
4.600354104065818
 10
18.02008166356577
 20
4.595786775663899
 10
18.00154464437745
 20
4.590502326490948
 10
18.0
 20
4.590087707470328
  0
LINE
  5
F780
330
F510
100
AcDbEntity
  8
0
100
AcDbLine
 10
21.49820682649039
 20
9.245020918650727
 30
0.0
 11
16.87320682649039
 21
9.631874166561193
 31
0.0
  0
ENDBLK
  5
F781
330
F510
100
AcDbEntity
  8
0
100
AcDbBlockEnd
  0
BLOCK
  5
F783
330
F782
100
AcDbEntity
  8
0
100
AcDbBlockBegin
  2
5556_C
 70
     0
 10
0.0
 20
0.0
 30
0.0
  3
5556_C
  1

  0
LINE
  5
F784
330
F782
100
AcDbEntity
  8
0
100
AcDbLine
 10
-1.126793173509611
 20
-9.631874166561193
 30
0.0
 11
-1.126793173509597
 21
-5.041786459090864
 31
0.0
  0
LINE
  5
F785
330
F782
100
AcDbEntity
  8
0
100
AcDbLine
 10
0.0000000000000853
 20
-9.631874166561193
 30
0.0
 11
0.0
 21
0.0
 31
0.0
  0
LINE
  5
F786
330
F782
100
AcDbEntity
  8
0
100
AcDbLine
 10
-1.126793173509611
 20
-9.631874166561193
 30
0.0
 11
0.0000000000000853
 21
-9.631874166561193
 31
0.0
  0
LWPOLYLINE
  5
F787
330
F782
100
AcDbEntity
  8
0
100
AcDbPolyline
 90
      303
 70
     0
 43
0.0
 10
-4.625
 20
-1.386787958470847
 10
-4.602312345115294
 20
-1.388280825004329
 10
-4.537015874967835
 20
-1.394668862002212
 10
-4.47607010537348
 20
-1.402584082639148
 10
-4.419259360632665
 20
-1.41176266687043
 10
-4.366367965045853
 20
-1.421940794651355
 10
-4.31718024291348
 20
-1.432854645937219
 10
-4.271480518536009
 20
-1.444240400683359
 10
-4.22903204446915
 20
-1.455892452657693
 10
-4.189513786289836
 20
-1.467838050878949
 10
-4.152583637830218
 20
-1.48016265817851
 10
-4.117899492922489
 20
-1.492951737387755
 10
-4.085119245398843
 20
-1.50629075133807
 10
-4.053900789091457
 20
-1.520265162860845
 10
-4.023902017832512
 20
-1.534960434787436
 10
-3.994780825454199
 20
-1.550462029949255
 10
-3.966239728257107
 20
-1.566851076106516
 10
-3.938159732415471
 20
-1.584191360734813
 10
-3.910466466571975
 20
-1.602542336238585
 10
-3.883085559369249
 20
-1.621963455022278
 10
-3.855942639449963
 20
-1.642514169490329
 10
-3.828963335456762
 20
-1.664253932047177
 10
-3.802073276032302
 20
-1.687242195097258
 10
-3.775198089819241
 20
-1.711538411045019
 10
-3.748293153944274
 20
-1.737187169193791
 10
-3.72143283947031
 20
-1.764173606442454
 10
-3.694721265944238
 20
-1.79246799658879
 10
-3.668262552913006
 20
-1.822040613430594
 10
-3.642160819923532
 20
-1.852861730765628
 10
-3.616520186522734
 20
-1.88490162239168
 10
-3.591444772257545
 20
-1.918130562106533
 10
-3.567038696674913
 20
-1.952518823707961
 10
-3.543385007503403
 20
-1.987992091690415
 10
-3.520482465198327
 20
-2.024297693335036
 10
-3.498308758396632
 20
-2.061138366619605
 10
-3.476841575735321
 20
-2.098216849521939
 10
-3.456058605851325
 20
-2.135235880019834
 10
-3.435937537381619
 20
-2.171898196091088
 10
-3.416456058963177
 20
-2.207906535713501
 10
-3.39759185923296
 20
-2.242963636864878
 10
-3.379313950309466
 20
-2.276825496968662
 10
-3.361556638237203
 20
-2.309461151230877
 10
-3.344245552542219
 20
-2.340892894303181
 10
-3.327306322750558
 20
-2.371143020837237
 10
-3.310664578388283
 20
-2.400233825484725
 10
-3.294245948981426
 20
-2.428187602897295
 10
-3.277976064056062
 20
-2.455026647726626
 10
-3.261780553138194
 20
-2.480773254624363
 10
-3.245599919701461
 20
-2.505441048099875
 10
-3.229434163009685
 20
-2.529008972093251
 10
-3.213298156274277
 20
-2.551447300402262
 10
-3.197206772706621
 20
-2.572726306824698
 10
-3.181174885518132
 20
-2.59281626515834
 10
-3.165217367920206
 20
-2.611687449200964
 10
-3.149349093124243
 20
-2.629310132750347
 10
-3.133584934341655
 20
-2.645654589604276
 10
-3.117937286062485
 20
-2.66071338821219
 10
-3.102408627891463
 20
-2.674568275630196
 10
-3.08699896071198
 20
-2.687323293566066
 10
-3.071708285407453
 20
-2.699082483727568
 10
-3.056536602861228
 20
-2.709949887822471
 10
-3.041483913956739
 20
-2.720029547558542
 10
-3.026550219577359
 20
-2.729425504643565
 10
-3.011735520606464
 20
-2.738241800785289
 10
-2.997042296722412
 20
-2.746563898815114
 10
-2.982482942783349
 20
-2.754402946058863
 10
-2.968072332442361
 20
-2.761751510965986
 10
-2.953825339352547
 20
-2.768602161985924
 10
-2.93975683716701
 20
-2.774947467568118
 10
-2.925881699538834
 20
-2.780779996162028
 10
-2.91221480012112
 20
-2.786092316217079
 10
-2.898771012566967
 20
-2.790876996182731
 10
-2.885587521892489
 20
-2.7951365132425
 10
-2.872790758565969
 20
-2.798912979516188
 10
-2.860529464418689
 20
-2.802258415857689
 10
-2.848952381281975
 20
-2.805224843120885
 10
-2.838208250987079
 20
-2.807864282159663
 10
-2.828445815365341
 20
-2.810228753827907
 10
-2.819813816248029
 20
-2.812370278979496
 10
-2.812460995466466
 20
-2.814340878468325
 10
-2.80648403529932
 20
-2.816239639635124
 10
-2.801771379814823
 20
-2.818353915768017
 10
-2.79815941352858
 20
-2.82101812664198
 10
-2.795484520956193
 20
-2.824566692031979
 10
-2.793583086613253
 20
-2.829334031713003
 10
-2.792291495015405
 20
-2.835654565460014
 10
-2.79144613067821
 20
-2.843862713047997
 10
-2.790883378117314
 20
-2.854292894251916
 10
-2.790468130566779
 20
-2.867127182060375
 10
-2.790179316134697
 20
-2.881938262316463
 10
-2.790024371647604
 20
-2.898146474076884
 10
-2.790010733932035
 20
-2.915172156398352
 10
-2.790145839814556
 20
-2.932435648337584
 10
-2.790437126121688
 20
-2.949357288951283
 10
-2.790892029680009
 20
-2.965357417296164
 10
-2.791517987316041
 20
-2.979856372428937
 10
-2.792303843127427
 20
-2.992421885825656
 10
-2.793164070296171
 20
-3.003211258639733
 10
-2.793994549275339
 20
-3.012529184443931
 10
-2.794691160517984
 20
-3.020680356810984
 10
-2.795149784477203
 20
-3.027969469313664
 10
-2.795266301606062
 20
-3.034701215524719
 10
-2.794936592357629
 20
-3.041180289016907
 10
-2.794056537184999
 20
-3.04771138336298
 10
-2.792541848888461
 20
-3.054528592405418
 10
-2.790387569657269
 20
-3.061583611065614
 10
-2.787608574027913
 20
-3.068757534534693
 10
-2.784219736536883
 20
-3.075931458003768
 10
-2.780235931720653
 20
-3.082986476663968
 10
-2.775672034115729
 20
-3.089803685706407
 10
-2.77054291825857
 20
-3.096264180322204
 10
-2.764863458685681
 20
-3.102249055702483
 10
-2.758644489818749
 20
-3.107678601496601
 10
-2.751880685620221
 20
-3.112629885186859
 10
-2.744562679937772
 20
-3.117219168713791
 10
-2.736681106619045
 20
-3.121562714017937
 10
-2.728226599511714
 20
-3.125776783039835
 10
-2.719189792463453
 20
-3.129977637720028
 10
-2.709561319321892
 20
-3.134281539999047
 10
-2.699331813934705
 20
-3.138804751817431
 10
-2.68850823926283
 20
-3.143638872616158
 10
-2.677162874720266
 20
-3.148776851837968
 10
-2.665384328834278
 20
-3.154186976426053
 10
-2.653261210132157
 20
-3.159837533323592
 10
-2.640882127141154
 20
-3.165696809473764
 10
-2.628335688388574
 20
-3.171733091819756
 10
-2.615710502401668
 20
-3.177914667304744
 10
-2.603095177707714
 20
-3.184209822871924
 10
-2.590570570931348
 20
-3.19060250663384
 10
-2.578186531086615
 20
-3.197139311380521
 10
-2.565985155284892
 20
-3.203882491071368
 10
-2.554008540637624
 20
-3.210894299665778
 10
-2.542298784256146
 20
-3.218236991123152
 10
-2.530897983251904
 20
-3.225972819402887
 10
-2.519848234736258
 20
-3.234164038464381
 10
-2.509191635820656
 20
-3.242872902267031
 10
-2.498960244982754
 20
-3.252149778997235
 10
-2.489145966165565
 20
-3.261997493749372
 10
-2.479730664678356
 20
-3.272406985844828
 10
-2.470696205830407
 20
-3.283369194604976
 10
-2.462024454931011
 20
-3.294875059351202
 10
-2.45369727728945
 20
-3.306915519404871
 10
-2.445696538215017
 20
-3.319481514087375
 10
-2.438004103016993
 20
-3.332563982720088
 10
-2.430610904570855
 20
-3.346141783310578
 10
-2.423544146016936
 20
-3.360145448611145
 10
-2.416840098061726
 20
-3.374493430060294
 10
-2.410535031411782
 20
-3.389104179096516
 10
-2.40466521677358
 20
-3.403896147158306
 10
-2.399266924853648
 20
-3.418787785684155
 10
-2.394376426358505
 20
-3.433697546112565
 10
-2.39002999199468
 20
-3.44854387988202
 10
-2.38624953515756
 20
-3.463241463080105
 10
-2.382999539998223
 20
-3.477689870390687
 10
-2.380230133356562
 20
-3.491784901146729
 10
-2.377891442072538
 20
-3.505422354681183
 10
-2.375933592986086
 20
-3.518498030327009
 10
-2.374306712937141
 20
-3.530907727417165
 10
-2.37296092876565
 20
-3.542547245284602
 10
-2.371846367311547
 20
-3.553312383262277
 10
-2.37091013311354
 20
-3.563128388683914
 10
-2.370087241505459
 20
-3.572038300886323
 10
-2.369309685519937
 20
-3.580114607207061
 10
-2.368509458189578
 20
-3.587429794983702
 10
-2.367618552546986
 20
-3.594056351553824
 10
-2.366568961624793
 20
-3.600066764254986
 10
-2.365292678455602
 20
-3.60553352042476
 10
-2.363721696072019
 20
-3.610529107400715
 10
-2.361795563738226
 20
-3.615118461818582
 10
-2.3594840556446
 20
-3.619336317506682
 10
-2.356764502213096
 20
-3.623209857591529
 10
-2.353614233865656
 20
-3.626766265199602
 10
-2.350010581024221
 20
-3.630032723457393
 10
-2.345930874110734
 20
-3.633036415491407
 10
-2.341352443547151
 20
-3.63580452442812
 10
-2.336252619755384
 20
-3.638364233394035
 10
-2.330597398662845
 20
-3.640737439869845
 10
-2.324307438218653
 20
-3.642924898753047
 10
-2.317292061877338
 20
-3.644922079295351
 10
-2.30946059309349
 20
-3.646724450748457
 10
-2.300722355321653
 20
-3.64832748236407
 10
-2.290986672016387
 20
-3.649726643393893
 10
-2.280162866632238
 20
-3.650917403089621
 10
-2.26816026262378
 20
-3.651895230702972
 10
-2.254972059500403
 20
-3.652660881085996
 10
-2.240926960990776
 20
-3.65323625149217
 10
-2.226437546878457
 20
-3.653648524775334
 10
-2.211916396946946
 20
-3.653924883789329
 10
-2.197776090979814
 20
-3.654092511387975
 10
-2.184429208760548
 20
-3.654178590425122
 10
-2.172288330072689
 20
-3.654210303754599
 10
-2.16176603469978
 20
-3.654214834230234
 10
-2.153166845752252
 20
-3.654222385022968
 10
-2.146363059648294
 20
-3.654275240572093
 10
-2.141118916133009
 20
-3.654418705633997
 10
-2.13719865495149
 20
-3.65469808496508
 10
-2.134366515848853
 20
-3.655158683321733
 10
-2.13238673857019
 20
-3.655845805460341
 10
-2.13102356286059
 20
-3.656804756137301
 10
-2.130041228465188
 20
-3.658080840109004
 10
-2.129241001650143
 20
-3.660020025237219
 10
-2.128572254765899
 20
-3.664170931805202
 10
-2.128021386684039
 20
-3.672382843201607
 10
-2.127574796276064
 20
-3.686505042815067
 10
-2.127218882413544
 20
-3.708386814034227
 10
-2.126940043968005
 20
-3.739877440247727
 10
-2.12672467981099
 20
-3.782826204844205
 10
-2.126559188814042
 20
-3.839082391212308
 10
-2.126426380484105
 20
-3.909568110830964
 10
-2.126294706869813
 20
-3.991496787540285
 10
-2.126129030655235
 20
-4.081154673270674
 10
-2.125894214524379
 20
-4.174828019952535
 10
-2.12555512116134
 20
-4.268803079516267
 10
-2.125076613250129
 20
-4.359366103892273
 10
-2.124423553474812
 20
-4.442803345010965
 10
-2.123560804519428
 20
-4.515401054802733
 10
-2.122450587581909
 20
-4.574364761903197
 10
-2.121044557915752
 20
-4.620577101768834
 10
-2.119291729288292
 20
-4.655839986561328
 10
-2.117141115466921
 20
-4.681955328442359
 10
-2.114541730219002
 20
-4.700725039573629
 10
-2.11144258731187
 20
-4.713951032116806
 10
-2.107792700512931
 20
-4.723435218233586
 10
-2.103541083589533
 20
-4.730979510085656
 10
-2.098653092820399
 20
-4.738081189336696
 10
-2.093159454529725
 20
-4.745019015658357
 10
-2.087107237553055
 20
-4.751767118224311
 10
-2.080543510725973
 20
-4.758299626208202
 10
-2.073515342883993
 20
-4.764590668783686
 10
-2.066069802862699
 20
-4.770614375124424
 10
-2.058253959497619
 20
-4.776344874404063
 10
-2.050114881624324
 20
-4.781756295796267
 10
-2.041526380823682
 20
-4.786824205606485
 10
-2.031669239657688
 20
-4.791529918667382
 10
-2.019550983433703
 20
-4.795856186943421
 10
-2.004179137459061
 20
-4.799785762399071
 10
-1.984561227041098
 20
-4.803301396998794
 10
-1.959704777487118
 20
-4.806385842707054
 10
-1.928617314104499
 20
-4.809021851488314
 10
-1.890306362200547
 20
-4.811192175307041
 10
-1.84430512887927
 20
-4.812896304930067
 10
-1.792249548431342
 20
-4.814200686333681
 10
-1.736301236944086
 20
-4.815188504296557
 10
-1.678621810504822
 20
-4.815942943597352
 10
-1.621372885200898
 20
-4.816547189014737
 10
-1.566716077119636
 20
-4.817084425327372
 10
-1.516813002348357
 20
-4.81763783731392
 10
-1.473825276974423
 20
-4.818290609753049
 10
-1.439370682635484
 20
-4.819110636568261
 10
-1.41289166317054
 20
-4.820104648262464
 10
-1.393286827968964
 20
-4.821264084483384
 10
-1.379454786420097
 20
-4.822580384878758
 10
-1.370294147913298
 20
-4.824044989096339
 10
-1.36470352183791
 20
-4.825649336783857
 10
-1.361581517583289
 20
-4.827384867589056
 10
-1.359826744538793
 20
-4.829243021159665
 10
-1.358509654818732
 20
-4.831223719197573
 10
-1.357388071437355
 20
-4.833360811621211
 10
-1.356391660133851
 20
-4.835696630403159
 10
-1.355450086647437
 20
-4.838273507515989
 10
-1.354493016717327
 20
-4.84113377493227
 10
-1.353450116082726
 20
-4.844319764624586
 10
-1.352251050482834
 20
-4.847873808565513
 10
-1.350825485656869
 20
-4.851838238727619
 10
-1.349114158956183
 20
-4.856241827148505
 10
-1.347102094180698
 20
-4.861059106125804
 10
-1.344785386742529
 20
-4.866251048022181
 10
-1.342160132053749
 20
-4.871778625200303
 10
-1.339222425526443
 20
-4.877602810022818
 10
-1.335968362572714
 20
-4.883684574852392
 10
-1.332394038604618
 20
-4.889984892051689
 10
-1.328495549034272
 20
-4.896464733983361
 10
-1.324277125745936
 20
-4.90308051990387
 10
-1.319775546512488
 20
-4.909770456644846
 10
-1.315035725579036
 20
-4.916468197931724
 10
-1.310102577190619
 20
-4.923107397489935
 10
-1.30502101559233
 20
-4.929621709044909
 10
-1.299835955029237
 20
-4.935944786322082
 10
-1.294592309746448
 20
-4.942010283046876
 10
-1.289334993989001
 20
-4.947751852944733
 10
-1.284098181587808
 20
-4.95312331380224
 10
-1.278873084717133
 20
-4.958159139650671
 10
-1.273640175137074
 20
-4.962913968582451
 10
-1.268379924607728
 20
-4.967442438690003
 10
-1.263072804889162
 20
-4.971799188065762
 10
-1.257699287741502
 20
-4.976038854802162
 10
-1.252239844924815
 20
-4.980216076991631
 10
-1.246674948199199
 20
-4.984385492726591
 10
-1.240987835957923
 20
-4.988587592792256
 10
-1.235172813126865
 20
-4.992806278744918
 10
-1.229226951265104
 20
-4.997011304833652
 10
-1.223147321931719
 20
-5.001172425307526
 10
-1.216930996685761
 20
-5.00525939441562
 10
-1.21057504708628
 20
-5.009241966407
 10
-1.204076544692384
 20
-5.013089895530736
 10
-1.197432561063095
 20
-5.016772936035906
 10
-1.190519743022491
 20
-5.020296291634753
 10
-1.182733038454472
 20
-5.023806963892209
 10
-1.173346970508021
 20
-5.027487403836381
 10
-1.161636062332007
 20
-5.031520062495374
 10
-1.146874837075372
 20
-5.036087390897293
 10
-1.128337817887057
 20
-5.041371840070244
 10
-1.126793173509597
 20
-5.041786459090864
  0
LINE
  5
F8B8
330
F782
100
AcDbEntity
  8
0
100
AcDbLine
 10
-4.625
 20
-0.3868532479104658
 30
0.0
 11
0.0
 21
0.0
 31
0.0
  0
LINE
  5
F8B9
330
F782
100
AcDbEntity
  8
0
100
AcDbLine
 10
-4.625
 20
-0.3868532479104658
 30
0.0
 11
0.0
 21
-0.3868532479104658
 31
0.0
  0
LINE
  5
F8BA
330
F782
100
AcDbEntity
  8
0
100
AcDbLine
 10
-4.625
 20
-1.386787958470847
 30
0.0
 11
-4.625
 21
-0.3868532479104658
 31
0.0
  0
LINE
  5
F8BB
330
F782
100
AcDbEntity
  8
0
100
AcDbLine
 10
-2.129241001650143
 20
-3.660020025237219
 30
0.0
 11
0.0000000000000284
 21
-3.660020025237201
 31
0.0
  0
LINE
  5
F8BC
330
F782
100
AcDbEntity
  8
0
100
AcDbLine
 10
-1.393286827968964
 20
-4.821264084483384
 30
0.0
 11
0.0000000000000426
 21
-4.821264084483374
 31
0.0
  0
LINE
  5
F8BD
330
F782
100
AcDbEntity
  8
0
100
AcDbLine
 10
-1.126793173509597
 20
-5.041786459090864
 30
0.0
 11
0.0000000000000426
 21
-5.041786459090854
 31
0.0
  0
LINE
  5
F8BE
330
F782
100
AcDbEntity
  8
0
100
AcDbLine
 10
-2.793583086613253
 20
-2.829334031713003
 30
0.0
 11
0.0000000000000284
 21
-2.829334031712974
 31
0.0
  0
ENDBLK
  5
F8BF
330
F782
100
AcDbEntity
  8
0
100
AcDbBlockEnd
  0
BLOCK
  5
101A4
330
10199
100
AcDbEntity
  8
0
100
AcDbBlockBegin
  2
*D2
 70
     1
 10
0.0
 20
0.0
 30
0.0
  3
*D2
  1

  0
LINE
  5
10236
330
10199
100
AcDbEntity
  8
DIM
 62
     0
370
    -2
100
AcDbLine
 10
160.2566162704963
 20
7.190456111297461
 30
0.0
 11
160.2566162704963
 21
-6.096540716737671
 31
0.0
  0
LINE
  5
10237
330
10199
100
AcDbEntity
  8
DIM
 62
     0
370
    -2
100
AcDbLine
 10
163.0066162704963
 20
7.190456111297456
 30
0.0
 11
163.0066162704963
 21
-6.096540716737671
 31
0.0
  0
LINE
  5
10238
330
10199
100
AcDbEntity
  8
DIM
 62
     0
370
    -2
100
AcDbLine
 10
160.4366162704963
 20
-5.916540716737671
 30
0.0
 11
162.8266162704963
 21
-5.916540716737671
 31
0.0
  0
LINE
  5
10239
330
10199
100
AcDbEntity
  8
DIM
 62
     0
370
    -2
100
AcDbLine
 10
163.0066162704963
 20
-5.916540716737671
 30
0.0
 11
163.1866162704963
 21
-5.916540716737671
 31
0.0
  0
SOLID
  5
1023A
330
10199
100
AcDbEntity
  8
DIM
 62
     0
100
AcDbTrace
 10
160.4366162704963
 20
-5.886540716737671
 30
0.0
 11
160.4366162704963
 21
-5.946540716737671
 31
0.0
 12
160.2566162704963
 22
-5.916540716737671
 32
0.0
 13
160.2566162704963
 23
-5.916540716737671
 33
0.0
  0
SOLID
  5
1023B
330
10199
100
AcDbEntity
  8
DIM
 62
     0
100
AcDbTrace
 10
162.8266162704963
 20
-5.886540716737671
 30
0.0
 11
162.8266162704963
 21
-5.946540716737671
 31
0.0
 12
163.0066162704963
 22
-5.916540716737671
 32
0.0
 13
163.0066162704963
 23
-5.916540716737671
 33
0.0
  0
MTEXT
  5
1023C
330
10199
100
AcDbEntity
  8
DIM
 62
     0
100
AcDbMText
 10
167.9432829371629
 20
-5.916540716737671
 30
0.0
 40
2.0
 41
0.0
 71
     5
 72
     1
  1
\A1;2.7500
 73
     1
 44
1.0
  0
POINT
  5
1023D
330
10199
100
AcDbEntity
  8
Defpoints
 62
     0
100
AcDbPoint
 10
160.2566162704963
 20
7.252956111297461
 30
0.0
  0
POINT
  5
1023E
330
10199
100
AcDbEntity
  8
Defpoints
 62
     0
100
AcDbPoint
 10
163.0066162704963
 20
7.252956111297456
 30
0.0
  0
POINT
  5
1023F
330
10199
100
AcDbEntity
  8
Defpoints
 62
     0
100
AcDbPoint
 10
163.0066162704963
 20
-5.916540716737671
 30
0.0
  0
ENDBLK
  5
101A5
330
10199
100
AcDbEntity
  8
0
100
AcDbBlockEnd
  0
ENDSEC
  0
SECTION
  2
ENTITIES
  0
LINE
  5
FC68
330
18
100
AcDbEntity
  8
0
100
AcDbLine
 10
163.0066162704963
 20
23.19045611129746
 30
0.0
 11
163.0066162704963
 21
-0.1845438887025442
 31
0.0
  0
LINE
  5
FC77
330
18
100
AcDbEntity
  8
0
100
AcDbLine
 10
160.2566175951378
 20
25.32326484434817
 30
0.0
 11
160.2566233475316
 21
5.815456111297461
 31
0.0
  0
LINE
  5
FC7B
330
18
100
AcDbEntity
  8
0
100
AcDbLine
 10
162.2566162704963
 20
-0.1845438887025442
 30
0.0
 11
163.0066162704963
 21
-0.1845438887025442
 31
0.0
  0
LINE
  5
FDFB
330
18
100
AcDbEntity
  8
DIM
100
AcDbLine
 10
85.05974486542312
 20
23.81545611129747
 30
0.0
 11
85.05974486542312
 21
23.81545611129747
 31
0.0
  0
ARC
  5
FE74
330
18
100
AcDbEntity
  8
0
100
AcDbCircle
 10
160.264446014622
 20
29.54851465785939
 30
0.0
 40
0.7423635912065909
100
AcDbArc
 50
279.0811993230848
 51
1.307658492384205
  0
LINE
  5
FE75
330
18
100
AcDbEntity
  8
0
100
AcDbLine
 10
161.8816162704963
 20
27.69045611129746
 30
0.0
 11
161.8816162704963
 21
33.19045611129747
 31
0.0
  0
ARC
  5
FE77
330
18
100
AcDbEntity
  8
0
100
AcDbCircle
 10
160.4359849298099
 20
26.3723268392842
 30
0.0
 40
0.5707248205868384
100
AcDbArc
 50
1.037025173037017
 51
95.46642707375358
  0
LINE
  5
FE78
330
18
100
AcDbEntity
  8
0
100
AcDbLine
 10
160.3816162704963
 20
28.81545611129746
 30
0.0
 11
160.3816162704963
 21
26.94045611129746
 31
0.0
  0
ARC
  5
FE79
330
18
100
AcDbEntity
  8
0
100
AcDbCircle
 10
161.6141567243581
 20
25.92298501596593
 30
0.0
 40
0.233194979434836
100
AcDbArc
 50
175.7061884998027
 51
274.2938115001981
  0
LINE
  5
FE7A
330
18
100
AcDbEntity
  8
0
100
AcDbLine
 10
161.0066162704963
 20
26.38265611129746
 30
0.0
 11
161.0066162704963
 21
25.9404445621041
 31
0.0
  0
LINE
  5
FE7B
330
18
100
AcDbEntity
  8
0
100
AcDbLine
 10
161.0066162704963
 20
25.9404445621041
 30
0.0
 11
161.3816162704963
 21
25.9404445621041
 31
0.0
  0
LINE
  5
FE7C
330
18
100
AcDbEntity
  8
0
100
AcDbLine
 10
162.2566162704963
 20
23.81545611129746
 30
0.0
 11
163.0066162704963
 21
23.81545611129746
 31
0.0
  0
LINE
  5
FE7D
330
18
100
AcDbEntity
  8
0
100
AcDbLine
 10
163.0066162704963
 20
26.44045611129746
 30
0.0
 11
163.0066162704963
 21
23.81545611129746
 31
0.0
  0
LINE
  5
FE7E
330
18
100
AcDbEntity
  8
0
100
AcDbLine
 10
162.2566162704963
 20
24.3154445621041
 30
0.0
 11
162.2566162704963
 21
23.81545611129746
 31
0.0
  0
ARC
  5
FE7F
330
18
100
AcDbEntity
  8
0
100
AcDbCircle
 10
161.6316162704963
 20
24.31544456210409
 30
0.0
 40
0.6250000000000142
100
AcDbArc
 50
0.0000000000010178
 51
89.99999999999836
  0
LINE
  5
FE80
330
18
100
AcDbEntity
  8
0
100
AcDbLine
 10
161.6316162704963
 20
25.6904445621041
 30
0.0
 11
161.6316162704963
 21
24.9404445621041
 31
0.0
  0
LINE
  5
FE81
330
18
100
AcDbEntity
  8
0
100
AcDbLine
 10
161.8816162704963
 20
27.69045611129746
 30
0.0
 11
163.0066162704963
 21
26.44045611129746
 31
0.0
  0
LINE
  5
FE82
330
18
100
AcDbEntity
  8
0
100
AcDbLine
 10
160.2566162704963
 20
29.81545611129746
 30
0.0
 11
161.0066162704963
 21
29.81545611129746
 31
0.0
  0
ARC
  5
FE83
330
18
100
AcDbEntity
  8
0
100
AcDbCircle
 10
160.2566162704963
 20
33.31545611129747
 30
0.0
 40
0.6250000000000036
100
AcDbArc
 50
270.0
 51
359.9999999999997
  0
LINE
  5
FE84
330
18
100
AcDbEntity
  8
0
100
AcDbLine
 10
160.2566162704963
 20
29.81545611129746
 30
0.0
 11
160.2566162704963
 21
32.69045611129747
 31
0.0
  0
LINE
  5
FE85
330
18
100
AcDbEntity
  8
0
100
AcDbLine
 10
161.0066162704963
 20
29.56545611129746
 30
0.0
 11
161.0066162704963
 21
29.81545611129746
 31
0.0
  0
LINE
  5
FE86
330
18
100
AcDbEntity
  8
0
100
AcDbLine
 10
163.0066162704963
 20
33.19045611129747
 30
0.0
 11
163.0066162704963
 21
33.81545611129747
 31
0.0
  0
LINE
  5
FE87
330
18
100
AcDbEntity
  8
0
100
AcDbLine
 10
161.8816162704963
 20
33.19045611129747
 30
0.0
 11
163.0066162704963
 21
33.19045611129747
 31
0.0
  0
LINE
  5
FE88
330
18
100
AcDbEntity
  8
0
100
AcDbLine
 10
160.8816162704963
 20
33.31545611129747
 30
0.0
 11
160.8816162704963
 21
33.81545611129747
 31
0.0
  0
LINE
  5
FE89
330
18
100
AcDbEntity
  8
0
100
AcDbLine
 10
160.8816162704963
 20
33.81545611129747
 30
0.0
 11
163.0066162704963
 21
33.81545611129747
 31
0.0
  0
ARC
  5
FEC2
330
18
100
AcDbEntity
  8
0
100
AcDbCircle
 10
85.05974500259618
 20
-0.1845438887025479
 30
0.0
 40
24.0
100
AcDbArc
 50
0.0
 51
81.53730087809416
  0
ARC
  5
FEC3
330
18
100
AcDbEntity
  8
0
100
AcDbCircle
 10
85.05974500259618
 20
-0.1845438887025317
 30
0.0
 40
25.12498845080664
100
AcDbArc
 50
2.566315512403541
 51
81.69144044961164
  0
ARC
  5
FEC4
330
18
100
AcDbEntity
  8
0
100
AcDbCircle
 10
85.05974500259616
 20
-0.1845438887025392
 30
0.0
 40
25.87433392523362
100
AcDbArc
 50
4.154138596774173
 51
81.78666209360036
  0
ARC
  5
FEC5
330
18
100
AcDbEntity
  8
0
100
AcDbCircle
 10
85.05974500259618
 20
-0.1839412244395946
 30
0.0
 40
26.12498845775792
100
AcDbArc
 50
4.664227157834785
 51
81.81717653190467
  0
ARC
  5
FEC6
330
18
100
AcDbEntity
  8
0
100
AcDbCircle
 10
85.05974500259618
 20
-0.1845438887025268
 30
0.0
 40
27.125
100
AcDbArc
 50
6.615586161765716
 51
81.93385272427784
  0
ARC
  5
FEC7
330
18
100
AcDbEntity
  8
0
100
AcDbCircle
 10
85.05974500259616
 20
-0.1845438887025363
 30
0.0
 40
29.0
100
AcDbArc
 50
9.928191842286475
 51
82.13070585777309
  0
ARC
  5
FEC8
330
18
100
AcDbEntity
  8
0
100
AcDbCircle
 10
85.05974500259616
 20
-0.1845438887025293
 30
0.0
 40
30.0
100
AcDbArc
 50
11.53695903281547
 51
82.22562065816212
  0
ARC
  5
FEC9
330
18
100
AcDbEntity
  8
0
100
AcDbCircle
 10
85.0597450025962
 20
-0.1845438887025346
 30
0.0
 40
32.87500000000001
100
AcDbArc
 50
15.66200428572599
 51
82.46630287585693
  0
ARC
  5
FECA
330
18
100
AcDbEntity
  8
0
100
AcDbCircle
 10
85.05974500259618
 20
-0.1845438887025432
 30
0.0
 40
34.00000000000001
100
AcDbArc
 50
17.10463517664379
 51
82.54939236852825
  0
LINE
  5
FF41
330
18
100
AcDbEntity
  8
0
100
AcDbLine
 10
59.9599552497174
 20
0.9404445621041015
 30
0.0
 11
24.43474500259616
 21
0.9404445621041086
 31
0.0
  0
LINE
  5
FF42
330
18
100
AcDbEntity
  8
0
100
AcDbLine
 10
59.2533886458531
 20
1.68979003653109
 30
0.0
 11
24.43474500259618
 21
1.689790036531096
 31
0.0
  0
LINE
  5
FF43
330
18
100
AcDbEntity
  8
0
100
AcDbLine
 10
59.02127333185646
 20
1.940444562104094
 30
0.0
 11
23.99724500259619
 21
1.940444562104101
 31
0.0
  0
LINE
  5
FF44
330
18
100
AcDbEntity
  8
0
100
AcDbLine
 10
58.11535783198123
 20
2.940456111297461
 30
0.0
 11
23.18474500259619
 21
2.940456111297468
 31
0.0
  0
LINE
  5
FF45
330
18
100
AcDbEntity
  8
0
100
AcDbLine
 10
56.49403128842478
 20
4.81545611129746
 30
0.0
 11
23.18474500259619
 21
4.815456111297466
 31
0.0
  0
LINE
  5
FF46
330
18
100
AcDbEntity
  8
0
100
AcDbLine
 10
55.66586808919804
 20
5.815456111297462
 30
0.0
 11
23.80974500259619
 21
5.81545611129747
 31
0.0
  0
LINE
  5
FF47
330
18
100
AcDbEntity
  8
0
100
AcDbLine
 10
53.40536141990735
 20
8.690456111297462
 30
0.0
 11
23.05974500259619
 21
8.690456111297468
 31
0.0
  0
LINE
  5
FF48
330
18
100
AcDbEntity
  8
0
100
AcDbLine
 10
25.80974500259619
 20
-0.1845438887025385
 30
0.0
 11
61.05974500259619
 21
-0.1845438887025459
 31
0.0
  0
LINE
  5
FF49
330
18
100
AcDbEntity
  8
0
100
AcDbLine
 10
25.80974500259619
 20
9.815456111297468
 30
0.0
 11
52.56359138405234
 21
9.815456111297459
 31
0.0
  0
ARC
  5
FF4C
330
18
100
AcDbEntity
  8
0
100
AcDbCircle
 10
23.06757474672187
 20
5.548514657859399
 30
0.0
 40
0.7423635912065909
100
AcDbArc
 50
279.0811993230848
 51
1.307658492384316
  0
LINE
  5
FF4E
330
18
100
AcDbEntity
  8
0
100
AcDbLine
 10
23.80974500259619
 20
1.940444562104101
 30
0.0
 11
24.18474500259619
 21
1.940444562104101
 31
0.0
  0
ARC
  5
FF4F
330
18
100
AcDbEntity
  8
0
100
AcDbCircle
 10
23.2391136619098
 20
2.372326839284202
 30
0.0
 40
0.5707248205868384
100
AcDbArc
 50
1.037025173037009
 51
95.46642707375397
  0
LINE
  5
FF50
330
18
100
AcDbEntity
  8
0
100
AcDbLine
 10
23.80974500259619
 20
2.382656111297468
 30
0.0
 11
23.80974500259619
 21
1.940444562104101
 31
0.0
  0
LINE
  5
FF51
330
18
100
AcDbEntity
  8
0
100
AcDbLine
 10
23.18474500259619
 20
4.815456111297466
 30
0.0
 11
23.18474500259619
 21
2.940456111297468
 31
0.0
  0
LINE
  5
FF52
330
18
100
AcDbEntity
  8
0
100
AcDbLine
 10
25.05974500259617
 20
0.3154445621041051
 30
0.0
 11
25.05974500259617
 21
-0.184543888702535
 31
0.0
  0
ARC
  5
FF53
330
18
100
AcDbEntity
  8
0
100
AcDbCircle
 10
24.43474500259616
 20
0.3154445621040944
 30
0.0
 40
0.6250000000000142
100
AcDbArc
 50
0.0000000000010178
 51
89.99999999999877
  0
LINE
  5
FF54
330
18
100
AcDbEntity
  8
0
100
AcDbLine
 10
24.43474500259619
 20
1.690444562104101
 30
0.0
 11
24.43474500259619
 21
0.9404445621041015
 31
0.0
  0
ARC
  5
FF55
330
18
100
AcDbEntity
  8
0
100
AcDbCircle
 10
24.417285456458
 20
1.922985015965931
 30
0.0
 40
0.233194979434836
100
AcDbArc
 50
175.7061884998026
 51
274.2938115001985
  0
LINE
  5
FF58
330
18
100
AcDbEntity
  8
0
100
AcDbLine
 10
25.05974500259617
 20
-0.184543888702535
 30
0.0
 11
25.80974500259619
 21
-0.184543888702535
 31
0.0
  0
LINE
  5
FF59
330
18
100
AcDbEntity
  8
0
100
AcDbLine
 10
23.68474500259619
 20
9.815456111297468
 30
0.0
 11
25.80974500259619
 21
9.815456111297468
 31
0.0
  0
LINE
  5
FF5A
330
18
100
AcDbEntity
  8
0
100
AcDbLine
 10
23.80974500259619
 20
5.565456111297464
 30
0.0
 11
23.80974500259619
 21
5.81545611129747
 31
0.0
  0
LINE
  5
FF5B
330
18
100
AcDbEntity
  8
0
100
AcDbLine
 10
23.05974500259619
 20
5.815456111297468
 30
0.0
 11
23.80974500259619
 21
5.81545611129747
 31
0.0
  0
ARC
  5
FF5C
330
18
100
AcDbEntity
  8
0
100
AcDbCircle
 10
23.05974500259619
 20
9.315456111297471
 30
0.0
 40
0.6250000000000036
100
AcDbArc
 50
270.0
 51
359.9999999999996
  0
LINE
  5
FF5D
330
18
100
AcDbEntity
  8
0
100
AcDbLine
 10
23.05974500259619
 20
5.815456111297468
 30
0.0
 11
23.05974500259619
 21
8.690456111297468
 31
0.0
  0
LINE
  5
FF5E
330
18
100
AcDbEntity
  8
0
100
AcDbLine
 10
23.68474500259619
 20
9.315456111297468
 30
0.0
 11
23.68474500259619
 21
9.815456111297468
 31
0.0
  0
LINE
  5
FFF5
330
18
100
AcDbEntity
  8
0
100
AcDbLine
 10
110.1595347554749
 20
0.9404445621040979
 30
0.0
 11
145.6847450025962
 21
0.9404445621041048
 31
0.0
  0
LINE
  5
FFF6
330
18
100
AcDbEntity
  8
0
100
AcDbLine
 10
110.8661013593392
 20
1.689790036531086
 30
0.0
 11
145.6847450025962
 21
1.689790036531093
 31
0.0
  0
LINE
  5
FFF7
330
18
100
AcDbEntity
  8
0
100
AcDbLine
 10
111.0982166733359
 20
1.940444562104091
 30
0.0
 11
146.1222450025962
 21
1.940444562104097
 31
0.0
  0
LINE
  5
FFF8
330
18
100
AcDbEntity
  8
0
100
AcDbLine
 10
112.0041321732111
 20
2.940456111297458
 30
0.0
 11
146.9347450025962
 21
2.940456111297464
 31
0.0
  0
LINE
  5
FFF9
330
18
100
AcDbEntity
  8
0
100
AcDbLine
 10
113.6254587167675
 20
4.815456111297458
 30
0.0
 11
146.9347450025962
 21
4.815456111297464
 31
0.0
  0
LINE
  5
FFFA
330
18
100
AcDbEntity
  8
0
100
AcDbLine
 10
114.4536219159943
 20
5.815456111297458
 30
0.0
 11
146.3097450025961
 21
5.815456111297464
 31
0.0
  0
LINE
  5
FFFB
330
18
100
AcDbEntity
  8
0
100
AcDbLine
 10
116.714128585285
 20
8.690456111297459
 30
0.0
 11
147.0597450025961
 21
8.690456111297464
 31
0.0
  0
LINE
  5
FFFC
330
18
100
AcDbEntity
  8
0
100
AcDbLine
 10
144.3097450025961
 20
-0.1845438887025424
 30
0.0
 11
109.0597450025962
 21
-0.1845438887025494
 31
0.0
  0
LINE
  5
FFFD
330
18
100
AcDbEntity
  8
0
100
AcDbLine
 10
144.3097450025961
 20
9.815456111297464
 30
0.0
 11
117.55589862114
 21
9.815456111297455
 31
0.0
  0
ARC
  5
FFFE
330
18
100
AcDbEntity
  8
0
100
AcDbCircle
 10
147.0519152584705
 20
5.548514657859396
 30
0.0
 40
0.7423635912065909
100
AcDbArc
 50
178.6923415076157
 51
260.9188006769151
  0
LINE
  5
FFFF
330
18
100
AcDbEntity
  8
0
100
AcDbLine
 10
146.3097450025961
 20
1.940444562104097
 30
0.0
 11
145.9347450025962
 21
1.940444562104097
 31
0.0
  0
ARC
  5
10000
330
18
100
AcDbEntity
  8
0
100
AcDbCircle
 10
146.8803763432826
 20
2.372326839284198
 30
0.0
 40
0.5707248205868384
100
AcDbArc
 50
84.53357292624643
 51
178.9629748269631
  0
LINE
  5
10001
330
18
100
AcDbEntity
  8
0
100
AcDbLine
 10
146.3097450025961
 20
2.382656111297464
 30
0.0
 11
146.3097450025961
 21
1.940444562104097
 31
0.0
  0
LINE
  5
10002
330
18
100
AcDbEntity
  8
0
100
AcDbLine
 10
146.9347450025962
 20
4.815456111297464
 30
0.0
 11
146.9347450025962
 21
2.940456111297464
 31
0.0
  0
LINE
  5
10003
330
18
100
AcDbEntity
  8
0
100
AcDbLine
 10
145.0597450025961
 20
0.3154445621041048
 30
0.0
 11
145.0597450025961
 21
-0.1845438887025353
 31
0.0
  0
ARC
  5
10004
330
18
100
AcDbEntity
  8
0
100
AcDbCircle
 10
145.6847450025962
 20
0.3154445621040906
 30
0.0
 40
0.6250000000000142
100
AcDbArc
 50
90.00000000000161
 51
179.9999999999992
  0
LINE
  5
10005
330
18
100
AcDbEntity
  8
0
100
AcDbLine
 10
145.6847450025962
 20
1.690444562104097
 30
0.0
 11
145.6847450025962
 21
0.9404445621040977
 31
0.0
  0
ARC
  5
10006
330
18
100
AcDbEntity
  8
0
100
AcDbCircle
 10
145.7022045487343
 20
1.922985015965927
 30
0.0
 40
0.233194979434836
100
AcDbArc
 50
265.7061884998019
 51
4.293811500197311
  0
LINE
  5
10007
330
18
100
AcDbEntity
  8
0
100
AcDbLine
 10
145.0597450025961
 20
-0.1845438887025353
 30
0.0
 11
144.3097450025961
 21
-0.1845438887025353
 31
0.0
  0
LINE
  5
10008
330
18
100
AcDbEntity
  8
0
100
AcDbLine
 10
146.4347450025961
 20
9.815456111297464
 30
0.0
 11
144.3097450025961
 21
9.815456111297464
 31
0.0
  0
LINE
  5
10009
330
18
100
AcDbEntity
  8
0
100
AcDbLine
 10
146.3097450025961
 20
5.565456111297461
 30
0.0
 11
146.3097450025961
 21
5.815456111297464
 31
0.0
  0
LINE
  5
1000A
330
18
100
AcDbEntity
  8
0
100
AcDbLine
 10
147.0597450025961
 20
5.815456111297464
 30
0.0
 11
146.3097450025961
 21
5.815456111297464
 31
0.0
  0
ARC
  5
1000B
330
18
100
AcDbEntity
  8
0
100
AcDbCircle
 10
147.0597450025961
 20
9.315456111297468
 30
0.0
 40
0.6250000000000036
100
AcDbArc
 50
180.0000000000004
 51
270.0
  0
LINE
  5
1000C
330
18
100
AcDbEntity
  8
0
100
AcDbLine
 10
147.0597450025961
 20
5.815456111297464
 30
0.0
 11
147.0597450025961
 21
8.690456111297464
 31
0.0
  0
LINE
  5
1000D
330
18
100
AcDbEntity
  8
0
100
AcDbLine
 10
146.4347450025961
 20
9.315456111297464
 30
0.0
 11
146.4347450025961
 21
9.815456111297464
 31
0.0
  0
LINE
  5
10052
330
18
100
AcDbEntity
  8
0
100
AcDbLine
 10
160.8816162704963
 20
9.815456111297461
 30
0.0
 11
163.0066162704963
 21
9.815456111297461
 31
0.0
  0
LINE
  5
10053
330
18
100
AcDbEntity
  8
0
100
AcDbLine
 10
160.8816162704963
 20
9.315456111297461
 30
0.0
 11
160.8816162704963
 21
9.815456111297461
 31
0.0
  0
LINE
  5
10054
330
18
100
AcDbEntity
  8
0
100
AcDbLine
 10
161.8816162704963
 20
9.190456111297468
 30
0.0
 11
163.0066162704963
 21
9.190456111297461
 31
0.0
  0
LINE
  5
10055
330
18
100
AcDbEntity
  8
0
100
AcDbLine
 10
163.0066162704963
 20
9.190456111297461
 30
0.0
 11
163.0066162704963
 21
9.815456111297461
 31
0.0
  0
LINE
  5
10056
330
18
100
AcDbEntity
  8
0
100
AcDbLine
 10
161.0066162704963
 20
5.565456111297454
 30
0.0
 11
161.0066162704963
 21
5.815456111297461
 31
0.0
  0
LINE
  5
10057
330
18
100
AcDbEntity
  8
0
100
AcDbLine
 10
160.2566162704963
 20
5.815456111297461
 30
0.0
 11
160.2566162704963
 21
8.690456111297461
 31
0.0
  0
ARC
  5
10058
330
18
100
AcDbEntity
  8
0
100
AcDbCircle
 10
160.2566162704962
 20
9.315456111297482
 30
0.0
 40
0.6250000000000249
100
AcDbArc
 50
270.0000000000052
 51
359.9999999999977
  0
LINE
  5
10059
330
18
100
AcDbEntity
  8
0
100
AcDbLine
 10
160.2566162704963
 20
5.815456111297461
 30
0.0
 11
161.0066162704963
 21
5.815456111297461
 31
0.0
  0
LINE
  5
1005A
330
18
100
AcDbEntity
  8
0
100
AcDbLine
 10
161.8816162704963
 20
3.690456111297461
 30
0.0
 11
163.0066162704963
 21
2.440456111297454
 31
0.0
  0
LINE
  5
1005B
330
18
100
AcDbEntity
  8
0
100
AcDbLine
 10
161.6316162704963
 20
1.690444562104087
 30
0.0
 11
161.6316162704963
 21
0.940444562104091
 31
0.0
  0
ARC
  5
1005C
330
18
100
AcDbEntity
  8
0
100
AcDbCircle
 10
161.6316162704963
 20
0.315444562104084
 30
0.0
 40
0.6250000000000142
100
AcDbArc
 50
0.0000000000010178
 51
89.99999999999836
  0
LINE
  5
1005D
330
18
100
AcDbEntity
  8
0
100
AcDbLine
 10
162.2566162704963
 20
0.3154445621040947
 30
0.0
 11
162.2566162704963
 21
-0.1845438887025455
 31
0.0
  0
LINE
  5
1005E
330
18
100
AcDbEntity
  8
0
100
AcDbLine
 10
163.0066162704963
 20
2.440456111297454
 30
0.0
 11
163.0066162704963
 21
-0.1845438887025455
 31
0.0
  0
LINE
  5
1005F
330
18
100
AcDbEntity
  8
0
100
AcDbLine
 10
162.2566162704963
 20
-0.1845438887025455
 30
0.0
 11
163.0066162704963
 21
-0.1845438887025455
 31
0.0
  0
LINE
  5
10060
330
18
100
AcDbEntity
  8
0
100
AcDbLine
 10
161.0066162704963
 20
1.940444562104087
 30
0.0
 11
161.3816162704963
 21
1.940444562104087
 31
0.0
  0
LINE
  5
10061
330
18
100
AcDbEntity
  8
0
100
AcDbLine
 10
161.0066162704963
 20
2.382656111297461
 30
0.0
 11
161.0066162704963
 21
1.940444562104087
 31
0.0
  0
ARC
  5
10062
330
18
100
AcDbEntity
  8
0
100
AcDbCircle
 10
161.6141567243581
 20
1.922985015965917
 30
0.0
 40
0.233194979434836
100
AcDbArc
 50
175.7061884998026
 51
274.2938115001973
  0
LINE
  5
10063
330
18
100
AcDbEntity
  8
0
100
AcDbLine
 10
160.3816162704963
 20
4.815456111297461
 30
0.0
 11
160.3816162704963
 21
2.940456111297461
 31
0.0
  0
ARC
  5
10064
330
18
100
AcDbEntity
  8
0
100
AcDbCircle
 10
160.4359849298099
 20
2.372326839284195
 30
0.0
 40
0.5707248205868384
100
AcDbArc
 50
1.037025173037002
 51
95.46642707375275
  0
LINE
  5
10065
330
18
100
AcDbEntity
  8
0
100
AcDbLine
 10
161.8816162704963
 20
3.690456111297461
 30
0.0
 11
161.8816162704963
 21
9.190456111297468
 31
0.0
  0
ARC
  5
10066
330
18
100
AcDbEntity
  8
0
100
AcDbCircle
 10
160.264446014622
 20
5.548514657859389
 30
0.0
 40
0.7423635912065909
100
AcDbArc
 50
279.081199323084
 51
1.307658492384205
  0
LINE
  5
100BF
330
18
100
AcDbEntity
  8
0
100
AcDbLine
 10
89.55974486542311
 20
34.56545611129747
 30
0.0
 11
88.55974486542312
 21
23.19045611129747
 31
0.0
  0
LINE
  5
100C0
330
18
100
AcDbEntity
  8
0
100
AcDbLine
 10
80.55974486542311
 20
34.56545611129747
 30
0.0
 11
81.5597448654231
 21
23.19045611129747
 31
0.0
  0
LINE
  5
100C1
330
18
100
AcDbEntity
  8
0
100
AcDbLine
 10
88.55974486542312
 20
23.19045611129747
 30
0.0
 11
81.5597448654231
 21
23.19045611129747
 31
0.0
  0
LINE
  5
100C2
330
18
100
AcDbEntity
  8
0
100
AcDbLine
 10
89.55974486542311
 20
34.56545611129747
 30
0.0
 11
80.55974486542311
 21
34.56545611129747
 31
0.0
  0
ARC
  5
10105
330
18
100
AcDbEntity
  8
0
100
AcDbCircle
 10
85.05974500259618
 20
-0.1845438887025479
 30
0.0
 40
24.0
100
AcDbArc
 50
98.46269977551946
 51
180.0
  0
ARC
  5
10106
330
18
100
AcDbEntity
  8
0
100
AcDbCircle
 10
85.05974500259618
 20
-0.1845438887025317
 30
0.0
 40
25.12498845080664
100
AcDbArc
 50
98.30856017463732
 51
177.4336844875964
  0
ARC
  5
10107
330
18
100
AcDbEntity
  8
0
100
AcDbCircle
 10
85.05974500259616
 20
-0.1845438887025392
 30
0.0
 40
25.87433392523362
100
AcDbArc
 50
98.21333851251269
 51
175.8458614032258
  0
ARC
  5
10108
330
18
100
AcDbEntity
  8
0
100
AcDbCircle
 10
85.05974500259618
 20
-0.1839412244395946
 30
0.0
 40
26.12498845775792
100
AcDbArc
 50
98.18282406837543
 51
175.3357728421652
  0
ARC
  5
10109
330
18
100
AcDbEntity
  8
0
100
AcDbCircle
 10
85.05974500259618
 20
-0.1845438887025268
 30
0.0
 40
27.125
100
AcDbArc
 50
98.0661478538081
 51
173.3844138382343
  0
ARC
  5
1010A
330
18
100
AcDbEntity
  8
0
100
AcDbCircle
 10
85.05974500259616
 20
-0.1845438887025363
 30
0.0
 40
29.0
100
AcDbArc
 50
97.869294682841
 51
170.0718081577135
  0
ARC
  5
1010B
330
18
100
AcDbEntity
  8
0
100
AcDbCircle
 10
85.05974500259616
 20
-0.1845438887025293
 30
0.0
 40
30.0
100
AcDbArc
 50
97.77437986438922
 51
168.4630409671845
  0
ARC
  5
1010C
330
18
100
AcDbEntity
  8
0
100
AcDbCircle
 10
85.0597450025962
 20
-0.1845438887025346
 30
0.0
 40
32.87500000000001
100
AcDbArc
 50
97.53369760090411
 51
164.3379957142739
  0
ARC
  5
1010D
330
18
100
AcDbEntity
  8
0
100
AcDbCircle
 10
85.05974500259618
 20
-0.1845438887025432
 30
0.0
 40
34.00000000000001
100
AcDbArc
 50
97.45060809242872
 51
162.8953648233562
  0
LINE
  5
10135
330
18
100
AcDbEntity
  8
0
100
AcDbLine
 10
161.0066162704963
 20
23.19045611129746
 30
0.0
 11
157.0066162704963
 21
34.56545611129747
 31
0.0
  0
LINE
  5
10136
330
18
100
AcDbEntity
  8
0
100
AcDbLine
 10
163.0066162704963
 20
23.19045611129746
 30
0.0
 11
161.0066162704963
 21
23.19045611129746
 31
0.0
  0
LINE
  5
10137
330
18
100
AcDbEntity
  8
0
100
AcDbLine
 10
163.0066162704963
 20
34.56545611129747
 30
0.0
 11
157.0066162704963
 21
34.56545611129747
 31
0.0
  0
LINE
  5
10138
330
18
100
AcDbEntity
  8
0
100
AcDbLine
 10
163.0066162704963
 20
34.56545611129747
 30
0.0
 11
163.0066162704963
 21
23.19045611129746
 31
0.0
  0
LINE
  5
10167
330
18
100
AcDbEntity
  8
0
100
AcDbLine
 10
163.0066162704963
 20
33.81545611129747
 30
0.0
 11
163.0066162704963
 21
34.56545611129747
 31
0.0
  0
LINE
  5
10193
330
18
100
AcDbEntity
  8
0
100
AcDbLine
 10
162.2566162704963
 20
23.81545611129746
 30
0.0
 11
162.2566162704963
 21
9.815456111297461
 31
0.0
  0
LINE
  5
10194
330
18
100
AcDbEntity
  8
0
100
AcDbLine
 10
161.6316162704963
 20
24.9404445621041
 30
0.0
 11
161.6316162704963
 21
9.815456111297461
 31
0.0
  0
LINE
  5
10195
330
18
100
AcDbEntity
  8
0
100
AcDbLine
 10
161.3809617449233
 20
25.92298501596593
 30
0.0
 11
161.3809617449233
 21
9.815456111297461
 31
0.0
  0
LINE
  5
10196
330
18
100
AcDbEntity
  8
0
100
AcDbLine
 10
161.0066162704963
 20
25.9404445621041
 30
0.0
 11
161.0066162704963
 21
9.815456111297461
 31
0.0
  0
LINE
  5
10197
330
18
100
AcDbEntity
  8
0
100
AcDbLine
 10
160.3816162704963
 20
26.94045611129746
 30
0.0
 11
160.3816162704963
 21
8.703083675601668
 31
0.0
  0
DIMENSION
  5
10198
330
18
100
AcDbEntity
  8
DIM
100
AcDbDimension
  2
*D2
 10
163.0066162704963
 20
-5.916540716737671
 30
0.0
 11
167.9432829371629
 21
-5.916540716737671
 31
0.0
 70
    32
 71
     5
 42
2.75
  3
STANDARD
100
AcDbAlignedDimension
 13
160.2566162704963
 23
7.252956111297461
 33
0.0
 14
163.0066162704963
 24
7.252956111297456
 34
0.0
100
AcDbRotatedDimension
  0
LINE
  5
10206
330
18
100
AcDbEntity
  8
DIM
100
AcDbLine
 10
61.05974500259619
 20
-0.2470438887025449
 30
0.0
 11
61.05974500259619
 21
-11.18487452904534
 31
0.0
  0
LINE
  5
10207
330
18
100
AcDbEntity
  8
DIM
100
AcDbLine
 10
109.0597450025962
 20
-0.3095438887025518
 30
0.0
 11
109.0597450025962
 21
-11.18487452904534
 31
0.0
  0
LINE
  5
10208
330
18
100
AcDbEntity
  8
DIM
100
AcDbLine
 10
61.23974500259619
 20
-11.00487452904534
 30
0.0
 11
79.63641166926286
 21
-11.00487452904534
 31
0.0
  0
LINE
  5
10209
330
18
100
AcDbEntity
  8
DIM
100
AcDbLine
 10
108.8797450025962
 20
-11.00487452904534
 30
0.0
 11
90.48307833592952
 21
-11.00487452904534
 31
0.0
  0
SOLID
  5
1020A
330
18
100
AcDbEntity
  8
DIM
100
AcDbTrace
 10
61.23974500259619
 20
-10.97487452904534
 30
0.0
 11
61.23974500259619
 21
-11.03487452904533
 31
0.0
 12
61.05974500259619
 22
-11.00487452904534
 32
0.0
 13
61.05974500259619
 23
-11.00487452904534
 33
0.0
  0
SOLID
  5
1020B
330
18
100
AcDbEntity
  8
DIM
100
AcDbTrace
 10
108.8797450025962
 20
-10.97487452904534
 30
0.0
 11
108.8797450025962
 21
-11.03487452904533
 31
0.0
 12
109.0597450025962
 22
-11.00487452904534
 32
0.0
 13
109.0597450025962
 23
-11.00487452904534
 33
0.0
  0
MTEXT
  5
1020C
330
18
100
AcDbEntity
  8
DIM
100
AcDbMText
 10
85.05974500259618
 20
-11.00487452904534
 30
0.0
 40
2.0
 41
0.0
 71
     5
 72
     1
  1
L/W \Pintérieure
 73
     1
 44
1.0
  0
LINE
  5
1020D
330
18
100
AcDbEntity
  8
DIM
100
AcDbLine
 10
61.05974500259619
 20
-0.2470438887025459
 30
0.0
 11
61.05974500259619
 21
-11.18487452904534
 31
0.0
  0
LINE
  5
1020E
330
18
100
AcDbEntity
  8
DIM
100
AcDbLine
 10
24.43474500259619
 20
-0.2470438887025459
 30
0.0
 11
24.43474500259619
 21
-11.18487452904534
 31
0.0
  0
LINE
  5
1020F
330
18
100
AcDbEntity
  8
DIM
100
AcDbLine
 10
60.87974500259619
 20
-11.00487452904534
 30
0.0
 11
48.67057833592951
 21
-11.00487452904534
 31
0.0
  0
LINE
  5
10210
330
18
100
AcDbEntity
  8
DIM
100
AcDbLine
 10
24.61474500259619
 20
-11.00487452904534
 30
0.0
 11
36.82391166926286
 21
-11.00487452904534
 31
0.0
  0
SOLID
  5
10211
330
18
100
AcDbEntity
  8
DIM
100
AcDbTrace
 10
60.87974500259619
 20
-10.97487452904534
 30
0.0
 11
60.87974500259619
 21
-11.03487452904533
 31
0.0
 12
61.05974500259619
 22
-11.00487452904534
 32
0.0
 13
61.05974500259619
 23
-11.00487452904534
 33
0.0
  0
SOLID
  5
10212
330
18
100
AcDbEntity
  8
DIM
100
AcDbTrace
 10
24.61474500259619
 20
-10.97487452904534
 30
0.0
 11
24.61474500259619
 21
-11.03487452904533
 31
0.0
 12
24.43474500259619
 22
-11.00487452904534
 32
0.0
 13
24.43474500259619
 23
-11.00487452904534
 33
0.0
  0
MTEXT
  5
10213
330
18
100
AcDbEntity
  8
DIM
100
AcDbMText
 10
42.74724500259618
 20
-11.00487452904534
 30
0.0
 40
2.0
 41
0.0
 71
     5
 72
     1
  1
A1
 73
     1
 44
1.0
  0
LINE
  5
10214
330
18
100
AcDbEntity
  8
DIM
100
AcDbLine
 10
109.0597450025962
 20
-0.2470438887025494
 30
0.0
 11
109.0597450025962
 21
-11.18487452904534
 31
0.0
  0
LINE
  5
10215
330
18
100
AcDbEntity
  8
DIM
100
AcDbLine
 10
145.6847450025962
 20
-0.2470438887025494
 30
0.0
 11
145.6847450025962
 21
-11.18487452904534
 31
0.0
  0
LINE
  5
10216
330
18
100
AcDbEntity
  8
DIM
100
AcDbLine
 10
109.2397450025962
 20
-11.00487452904534
 30
0.0
 11
121.4489116692628
 21
-11.00487452904534
 31
0.0
  0
LINE
  5
10217
330
18
100
AcDbEntity
  8
DIM
100
AcDbLine
 10
145.5047450025961
 20
-11.00487452904534
 30
0.0
 11
133.2955783359295
 21
-11.00487452904534
 31
0.0
  0
SOLID
  5
10218
330
18
100
AcDbEntity
  8
DIM
100
AcDbTrace
 10
109.2397450025962
 20
-10.97487452904534
 30
0.0
 11
109.2397450025962
 21
-11.03487452904533
 31
0.0
 12
109.0597450025962
 22
-11.00487452904534
 32
0.0
 13
109.0597450025962
 23
-11.00487452904534
 33
0.0
  0
SOLID
  5
10219
330
18
100
AcDbEntity
  8
DIM
100
AcDbTrace
 10
145.5047450025961
 20
-10.97487452904534
 30
0.0
 11
145.5047450025961
 21
-11.03487452904533
 31
0.0
 12
145.6847450025962
 22
-11.00487452904534
 32
0.0
 13
145.6847450025962
 23
-11.00487452904534
 33
0.0
  0
MTEXT
  5
1021A
330
18
100
AcDbEntity
  8
DIM
100
AcDbMText
 10
127.3722450025962
 20
-11.00487452904534
 30
0.0
 40
2.0
 41
0.0
 71
     5
 72
     1
  1
A2
 73
     1
 44
1.0
  0
LINE
  5
1021B
330
18
100
AcDbEntity
  8
DIM
100
AcDbLine
 10
85.12224486542312
 20
23.81545611129747
 30
0.0
 11
85.23974500259619
 21
23.81545611129747
 31
0.0
  0
LINE
  5
1021C
330
18
100
AcDbEntity
  8
DIM
100
AcDbLine
 10
61.12224500259618
 20
-0.184543888702545
 30
0.0
 11
85.23974500259617
 21
-0.1845438887025518
 31
0.0
  0
LINE
  5
1021D
330
18
100
AcDbEntity
  8
DIM
100
AcDbLine
 10
85.05974500259618
 20
23.63545611129747
 30
0.0
 11
85.05974500259618
 21
12.90545611129745
 31
0.0
  0
LINE
  5
1021E
330
18
100
AcDbEntity
  8
DIM
100
AcDbLine
 10
85.05974500259618
 20
-0.0045438887025517
 30
0.0
 11
85.05974500259618
 21
10.72545611129746
 31
0.0
  0
SOLID
  5
1021F
330
18
100
AcDbEntity
  8
DIM
100
AcDbTrace
 10
85.02974500259618
 20
23.63545611129747
 30
0.0
 11
85.08974500259618
 21
23.63545611129747
 31
0.0
 12
85.05974500259618
 22
23.81545611129747
 32
0.0
 13
85.05974500259618
 23
23.81545611129747
 33
0.0
  0
SOLID
  5
10220
330
18
100
AcDbEntity
  8
DIM
100
AcDbTrace
 10
85.02974500259618
 20
-0.0045438887025517
 30
0.0
 11
85.08974500259618
 21
-0.0045438887025518
 31
0.0
 12
85.05974500259618
 22
-0.1845438887025517
 32
0.0
 13
85.05974500259618
 23
-0.1845438887025517
 33
0.0
  0
MTEXT
  5
10221
330
18
100
AcDbEntity
  8
DIM
100
AcDbMText
 10
85.05974500259618
 20
11.81545611129747
 30
0.0
 40
2.0
 41
0.0
 71
     5
 72
     1
  1
H intérieure
 73
     1
 44
1.0
  0
VIEWPORT
  5
FA05
330
15
100
AcDbEntity
 67
     1
  8
0
100
AcDbViewport
 10
5.249999639556163
 20
3.999999883606677
 30
0.0
 40
16.30854876175353
 41
8.992999745766947
 68
     2
 69
     1
 12
5.249999639556163
 22
3.999999883606677
 13
0.0
 23
0.0
 14
10.0
 24
10.0
 15
10.0
 25
10.0
 16
0.0
 26
0.0
 36
1.0
 17
0.0
 27
0.0
 37
0.0
 42
50.0
 43
0.0
 44
0.0
 45
8.992999745766947
 50
0.0
 51
0.0
 72
   100
 90
    32800
  1

281
     0
 71
     1
 74
     0
110
0.0
120
0.0
130
0.0
111
1.0
121
0.0
131
0.0
112
0.0
122
1.0
132
0.0
 79
     0
146
0.0
170
     0
  0
VIEWPORT
  5
FA07
330
15
100
AcDbEntity
 67
     1
  8
0
100
AcDbViewport
 10
5.24999976158142
 20
3.99999976158142
 30
0.0
 40
8.399999618530271
 41
6.399999618530272
 68
     1
 69
     2
 12
98.46874387307458
 22
13.27349689204104
 13
0.0
 23
0.0
 14
0.5
 24
0.5
 15
0.5
 25
0.5
 16
0.0
 26
0.0
 36
1.0
 17
0.0
 27
0.0
 37
0.0
 42
50.0
 43
0.0
 44
0.0
 45
125.542523930542
 50
0.0
 51
0.0
 72
   100
 90
    32800
  1

281
     0
 71
     1
 74
     0
110
0.0
120
0.0
130
0.0
111
1.0
121
0.0
131
0.0
112
0.0
122
1.0
132
0.0
 79
     0
146
0.0
170
     0
  0
ENDSEC
  0
SECTION
  2
OBJECTS
  0
DICTIONARY
  5
C
330
0
100
AcDbDictionary
281
     1
  3
ACAD_COLOR
350
F8C9
  3
ACAD_GROUP
350
D
  3
ACAD_IMAGE_DICT
350
21
  3
ACAD_IMAGE_VARS
350
20
  3
ACAD_LAYOUT
350
F8CA
  3
ACAD_MATERIAL
350
F8C8
  3
ACAD_MLINESTYLE
350
1B
  3
ACAD_PLOTSETTINGS
350
F8CB
  3
ACAD_PLOTSTYLENAME
350
F8C6
  0
DICTIONARY
  5
F8C9
102
{ACAD_REACTORS
330
C
102
}
330
C
100
AcDbDictionary
281
     1
  0
DICTIONARY
  5
D
102
{ACAD_REACTORS
330
C
102
}
330
C
100
AcDbDictionary
281
     1
  0
DICTIONARY
  5
21
102
{ACAD_REACTORS
330
C
102
}
330
C
100
AcDbDictionary
281
     1
  3
5556-1
350
E9A1
  3
5556-2
350
E9A4
  0
RASTERVARIABLES
  5
20
102
{ACAD_REACTORS
330
C
102
}
330
C
100
AcDbRasterVariables
 90
        0
 70
     1
 71
     1
 72
     0
  0
DICTIONARY
  5
F8CA
102
{ACAD_REACTORS
330
C
102
}
330
C
100
AcDbDictionary
281
     1
  3
Layout1
350
F8CD
  3
Model
350
F8CC
  0
DICTIONARY
  5
F8C8
102
{ACAD_REACTORS
330
C
102
}
330
C
100
AcDbDictionary
281
     1
  0
DICTIONARY
  5
1B
102
{ACAD_REACTORS
330
C
102
}
330
C
100
AcDbDictionary
281
     1
  3
STANDARD
350
1C
  0
DICTIONARY
  5
F8CB
102
{ACAD_REACTORS
330
C
102
}
330
C
100
AcDbDictionary
281
     1
  0
ACDBDICTIONARYWDFLT
  5
F8C6
102
{ACAD_REACTORS
330
C
102
}
330
C
100
AcDbDictionary
281
     1
  3
Normal
350
F8C7
100
AcDbDictionaryWithDefault
340
F8C7
  0
IMAGEDEF
  5
E9A1
102
{ACAD_REACTORS
330
21
102
}
330
21
100
AcDbRasterImageDef
 90
        0
  1
U:\TPDWG\MichelQ\5556-1.tif
 10
2484.0
 20
3820.0
 11
0.0705555555555556
 21
0.0705555555555556
280
     1
281
     5
  0
IMAGEDEF
  5
E9A4
102
{ACAD_REACTORS
330
21
102
}
330
21
100
AcDbRasterImageDef
 90
        0
  1
U:\TPDWG\MichelQ\5556-2.tif
 10
2484.0
 20
3820.0
 11
0.0705555555555556
 21
0.0705555555555556
280
     1
281
     5
  0
LAYOUT
  5
F8CD
102
{ACAD_REACTORS
330
F8CA
102
}
330
F8CA
100
AcDbPlotSettings
  1

  2
none_device
  4
Letter_(8.50_x_11.00_Inches)
  6

 40
6.349999904632568
 41
6.349999904632568
 42
6.350006103515625
 43
6.350006103515625
 44
215.8999938964844
 45
279.3999938964844
 46
0.0
 47
0.0
 48
0.0
 49
0.0
140
0.0
141
0.0
142
1.0
143
1.0
 70
   688
 72
     0
 73
     1
 74
     5
  7

 75
    16
147
1.0
 76
     0
 77
     2
 78
   300
148
0.0
149
0.0
100
AcDbLayout
  1
Layout1
 70
     1
 71
     1
 10
-0.2500002402958907
 20
-0.2499999962453767
 11
10.74999951940821
 21
8.249999763458731
 12
0.0
 22
0.0
 32
0.0
 14
1.049636599258096
 24
0.7996597240971113
 34
-0.0000000349181948
 15
9.450362731076971
 25
7.200340082697458
 35
0.0000000814935746
146
0.0
 13
0.0
 23
0.0
 33
0.0
 16
1.0
 26
0.0
 36
0.0
 17
0.0
 27
1.0
 37
0.0
 76
     0
330
15
331
FA07
  0
LAYOUT
  5
F8CC
102
{ACAD_REACTORS
330
F8CA
102
}
330
F8CA
100
AcDbPlotSettings
  1

  2
None
  4

  6

 40
0.0
 41
0.0
 42
0.0
 43
0.0
 44
0.0
 45
0.0
 46
0.0
 47
0.0
 48
0.0
 49
0.0
140
0.0
141
0.0
142
1.0
143
1.0
 70
  1712
 72
     0
 73
     0
 74
     0
  7

 75
     0
147
1.0
 76
     0
 77
     2
 78
   300
148
0.0
149
0.0
100
AcDbLayout
  1
Model
 70
     1
 71
     0
 10
0.0
 20
0.0
 11
12.0
 21
9.0
 12
0.0
 22
0.0
 32
0.0
 14
0.0
 24
0.0
 34
0.0
 15
0.0
 25
0.0
 35
0.0
146
0.0
 13
0.0
 23
0.0
 33
0.0
 16
1.0
 26
0.0
 36
0.0
 17
0.0
 27
1.0
 37
0.0
 76
     0
330
18
  0
MLINESTYLE
  5
1C
102
{ACAD_REACTORS
330
1B
102
}
330
1B
100
AcDbMlineStyle
  2
STANDARD
 70
     0
  3

 62
   256
 51
90.0
 52
90.0
 71
     2
 49
0.5
 62
   256
  6
BYLAYER
 49
-0.5
 62
   256
  6
BYLAYER
  0
ACDBPLACEHOLDER
  5
F8C7
102
{ACAD_REACTORS
330
F8C6
102
}
330
F8C6
  0
ENDSEC
  0
EOF
