  0
SECTION
  2
HEADER
  9
$ACADVER
  1
AC1018
  9
$ACADMAINTVER
 70
     0
  9
$DWGCODEPAGE
  3
ANSI_1252
  9
$INSBASE
 10
0.0
 20
0.0
 30
0.0
  9
$EXTMIN
 10
7.113775667049687
 20
-19.55002081992654
 30
0.0
  9
$EXTMAX
 10
74.88346301228188
 20
34.97043754289904
 30
0.0
  9
$LIMMIN
 10
0.0
 20
0.0
  9
$LIMMAX
 10
420.0
 20
297.0
  9
$ORTHOMODE
 70
     0
  9
$REGENMODE
 70
     1
  9
$FILLMODE
 70
     1
  9
$QTEXTMODE
 70
     0
  9
$MIRRTEXT
 70
     1
  9
$LTSCALE
 40
1.0
  9
$ATTMODE
 70
     1
  9
$TEXTSIZE
 40
2.5
  9
$TRACEWID
 40
1.0
  9
$TEXTSTYLE
  7
STANDARD
  9
$CLAYER
  8
0
  9
$CELTYPE
  6
DASHED
  9
$CECOLOR
 62
   256
  9
$CELTSCALE
 40
35.0
  9
$DISPSILH
 70
     0
  9
$DIMSCALE
 40
1.0
  9
$DIMASZ
 40
0.18
  9
$DIMEXO
 40
0.0625
  9
$DIMDLI
 40
0.38
  9
$DIMRND
 40
0.0
  9
$DIMDLE
 40
0.0
  9
$DIMEXE
 40
0.18
  9
$DIMTP
 40
0.0
  9
$DIMTM
 40
0.0
  9
$DIMTXT
 40
2.0
  9
$DIMCEN
 40
0.09
  9
$DIMTSZ
 40
0.0
  9
$DIMTOL
 70
     0
  9
$DIMLIM
 70
     0
  9
$DIMTIH
 70
     0
  9
$DIMTOH
 70
     0
  9
$DIMSE1
 70
     0
  9
$DIMSE2
 70
     0
  9
$DIMTAD
 70
     0
  9
$DIMZIN
 70
     0
  9
$DIMBLK
  1

  9
$DIMASO
 70
     1
  9
$DIMSHO
 70
     1
  9
$DIMPOST
  1

  9
$DIMAPOST
  1

  9
$DIMALT
 70
     0
  9
$DIMALTD
 70
     2
  9
$DIMALTF
 40
25.4
  9
$DIMLFAC
 40
1.0
  9
$DIMTOFL
 70
     0
  9
$DIMTVP
 40
0.0
  9
$DIMTIX
 70
     0
  9
$DIMSOXD
 70
     0
  9
$DIMSAH
 70
     0
  9
$DIMBLK1
  1

  9
$DIMBLK2
  1

  9
$DIMSTYLE
  2
STANDARD
  9
$DIMCLRD
 70
     0
  9
$DIMCLRE
 70
     0
  9
$DIMCLRT
 70
     0
  9
$DIMTFAC
 40
1.0
  9
$DIMGAP
 40
0.09
  9
$DIMJUST
 70
     0
  9
$DIMSD1
 70
     0
  9
$DIMSD2
 70
     0
  9
$DIMTOLJ
 70
     1
  9
$DIMTZIN
 70
     0
  9
$DIMALTZ
 70
     0
  9
$DIMALTTZ
 70
     0
  9
$DIMUPT
 70
     0
  9
$DIMDEC
 70
     4
  9
$DIMTDEC
 70
     4
  9
$DIMALTU
 70
     2
  9
$DIMALTTD
 70
     2
  9
$DIMTXSTY
  7
STANDARD
  9
$DIMAUNIT
 70
     0
  9
$DIMADEC
 70
     0
  9
$DIMALTRND
 40
0.0
  9
$DIMAZIN
 70
     0
  9
$DIMDSEP
 70
    46
  9
$DIMATFIT
 70
     3
  9
$DIMFRAC
 70
     0
  9
$DIMLDRBLK
  1

  9
$DIMLUNIT
 70
     2
  9
$DIMLWD
 70
    -2
  9
$DIMLWE
 70
    -2
  9
$DIMTMOVE
 70
     0
  9
$LUNITS
 70
     4
  9
$LUPREC
 70
     4
  9
$SKETCHINC
 40
1.0
  9
$FILLETRAD
 40
0.01
  9
$AUNITS
 70
     0
  9
$AUPREC
 70
     0
  9
$MENU
  1
.
  9
$ELEVATION
 40
0.0
  9
$PELEVATION
 40
0.0
  9
$THICKNESS
 40
0.0
  9
$LIMCHECK
 70
     0
  9
$CHAMFERA
 40
10.0
  9
$CHAMFERB
 40
10.0
  9
$CHAMFERC
 40
20.0
  9
$CHAMFERD
 40
0.0
  9
$SKPOLY
 70
     0
  9
$TDCREATE
 40
2451158.474098033
  9
$TDUCREATE
 40
2451158.640764699
  9
$TDUPDATE
 40
2453488.695108762
  9
$TDUUPDATE
 40
2453488.861775428
  9
$TDINDWG
 40
0.3297624190
  9
$TDUSRTIMER
 40
0.3297624190
  9
$USRTIMER
 70
     1
  9
$ANGBASE
 50
0.0
  9
$ANGDIR
 70
     0
  9
$PDMODE
 70
     3
  9
$PDSIZE
 40
1.0
  9
$PLINEWID
 40
0.0
  9
$SPLFRAME
 70
     0
  9
$SPLINETYPE
 70
     6
  9
$SPLINESEGS
 70
     8
  9
$HANDSEED
  5
3580
  9
$SURFTAB1
 70
     6
  9
$SURFTAB2
 70
     6
  9
$SURFTYPE
 70
     6
  9
$SURFU
 70
     6
  9
$SURFV
 70
     6
  9
$UCSBASE
  2

  9
$UCSNAME
  2

  9
$UCSORG
 10
0.0
 20
0.0
 30
0.0
  9
$UCSXDIR
 10
1.0
 20
0.0
 30
0.0
  9
$UCSYDIR
 10
0.0
 20
1.0
 30
0.0
  9
$UCSORTHOREF
  2

  9
$UCSORTHOVIEW
 70
     0
  9
$UCSORGTOP
 10
0.0
 20
0.0
 30
0.0
  9
$UCSORGBOTTOM
 10
0.0
 20
0.0
 30
0.0
  9
$UCSORGLEFT
 10
0.0
 20
0.0
 30
0.0
  9
$UCSORGRIGHT
 10
0.0
 20
0.0
 30
0.0
  9
$UCSORGFRONT
 10
0.0
 20
0.0
 30
0.0
  9
$UCSORGBACK
 10
0.0
 20
0.0
 30
0.0
  9
$PUCSBASE
  2

  9
$PUCSNAME
  2

  9
$PUCSORG
 10
0.0
 20
0.0
 30
0.0
  9
$PUCSXDIR
 10
1.0
 20
0.0
 30
0.0
  9
$PUCSYDIR
 10
0.0
 20
1.0
 30
0.0
  9
$PUCSORTHOREF
  2

  9
$PUCSORTHOVIEW
 70
     0
  9
$PUCSORGTOP
 10
0.0
 20
0.0
 30
0.0
  9
$PUCSORGBOTTOM
 10
0.0
 20
0.0
 30
0.0
  9
$PUCSORGLEFT
 10
0.0
 20
0.0
 30
0.0
  9
$PUCSORGRIGHT
 10
0.0
 20
0.0
 30
0.0
  9
$PUCSORGFRONT
 10
0.0
 20
0.0
 30
0.0
  9
$PUCSORGBACK
 10
0.0
 20
0.0
 30
0.0
  9
$USERI1
 70
     0
  9
$USERI2
 70
     0
  9
$USERI3
 70
     0
  9
$USERI4
 70
     0
  9
$USERI5
 70
     0
  9
$USERR1
 40
0.0
  9
$USERR2
 40
0.0
  9
$USERR3
 40
0.0
  9
$USERR4
 40
0.0
  9
$USERR5
 40
0.0
  9
$WORLDVIEW
 70
     1
  9
$SHADEDGE
 70
     3
  9
$SHADEDIF
 70
    70
  9
$TILEMODE
 70
     1
  9
$MAXACTVP
 70
    48
  9
$PINSBASE
 10
0.0
 20
0.0
 30
0.0
  9
$PLIMCHECK
 70
     0
  9
$PEXTMIN
 10
26.66076962115563
 20
20.31135699206658
 30
-0.0015258207003583
  9
$PEXTMAX
 10
240.039213369355
 20
182.8886381005154
 30
0.0000000349246037
  9
$PLIMMIN
 10
-6.350006103515625
 20
-6.349999904632568
  9
$PLIMMAX
 10
273.0499877929688
 20
209.5499939918518
  9
$UNITMODE
 70
     0
  9
$VISRETAIN
 70
     1
  9
$PLINEGEN
 70
     0
  9
$PSLTSCALE
 70
     1
  9
$TREEDEPTH
 70
  3020
  9
$CMLSTYLE
  2
STANDARD
  9
$CMLJUST
 70
     0
  9
$CMLSCALE
 40
20.0
  9
$PROXYGRAPHICS
 70
     1
  9
$MEASUREMENT
 70
     1
  9
$CELWEIGHT
370
    -1
  9
$ENDCAPS
280
     0
  9
$JOINSTYLE
280
     0
  9
$LWDISPLAY
290
     0
  9
$INSUNITS
 70
     0
  9
$HYPERLINKBASE
  1

  9
$STYLESHEET
  1

  9
$XEDIT
290
     1
  9
$CEPSNTYPE
380
     0
  9
$PSTYLEMODE
290
     1
  9
$FINGERPRINTGUID
  2
{B85F19E9-FEA0-4938-A2E9-66B20CD7B33D}
  9
$VERSIONGUID
  2
{0A15AE82-BD1F-401E-8643-F96A176387A3}
  9
$EXTNAMES
290
     1
  9
$PSVPSCALE
 40
0.0
  9
$OLESTARTUP
290
     0
  9
$SORTENTS
280
   127
  9
$INDEXCTL
280
     0
  9
$HIDETEXT
280
     0
  9
$XCLIPFRAME
290
     0
  9
$HALOGAP
280
     0
  9
$OBSCOLOR
 70
   257
  9
$OBSLTYPE
280
     0
  9
$INTERSECTIONDISPLAY
280
     0
  9
$INTERSECTIONCOLOR
 70
   257
  9
$DIMASSOC
280
     1
  9
$PROJECTNAME
  1

  0
ENDSEC
  0
SECTION
  2
CLASSES
  0
CLASS
  1
RASTERVARIABLES
  2
AcDbRasterVariables
  3
ISM
 90
        0
 91
        1
280
     0
281
     0
  0
CLASS
  1
IMAGEDEF
  2
AcDbRasterImageDef
  3
ISM
 90
        0
 91
        6
280
     0
281
     0
  0
CLASS
  1
IMAGEDEF_REACTOR
  2
AcDbRasterImageDefReactor
  3
ISM
 90
        1
 91
        0
280
     0
281
     0
  0
CLASS
  1
IMAGE
  2
AcDbRasterImage
  3
ISM
 90
      127
 91
        0
280
     0
281
     1
  0
CLASS
  1
ACDBDICTIONARYWDFLT
  2
AcDbDictionaryWithDefault
  3
ObjectDBX Classes
 90
        0
 91
        1
280
     0
281
     0
  0
ENDSEC
  0
SECTION
  2
TABLES
  0
TABLE
  2
VPORT
  5
8
330
0
100
AcDbSymbolTable
 70
     2
  0
VPORT
  5
357F
330
8
100
AcDbSymbolTableRecord
100
AcDbViewportTableRecord
  2
*Active
 70
     0
 10
0.0
 20
0.0
 11
1.0
 21
1.0
 12
45.26641796563554
 22
7.430021852657091
 13
0.0
 23
0.0
 14
10.0
 24
10.0
 15
10.0
 25
10.0
 16
0.0
 26
0.0
 36
1.0
 17
0.0
 27
0.0
 37
0.0
 40
84.96720341539413
 41
1.977142857142856
 42
50.0
 43
0.0
 44
0.0
 50
0.0
 51
0.0
 71
     0
 72
   100
 73
     1
 74
     1
 75
     0
 76
     0
 77
     0
 78
     0
281
     0
 65
     1
110
0.0
120
0.0
130
0.0
111
1.0
121
0.0
131
0.0
112
0.0
122
1.0
132
0.0
 79
     0
146
0.0
  0
ENDTAB
  0
TABLE
  2
LTYPE
  5
5
330
0
100
AcDbSymbolTable
 70
     2
  0
LTYPE
  5
12
330
5
100
AcDbSymbolTableRecord
100
AcDbLinetypeTableRecord
  2
BYBLOCK
 70
     0
  3

 72
    65
 73
     0
 40
0.0
  0
LTYPE
  5
13
330
5
100
AcDbSymbolTableRecord
100
AcDbLinetypeTableRecord
  2
BYLAYER
 70
     0
  3

 72
    65
 73
     0
 40
0.0
  0
LTYPE
  5
14
330
5
100
AcDbSymbolTableRecord
100
AcDbLinetypeTableRecord
  2
CONTINUOUS
 70
     0
  3
Solid line
 72
    65
 73
     0
 40
0.0
  0
LTYPE
  5
3515
330
5
100
AcDbSymbolTableRecord
100
AcDbLinetypeTableRecord
  2
DASHED
 70
     0
  3
Dashed __ __ __ __ __ __ __ __ __ __ __ __ __ _
 72
    65
 73
     2
 40
19.05
 49
12.7
 74
     0
 49
-6.349999999999999
 74
     0
  0
ENDTAB
  0
TABLE
  2
LAYER
  5
2
330
0
100
AcDbSymbolTable
 70
     3
  0
LAYER
  5
E
330
2
100
AcDbSymbolTableRecord
100
AcDbLayerTableRecord
  2
0
 70
     0
 62
     7
  6
CONTINUOUS
370
    -3
390
3314
  0
LAYER
  5
3324
330
2
100
AcDbSymbolTableRecord
100
AcDbLayerTableRecord
  2
Defpoints
 70
     0
 62
     7
  6
CONTINUOUS
290
     0
370
    -3
390
3314
  0
LAYER
  5
3539
330
2
100
AcDbSymbolTableRecord
100
AcDbLayerTableRecord
  2
DIM
 70
     0
 62
    -3
  6
CONTINUOUS
370
    -3
390
3314
  0
ENDTAB
  0
TABLE
  2
STYLE
  5
3
330
0
100
AcDbSymbolTable
 70
     2
  0
STYLE
  5
F
330
3
100
AcDbSymbolTableRecord
100
AcDbTextStyleTableRecord
  2
STANDARD
 70
     0
 40
0.0
 41
1.0
 50
0.0
 71
     0
 42
2.5
  3
txt
  4

  0
STYLE
  5
3514
330
3
100
AcDbSymbolTableRecord
100
AcDbTextStyleTableRecord
  2

 70
     1
 40
0.0
 41
1.0
 50
0.0
 71
     0
 42
2.5
  3
ltypeshp.shx
  4

  0
ENDTAB
  0
TABLE
  2
VIEW
  5
6
330
0
100
AcDbSymbolTable
 70
     0
  0
ENDTAB
  0
TABLE
  2
UCS
  5
7
330
0
100
AcDbSymbolTable
 70
     0
  0
ENDTAB
  0
TABLE
  2
APPID
  5
9
330
0
100
AcDbSymbolTable
 70
     1
  0
APPID
  5
10
330
9
100
AcDbSymbolTableRecord
100
AcDbRegAppTableRecord
  2
ACAD
 70
     0
  0
ENDTAB
  0
TABLE
  2
DIMSTYLE
  5
A
330
0
100
AcDbSymbolTable
 70
     1
100
AcDbDimStyleTable
 71
     1
340
1D
  0
DIMSTYLE
105
1D
102
{ACAD_REACTORS
330
3481
330
3499
330
351F
102
}
330
A
100
AcDbSymbolTableRecord
100
AcDbDimStyleTableRecord
  2
STANDARD
 70
     0
 73
     0
 74
     0
140
2.0
340
F
  0
ENDTAB
  0
TABLE
  2
BLOCK_RECORD
  5
1
330
0
100
AcDbSymbolTable
 70
     5
  0
BLOCK_RECORD
  5
18
330
1
100
AcDbSymbolTableRecord
100
AcDbBlockTableRecord
  2
*MODEL_SPACE
340
3319
  0
BLOCK_RECORD
  5
15
330
1
100
AcDbSymbolTableRecord
100
AcDbBlockTableRecord
  2
*PAPER_SPACE
340
331A
  0
BLOCK_RECORD
  5
32D2
330
1
100
AcDbSymbolTableRecord
100
AcDbBlockTableRecord
  2
6118_E
340
0
  0
BLOCK_RECORD
  5
32E0
330
1
100
AcDbSymbolTableRecord
100
AcDbBlockTableRecord
  2
6118_C
340
0
  0
BLOCK_RECORD
  5
3482
330
1
100
AcDbSymbolTableRecord
100
AcDbBlockTableRecord
  2
*D2
340
0
  0
BLOCK_RECORD
  5
349A
330
1
100
AcDbSymbolTableRecord
100
AcDbBlockTableRecord
  2
*D3
340
0
  0
BLOCK_RECORD
  5
3520
330
1
100
AcDbSymbolTableRecord
100
AcDbBlockTableRecord
  2
*D4
340
0
  0
ENDTAB
  0
ENDSEC
  0
SECTION
  2
BLOCKS
  0
BLOCK
  5
19
330
18
100
AcDbEntity
  8
0
100
AcDbBlockBegin
  2
*MODEL_SPACE
 70
     0
 10
0.0
 20
0.0
 30
0.0
  3
*MODEL_SPACE
  1

  0
ENDBLK
  5
1A
330
18
100
AcDbEntity
  8
0
100
AcDbBlockEnd
  0
BLOCK
  5
16
330
15
100
AcDbEntity
 67
     1
  8
0
100
AcDbBlockBegin
  2
*PAPER_SPACE
 70
     0
 10
0.0
 20
0.0
 30
0.0
  3
*PAPER_SPACE
  1

  0
ENDBLK
  5
17
330
15
100
AcDbEntity
 67
     1
  8
0
100
AcDbBlockEnd
  0
BLOCK
  5
3302
330
32D2
100
AcDbEntity
  8
0
100
AcDbBlockBegin
  2
6118_E
 70
     0
 10
0.0
 20
0.0
 30
0.0
  3
6118_E
  1

  0
LINE
  5
3303
330
32D2
100
AcDbEntity
  8
0
100
AcDbLine
 10
36.0
 20
-4.0
 30
0.0
 11
0.0
 21
-4.0
 31
0.0
  0
LINE
  5
3304
330
32D2
100
AcDbEntity
  8
0
100
AcDbLine
 10
36.0
 20
-3.1875
 30
0.0
 11
0.0
 21
-3.1875
 31
0.0
  0
LINE
  5
3305
330
32D2
100
AcDbEntity
  8
0
100
AcDbLine
 10
36.0
 20
-1.706011999999999
 30
0.0
 11
0.0
 21
-1.706011999999999
 31
0.0
  0
LINE
  5
3306
330
32D2
100
AcDbEntity
  8
0
100
AcDbLine
 10
36.0
 20
-1.030542999999999
 30
0.0
 11
0.0
 21
-1.030542999999999
 31
0.0
  0
LINE
  5
3307
330
32D2
100
AcDbEntity
  8
0
100
AcDbLine
 10
0.0
 20
-5.5
 30
0.0
 11
36.0
 21
-5.5
 31
0.0
  0
LINE
  5
3308
330
32D2
100
AcDbEntity
  8
0
100
AcDbLine
 10
0.0
 20
0.0
 30
0.0
 11
36.0
 21
0.0
 31
0.0
  0
LINE
  5
3309
330
32D2
100
AcDbEntity
  8
0
100
AcDbLine
 10
0.0
 20
0.0
 30
0.0
 11
0.0
 21
-5.5
 31
0.0
  0
LINE
  5
330A
330
32D2
100
AcDbEntity
  8
0
100
AcDbLine
 10
36.0
 20
0.0
 30
0.0
 11
36.0
 21
-5.5
 31
0.0
  0
ENDBLK
  5
330B
330
32D2
100
AcDbEntity
  8
0
100
AcDbBlockEnd
  0
BLOCK
  5
32E1
330
32E0
100
AcDbEntity
  8
0
100
AcDbBlockBegin
  2
6118_C
 70
     0
 10
0.0
 20
0.0
 30
0.0
  3
6118_C
  1

  0
LINE
  5
32E2
330
32E0
100
AcDbEntity
  8
0
100
AcDbLine
 10
-1.75
 20
0.0
 30
0.0
 11
0.0
 21
0.0
 31
0.0
  0
LINE
  5
32E3
330
32E0
100
AcDbEntity
  8
0
100
AcDbLine
 10
-0.75
 20
-5.5
 30
0.0
 11
0.0
 21
-5.5
 31
0.0
  0
LINE
  5
32E4
330
32E0
100
AcDbEntity
  8
0
100
AcDbLine
 10
-1.375
 20
-3.1875
 30
0.0
 11
-1.4939
 21
-3.526661
 31
0.0
  0
ARC
  5
32E5
330
32E0
100
AcDbEntity
  8
0
100
AcDbCircle
 10
-1.391669
 20
-3.5625
 30
0.0
 40
0.108331
100
AcDbArc
 50
160.68082
 51
259.41549
  0
LINE
  5
32E6
330
32E0
100
AcDbEntity
  8
0
100
AcDbLine
 10
-1.3125
 20
-3.6875
 30
0.0
 11
-1.411567999999999
 21
-3.668987999999999
 31
0.0
  0
LINE
  5
32E7
330
32E0
100
AcDbEntity
  8
0
100
AcDbLine
 10
-0.75
 20
-5.5
 30
0.0
 11
-0.75
 21
-4.0
 31
0.0
  0
LINE
  5
32E8
330
32E0
100
AcDbEntity
  8
0
100
AcDbLine
 10
-1.3125
 20
-3.6875
 30
0.0
 11
-1.0625
 21
-3.6875
 31
0.0
  0
ARC
  5
32E9
330
32E0
100
AcDbEntity
  8
0
100
AcDbCircle
 10
-0.75
 20
-3.6875
 30
0.0
 40
0.3125
100
AcDbArc
 50
180.0
 51
270.0
  0
LINE
  5
32EA
330
32E0
100
AcDbEntity
  8
0
100
AcDbLine
 10
-1.75
 20
-0.4375
 30
0.0
 11
-1.75
 21
0.0
 31
0.0
  0
LINE
  5
32EB
330
32E0
100
AcDbEntity
  8
0
100
AcDbLine
 10
-1.75
 20
-0.4375
 30
0.0
 11
-1.4375
 21
-0.4375
 31
0.0
  0
ARC
  5
32EC
330
32E0
100
AcDbEntity
  8
0
100
AcDbCircle
 10
-1.4375
 20
-0.747195
 30
0.0
 40
0.309695
100
AcDbArc
 50
90.0
 51
246.195157
  0
LINE
  5
32ED
330
32E0
100
AcDbEntity
  8
0
100
AcDbLine
 10
-1.5625
 20
-1.155542999999999
 30
0.0
 11
-1.5625
 21
-1.030542999999999
 31
0.0
  0
ARC
  5
32EE
330
32E0
100
AcDbEntity
  8
0
100
AcDbCircle
 10
-2.02129
 20
-1.688279
 30
0.0
 40
0.7087909999999999
100
AcDbArc
 50
0.063004
 51
49.662712
  0
LINE
  5
32EF
330
32E0
100
AcDbEntity
  8
0
100
AcDbLine
 10
-1.3125
 20
-1.6875
 30
0.0
 11
-1.411567999999999
 21
-1.706011999999999
 31
0.0
  0
LINE
  5
32F0
330
32E0
100
AcDbEntity
  8
0
100
AcDbLine
 10
-1.375
 20
-2.1875
 30
0.0
 11
-1.4939
 21
-1.848338999999999
 31
0.0
  0
ARC
  5
32F1
330
32E0
100
AcDbEntity
  8
0
100
AcDbCircle
 10
-1.391669
 20
-1.8125
 30
0.0
 40
0.108331
100
AcDbArc
 50
100.58451
 51
199.31918
  0
LINE
  5
32F2
330
32E0
100
AcDbEntity
  8
0
100
AcDbLine
 10
-1.375
 20
-2.1875
 30
0.0
 11
-1.3125
 21
-2.1875
 31
0.0
  0
LINE
  5
32F3
330
32E0
100
AcDbEntity
  8
0
100
AcDbLine
 10
-1.375
 20
-3.1875
 30
0.0
 11
-1.3125
 21
-3.1875
 31
0.0
  0
LINE
  5
32F4
330
32E0
100
AcDbEntity
  8
0
100
AcDbLine
 10
-1.375
 20
-3.1875
 30
0.0
 11
-1.3125
 21
-3.1875
 31
0.0
  0
LINE
  5
32F5
330
32E0
100
AcDbEntity
  8
0
100
AcDbLine
 10
-1.3125
 20
-3.1875
 30
0.0
 11
-1.3125
 21
-2.1875
 31
0.0
  0
LINE
  5
32F6
330
32E0
100
AcDbEntity
  8
0
100
AcDbLine
 10
0.0
 20
-5.5
 30
0.0
 11
0.0
 21
0.0
 31
0.0
  0
ENDBLK
  5
32F7
330
32E0
100
AcDbEntity
  8
0
100
AcDbBlockEnd
  0
BLOCK
  5
348D
330
3482
100
AcDbEntity
  8
0
100
AcDbBlockBegin
  2
*D2
 70
     1
 10
0.0
 20
0.0
 30
0.0
  3
*D2
  1

  0
LINE
  5
3558
330
3482
100
AcDbEntity
  8
DIM
 62
     0
 48
35.0
370
    -2
100
AcDbLine
 10
23.24479233040462
 20
11.90793754289904
 30
0.0
 11
23.24479233040462
 21
-18.73002081992655
 31
0.0
  0
LINE
  5
3559
330
3482
100
AcDbEntity
  8
DIM
 62
     0
 48
35.0
370
    -2
100
AcDbLine
 10
46.49479233040461
 20
11.90793753099732
 30
0.0
 11
46.49479233040461
 21
-18.73002081992655
 31
0.0
  0
LINE
  5
355A
330
3482
100
AcDbEntity
  8
DIM
 62
     0
 48
35.0
370
    -2
100
AcDbLine
 10
23.42479233040462
 20
-18.55002081992655
 30
0.0
 11
26.53110571085879
 21
-18.55002081992655
 31
0.0
  0
LINE
  5
355B
330
3482
100
AcDbEntity
  8
DIM
 62
     0
 48
35.0
370
    -2
100
AcDbLine
 10
46.31479233040462
 20
-18.55002081992655
 30
0.0
 11
38.04443904419212
 21
-18.55002081992655
 31
0.0
  0
SOLID
  5
355C
330
3482
100
AcDbEntity
  8
DIM
 62
     0
 48
35.0
100
AcDbTrace
 10
23.42479233040462
 20
-18.52002081992655
 30
0.0
 11
23.42479233040462
 21
-18.58002081992655
 31
0.0
 12
23.24479233040462
 22
-18.55002081992655
 32
0.0
 13
23.24479233040462
 23
-18.55002081992655
 33
0.0
  0
SOLID
  5
355D
330
3482
100
AcDbEntity
  8
DIM
 62
     0
 48
35.0
100
AcDbTrace
 10
46.31479233040462
 20
-18.52002081992655
 30
0.0
 11
46.31479233040462
 21
-18.58002081992655
 31
0.0
 12
46.49479233040461
 22
-18.55002081992655
 32
0.0
 13
46.49479233040461
 23
-18.55002081992655
 33
0.0
  0
MTEXT
  5
355E
330
3482
100
AcDbEntity
  8
DIM
 62
     0
 48
35.0
100
AcDbMText
 10
32.28777237752546
 20
-18.55002081992655
 30
0.0
 40
2.0
 41
0.0
 71
     5
 72
     1
  1
\A1;23.2500
 73
     1
 44
1.0
  0
POINT
  5
355F
330
3482
100
AcDbEntity
  8
Defpoints
 62
     0
 48
35.0
100
AcDbPoint
 10
23.24479233040462
 20
11.97043754289904
 30
0.0
  0
POINT
  5
3560
330
3482
100
AcDbEntity
  8
Defpoints
 62
     0
 48
35.0
100
AcDbPoint
 10
46.49479233040461
 20
11.97043753099732
 30
0.0
  0
POINT
  5
3561
330
3482
100
AcDbEntity
  8
Defpoints
 62
     0
 48
35.0
100
AcDbPoint
 10
46.49479233040461
 20
-18.55002081992655
 30
0.0
  0
ENDBLK
  5
348E
330
3482
100
AcDbEntity
  8
0
100
AcDbBlockEnd
  0
BLOCK
  5
34A5
330
349A
100
AcDbEntity
  8
0
100
AcDbBlockBegin
  2
*D3
 70
     1
 10
0.0
 20
0.0
 30
0.0
  3
*D3
  1

  0
LINE
  5
3562
330
349A
100
AcDbEntity
  8
DIM
 62
     0
 48
35.0
370
    -2
100
AcDbLine
 10
34.80729233040462
 20
-5.529562457100947
 30
0.0
 11
7.933775667049686
 21
-5.529562457100939
 31
0.0
  0
LINE
  5
3563
330
349A
100
AcDbEntity
  8
DIM
 62
     0
 48
35.0
370
    -2
100
AcDbLine
 10
34.80729233040462
 20
29.47043754289904
 30
0.0
 11
7.933775667049693
 21
29.47043754289905
 31
0.0
  0
LINE
  5
3564
330
349A
100
AcDbEntity
  8
DIM
 62
     0
 48
35.0
370
    -2
100
AcDbLine
 10
8.113775667049685
 20
-5.349562457100939
 30
0.0
 11
8.113775667049688
 21
6.547104209565718
 31
0.0
  0
LINE
  5
3565
330
349A
100
AcDbEntity
  8
DIM
 62
     0
 48
35.0
370
    -2
100
AcDbLine
 10
8.113775667049694
 20
29.29043754289904
 30
0.0
 11
8.11377566704969
 21
17.39377087623238
 31
0.0
  0
SOLID
  5
3566
330
349A
100
AcDbEntity
  8
DIM
 62
     0
 48
35.0
100
AcDbTrace
 10
8.083775667049685
 20
-5.349562457100939
 30
0.0
 11
8.143775667049684
 21
-5.349562457100939
 31
0.0
 12
8.113775667049685
 22
-5.529562457100939
 32
0.0
 13
8.113775667049685
 23
-5.529562457100939
 33
0.0
  0
SOLID
  5
3567
330
349A
100
AcDbEntity
  8
DIM
 62
     0
 48
35.0
100
AcDbTrace
 10
8.083775667049694
 20
29.29043754289904
 30
0.0
 11
8.143775667049693
 21
29.29043754289904
 31
0.0
 12
8.113775667049694
 22
29.47043754289904
 32
0.0
 13
8.113775667049694
 23
29.47043754289904
 33
0.0
  0
MTEXT
  5
3568
330
349A
100
AcDbEntity
  8
DIM
 62
     0
 48
35.0
100
AcDbMText
 10
8.113775667049687
 20
11.97043754289905
 30
0.0
 40
2.0
 41
0.0
 71
     5
 72
     1
  1
\A1;35.0000
 11
0.0000000000000001
 21
1.0
 31
0.0
 73
     1
 44
1.0
  0
POINT
  5
3569
330
349A
100
AcDbEntity
  8
Defpoints
 62
     0
 48
35.0
100
AcDbPoint
 10
34.86979233040462
 20
-5.529562457100947
 30
0.0
  0
POINT
  5
356A
330
349A
100
AcDbEntity
  8
Defpoints
 62
     0
 48
35.0
100
AcDbPoint
 10
34.86979233040462
 20
29.47043754289904
 30
0.0
  0
POINT
  5
356B
330
349A
100
AcDbEntity
  8
Defpoints
 62
     0
 48
35.0
100
AcDbPoint
 10
8.113775667049694
 20
29.47043754289904
 30
0.0
  0
ENDBLK
  5
34A6
330
349A
100
AcDbEntity
  8
0
100
AcDbBlockEnd
  0
BLOCK
  5
352B
330
3520
100
AcDbEntity
  8
0
 48
35.0
100
AcDbBlockBegin
  2
*D4
 70
     1
 10
0.0
 20
0.0
 30
0.0
  3
*D4
  1

  0
LINE
  5
356C
330
3520
100
AcDbEntity
  8
DIM
  6
DASHED
 62
     0
 48
35.0
370
    -2
100
AcDbLine
 10
64.19679634561521
 20
-11.09206245710098
 30
0.0
 11
64.19679634561521
 21
-14.04136223901428
 31
0.0
  0
LINE
  5
356D
330
3520
100
AcDbEntity
  8
DIM
  6
DASHED
 62
     0
 48
35.0
370
    -2
100
AcDbLine
 10
65.94679634561521
 20
-11.09206245710098
 30
0.0
 11
65.94679634561521
 21
-14.04136223901428
 31
0.0
  0
LINE
  5
356E
330
3520
100
AcDbEntity
  8
DIM
  6
DASHED
 62
     0
 48
35.0
370
    -2
100
AcDbLine
 10
64.37679634561522
 20
-13.86136223901428
 30
0.0
 11
65.76679634561521
 21
-13.86136223901428
 31
0.0
  0
LINE
  5
356F
330
3520
100
AcDbEntity
  8
DIM
  6
DASHED
 62
     0
 48
35.0
370
    -2
100
AcDbLine
 10
65.94679634561521
 20
-13.86136223901428
 30
0.0
 11
66.12679634561522
 21
-13.86136223901428
 31
0.0
  0
SOLID
  5
3570
330
3520
100
AcDbEntity
  8
DIM
  6
DASHED
 62
     0
 48
35.0
100
AcDbTrace
 10
64.37679634561522
 20
-13.83136223901428
 30
0.0
 11
64.37679634561522
 21
-13.89136223901428
 31
0.0
 12
64.19679634561521
 22
-13.86136223901428
 32
0.0
 13
64.19679634561521
 23
-13.86136223901428
 33
0.0
  0
SOLID
  5
3571
330
3520
100
AcDbEntity
  8
DIM
  6
DASHED
 62
     0
 48
35.0
100
AcDbTrace
 10
65.76679634561521
 20
-13.83136223901428
 30
0.0
 11
65.76679634561521
 21
-13.89136223901428
 31
0.0
 12
65.94679634561521
 22
-13.86136223901428
 32
0.0
 13
65.94679634561521
 23
-13.86136223901428
 33
0.0
  0
MTEXT
  5
3572
330
3520
100
AcDbEntity
  8
DIM
  6
DASHED
 62
     0
 48
35.0
100
AcDbMText
 10
70.55012967894855
 20
-13.86136223901428
 30
0.0
 40
2.0
 41
0.0
 71
     5
 72
     1
  1
\A1;1.7500
 73
     1
 44
1.0
  0
POINT
  5
3573
330
3520
100
AcDbEntity
  8
Defpoints
  6
DASHED
 62
     0
 48
35.0
100
AcDbPoint
 10
64.19679634561521
 20
-11.02956245710098
 30
0.0
  0
POINT
  5
3574
330
3520
100
AcDbEntity
  8
Defpoints
  6
DASHED
 62
     0
 48
35.0
100
AcDbPoint
 10
65.94679634561521
 20
-11.02956245710098
 30
0.0
  0
POINT
  5
3575
330
3520
100
AcDbEntity
  8
Defpoints
  6
DASHED
 62
     0
 48
35.0
100
AcDbPoint
 10
65.94679634561521
 20
-13.86136223901428
 30
0.0
  0
ENDBLK
  5
352C
330
3520
100
AcDbEntity
  8
0
 48
35.0
100
AcDbBlockEnd
  0
ENDSEC
  0
SECTION
  2
ENTITIES
  0
LINE
  5
3200
330
18
100
AcDbEntity
  8
0
100
AcDbLine
 10
64.19679634561521
 20
34.97043754289904
 30
0.0
 11
65.94679634561521
 21
34.97043754289904
 31
0.0
  0
LINE
  5
3232
330
18
100
AcDbEntity
  8
0
100
AcDbLine
 10
64.19679634561521
 20
34.53293754289904
 30
0.0
 11
64.19679634561521
 21
34.97043754289904
 31
0.0
  0
LINE
  5
3294
330
18
100
AcDbEntity
  8
0
100
AcDbLine
 10
65.94679634561521
 20
29.47043754289904
 30
0.0
 11
65.94679634561521
 21
34.97043754289904
 31
0.0
  0
LINE
  5
3295
330
18
100
AcDbEntity
  8
0
100
AcDbLine
 10
64.19679634561521
 20
34.53293754289904
 30
0.0
 11
64.4992963456152
 21
34.53293754289904
 31
0.0
  0
ARC
  5
3298
330
18
100
AcDbEntity
  8
0
100
AcDbCircle
 10
64.49552203861934
 20
34.20299815116318
 30
0.0
 40
0.2990567767296568
100
AcDbArc
 50
89.30026696244553
 51
260.6229226769459
  0
LINE
  5
3299
330
18
100
AcDbEntity
  8
0
100
AcDbLine
 10
64.44679634561523
 20
33.81208535108049
 30
0.0
 11
64.44679634561523
 21
33.90793754289904
 31
0.0
  0
LINE
  5
329A
330
18
100
AcDbEntity
  8
0
100
AcDbLine
 10
65.19679634561521
 20
29.47043754289904
 30
0.0
 11
65.94679634561521
 21
29.47043754289904
 31
0.0
  0
ARC
  5
32A1
330
18
100
AcDbEntity
  8
0
100
AcDbCircle
 10
64.1860507540308
 20
33.33597599781898
 30
0.0
 40
0.5134921616357011
100
AcDbArc
 50
354.0712951417251
 51
56.67445997368499
  0
LINE
  5
32BA
330
18
100
AcDbEntity
  8
0
100
AcDbLine
 10
65.19679634561521
 20
29.47043754289904
 30
0.0
 11
65.19679634561521
 21
30.84543754289904
 31
0.0
  0
SPLINE
  5
339B
330
18
100
AcDbEntity
  8
0
100
AcDbSpline
210
0.0
220
0.0
230
1.0
 70
     8
 71
     3
 72
     9
 73
     5
 74
     3
 42
0.0000000001
 43
0.0000000001
 44
0.0000000001
 40
0.0
 40
0.0
 40
0.0
 40
0.0
 40
0.1486451004878571
 40
0.250480310508751
 40
0.250480310508751
 40
0.250480310508751
 40
0.250480310508751
 10
64.69679634561521
 20
33.2829369486344
 30
0.0
 10
64.63374318540075
 20
33.2597755576723
 30
0.0
 10
64.52749296190032
 20
33.22074653901675
 30
0.0
 10
64.60342530991631
 20
33.15061217345196
 30
0.0
 10
64.63429634561522
 20
33.12209836399339
 30
0.0
 11
64.69679634561521
 21
33.2829369486344
 31
0.0
 11
64.57179634561523
 21
33.20249836399339
 31
0.0
 11
64.63429634561522
 21
33.12209836399339
 31
0.0
  0
LINE
  5
339C
330
18
100
AcDbEntity
  8
0
100
AcDbLine
 10
64.63429634561521
 20
33.1220983639934
 30
0.0
 11
64.63429634561521
 21
33.00946583522333
 31
0.0
  0
LINE
  5
339F
330
18
100
AcDbEntity
  8
0
100
AcDbLine
 10
64.9467963456152
 20
32.78293754289904
 30
0.0
 11
64.83589259296808
 21
32.78293754289904
 31
0.0
  0
ARC
  5
33A7
330
18
100
AcDbEntity
  8
0
100
AcDbCircle
 10
64.58640285648685
 20
32.76600762291125
 30
0.0
 40
0.2360015188824325
100
AcDbArc
 50
7.428648655420523
 51
75.38294883340942
  0
LINE
  5
33A8
330
18
100
AcDbEntity
  8
0
100
AcDbLine
 10
64.9467963456152
 20
32.78293754289904
 30
0.0
 11
64.9467963456152
 21
31.78293754289904
 31
0.0
  0
SPLINE
  5
33AC
330
18
100
AcDbEntity
  8
0
100
AcDbSpline
210
0.0
220
0.0
230
1.0
 70
     8
 71
     3
 72
    11
 73
     7
 74
     0
 42
0.0000000001
 43
0.0000000001
 40
0.0
 40
0.0
 40
0.0
 40
0.0
 40
0.0606258347336383
 40
0.1832189383580526
 40
0.3034320459400337
 40
0.3601256361756171
 40
0.3601256361756171
 40
0.3601256361756171
 40
0.3601256361756171
 10
64.9467963456152
 20
31.78293754289904
 30
0.0
 10
64.92418865086545
 20
31.78381889933066
 30
0.0
 10
64.85586533871686
 20
31.78648246990955
 30
0.0
 10
64.85630915437361
 20
31.6578656538667
 30
0.0
 10
64.85726296174416
 20
31.53614327576796
 30
0.0
 10
64.79556207380212
 20
31.53058375938995
 30
0.0
 10
64.77455192653009
 20
31.53011978118225
 30
0.0
  0
LINE
  5
33BC
330
18
100
AcDbEntity
  8
0
100
AcDbLine
 10
64.75929634561523
 20
31.51452358369954
 30
0.0
 11
64.75929634561523
 21
31.46743754289904
 31
0.0
  0
SPLINE
  5
33C3
330
18
100
AcDbEntity
  8
0
100
AcDbSpline
210
0.0
220
0.0
230
1.0
 70
     8
 71
     3
 72
    11
 73
     7
 74
     5
 42
0.0000000001
 43
0.0000000001
 44
0.0000000001
 40
0.0
 40
0.0
 40
0.0
 40
0.0
 40
0.1793430527962786
 40
0.2915971984697116
 40
0.5910018972961737
 40
0.710645530227411
 40
0.710645530227411
 40
0.710645530227411
 40
0.710645530227411
 10
64.75929634561523
 20
31.46743754289904
 30
0.0
 10
64.71116879430517
 20
31.43431896879745
 30
0.0
 10
64.63291731529658
 20
31.38047086442563
 30
0.0
 10
64.51200152391807
 20
31.18578980894503
 30
0.0
 10
64.77655913121846
 20
31.08451975716203
 30
0.0
 10
64.90898661366147
 20
31.09301269969594
 30
0.0
 10
64.94679634561522
 20
31.09543754289904
 30
0.0
 11
64.75929634561523
 21
31.46743754289904
 31
0.0
 11
64.62194659792475
 21
31.35211635058969
 31
0.0
 11
64.57179634561523
 21
31.25168754289905
 31
0.0
 11
64.82715273381463
 21
31.0953664352868
 31
0.0
 11
64.94679634561522
 21
31.09543754289904
 31
0.0
  0
ARC
  5
33E0
330
18
100
AcDbEntity
  8
0
100
AcDbCircle
 10
65.184780940142
 20
31.08342213742584
 30
0.0
 40
0.2382877193662412
100
AcDbArc
 50
177.1096954119249
 51
272.8903045880746
  0
ARC
  5
33E2
330
18
100
AcDbEntity
  8
0
100
AcDbCircle
 10
64.77489634561634
 20
31.51452358370639
 30
0.0
 40
0.0156
100
AcDbArc
 50
91.26508740731667
 51
180.0000000251965
  0
ARC
  5
33E3
330
18
100
AcDbEntity
  8
0
100
AcDbCircle
 10
64.83589259296808
 20
32.79853754289904
 30
0.0
 40
0.0156
100
AcDbArc
 50
187.4286486554204
 51
270.0
  0
ARC
  5
33E4
330
18
100
AcDbEntity
  8
0
100
AcDbCircle
 10
64.6498963456152
 20
33.00946583522333
 30
0.0
 40
0.0156
100
AcDbArc
 50
180.0
 51
255.3829488333969
  0
ARC
  5
33EB
330
18
100
AcDbEntity
  8
0
100
AcDbCircle
 10
64.50929634561522
 20
33.81208535108049
 30
0.0
 40
0.0625
100
AcDbArc
 50
180.0
 51
228.8398239247581
  0
LINE
  5
33EC
330
18
100
AcDbEntity
  8
0
100
AcDbLine
 10
64.50929634561521
 20
34.52293754289904
 30
0.0
 11
64.50929634561521
 21
34.5120318804701
 31
0.0
  0
ARC
  5
33F0
330
18
100
AcDbEntity
  8
0
100
AcDbCircle
 10
64.4992963456152
 20
34.52293754289904
 30
0.0
 40
0.01
100
AcDbArc
 50
0.0
 51
90.0
  0
ARC
  5
33F1
330
18
100
AcDbEntity
  8
0
100
AcDbCircle
 10
64.4992963456152
 20
34.5120318804701
 30
0.0
 40
0.01
100
AcDbArc
 50
269.3002669624437
 51
0.0
  0
ELLIPSE
  5
3472
330
18
100
AcDbEntity
  8
0
100
AcDbEllipse
 10
34.86979233040462
 20
11.97043754289904
 30
0.0
 11
0.0000000000000027
 21
-17.5
 31
0.0
210
0.0
220
0.0
230
1.0
 40
0.6642857142857145
 41
0.0
 42
6.283185307179586
  0
ELLIPSE
  5
3473
330
18
100
AcDbEntity
  8
0
100
AcDbEllipse
 10
34.86979233040462
 20
11.97043754289903
 30
0.0
 11
-0.0000000000000155
 21
-18.87500000000001
 31
0.0
210
0.0
220
0.0
230
1.0
 40
0.6887417218543043
 41
0.0
 42
6.283185307179586
  0
ELLIPSE
  5
3474
330
18
100
AcDbEntity
  8
0
100
AcDbEllipse
 10
34.86979233040462
 20
11.97043754289904
 30
0.0
 11
0.0
 21
-19.125
 31
0.0
210
0.0
220
0.0
230
1.0
 40
0.6928104575163401
 41
0.0
 42
6.283185307179586
  0
ELLIPSE
  5
3475
330
18
100
AcDbEntity
  8
0
100
AcDbEllipse
 10
34.86979233040462
 20
11.97043754289904
 30
0.0
 11
0.0
 21
-19.497
 31
0.0
210
0.0
220
0.0
230
1.0
 40
0.6986715905011027
 41
0.0
 42
6.283185307179586
  0
ELLIPSE
  5
3476
330
18
100
AcDbEntity
  8
0
100
AcDbEllipse
 10
34.86979233040462
 20
11.97043754289904
 30
0.0
 11
0.0
 21
-19.54408604080734
 31
0.0
210
0.0
220
0.0
230
1.0
 40
0.6993975575151885
 41
0.0
 42
6.283185307179586
  0
ELLIPSE
  5
3477
330
18
100
AcDbEntity
  8
0
100
AcDbEllipse
 10
34.86979233040462
 20
11.97043754289903
 30
0.0
 11
-0.0000000000000152
 21
-19.81250000000001
 31
0.0
210
0.0
220
0.0
230
1.0
 40
0.7034700315457411
 41
0.0
 42
6.283185307179586
  0
ELLIPSE
  5
3478
330
18
100
AcDbEntity
  8
0
100
AcDbEllipse
 10
34.86979233040462
 20
11.97043754289902
 30
0.0
 11
-0.0000000000000149
 21
-20.81250000000002
 31
0.0
210
0.0
220
0.0
230
1.0
 40
0.7177177177177169
 41
0.0
 42
6.283185307179586
  0
ELLIPSE
  5
3479
330
18
100
AcDbEntity
  8
0
100
AcDbEllipse
 10
34.86979233040462
 20
11.97043754289903
 30
0.0
 11
0.0000000000000123
 21
-21.0390282923243
 31
0.0
210
0.0
220
0.0
230
1.0
 40
0.7207570654703954
 41
0.0
 42
6.283185307179586
  0
ELLIPSE
  5
347A
330
18
100
AcDbEntity
  8
0
100
AcDbEllipse
 10
34.86979233040462
 20
11.97043754289904
 30
0.0
 11
0.0000000000000025
 21
-21.15166082109436
 31
0.0
210
0.0
220
0.0
230
1.0
 40
0.7222440332372896
 41
0.0
 42
6.283185307179586
  0
ELLIPSE
  5
347B
330
18
100
AcDbEntity
  8
0
100
AcDbEllipse
 10
34.86979233040462
 20
11.97043754289904
 30
0.0
 11
0.0000000000000025
 21
-21.31249940573535
 31
0.0
210
0.0
220
0.0
230
1.0
 40
0.7243401682667498
 41
0.0
 42
6.283185307179586
  0
ELLIPSE
  5
347C
330
18
100
AcDbEntity
  8
0
100
AcDbEllipse
 10
34.86979233040462
 20
11.97043754289904
 30
0.0
 11
-0.0000000000000024
 21
-21.84164780818145
 31
0.0
210
0.0
220
0.0
230
1.0
 40
0.7310184629110564
 41
0.0
 42
6.283185307179586
  0
ELLIPSE
  5
347D
330
18
100
AcDbEntity
  8
0
100
AcDbEllipse
 10
34.86979233040462
 20
11.97043754289904
 30
0.0
 11
0.0
 21
-21.9375
 31
0.0
210
0.0
220
0.0
230
1.0
 40
0.7321937321937321
 41
0.0
 42
6.283185307179586
  0
ELLIPSE
  5
347E
330
18
100
AcDbEntity
  8
0
100
AcDbEllipse
 10
34.86979233040462
 20
11.97043754289904
 30
0.0
 11
0.0
 21
-22.54159433757106
 31
0.0
210
0.0
220
0.0
230
1.0
 40
0.7393706979187411
 41
0.0
 42
6.283185307179586
  0
ELLIPSE
  5
347F
330
18
100
AcDbEntity
  8
0
100
AcDbEllipse
 10
34.86979233040462
 20
11.97043754289904
 30
0.0
 11
0.0
 21
-22.5625
 31
0.0
210
0.0
220
0.0
230
1.0
 40
0.7396121883656509
 41
0.0
 42
6.283185307179586
  0
ELLIPSE
  5
3480
330
18
100
AcDbEntity
  8
0
100
AcDbEllipse
 10
34.86979233040462
 20
11.97043754289903
 30
0.0
 11
-0.0000000000000167
 21
-23.00000000000002
 31
0.0
210
0.0
220
0.0
230
1.0
 40
0.7445652173913039
 41
0.0
 42
6.283185307179586
  0
DIMENSION
  5
3481
330
18
100
AcDbEntity
  8
DIM
100
AcDbDimension
  2
*D2
 10
46.49479233040461
 20
-18.55002081992655
 30
0.0
 11
32.28777237752546
 21
-18.55002081992655
 31
0.0
 70
   160
 71
     5
 42
23.25
  3
STANDARD
100
AcDbAlignedDimension
 13
23.24479233040462
 23
11.97043754289904
 33
0.0
 14
46.49479233040461
 24
11.97043753099732
 34
0.0
100
AcDbRotatedDimension
  0
DIMENSION
  5
3499
330
18
100
AcDbEntity
  8
DIM
100
AcDbDimension
  2
*D3
 10
8.113775667049694
 20
29.47043754289904
 30
0.0
 11
8.113775667049687
 21
11.97043754289905
 31
0.0
 70
    32
 71
     5
 42
34.99999999999999
  3
STANDARD
100
AcDbAlignedDimension
 13
34.86979233040462
 23
-5.529562457100947
 33
0.0
 14
34.86979233040462
 24
29.47043754289904
 34
0.0
 50
90.0
100
AcDbRotatedDimension
  0
LINE
  5
34F3
330
18
100
AcDbEntity
  8
0
100
AcDbLine
 10
64.19679634561521
 20
-11.02956245710098
 30
0.0
 11
65.94679634561521
 21
-11.02956245710098
 31
0.0
  0
LINE
  5
34F5
330
18
100
AcDbEntity
  8
0
100
AcDbLine
 10
64.19679634561521
 20
-10.59206245710098
 30
0.0
 11
64.19679634561521
 21
-11.02956245710098
 31
0.0
  0
LINE
  5
34F6
330
18
100
AcDbEntity
  8
0
100
AcDbLine
 10
65.94679634561521
 20
34.97043754289904
 30
0.0
 11
65.94679634561521
 21
-11.02956245710098
 31
0.0
  0
LINE
  5
34F7
330
18
100
AcDbEntity
  8
0
100
AcDbLine
 10
64.19679634561521
 20
-10.59206245710098
 30
0.0
 11
64.4992963456152
 21
-10.59206245710098
 31
0.0
  0
ARC
  5
34F8
330
18
100
AcDbEntity
  8
0
100
AcDbCircle
 10
64.49552203861934
 20
-10.26212306536511
 30
0.0
 40
0.2990567767296568
100
AcDbArc
 50
99.37707732305389
 51
270.6997330375543
  0
LINE
  5
34F9
330
18
100
AcDbEntity
  8
0
100
AcDbLine
 10
64.44679634561523
 20
-9.871210265282428
 30
0.0
 11
64.44679634561523
 21
-9.967062457100979
 31
0.0
  0
LINE
  5
34FA
330
18
100
AcDbEntity
  8
0
100
AcDbLine
 10
65.19679634561521
 20
-5.529562457100979
 30
0.0
 11
65.94679634561521
 21
-5.529562457100979
 31
0.0
  0
ARC
  5
34FB
330
18
100
AcDbEntity
  8
0
100
AcDbCircle
 10
64.1860507540308
 20
-9.395100912020922
 30
0.0
 40
0.5134921616357011
100
AcDbArc
 50
303.3255400263154
 51
5.928704858274989
  0
LINE
  5
34FC
330
18
100
AcDbEntity
  8
0
100
AcDbLine
 10
65.19679634561521
 20
-5.529562457100979
 30
0.0
 11
65.19679634561521
 21
-6.904562457100979
 31
0.0
  0
SPLINE
  5
34FD
330
18
100
AcDbEntity
  8
0
100
AcDbSpline
210
0.0
220
0.0
230
1.0
 70
     8
 71
     3
 72
     9
 73
     5
 74
     3
 42
0.0000000001
 43
0.0000000001
 44
0.0000000001
 40
0.0
 40
0.0
 40
0.0
 40
0.0
 40
0.1486451004878571
 40
0.250480310508751
 40
0.250480310508751
 40
0.250480310508751
 40
0.250480310508751
 10
64.69679634561521
 20
-9.342061862836331
 30
0.0
 10
64.63374318540075
 20
-9.318900471874242
 30
0.0
 10
64.52749296190032
 20
-9.279871453218682
 30
0.0
 10
64.60342530991631
 20
-9.209737087653902
 30
0.0
 10
64.63429634561522
 20
-9.181223278195325
 30
0.0
 11
64.69679634561521
 21
-9.342061862836331
 31
0.0
 11
64.57179634561523
 21
-9.261623278195322
 31
0.0
 11
64.63429634561522
 21
-9.181223278195325
 31
0.0
  0
LINE
  5
34FE
330
18
100
AcDbEntity
  8
0
100
AcDbLine
 10
64.63429634561521
 20
-9.181223278195332
 30
0.0
 11
64.63429634561521
 21
-9.068590749425268
 31
0.0
  0
LINE
  5
34FF
330
18
100
AcDbEntity
  8
0
100
AcDbLine
 10
64.9467963456152
 20
-8.842062457100979
 30
0.0
 11
64.83589259296808
 21
-8.842062457100979
 31
0.0
  0
ARC
  5
3500
330
18
100
AcDbEntity
  8
0
100
AcDbCircle
 10
64.58640285648685
 20
-8.825132537113191
 30
0.0
 40
0.2360015188824325
100
AcDbArc
 50
284.6170511665903
 51
352.5713513445794
  0
LINE
  5
3501
330
18
100
AcDbEntity
  8
0
100
AcDbLine
 10
64.9467963456152
 20
-8.842062457100979
 30
0.0
 11
64.9467963456152
 21
-7.842062457100979
 31
0.0
  0
SPLINE
  5
3502
330
18
100
AcDbEntity
  8
0
100
AcDbSpline
210
0.0
220
0.0
230
1.0
 70
     8
 71
     3
 72
    11
 73
     7
 74
     0
 42
0.0000000001
 43
0.0000000001
 40
0.0
 40
0.0
 40
0.0
 40
0.0
 40
0.0606258347336383
 40
0.1832189383580526
 40
0.3034320459400337
 40
0.3601256361756171
 40
0.3601256361756171
 40
0.3601256361756171
 40
0.3601256361756171
 10
64.9467963456152
 20
-7.842062457100979
 30
0.0
 10
64.92418865086545
 20
-7.842943813532599
 30
0.0
 10
64.85586533871686
 20
-7.845607384111488
 30
0.0
 10
64.85630915437361
 20
-7.716990568068638
 30
0.0
 10
64.85726296174416
 20
-7.5952681899699
 30
0.0
 10
64.79556207380212
 20
-7.589708673591886
 30
0.0
 10
64.77455192653009
 20
-7.589244695384188
 30
0.0
  0
LINE
  5
3503
330
18
100
AcDbEntity
  8
0
100
AcDbLine
 10
64.75929634561523
 20
-7.573648497901473
 30
0.0
 11
64.75929634561523
 21
-7.526562457100979
 31
0.0
  0
SPLINE
  5
3504
330
18
100
AcDbEntity
  8
0
100
AcDbSpline
210
0.0
220
0.0
230
1.0
 70
     8
 71
     3
 72
    11
 73
     7
 74
     5
 42
0.0000000001
 43
0.0000000001
 44
0.0000000001
 40
0.0
 40
0.0
 40
0.0
 40
0.0
 40
0.1793430527962786
 40
0.2915971984697116
 40
0.5910018972961737
 40
0.710645530227411
 40
0.710645530227411
 40
0.710645530227411
 40
0.710645530227411
 10
64.75929634561523
 20
-7.526562457100979
 30
0.0
 10
64.71116879430517
 20
-7.493443882999386
 30
0.0
 10
64.63291731529658
 20
-7.43959577862756
 30
0.0
 10
64.51200152391807
 20
-7.244914723146981
 30
0.0
 10
64.77655913121846
 20
-7.143644671363965
 30
0.0
 10
64.90898661366147
 20
-7.152137613897878
 30
0.0
 10
64.94679634561522
 20
-7.154562457100979
 30
0.0
 11
64.75929634561523
 21
-7.526562457100979
 31
0.0
 11
64.62194659792475
 21
-7.411241264791627
 31
0.0
 11
64.57179634561523
 21
-7.310812457100986
 31
0.0
 11
64.82715273381463
 21
-7.154491349488736
 31
0.0
 11
64.94679634561522
 21
-7.154562457100979
 31
0.0
  0
ARC
  5
3505
330
18
100
AcDbEntity
  8
0
100
AcDbCircle
 10
65.184780940142
 20
-7.142547051627772
 30
0.0
 40
0.2382877193662412
100
AcDbArc
 50
87.10969541192547
 51
182.8903045880751
  0
ARC
  5
3506
330
18
100
AcDbEntity
  8
0
100
AcDbCircle
 10
64.77489634561634
 20
-7.573648497908322
 30
0.0
 40
0.0156
100
AcDbArc
 50
179.9999999748035
 51
268.7349125926833
  0
ARC
  5
3507
330
18
100
AcDbEntity
  8
0
100
AcDbCircle
 10
64.83589259296808
 20
-8.857662457100978
 30
0.0
 40
0.0156
100
AcDbArc
 50
90.00000000000003
 51
172.5713513445794
  0
ARC
  5
3508
330
18
100
AcDbEntity
  8
0
100
AcDbCircle
 10
64.6498963456152
 20
-9.068590749425268
 30
0.0
 40
0.0156
100
AcDbArc
 50
104.6170511666029
 51
180.0
  0
ARC
  5
3509
330
18
100
AcDbEntity
  8
0
100
AcDbCircle
 10
64.50929634561522
 20
-9.871210265282428
 30
0.0
 40
0.0625
100
AcDbArc
 50
131.160176075242
 51
180.0
  0
LINE
  5
350A
330
18
100
AcDbEntity
  8
0
100
AcDbLine
 10
64.50929634561521
 20
-10.58206245710098
 30
0.0
 11
64.50929634561521
 21
-10.57115679467203
 31
0.0
  0
ARC
  5
350B
330
18
100
AcDbEntity
  8
0
100
AcDbCircle
 10
64.4992963456152
 20
-10.58206245710098
 30
0.0
 40
0.01
100
AcDbArc
 50
270.0
 51
0.0
  0
ARC
  5
350C
330
18
100
AcDbEntity
  8
0
100
AcDbCircle
 10
64.4992963456152
 20
-10.57115679467203
 30
0.0
 40
0.01
100
AcDbArc
 50
0.0
 51
90.69973303755594
  0
LINE
  5
350E
330
18
100
AcDbEntity
  8
0
  6
DASHED
 48
0.1
100
AcDbLine
 10
65.19679634561521
 20
29.47043754289904
 30
0.0
 11
65.19679634561521
 21
-5.529562457100979
 31
0.0
  0
LINE
  5
3512
330
18
100
AcDbEntity
  8
0
100
AcDbLine
 10
64.19679634561521
 20
34.53293754289904
 30
0.0
 11
64.19679634561521
 21
-10.59206245710098
 31
0.0
  0
DIMENSION
  5
351F
330
18
100
AcDbEntity
  8
DIM
  6
DASHED
 48
35.0
100
AcDbDimension
  2
*D4
 10
65.94679634561521
 20
-13.86136223901428
 30
0.0
 11
70.55012967894855
 21
-13.86136223901428
 31
0.0
 70
    32
 71
     5
 42
1.75
  3
STANDARD
100
AcDbAlignedDimension
 13
64.19679634561521
 23
-11.02956245710098
 33
0.0
 14
65.94679634561521
 24
-11.02956245710098
 34
0.0
100
AcDbRotatedDimension
  0
VIEWPORT
  5
351C
330
15
100
AcDbEntity
 67
     1
  8
0
  6
DASHED
 48
35.0
100
AcDbViewport
 10
133.3499908447265
 20
101.5999970436096
 30
0.0
 40
446.6355739657439
 41
228.4221935424805
 68
     2
 69
     1
 12
133.3499908447265
 22
101.5999970436096
 13
0.0
 23
0.0
 14
10.0
 24
10.0
 15
10.0
 25
10.0
 16
0.0
 26
0.0
 36
1.0
 17
0.0
 27
0.0
 37
0.0
 42
50.0
 43
0.0
 44
0.0
 45
228.4221935424805
 50
0.0
 51
0.0
 72
   100
 90
    32800
  1

281
     0
 71
     1
 74
     0
110
0.0
120
0.0
130
0.0
111
1.0
121
0.0
131
0.0
112
0.0
122
1.0
132
0.0
 79
     0
146
0.0
170
     0
  0
VIEWPORT
  5
351E
330
15
100
AcDbEntity
 67
     1
  8
0
  6
DASHED
 48
35.0
100
AcDbViewport
 10
133.3499939441681
 20
101.5999939441681
 30
0.0
 40
213.3599903106689
 41
162.5599903106689
 68
     1
 69
     2
 12
39.77080425297714
 22
8.048284916595678
 13
0.0
 23
0.0
 14
10.0
 24
10.0
 15
10.0
 25
10.0
 16
0.0
 26
0.0
 36
1.0
 17
0.0
 27
0.0
 37
0.0
 42
50.0
 43
0.0
 44
0.0
 45
64.11017770794281
 50
0.0
 51
0.0
 72
   100
 90
    32800
  1

281
     0
 71
     1
 74
     0
110
0.0
120
0.0
130
0.0
111
1.0
121
0.0
131
0.0
112
0.0
122
1.0
132
0.0
 79
     0
146
0.0
170
     0
  0
ENDSEC
  0
SECTION
  2
OBJECTS
  0
DICTIONARY
  5
C
330
0
100
AcDbDictionary
281
     1
  3
ACAD_COLOR
350
3316
  3
ACAD_GROUP
350
D
  3
ACAD_IMAGE_DICT
350
21
  3
ACAD_IMAGE_VARS
350
20
  3
ACAD_LAYOUT
350
3317
  3
ACAD_MATERIAL
350
3315
  3
ACAD_MLINESTYLE
350
1B
  3
ACAD_PLOTSETTINGS
350
3318
  3
ACAD_PLOTSTYLENAME
350
3313
  0
DICTIONARY
  5
3316
102
{ACAD_REACTORS
330
C
102
}
330
C
100
AcDbDictionary
281
     1
  0
DICTIONARY
  5
D
102
{ACAD_REACTORS
330
C
102
}
330
C
100
AcDbDictionary
281
     1
  0
DICTIONARY
  5
21
102
{ACAD_REACTORS
330
C
102
}
330
C
100
AcDbDictionary
281
     1
  3
3304-1
350
22
  3
3304-1B
350
1C41
  3
3304-2
350
25
  3
3304-2B
350
1C44
  3
3304-3
350
28
  3
3304-3B
350
1C47
  0
RASTERVARIABLES
  5
20
102
{ACAD_REACTORS
330
C
102
}
330
C
100
AcDbRasterVariables
 90
        0
 70
     1
 71
     1
 72
     0
  0
DICTIONARY
  5
3317
102
{ACAD_REACTORS
330
C
102
}
330
C
100
AcDbDictionary
281
     1
  3
Layout1
350
331A
  3
Model
350
3319
  0
DICTIONARY
  5
3315
102
{ACAD_REACTORS
330
C
102
}
330
C
100
AcDbDictionary
281
     1
  0
DICTIONARY
  5
1B
102
{ACAD_REACTORS
330
C
102
}
330
C
100
AcDbDictionary
281
     1
  3
STANDARD
350
1C
  0
DICTIONARY
  5
3318
102
{ACAD_REACTORS
330
C
102
}
330
C
100
AcDbDictionary
281
     1
  0
ACDBDICTIONARYWDFLT
  5
3313
102
{ACAD_REACTORS
330
C
102
}
330
C
100
AcDbDictionary
281
     1
  3
Normal
350
3314
100
AcDbDictionaryWithDefault
340
3314
  0
IMAGEDEF
  5
22
102
{ACAD_REACTORS
330
21
102
}
330
21
100
AcDbRasterImageDef
 90
        0
  1
U:\TPDWG\MichelQ\3304-1.tif
 10
2243.0
 20
3009.0
 11
0.070556
 21
0.070556
280
     1
281
     5
  0
IMAGEDEF
  5
1C41
102
{ACAD_REACTORS
330
21
102
}
330
21
100
AcDbRasterImageDef
 90
        0
  1
U:\TPDWG\MichelQ\3304-1b.TIF
 10
2202.0
 20
2931.0
 11
0.070556
 21
0.070556
280
     1
281
     5
  0
IMAGEDEF
  5
25
102
{ACAD_REACTORS
330
21
102
}
330
21
100
AcDbRasterImageDef
 90
        0
  1
U:\TPDWG\MichelQ\3304-2.tif
 10
2243.0
 20
3009.0
 11
0.070556
 21
0.070556
280
     1
281
     5
  0
IMAGEDEF
  5
1C44
102
{ACAD_REACTORS
330
21
102
}
330
21
100
AcDbRasterImageDef
 90
        0
  1
U:\TPDWG\MichelQ\3304-2b.TIF
 10
2202.0
 20
2931.0
 11
0.070556
 21
0.070556
280
     1
281
     5
  0
IMAGEDEF
  5
28
102
{ACAD_REACTORS
330
21
102
}
330
21
100
AcDbRasterImageDef
 90
        0
  1
U:\TPDWG\MichelQ\3304-3.tif
 10
2243.0
 20
3009.0
 11
0.070556
 21
0.070556
280
     1
281
     5
  0
IMAGEDEF
  5
1C47
102
{ACAD_REACTORS
330
21
102
}
330
21
100
AcDbRasterImageDef
 90
        0
  1
U:\TPDWG\MichelQ\3304-3b.TIF
 10
2202.0
 20
2931.0
 11
0.070556
 21
0.070556
280
     1
281
     5
  0
LAYOUT
  5
331A
102
{ACAD_REACTORS
330
3317
102
}
330
3317
100
AcDbPlotSettings
  1

  2
none_device
  4
Letter_(8.50_x_11.00_Inches)
  6

 40
6.349999904632568
 41
6.349999904632568
 42
6.350006103515625
 43
6.350006103515625
 44
215.8999938964844
 45
279.3999938964844
 46
0.0
 47
0.0
 48
0.0
 49
0.0
140
0.0
141
0.0
142
1.0
143
1.0
 70
   688
 72
     1
 73
     1
 74
     5
  7

 75
    16
147
1.0
 76
     0
 77
     2
 78
   300
148
0.0
149
0.0
100
AcDbLayout
  1
Layout1
 70
     1
 71
     1
 10
-6.350006103515625
 20
-6.349999904632568
 11
273.0499877929688
 21
209.5499939918518
 12
0.0
 22
0.0
 32
0.0
 14
26.66076962115563
 24
20.31135699206658
 34
-0.0015258207003583
 15
240.039213369355
 25
182.8886381005154
 35
0.0000000349246037
146
0.0
 13
0.0
 23
0.0
 33
0.0
 16
1.0
 26
0.0
 36
0.0
 17
0.0
 27
1.0
 37
0.0
 76
     0
330
15
331
351E
  0
LAYOUT
  5
3319
102
{ACAD_REACTORS
330
3317
102
}
330
3317
100
AcDbPlotSettings
  1

  2
None
  4

  6

 40
0.0
 41
0.0
 42
0.0
 43
0.0
 44
0.0
 45
0.0
 46
0.0
 47
0.0
 48
0.0
 49
0.0
140
0.0
141
0.0
142
1.0
143
1.0
 70
  1712
 72
     0
 73
     0
 74
     0
  7

 75
     0
147
1.0
 76
     0
 77
     2
 78
   300
148
0.0
149
0.0
100
AcDbLayout
  1
Model
 70
     1
 71
     0
 10
0.0
 20
0.0
 11
12.0
 21
9.0
 12
0.0
 22
0.0
 32
0.0
 14
0.0
 24
0.0
 34
0.0
 15
0.0
 25
0.0
 35
0.0
146
0.0
 13
0.0
 23
0.0
 33
0.0
 16
1.0
 26
0.0
 36
0.0
 17
0.0
 27
1.0
 37
0.0
 76
     0
330
18
  0
MLINESTYLE
  5
1C
102
{ACAD_REACTORS
330
1B
102
}
330
1B
100
AcDbMlineStyle
  2
STANDARD
 70
     0
  3

 62
   256
 51
90.0
 52
90.0
 71
     2
 49
0.5
 62
   256
  6
BYLAYER
 49
-0.5
 62
   256
  6
BYLAYER
  0
ACDBPLACEHOLDER
  5
3314
102
{ACAD_REACTORS
330
3313
102
}
330
3313
  0
ENDSEC
  0
EOF
