  0
SECTION
  2
HEADER
  9
$ACADVER
  1
AC1018
  9
$ACADMAINTVER
 70
     0
  9
$DWGCODEPAGE
  3
ANSI_1252
  9
$INSBASE
 10
0.0
 20
0.0
 30
0.0
  9
$EXTMIN
 10
3.359695376885142
 20
15.01309800508739
 30
0.0
  9
$EXTMAX
 10
19.97718698791917
 20
19.94439739275454
 30
0.0
  9
$LIMMIN
 10
0.0
 20
0.0
  9
$LIMMAX
 10
12.0
 20
9.0
  9
$ORTHOMODE
 70
     0
  9
$REGENMODE
 70
     1
  9
$FILLMODE
 70
     1
  9
$QTEXTMODE
 70
     0
  9
$MIRRTEXT
 70
     0
  9
$LTSCALE
 40
1.0
  9
$ATTMODE
 70
     1
  9
$TEXTSIZE
 40
0.2
  9
$TRACEWID
 40
0.05
  9
$TEXTSTYLE
  7
Standard
  9
$CLAYER
  8
0
  9
$CELTYPE
  6
ByLayer
  9
$CECOLOR
 62
   256
  9
$CELTSCALE
 40
1.0
  9
$DISPSILH
 70
     0
  9
$DIMSCALE
 40
1.0
  9
$DIMASZ
 40
0.18
  9
$DIMEXO
 40
0.0625
  9
$DIMDLI
 40
0.38
  9
$DIMRND
 40
0.0
  9
$DIMDLE
 40
0.0
  9
$DIMEXE
 40
0.18
  9
$DIMTP
 40
0.0
  9
$DIMTM
 40
0.0
  9
$DIMTXT
 40
0.18
  9
$DIMCEN
 40
0.09
  9
$DIMTSZ
 40
0.0
  9
$DIMTOL
 70
     0
  9
$DIMLIM
 70
     0
  9
$DIMTIH
 70
     1
  9
$DIMTOH
 70
     1
  9
$DIMSE1
 70
     0
  9
$DIMSE2
 70
     0
  9
$DIMTAD
 70
     0
  9
$DIMZIN
 70
     0
  9
$DIMBLK
  1

  9
$DIMASO
 70
     1
  9
$DIMSHO
 70
     1
  9
$DIMPOST
  1

  9
$DIMAPOST
  1

  9
$DIMALT
 70
     0
  9
$DIMALTD
 70
     2
  9
$DIMALTF
 40
25.4
  9
$DIMLFAC
 40
1.0
  9
$DIMTOFL
 70
     0
  9
$DIMTVP
 40
0.0
  9
$DIMTIX
 70
     0
  9
$DIMSOXD
 70
     0
  9
$DIMSAH
 70
     0
  9
$DIMBLK1
  1

  9
$DIMBLK2
  1

  9
$DIMSTYLE
  2
Standard
  9
$DIMCLRD
 70
     0
  9
$DIMCLRE
 70
     0
  9
$DIMCLRT
 70
     0
  9
$DIMTFAC
 40
1.0
  9
$DIMGAP
 40
0.09
  9
$DIMJUST
 70
     0
  9
$DIMSD1
 70
     0
  9
$DIMSD2
 70
     0
  9
$DIMTOLJ
 70
     1
  9
$DIMTZIN
 70
     0
  9
$DIMALTZ
 70
     0
  9
$DIMALTTZ
 70
     0
  9
$DIMUPT
 70
     0
  9
$DIMDEC
 70
     4
  9
$DIMTDEC
 70
     4
  9
$DIMALTU
 70
     2
  9
$DIMALTTD
 70
     2
  9
$DIMTXSTY
  7
Standard
  9
$DIMAUNIT
 70
     0
  9
$DIMADEC
 70
     0
  9
$DIMALTRND
 40
0.0
  9
$DIMAZIN
 70
     0
  9
$DIMDSEP
 70
    46
  9
$DIMATFIT
 70
     3
  9
$DIMFRAC
 70
     0
  9
$DIMLDRBLK
  1

  9
$DIMLUNIT
 70
     5
  9
$DIMLWD
 70
    -2
  9
$DIMLWE
 70
    -2
  9
$DIMTMOVE
 70
     0
  9
$LUNITS
 70
     2
  9
$LUPREC
 70
     4
  9
$SKETCHINC
 40
0.1
  9
$FILLETRAD
 40
0.0312
  9
$AUNITS
 70
     0
  9
$AUPREC
 70
     0
  9
$MENU
  1
.
  9
$ELEVATION
 40
0.0
  9
$PELEVATION
 40
0.0
  9
$THICKNESS
 40
0.0
  9
$LIMCHECK
 70
     0
  9
$CHAMFERA
 40
0.0
  9
$CHAMFERB
 40
0.0
  9
$CHAMFERC
 40
0.0
  9
$CHAMFERD
 40
0.0
  9
$SKPOLY
 70
     0
  9
$TDCREATE
 40
2453377.667235776
  9
$TDUCREATE
 40
2453377.833902443
  9
$TDUPDATE
 40
2453489.601182083
  9
$TDUUPDATE
 40
2453489.767848750
  9
$TDINDWG
 40
0.0454859259
  9
$TDUSRTIMER
 40
0.0454859259
  9
$USRTIMER
 70
     1
  9
$ANGBASE
 50
0.0
  9
$ANGDIR
 70
     0
  9
$PDMODE
 70
     0
  9
$PDSIZE
 40
0.0
  9
$PLINEWID
 40
0.0
  9
$SPLFRAME
 70
     0
  9
$SPLINETYPE
 70
     6
  9
$SPLINESEGS
 70
     8
  9
$HANDSEED
  5
1D7
  9
$SURFTAB1
 70
     6
  9
$SURFTAB2
 70
     6
  9
$SURFTYPE
 70
     6
  9
$SURFU
 70
     6
  9
$SURFV
 70
     6
  9
$UCSBASE
  2

  9
$UCSNAME
  2

  9
$UCSORG
 10
0.0
 20
0.0
 30
0.0
  9
$UCSXDIR
 10
1.0
 20
0.0
 30
0.0
  9
$UCSYDIR
 10
0.0
 20
1.0
 30
0.0
  9
$UCSORTHOREF
  2

  9
$UCSORTHOVIEW
 70
     0
  9
$UCSORGTOP
 10
0.0
 20
0.0
 30
0.0
  9
$UCSORGBOTTOM
 10
0.0
 20
0.0
 30
0.0
  9
$UCSORGLEFT
 10
0.0
 20
0.0
 30
0.0
  9
$UCSORGRIGHT
 10
0.0
 20
0.0
 30
0.0
  9
$UCSORGFRONT
 10
0.0
 20
0.0
 30
0.0
  9
$UCSORGBACK
 10
0.0
 20
0.0
 30
0.0
  9
$PUCSBASE
  2

  9
$PUCSNAME
  2

  9
$PUCSORG
 10
0.0
 20
0.0
 30
0.0
  9
$PUCSXDIR
 10
1.0
 20
0.0
 30
0.0
  9
$PUCSYDIR
 10
0.0
 20
1.0
 30
0.0
  9
$PUCSORTHOREF
  2

  9
$PUCSORTHOVIEW
 70
     0
  9
$PUCSORGTOP
 10
0.0
 20
0.0
 30
0.0
  9
$PUCSORGBOTTOM
 10
0.0
 20
0.0
 30
0.0
  9
$PUCSORGLEFT
 10
0.0
 20
0.0
 30
0.0
  9
$PUCSORGRIGHT
 10
0.0
 20
0.0
 30
0.0
  9
$PUCSORGFRONT
 10
0.0
 20
0.0
 30
0.0
  9
$PUCSORGBACK
 10
0.0
 20
0.0
 30
0.0
  9
$USERI1
 70
     0
  9
$USERI2
 70
     0
  9
$USERI3
 70
     0
  9
$USERI4
 70
     0
  9
$USERI5
 70
     0
  9
$USERR1
 40
0.0
  9
$USERR2
 40
0.0
  9
$USERR3
 40
0.0
  9
$USERR4
 40
0.0
  9
$USERR5
 40
0.0
  9
$WORLDVIEW
 70
     1
  9
$SHADEDGE
 70
     3
  9
$SHADEDIF
 70
    70
  9
$TILEMODE
 70
     1
  9
$MAXACTVP
 70
    64
  9
$PINSBASE
 10
0.0
 20
0.0
 30
0.0
  9
$PLIMCHECK
 70
     0
  9
$PEXTMIN
 10
1.049636599258096
 20
0.7996597240971113
 30
-0.0000000349181948
  9
$PEXTMAX
 10
9.450362731076971
 20
7.200340082697458
 30
0.0000000814935746
  9
$PLIMMIN
 10
-0.2500002402958907
 20
-0.2499999962453767
  9
$PLIMMAX
 10
10.74999951940821
 20
8.249999763458731
  9
$UNITMODE
 70
     0
  9
$VISRETAIN
 70
     1
  9
$PLINEGEN
 70
     0
  9
$PSLTSCALE
 70
     1
  9
$TREEDEPTH
 70
  3020
  9
$CMLSTYLE
  2
Standard
  9
$CMLJUST
 70
     0
  9
$CMLSCALE
 40
1.0
  9
$PROXYGRAPHICS
 70
     1
  9
$MEASUREMENT
 70
     0
  9
$CELWEIGHT
370
    -1
  9
$ENDCAPS
280
     0
  9
$JOINSTYLE
280
     0
  9
$LWDISPLAY
290
     0
  9
$INSUNITS
 70
     1
  9
$HYPERLINKBASE
  1

  9
$STYLESHEET
  1

  9
$XEDIT
290
     1
  9
$CEPSNTYPE
380
     0
  9
$PSTYLEMODE
290
     1
  9
$FINGERPRINTGUID
  2
{FDEAD576-A652-11D2-9A35-0060089B3A3F}
  9
$VERSIONGUID
  2
{2976C235-1DF1-418C-BCEC-D1889A4734A5}
  9
$EXTNAMES
290
     1
  9
$PSVPSCALE
 40
0.0
  9
$OLESTARTUP
290
     0
  9
$SORTENTS
280
   127
  9
$INDEXCTL
280
     0
  9
$HIDETEXT
280
     1
  9
$XCLIPFRAME
290
     0
  9
$HALOGAP
280
     0
  9
$OBSCOLOR
 70
   257
  9
$OBSLTYPE
280
     0
  9
$INTERSECTIONDISPLAY
280
     0
  9
$INTERSECTIONCOLOR
 70
   257
  9
$DIMASSOC
280
     2
  9
$PROJECTNAME
  1

  0
ENDSEC
  0
SECTION
  2
CLASSES
  0
CLASS
  1
ACDBDICTIONARYWDFLT
  2
AcDbDictionaryWithDefault
  3
ObjectDBX Classes
 90
        0
 91
        1
280
     0
281
     0
  0
CLASS
  1
DICTIONARYVAR
  2
AcDbDictionaryVar
  3
ObjectDBX Classes
 90
        0
 91
        2
280
     0
281
     0
  0
CLASS
  1
DIMASSOC
  2
AcDbDimAssoc
  3
"AcDbDimAssoc|Product Desc:     AcDim ARX App For Dimension|Company:          Autodesk, Inc.|WEB Address:      www.autodesk.com"
 90
        0
 91
        1
280
     0
281
     0
  0
ENDSEC
  0
SECTION
  2
TABLES
  0
TABLE
  2
VPORT
  5
8
330
0
100
AcDbSymbolTable
 70
     2
  0
VPORT
  5
1D6
330
8
100
AcDbSymbolTableRecord
100
AcDbViewportTableRecord
  2
*Active
 70
     0
 10
0.0
 20
0.0
 11
1.0
 21
1.0
 12
11.27394631771317
 22
16.39899885415031
 13
0.0
 23
0.0
 14
0.5
 24
0.5
 15
0.5
 25
0.5
 16
0.0
 26
0.0
 36
1.0
 17
0.0
 27
0.0
 37
0.0
 40
13.32658713410371
 41
1.977142857142857
 42
50.0
 43
0.0
 44
0.0
 50
0.0
 51
0.0
 71
     0
 72
  1000
 73
     1
 74
     3
 75
     0
 76
     0
 77
     0
 78
     0
281
     0
 65
     1
110
0.0
120
0.0
130
0.0
111
1.0
121
0.0
131
0.0
112
0.0
122
1.0
132
0.0
 79
     0
146
0.0
  0
ENDTAB
  0
TABLE
  2
LTYPE
  5
5
330
0
100
AcDbSymbolTable
 70
     1
  0
LTYPE
  5
14
330
5
100
AcDbSymbolTableRecord
100
AcDbLinetypeTableRecord
  2
ByBlock
 70
     0
  3

 72
    65
 73
     0
 40
0.0
  0
LTYPE
  5
15
330
5
100
AcDbSymbolTableRecord
100
AcDbLinetypeTableRecord
  2
ByLayer
 70
     0
  3

 72
    65
 73
     0
 40
0.0
  0
LTYPE
  5
16
330
5
100
AcDbSymbolTableRecord
100
AcDbLinetypeTableRecord
  2
Continuous
 70
     0
  3
Solid line
 72
    65
 73
     0
 40
0.0
  0
ENDTAB
  0
TABLE
  2
LAYER
  5
2
330
0
100
AcDbSymbolTable
 70
     3
  0
LAYER
  5
10
330
2
100
AcDbSymbolTableRecord
100
AcDbLayerTableRecord
  2
0
 70
     0
 62
     7
  6
Continuous
370
    -3
390
F
  0
LAYER
  5
98
330
2
100
AcDbSymbolTableRecord
100
AcDbLayerTableRecord
  2
Defpoints
 70
     0
 62
     7
  6
Continuous
290
     0
370
    -3
390
F
  0
LAYER
  5
16C
330
2
100
AcDbSymbolTableRecord
100
AcDbLayerTableRecord
  2
DIM
 70
     0
 62
    -3
  6
Continuous
370
    -3
390
F
  0
ENDTAB
  0
TABLE
  2
STYLE
  5
3
330
0
100
AcDbSymbolTable
 70
     1
  0
STYLE
  5
11
330
3
100
AcDbSymbolTableRecord
100
AcDbTextStyleTableRecord
  2
Standard
 70
     0
 40
0.0
 41
1.0
 50
0.0
 71
     0
 42
0.2
  3
txt
  4

  0
ENDTAB
  0
TABLE
  2
VIEW
  5
6
330
0
100
AcDbSymbolTable
 70
     0
  0
ENDTAB
  0
TABLE
  2
UCS
  5
7
330
0
100
AcDbSymbolTable
 70
     0
  0
ENDTAB
  0
TABLE
  2
APPID
  5
9
330
0
100
AcDbSymbolTable
 70
     1
  0
APPID
  5
12
330
9
100
AcDbSymbolTableRecord
100
AcDbRegAppTableRecord
  2
ACAD
 70
     0
  0
ENDTAB
  0
TABLE
  2
DIMSTYLE
  5
A
330
0
100
AcDbSymbolTable
 70
     1
100
AcDbDimStyleTable
 71
     1
340
27
  0
DIMSTYLE
105
27
102
{ACAD_REACTORS
330
104
102
}
330
A
100
AcDbSymbolTableRecord
100
AcDbDimStyleTableRecord
  2
Standard
 70
     0
277
     5
340
11
  0
ENDTAB
  0
TABLE
  2
BLOCK_RECORD
  5
1
330
0
100
AcDbSymbolTable
 70
     4
  0
BLOCK_RECORD
  5
1F
330
1
100
AcDbSymbolTableRecord
100
AcDbBlockTableRecord
  2
*Model_Space
340
22
  0
BLOCK_RECORD
  5
58
330
1
100
AcDbSymbolTableRecord
100
AcDbBlockTableRecord
  2
*Paper_Space
340
59
  0
BLOCK_RECORD
  5
5D
330
1
100
AcDbSymbolTableRecord
100
AcDbBlockTableRecord
  2
*Paper_Space0
340
5E
  0
BLOCK_RECORD
  5
105
330
1
100
AcDbSymbolTableRecord
100
AcDbBlockTableRecord
  2
*D1
340
0
  0
ENDTAB
  0
ENDSEC
  0
SECTION
  2
BLOCKS
  0
BLOCK
  5
20
330
1F
100
AcDbEntity
  8
0
100
AcDbBlockBegin
  2
*Model_Space
 70
     0
 10
0.0
 20
0.0
 30
0.0
  3
*Model_Space
  1

  0
ENDBLK
  5
21
330
1F
100
AcDbEntity
  8
0
100
AcDbBlockEnd
  0
BLOCK
  5
5A
330
58
100
AcDbEntity
 67
     1
  8
0
100
AcDbBlockBegin
  2
*Paper_Space
 70
     0
 10
0.0
 20
0.0
 30
0.0
  3
*Paper_Space
  1

  0
ENDBLK
  5
5B
330
58
100
AcDbEntity
 67
     1
  8
0
100
AcDbBlockEnd
  0
BLOCK
  5
5F
330
5D
100
AcDbEntity
  8
0
100
AcDbBlockBegin
  2
*Paper_Space0
 70
     0
 10
0.0
 20
0.0
 30
0.0
  3
*Paper_Space0
  1

  0
ENDBLK
  5
60
330
5D
100
AcDbEntity
  8
0
100
AcDbBlockEnd
  0
BLOCK
  5
110
330
105
100
AcDbEntity
  8
0
100
AcDbBlockBegin
  2
*D1
 70
     1
 10
0.0
 20
0.0
 30
0.0
  3
*D1
  1

  0
LINE
  5
1A9
330
105
100
AcDbEntity
  8
DIM
 62
     0
370
    -2
100
AcDbLine
 10
17.76939461540459
 20
18.20718942626566
 30
0.0
 11
19.94718698791917
 21
18.20718942626566
 31
0.0
  0
LINE
  5
1AA
330
105
100
AcDbEntity
  8
DIM
 62
     0
370
    -2
100
AcDbLine
 10
17.76939461540459
 20
15.01968942626566
 30
0.0
 11
19.94718698791917
 21
15.01968942626566
 31
0.0
  0
LINE
  5
1AB
330
105
100
AcDbEntity
  8
DIM
 62
     0
370
    -2
100
AcDbLine
 10
19.76718698791917
 20
18.02718942626566
 30
0.0
 11
19.76718698791917
 21
16.91343942626566
 31
0.0
  0
LINE
  5
1AC
330
105
100
AcDbEntity
  8
DIM
 62
     0
370
    -2
100
AcDbLine
 10
19.76718698791917
 20
15.19968942626566
 30
0.0
 11
19.76718698791917
 21
16.31343942626566
 31
0.0
  0
SOLID
  5
1AD
330
105
100
AcDbEntity
  8
DIM
 62
     0
100
AcDbTrace
 10
19.73718698791917
 20
18.02718942626566
 30
0.0
 11
19.79718698791917
 21
18.02718942626566
 31
0.0
 12
19.76718698791917
 22
18.20718942626566
 32
0.0
 13
19.76718698791917
 23
18.20718942626566
 33
0.0
  0
SOLID
  5
1AE
330
105
100
AcDbEntity
  8
DIM
 62
     0
100
AcDbTrace
 10
19.73718698791917
 20
15.19968942626566
 30
0.0
 11
19.79718698791917
 21
15.19968942626566
 31
0.0
 12
19.76718698791917
 22
15.01968942626566
 32
0.0
 13
19.76718698791917
 23
15.01968942626566
 33
0.0
  0
MTEXT
  5
1AF
330
105
100
AcDbEntity
  8
DIM
 62
     0
100
AcDbMText
 10
19.76718698791917
 20
16.61343942626567
 30
0.0
 40
0.18
 41
0.0
 71
     5
 72
     1
  1
\A1;3{\H1.000000x;\S3/16;}
 73
     1
 44
1.0
  0
POINT
  5
1B0
330
105
100
AcDbEntity
  8
Defpoints
 62
     0
100
AcDbPoint
 10
17.70689461540459
 20
18.20718942626566
 30
0.0
  0
POINT
  5
1B1
330
105
100
AcDbEntity
  8
Defpoints
 62
     0
100
AcDbPoint
 10
17.70689461540459
 20
15.01968942626566
 30
0.0
  0
POINT
  5
1B2
330
105
100
AcDbEntity
  8
Defpoints
 62
     0
100
AcDbPoint
 10
19.76718698791917
 20
15.01968942626566
 30
0.0
  0
ENDBLK
  5
111
330
105
100
AcDbEntity
  8
0
100
AcDbBlockEnd
  0
ENDSEC
  0
SECTION
  2
ENTITIES
  0
LINE
  5
89
330
1F
100
AcDbEntity
  8
0
100
AcDbLine
 10
17.70689461540459
 20
15.01968942626566
 30
0.0
 11
17.70689461540459
 21
18.20718942626566
 31
0.0
  0
LINE
  5
8A
102
{ACAD_REACTORS
330
11D
102
}
330
1F
100
AcDbEntity
  8
0
100
AcDbLine
 10
17.70689461540459
 20
15.01968942626566
 30
0.0
 11
17.58534333403487
 21
15.01968942626566
 31
0.0
  0
ARC
  5
8D
330
1F
100
AcDbEntity
  8
0
100
AcDbCircle
 10
17.3484375778785
 20
15.0577377220158
 30
0.0
 40
0.2058047182119993
100
AcDbArc
 50
358.3441972448064
 51
72.56702017200872
  0
LINE
  5
8E
330
1F
100
AcDbEntity
  8
0
100
AcDbLine
 10
17.41009461540459
 20
15.25408942626567
 30
0.0
 11
17.41009461540459
 21
15.30098942626567
 31
0.0
  0
LINE
  5
8F
330
1F
100
AcDbEntity
  8
0
100
AcDbLine
 10
17.39449461540459
 20
15.31658942626567
 30
0.0
 11
17.36319461540459
 21
15.31658942626567
 31
0.0
  0
LINE
  5
95
330
1F
100
AcDbEntity
  8
0
100
AcDbLine
 10
17.34759461540459
 20
15.33218942626567
 30
0.0
 11
17.34759461540459
 21
15.44158942626567
 31
0.0
  0
ARC
  5
96
330
1F
100
AcDbEntity
  8
0
100
AcDbCircle
 10
17.20445477612961
 20
15.42281564310765
 30
0.0
 40
0.1443657456661096
100
AcDbArc
 50
7.472088533743646
 51
89.0902540707332
  0
LINE
  5
B4
330
1F
100
AcDbEntity
  8
0
100
AcDbLine
 10
17.1913946154046
 20
15.58276122448755
 30
0.0
 11
17.1913946154046
 21
15.62908942626567
 31
0.0
  0
ARC
  5
B9
330
1F
100
AcDbEntity
  8
0
100
AcDbCircle
 10
17.22144213395611
 20
15.83093694481719
 30
0.0
 40
0.2040717376721038
100
AcDbArc
 50
188.4670130621392
 51
261.5329869378615
  0
LINE
  5
BA
330
1F
100
AcDbEntity
  8
0
100
AcDbLine
 10
17.01959461540459
 20
15.80088942626567
 30
0.0
 11
17.01959461540459
 21
16.11338942626567
 31
0.0
  0
ARC
  5
BD
330
1F
100
AcDbEntity
  8
0
100
AcDbCircle
 10
17.58534333403487
 20
15.05088942626566
 30
0.0
 40
0.0312
100
AcDbArc
 50
178.344197244804
 51
269.9999999999968
  0
ARC
  5
BE
330
1F
100
AcDbEntity
  8
0
100
AcDbCircle
 10
17.39449461540459
 20
15.30098942626567
 30
0.0
 40
0.0156
100
AcDbArc
 50
0.0
 51
90.0
  0
ARC
  5
BF
330
1F
100
AcDbEntity
  8
0
100
AcDbCircle
 10
17.36319461540459
 20
15.33218942626567
 30
0.0
 40
0.0156
100
AcDbArc
 50
180.0
 51
270.0
  0
ARC
  5
C0
330
1F
100
AcDbEntity
  8
0
100
AcDbCircle
 10
17.20699461540459
 20
15.58276122448755
 30
0.0
 40
0.0156
100
AcDbArc
 50
180.0
 51
269.0902540707363
  0
LINE
  5
C3
330
1F
100
AcDbEntity
  8
0
100
AcDbLine
 10
17.08209461540459
 20
16.17588942626567
 30
0.0
 11
17.08209461540459
 21
16.17588942626567
 31
0.0
  0
ARC
  5
CC
330
1F
100
AcDbEntity
  8
0
100
AcDbCircle
 10
17.08209461540459
 20
16.11338942626567
 30
0.0
 40
0.0625
100
AcDbArc
 50
90.0
 51
180.0
  0
ARC
  5
D1
330
1F
100
AcDbEntity
  8
0
100
AcDbCircle
 10
16.37896961540459
 20
16.61338942626567
 30
0.0
 40
0.8281249999999985
100
AcDbArc
 50
328.1092081981542
 51
31.89079180184549
  0
ARC
  5
D6
330
1F
100
AcDbEntity
  8
0
100
AcDbCircle
 10
17.05817253371433
 20
17.12066734457541
 30
0.0
 40
0.0737646519413975
100
AcDbArc
 50
161.07666051485
 51
288.9233394851542
  0
ARC
  5
DB
330
1F
100
AcDbEntity
  8
0
100
AcDbCircle
 10
17.09972274040459
 20
17.48833942626567
 30
0.0
 40
0.361328125
100
AcDbArc
 50
107.9452532297933
 51
252.0547467702072
  0
ARC
  5
E2
330
1F
100
AcDbEntity
  8
0
100
AcDbCircle
 10
17.09972274040459
 20
17.48833942626567
 30
0.0
 40
0.361328125
100
AcDbArc
 50
107.9452532297928
 51
252.0547467702066
  0
ARC
  5
E3
330
1F
100
AcDbEntity
  8
0
100
AcDbCircle
 10
17.05817253371433
 20
17.85601150795592
 30
0.0
 40
0.0737646519413975
100
AcDbArc
 50
71.07666051484578
 51
198.9233394851499
  0
LINE
  5
E4
330
1F
100
AcDbEntity
  8
0
100
AcDbLine
 10
17.08209461540459
 20
17.92578942626565
 30
0.0
 11
17.33209461540459
 21
17.92578942626565
 31
0.0
  0
LINE
  5
E5
330
1F
100
AcDbEntity
  8
0
100
AcDbLine
 10
17.39459461540459
 20
17.98828942626565
 30
0.0
 11
17.39459461540459
 21
18.02976931177055
 31
0.0
  0
ARC
  5
E6
330
1F
100
AcDbEntity
  8
0
100
AcDbCircle
 10
17.33209461540459
 20
17.98828942626565
 30
0.0
 40
0.0625
100
AcDbArc
 50
270.0
 51
0.0
  0
LINE
  5
E7
102
{ACAD_REACTORS
330
11D
102
}
330
1F
100
AcDbEntity
  8
0
100
AcDbLine
 10
17.70689461540459
 20
18.20718942626566
 30
0.0
 11
17.59917112655045
 21
18.20718942626566
 31
0.0
  0
ARC
  5
E8
330
1F
100
AcDbEntity
  8
0
100
AcDbCircle
 10
17.26627653110301
 20
18.39481181878282
 30
0.0
 40
0.3671742601436825
100
AcDbArc
 50
293.6046041831482
 51
326.6817864722195
  0
ARC
  5
EC
330
1F
100
AcDbEntity
  8
0
100
AcDbCircle
 10
17.59917112655045
 20
18.17598942626567
 30
0.0
 40
0.0312
100
AcDbArc
 50
90.0
 51
146.6817864722172
  0
ARC
  5
ED
330
1F
100
AcDbEntity
  8
0
100
AcDbCircle
 10
17.42579461540459
 20
18.02976931177056
 30
0.0
 40
0.0312
100
AcDbArc
 50
113.6046041831488
 51
180.0
  0
LINE
  5
EE
330
1F
100
AcDbEntity
  8
0
100
AcDbLine
 10
15.88591229149055
 20
18.20718942626567
 30
0.0
 11
3.359695376885142
 21
18.20718942626567
 31
0.0
  0
LINE
  5
EF
330
1F
100
AcDbEntity
  8
0
100
AcDbLine
 10
3.359695376885142
 20
18.20718942626567
 30
0.0
 11
3.359695376885142
 21
15.01968942626584
 31
0.0
  0
LINE
  5
F0
330
1F
100
AcDbEntity
  8
0
100
AcDbLine
 10
3.359695376885142
 20
15.01968942626584
 30
0.0
 11
15.88591229149055
 21
15.01968942626572
 31
0.0
  0
LINE
  5
F1
330
1F
100
AcDbEntity
  8
0
100
AcDbLine
 10
15.88591229149056
 20
18.02976931177056
 30
0.0
 11
3.359695376885142
 21
18.02976931177056
 31
0.0
  0
LINE
  5
F2
330
1F
100
AcDbEntity
  8
0
100
AcDbLine
 10
15.88591229149055
 20
17.92578942626565
 30
0.0
 11
3.359695376885142
 21
17.92578942626565
 31
0.0
  0
LINE
  5
F3
330
1F
100
AcDbEntity
  8
0
100
AcDbLine
 10
15.88591229149056
 20
17.83208942626567
 30
0.0
 11
3.359695376885142
 21
17.83208942626567
 31
0.0
  0
LINE
  5
F4
330
1F
100
AcDbEntity
  8
0
100
AcDbLine
 10
15.88591229149055
 20
17.14458942626567
 30
0.0
 11
3.359695376885142
 21
17.14458942626567
 31
0.0
  0
LINE
  5
F5
330
1F
100
AcDbEntity
  8
0
100
AcDbLine
 10
15.88591229149056
 20
17.05088942626567
 30
0.0
 11
3.359695376885142
 21
17.05088942626567
 31
0.0
  0
LINE
  5
F6
330
1F
100
AcDbEntity
  8
0
100
AcDbLine
 10
15.88591229149055
 20
16.17588942626567
 30
0.0
 11
3.359695376885142
 21
16.17588942626567
 31
0.0
  0
LINE
  5
F7
330
1F
100
AcDbEntity
  8
0
100
AcDbLine
 10
15.88591229149055
 20
15.80088942626567
 30
0.0
 11
3.359695376885142
 21
15.80088942626567
 31
0.0
  0
LINE
  5
F8
330
1F
100
AcDbEntity
  8
0
100
AcDbLine
 10
15.88591229149055
 20
15.62908942626567
 30
0.0
 11
3.359695376885142
 21
15.62908942626567
 31
0.0
  0
LINE
  5
F9
330
1F
100
AcDbEntity
  8
0
100
AcDbLine
 10
15.88591229149055
 20
15.58276122448755
 30
0.0
 11
3.359695376885142
 21
15.58276122448755
 31
0.0
  0
LINE
  5
FA
330
1F
100
AcDbEntity
  8
0
100
AcDbLine
 10
15.88591229149056
 20
15.33218942626567
 30
0.0
 11
3.359695376885142
 21
15.33218942626567
 31
0.0
  0
LINE
  5
FB
330
1F
100
AcDbEntity
  8
0
100
AcDbLine
 10
15.88591229149055
 20
15.25408942626567
 30
0.0
 11
3.359695376885142
 21
15.25408942626567
 31
0.0
  0
LINE
  5
FC
330
1F
100
AcDbEntity
  8
0
100
AcDbLine
 10
3.359695376885142
 20
18.20718942626567
 30
0.0
 11
15.88591229149055
 21
18.20718942626567
 31
0.0
  0
LINE
  5
FD
330
1F
100
AcDbEntity
  8
0
100
AcDbLine
 10
15.88591229149055
 20
18.20718942626567
 30
0.0
 11
15.88591229149055
 21
15.01968942626572
 31
0.0
  0
DIMENSION
  5
104
102
{ACAD_XDICTIONARY
360
112
102
}
102
{ACAD_REACTORS
330
11D
102
}
330
1F
100
AcDbEntity
  8
DIM
100
AcDbDimension
  2
*D1
 10
19.76718698791917
 20
15.01968942626566
 30
0.0
 11
19.76718698791917
 21
16.61343942626567
 31
0.0
 70
    32
 71
     5
 42
3.1875
  3
Standard
100
AcDbAlignedDimension
 13
17.70689461540459
 23
18.20718942626566
 33
0.0
 14
17.70689461540459
 24
15.01968942626566
 34
0.0
 50
90.0
100
AcDbRotatedDimension
  0
LINE
  5
1C7
330
1F
100
AcDbEntity
  8
DIM
100
AcDbLine
 10
16.73839461540459
 20
17.55083942626567
 30
0.0
 11
16.73839461540459
 21
19.94439739275454
 31
0.0
  0
LINE
  5
1C8
330
1F
100
AcDbEntity
  8
DIM
100
AcDbLine
 10
17.70689461540459
 20
17.55083942626567
 30
0.0
 11
17.70689461540459
 21
19.94439739275454
 31
0.0
  0
LINE
  5
1C9
330
1F
100
AcDbEntity
  8
DIM
100
AcDbLine
 10
16.91839461540459
 20
19.76439739275454
 30
0.0
 11
17.01264461540459
 21
19.76439739275454
 31
0.0
  0
LINE
  5
1CA
330
1F
100
AcDbEntity
  8
DIM
100
AcDbLine
 10
17.52689461540459
 20
19.76439739275454
 30
0.0
 11
17.43264461540459
 21
19.76439739275454
 31
0.0
  0
SOLID
  5
1CB
330
1F
100
AcDbEntity
  8
DIM
100
AcDbTrace
 10
16.91839461540459
 20
19.79439739275454
 30
0.0
 11
16.91839461540459
 21
19.73439739275454
 31
0.0
 12
16.73839461540459
 22
19.76439739275454
 32
0.0
 13
16.73839461540459
 23
19.76439739275454
 33
0.0
  0
SOLID
  5
1CC
330
1F
100
AcDbEntity
  8
DIM
100
AcDbTrace
 10
17.52689461540459
 20
19.79439739275454
 30
0.0
 11
17.52689461540459
 21
19.73439739275454
 31
0.0
 12
17.70689461540459
 22
19.76439739275454
 32
0.0
 13
17.70689461540459
 23
19.76439739275454
 33
0.0
  0
MTEXT
  5
1CD
330
1F
100
AcDbEntity
  8
DIM
100
AcDbMText
 10
17.22264461540459
 20
19.76439739275454
 30
0.0
 40
0.18
 41
0.0
 71
     5
 72
     1
  1
1
 73
     1
 44
1.0
  0
VIEWPORT
  5
155
330
58
100
AcDbEntity
 67
     1
  8
0
100
AcDbViewport
 10
5.249999639556163
 20
3.999999883606677
 30
0.0
 40
17.58407771518677
 41
8.992999745766947
 68
     1
 69
     1
 12
5.249999639556163
 22
3.999999883606677
 13
0.0
 23
0.0
 14
10.0
 24
10.0
 15
10.0
 25
10.0
 16
0.0
 26
0.0
 36
1.0
 17
0.0
 27
0.0
 37
0.0
 42
50.0
 43
0.0
 44
0.0
 45
8.992999745766947
 50
0.0
 51
0.0
 72
  1000
 90
    32800
  1

281
     0
 71
     1
 74
     0
110
0.0
120
0.0
130
0.0
111
1.0
121
0.0
131
0.0
112
0.0
122
1.0
132
0.0
 79
     0
146
0.0
170
     0
  0
VIEWPORT
  5
157
330
58
100
AcDbEntity
 67
     1
  8
0
100
AcDbViewport
 10
5.24999976158142
 20
3.99999976158142
 30
0.0
 40
8.399999618530271
 41
6.399999618530272
 68
     2
 69
     2
 12
11.77344118240215
 22
15.73493547048128
 13
0.0
 23
0.0
 14
0.5
 24
0.5
 15
0.5
 25
0.5
 16
0.0
 26
0.0
 36
1.0
 17
0.0
 27
0.0
 37
0.0
 42
50.0
 43
0.0
 44
0.0
 45
13.05195383997568
 50
0.0
 51
0.0
 72
  1000
 90
    32864
  1

281
     0
 71
     1
 74
     0
110
0.0
120
0.0
130
0.0
111
1.0
121
0.0
131
0.0
112
0.0
122
1.0
132
0.0
 79
     0
146
0.0
170
     0
  0
ENDSEC
  0
SECTION
  2
OBJECTS
  0
DICTIONARY
  5
C
330
0
100
AcDbDictionary
281
     1
  3
ACAD_COLOR
350
73
  3
ACAD_GROUP
350
D
  3
ACAD_LAYOUT
350
1A
  3
ACAD_MATERIAL
350
72
  3
ACAD_MLINESTYLE
350
17
  3
ACAD_PLOTSETTINGS
350
19
  3
ACAD_PLOTSTYLENAME
350
E
  3
AcDbVariableDictionary
350
66
  0
DICTIONARY
  5
112
330
104
100
AcDbDictionary
280
     1
281
     1
  3
ACAD_DIMASSOC
360
11D
  0
DICTIONARY
  5
73
102
{ACAD_REACTORS
330
C
102
}
330
C
100
AcDbDictionary
281
     1
  0
DICTIONARY
  5
D
102
{ACAD_REACTORS
330
C
102
}
330
C
100
AcDbDictionary
281
     1
  0
DICTIONARY
  5
1A
102
{ACAD_REACTORS
330
C
102
}
330
C
100
AcDbDictionary
281
     1
  3
Layout1
350
59
  3
Layout2
350
5E
  3
Model
350
22
  0
DICTIONARY
  5
72
102
{ACAD_REACTORS
330
C
102
}
330
C
100
AcDbDictionary
281
     1
  0
DICTIONARY
  5
17
102
{ACAD_REACTORS
330
C
102
}
330
C
100
AcDbDictionary
281
     1
  3
Standard
350
18
  0
DICTIONARY
  5
19
102
{ACAD_REACTORS
330
C
102
}
330
C
100
AcDbDictionary
281
     1
  0
ACDBDICTIONARYWDFLT
  5
E
102
{ACAD_REACTORS
330
C
102
}
330
C
100
AcDbDictionary
281
     1
  3
Normal
350
F
100
AcDbDictionaryWithDefault
340
F
  0
DICTIONARY
  5
66
102
{ACAD_REACTORS
330
C
102
}
330
C
100
AcDbDictionary
281
     1
  3
DIMASSOC
350
67
  3
HIDETEXT
350
6B
  0
DIMASSOC
  5
11D
102
{ACAD_REACTORS
330
112
102
}
330
112
100
AcDbDimAssoc
330
104
 90
        3
 70
     0
 71
     0
  1
AcDbOsnapPointRef
 72
    13
331
E7
 73
     2
 91
        0
 40
0.0
 10
0.0
 20
0.0
 30
2.000000000000000E+50
 75
     0
  1
AcDbOsnapPointRef
 72
    13
331
8A
 73
     2
 91
        0
 40
0.0
 10
0.0
 20
0.0
 30
2.000000000000000E+50
 75
     0
  0
LAYOUT
  5
59
102
{ACAD_REACTORS
330
1A
102
}
330
1A
100
AcDbPlotSettings
  1

  2
none_device
  4
Letter_(8.50_x_11.00_Inches)
  6

 40
6.349999904632568
 41
6.349999904632568
 42
6.350006103515625
 43
6.350006103515625
 44
215.8999938964844
 45
279.3999938964844
 46
0.0
 47
0.0
 48
0.0
 49
0.0
140
0.0
141
0.0
142
1.0
143
1.0
 70
   688
 72
     0
 73
     1
 74
     5
  7

 75
    16
147
1.0
 76
     1
 77
     2
 78
   300
148
0.0
149
0.0
100
AcDbLayout
  1
Layout1
 70
     1
 71
     1
 10
-0.2500002402958907
 20
-0.2499999962453767
 11
10.74999951940821
 21
8.249999763458731
 12
0.0
 22
0.0
 32
0.0
 14
1.049636599258096
 24
0.7996597240971113
 34
-0.0000000349181948
 15
9.450362731076971
 25
7.200340082697458
 35
0.0000000814935746
146
0.0
 13
0.0
 23
0.0
 33
0.0
 16
1.0
 26
0.0
 36
0.0
 17
0.0
 27
1.0
 37
0.0
 76
     0
330
58
331
155
  0
LAYOUT
  5
5E
102
{ACAD_REACTORS
330
1A
102
}
330
1A
100
AcDbPlotSettings
  1

  2
None
  4

  6

 40
0.0
 41
0.0
 42
0.0
 43
0.0
 44
0.0
 45
0.0
 46
0.0
 47
0.0
 48
0.0
 49
0.0
140
0.0
141
0.0
142
1.0
143
1.0
 70
   688
 72
     0
 73
     0
 74
     5
  7

 75
    16
147
1.0
 76
     0
 77
     2
 78
   300
148
0.0
149
0.0
100
AcDbLayout
  1
Layout2
 70
     1
 71
     2
 10
0.0
 20
0.0
 11
12.0
 21
9.0
 12
0.0
 22
0.0
 32
0.0
 14
0.0
 24
0.0
 34
0.0
 15
0.0
 25
0.0
 35
0.0
146
0.0
 13
0.0
 23
0.0
 33
0.0
 16
1.0
 26
0.0
 36
0.0
 17
0.0
 27
1.0
 37
0.0
 76
     0
330
5D
  0
LAYOUT
  5
22
102
{ACAD_REACTORS
330
1A
102
}
330
1A
100
AcDbPlotSettings
  1

  2
none_device
  4
ANSI_A_(8.50_x_11.00_Inches)
  6

 40
6.349999904632568
 41
19.04999923706055
 42
6.350006103515625
 43
19.04998779296875
 44
215.8999938964844
 45
279.3999938964844
 46
0.0
 47
0.0
 48
0.0
 49
0.0
140
0.0
141
0.0
142
1.0
143
2.584895464708373
 70
 11952
 72
     0
 73
     1
 74
     0
  7

 75
     0
147
0.3868628397755418
 76
     0
 77
     2
 78
   300
148
0.0
149
0.0
100
AcDbLayout
  1
Model
 70
     1
 71
     0
 10
0.0
 20
0.0
 11
12.0
 21
9.0
 12
0.0
 22
0.0
 32
0.0
 14
0.0
 24
0.0
 34
0.0
 15
0.0
 25
0.0
 35
0.0
146
0.0
 13
0.0
 23
0.0
 33
0.0
 16
1.0
 26
0.0
 36
0.0
 17
0.0
 27
1.0
 37
0.0
 76
     0
330
1F
  0
MLINESTYLE
  5
18
102
{ACAD_REACTORS
330
17
102
}
330
17
100
AcDbMlineStyle
  2
STANDARD
 70
     0
  3

 62
   256
 51
90.0
 52
90.0
 71
     2
 49
0.5
 62
   256
  6
BYLAYER
 49
-0.5
 62
   256
  6
BYLAYER
  0
ACDBPLACEHOLDER
  5
F
102
{ACAD_REACTORS
330
E
102
}
330
E
  0
DICTIONARYVAR
  5
67
102
{ACAD_REACTORS
330
66
102
}
330
66
100
DictionaryVariables
280
     0
  1
2
  0
DICTIONARYVAR
  5
6B
102
{ACAD_REACTORS
330
66
102
}
330
66
100
DictionaryVariables
280
     0
  1
1
  0
ENDSEC
  0
EOF
